osu file format v14

[General]
AudioFilename: audio.mp3
AudioLeadIn: 0
PreviewTime: 80712
Countdown: 0
SampleSet: Normal
StackLeniency: 0.7
Mode: 3
LetterboxInBreaks: 0
SpecialStyle: 0
WidescreenStoryboard: 0

[Editor]
DistanceSpacing: 0.8
BeatDivisor: 4
GridSize: 32
TimelineZoom: 1.9

[Metadata]
Title:XROSS THE XOUL
TitleUnicode:XROSS THE XOUL
Artist:BlackY vs. Yooh
ArtistUnicode:BlackY vs. Yooh
Creator:Fresh Chicken
Version:ADVANCED
Source:SOUND VOLTEX III GRAVITY WARS
Tags:XROSS INFECTION SDVX Rasis Voltenizer Maxima SOUND VOLTEX II -infinite infection- 制作決定記念オリジナル曲コンテスト Production confirmation commemorative original song contest SOUND VOLTEX ULTIMATE TRACKS -FLOOR ANTHEM- EP.01_DISC 2
BeatmapID:951076
BeatmapSetID:442244

[Difficulty]
HPDrainRate:7.5
CircleSize:4
OverallDifficulty:7.5
ApproachRate:5
SliderMultiplier:1.4
SliderTickRate:1

[Events]
//Background and Video events
0,0,"333.png",0,0
//Break Periods
//Storyboard Layer 0 (Background)
//Storyboard Layer 1 (Fail)
//Storyboard Layer 2 (Pass)
//Storyboard Layer 3 (Foreground)
//Storyboard Sound Samples
Sample,26820,0,"Snare.wav",35
Sample,36215,0,"BaSS.wav",35
Sample,36292,0,"BaSS.wav",35
Sample,41473,0,"BaSS.wav",35
Sample,41550,0,"BaSS.wav",35
Sample,43599,0,"Crash.wav",35
Sample,98650,0,"BaSS.wav",35
Sample,99269,0,"Crash.wav",35
Sample,116588,0,"Crash.wav",35
Sample,117207,0,"BaSS.wav",35
Sample,117826,0,"BaSS.wav",35
Sample,118058,0,"Crash.wav",35
Sample,118290,0,"Crash.wav",35
Sample,119063,0,"BaSS.wav",35
Sample,119372,0,"BaSS.wav",35

[TimingPoints]
2156,309.278350515464,4,1,0,10,1,0
81331,-100,4,1,0,10,0,1
90609,-100,4,1,0,10,0,0
91228,-100,4,1,0,10,0,1
101125,-100,4,1,0,10,0,0

[HitObjects]
64,192,1846,5,0,0:0:0:0:
192,192,1924,1,0,0:0:0:0:
320,192,2001,1,0,0:0:0:0:
448,192,2078,1,0,0:0:0:0:
64,192,2156,128,0,2774:0:0:0:35:BaSS.wav
192,192,2156,128,0,2774:0:0:0:0:
320,192,2774,1,0,0:0:0:35:Snare.wav
448,192,2774,1,0,0:0:0:0:
192,192,2929,1,0,0:0:0:0:
320,192,3006,1,0,0:0:0:0:
448,192,3083,1,0,0:0:0:35:BaSS.wav
64,192,3083,1,0,0:0:0:0:
192,192,3161,1,0,0:0:0:0:
320,192,3238,1,0,0:0:0:0:
448,192,3315,1,0,0:0:0:0:
64,192,3393,1,0,0:0:0:0:
192,192,3470,1,0,0:0:0:0:
320,192,3547,1,0,0:0:0:0:
64,192,3625,1,0,0:0:0:0:
192,192,3702,1,0,0:0:0:35:BaSS.wav
320,192,3779,1,0,0:0:0:0:
64,192,3857,1,0,0:0:0:0:
192,192,3934,1,0,0:0:0:0:
320,192,4011,1,0,0:0:0:35:Snare.wav
64,192,4088,1,0,0:0:0:0:
192,192,4166,1,0,0:0:0:0:
320,192,4243,1,0,0:0:0:0:
64,192,4320,1,0,0:0:0:0:
192,192,4398,1,0,0:0:0:0:
448,192,4475,1,0,0:0:0:0:
320,192,4552,1,0,0:0:0:0:
192,192,4630,128,0,5094:0:0:0:35:BaSS.wav
64,192,4630,128,0,5094:0:0:0:0:
448,192,5094,1,0,0:0:0:0:
192,192,5171,1,0,0:0:0:0:
448,192,5248,1,0,0:0:0:35:Snare.wav
64,192,5248,1,0,0:0:0:0:
320,192,5326,1,0,0:0:0:0:
192,192,5403,1,0,0:0:0:0:
448,192,5480,1,0,0:0:0:0:
320,192,5558,1,0,0:0:0:35:BaSS.wav
192,192,5635,1,0,0:0:0:0:
64,192,5712,1,0,0:0:0:0:
192,192,5790,1,0,0:0:0:0:
448,192,5867,1,0,0:0:0:0:
320,192,5944,1,0,0:0:0:0:
192,192,6021,1,0,0:0:0:0:
64,192,6099,1,0,0:0:0:0:
320,192,6176,1,0,0:0:0:35:BaSS.wav
448,192,6253,1,0,0:0:0:0:
192,192,6331,1,0,0:0:0:0:
320,192,6408,1,0,0:0:0:0:
64,192,6485,1,0,0:0:0:35:Snare.wav
192,192,6563,1,0,0:0:0:0:
320,192,6640,1,0,0:0:0:0:
448,192,6717,1,0,0:0:0:0:
192,192,6795,1,0,0:0:0:35:BaSS.wav
64,192,6872,1,0,0:0:0:0:
320,192,6949,1,0,0:0:0:0:
192,192,7027,1,0,0:0:0:0:
320,192,7104,1,0,0:0:0:35:Snare.wav
448,192,7104,1,0,0:0:0:35:BaSS.wav
192,192,7181,1,0,0:0:0:0:
64,192,7259,1,0,0:0:0:0:
320,192,7413,1,0,0:0:0:35:Snare.wav
448,192,7413,1,0,0:0:0:35:BaSS.wav
64,192,7491,1,0,0:0:0:0:
320,192,7723,1,0,0:0:0:35:Snare.wav
448,192,7723,1,0,0:0:0:35:BaSS.wav
192,192,7800,1,0,0:0:0:0:
64,192,8032,1,0,0:0:0:35:Snare.wav
448,192,8032,1,0,0:0:0:35:BaSS.wav
320,192,8186,1,0,0:0:0:0:
448,192,8264,1,0,0:0:0:0:
192,192,8341,1,0,0:0:0:35:Snare.wav
64,192,8341,1,0,0:0:0:35:BaSS.wav
320,192,8573,1,0,0:0:0:0:
192,192,8650,1,0,0:0:0:35:BaSS.wav
64,192,8650,1,0,0:0:0:35:Snare.wav
448,192,8805,1,0,0:0:0:0:
192,192,8960,1,0,0:0:0:35:Snare.wav
64,192,8960,1,0,0:0:0:35:BaSS.wav
320,192,9037,1,0,0:0:0:0:
192,192,9269,1,0,0:0:0:35:Snare.wav
64,192,9269,1,0,0:0:0:35:BaSS.wav
448,192,9424,1,0,0:0:0:0:
320,192,9501,1,0,0:0:0:0:
192,192,9578,1,0,0:0:0:35:BaSS.wav
64,192,9578,1,0,0:0:0:35:Snare.wav
192,192,9733,1,0,0:0:0:35:BaSS.wav
64,192,9733,1,0,0:0:0:35:Snare.wav
320,192,9887,1,0,0:0:0:35:BaSS.wav
448,192,9887,1,0,0:0:0:35:Snare.wav
320,192,10042,1,0,0:0:0:35:BaSS.wav
448,192,10042,1,0,0:0:0:35:Snare.wav
192,192,10197,1,0,0:0:0:35:Snare.wav
64,192,10197,1,0,0:0:0:35:BaSS.wav
192,192,10351,1,0,0:0:0:35:Snare.wav
64,192,10351,1,0,0:0:0:35:BaSS.wav
320,192,10506,1,0,0:0:0:35:BaSS.wav
448,192,10506,1,0,0:0:0:35:Snare.wav
320,192,10661,1,0,0:0:0:35:BaSS.wav
448,192,10661,1,0,0:0:0:35:Snare.wav
64,192,10815,1,0,0:0:0:0:
192,192,10893,1,0,0:0:0:0:
320,192,10970,1,0,0:0:0:0:
448,192,11047,1,0,0:0:0:0:
64,192,11125,1,0,0:0:0:0:
192,192,11202,1,0,0:0:0:0:
320,192,11279,1,0,0:0:0:0:
448,192,11357,1,0,0:0:0:0:
192,192,11434,1,0,0:0:0:0:
320,192,11511,1,0,0:0:0:0:
192,192,11588,1,0,0:0:0:0:
320,192,11666,1,0,0:0:0:0:
192,192,11743,128,0,12052:0:0:0:0:
320,192,12052,128,0,12362:0:0:0:50:Crash.wav
448,192,12052,128,0,12362:0:0:0:50:BaSS.wav
192,192,12362,1,0,0:0:0:35:BaSS.wav
64,192,12362,1,0,0:0:0:0:
320,192,12516,1,0,0:0:0:0:
192,192,12594,1,0,0:0:0:0:
320,192,12671,1,0,0:0:0:35:BaSS.wav
448,192,12671,1,0,0:0:0:0:
64,192,12826,1,0,0:0:0:0:
192,192,12980,1,0,0:0:0:35:BaSS.wav
448,192,12980,1,0,0:0:0:0:
64,192,13135,1,0,0:0:0:0:
320,192,13290,1,0,0:0:0:35:BaSS.wav
192,192,13290,1,0,0:0:0:0:
448,192,13444,1,0,0:0:0:0:
192,192,13599,1,0,0:0:0:35:BaSS.wav
64,192,13599,1,0,0:0:0:0:
320,192,13753,1,0,0:0:0:0:
448,192,13908,1,0,0:0:0:35:BaSS.wav
64,192,13908,1,0,0:0:0:0:
192,192,14063,1,0,0:0:0:0:
448,192,14217,1,0,0:0:0:35:BaSS.wav
64,192,14217,1,0,0:0:0:0:
320,192,14372,1,0,0:0:0:0:
192,192,14527,128,0,14836:0:0:0:35:BaSS.wav
64,192,14527,128,0,14836:0:0:0:0:
448,192,14836,1,0,0:0:0:35:BaSS.wav
320,192,14836,1,0,0:0:0:0:
192,192,14991,1,0,0:0:0:0:
320,192,15068,1,0,0:0:0:0:
192,192,15145,1,0,0:0:0:35:BaSS.wav
64,192,15145,1,0,0:0:0:0:
448,192,15300,1,0,0:0:0:0:
64,192,15454,1,0,0:0:0:35:BaSS.wav
320,192,15454,1,0,0:0:0:0:
448,192,15609,1,0,0:0:0:0:
192,192,15764,1,0,0:0:0:35:BaSS.wav
320,192,15764,1,0,0:0:0:0:
64,192,15918,1,0,0:0:0:0:
320,192,16073,1,0,0:0:0:35:BaSS.wav
448,192,16073,1,0,0:0:0:0:
192,192,16228,1,0,0:0:0:0:
64,192,16382,1,0,0:0:0:35:BaSS.wav
448,192,16382,1,0,0:0:0:0:
320,192,16537,1,0,0:0:0:0:
64,192,16692,1,0,0:0:0:35:BaSS.wav
192,192,16692,1,0,0:0:0:0:
320,192,16846,1,0,0:0:0:35:BaSS.wav
448,192,16846,1,0,0:0:0:0:
192,192,17001,128,0,17310:0:0:0:35:BaSS.wav
64,192,17001,128,0,17310:0:0:0:0:
320,192,17310,1,0,0:0:0:35:BaSS.wav
448,192,17310,1,0,0:0:0:0:
448,192,17465,1,0,0:0:0:0:
320,192,17542,1,0,0:0:0:0:
64,192,17619,1,0,0:0:0:35:BaSS.wav
192,192,17619,1,0,0:0:0:0:
320,192,17774,1,0,0:0:0:0:
192,192,17929,1,0,0:0:0:35:BaSS.wav
64,192,17929,1,0,0:0:0:0:
448,192,18083,1,0,0:0:0:0:
320,192,18238,1,0,0:0:0:35:BaSS.wav
192,192,18238,1,0,0:0:0:0:
64,192,18393,1,0,0:0:0:0:
448,192,18547,1,0,0:0:0:35:BaSS.wav
320,192,18547,1,0,0:0:0:0:
192,192,18702,1,0,0:0:0:0:
448,192,18857,1,0,0:0:0:35:BaSS.wav
64,192,18857,1,0,0:0:0:0:
320,192,19011,1,0,0:0:0:0:
448,192,19166,1,0,0:0:0:35:BaSS.wav
64,192,19166,1,0,0:0:0:0:
192,192,19320,1,0,0:0:0:0:
320,192,19475,128,0,19784:0:0:0:35:BaSS.wav
448,192,19475,128,0,19784:0:0:0:0:
64,192,19784,1,0,0:0:0:35:BaSS.wav
192,192,19784,1,0,0:0:0:0:
64,192,19939,1,0,0:0:0:0:
192,192,20016,1,0,0:0:0:0:
320,192,20094,1,0,0:0:0:35:BaSS.wav
448,192,20094,1,0,0:0:0:0:
64,192,20248,1,0,0:0:0:0:
448,192,20403,1,0,0:0:0:35:BaSS.wav
192,192,20403,1,0,0:0:0:0:
320,192,20558,1,0,0:0:0:0:
64,192,20712,1,0,0:0:0:35:BaSS.wav
192,192,20712,1,0,0:0:0:0:
320,192,20867,1,0,0:0:0:35:BaSS.wav
448,192,20867,1,0,0:0:0:0:
64,192,21021,1,0,0:0:0:35:BaSS.wav
192,192,21021,1,0,0:0:0:0:
320,192,21176,1,0,0:0:0:0:
448,192,21331,1,0,0:0:0:35:BaSS.wav
64,192,21331,1,0,0:0:0:0:
192,192,21563,1,0,0:0:0:35:BaSS.wav
320,192,21563,1,0,0:0:0:35:Crash.wav
448,192,21795,1,0,0:0:0:35:BaSS.wav
64,192,21795,1,0,0:0:0:0:
192,192,21872,1,0,0:0:0:35:BaSS.wav
448,192,21949,1,0,0:0:0:35:BaSS.wav
320,192,21949,128,0,22259:0:0:0:35:Crash.wav
192,192,22259,1,0,0:0:0:35:Snare.wav
64,192,22259,1,0,0:0:0:0:
320,192,22413,1,0,0:0:0:0:
192,192,22491,1,0,0:0:0:0:
448,192,22568,1,0,0:0:0:35:BaSS.wav
64,192,22568,1,0,0:0:0:0:
192,192,22723,1,0,0:0:0:0:
320,192,22877,1,0,0:0:0:35:Snare.wav
448,192,22877,1,0,0:0:0:0:
64,192,22877,1,0,0:0:0:0:
192,192,23032,1,0,0:0:0:0:
320,192,23186,1,0,0:0:0:35:BaSS.wav
64,192,23186,1,0,0:0:0:0:
448,192,23341,1,0,0:0:0:0:
64,192,23496,1,0,0:0:0:35:Snare.wav
192,192,23496,1,0,0:0:0:0:
320,192,23496,1,0,0:0:0:0:
448,192,23650,1,0,0:0:0:0:
192,192,23805,1,0,0:0:0:35:BaSS.wav
320,192,23805,1,0,0:0:0:0:
64,192,23960,1,0,0:0:0:0:
448,192,24114,1,0,0:0:0:35:Snare.wav
320,192,24114,1,0,0:0:0:0:
192,192,24114,1,0,0:0:0:0:
64,192,24269,1,0,0:0:0:0:
192,192,24424,128,0,24733:0:0:0:35:BaSS.wav
320,192,24424,1,0,0:0:0:0:
320,192,24733,1,0,0:0:0:35:Snare.wav
448,192,24733,1,0,0:0:0:0:
192,192,24887,1,0,0:0:0:0:
320,192,24965,1,0,0:0:0:0:
448,192,25042,1,0,0:0:0:35:BaSS.wav
64,192,25042,1,0,0:0:0:0:
320,192,25197,1,0,0:0:0:0:
448,192,25351,1,0,0:0:0:35:Snare.wav
192,192,25351,1,0,0:0:0:0:
64,192,25351,1,0,0:0:0:0:
320,192,25506,1,0,0:0:0:0:
192,192,25661,1,0,0:0:0:35:BaSS.wav
448,192,25661,1,0,0:0:0:0:
64,192,25815,1,0,0:0:0:0:
320,192,25970,1,0,0:0:0:35:Snare.wav
192,192,25970,1,0,0:0:0:0:
448,192,25970,1,0,0:0:0:0:
64,192,26125,1,0,0:0:0:0:
320,192,26279,1,0,0:0:0:35:BaSS.wav
192,192,26279,1,0,0:0:0:0:
448,192,26434,1,0,0:0:0:0:
192,192,26588,1,0,0:0:0:35:Snare.wav
64,192,26588,1,0,0:0:0:0:
320,192,26743,1,0,0:0:0:35:Snare.wav
448,192,26743,1,0,0:0:0:0:
192,192,26898,1,0,0:0:0:35:Crash.wav
64,192,26898,128,0,27207:0:0:0:35:Snare.wav
192,192,27207,1,0,0:0:0:35:Snare.wav
448,192,27207,1,0,0:0:0:0:
320,192,27207,1,0,0:0:0:0:
64,192,27362,1,0,0:0:0:0:
192,192,27439,1,0,0:0:0:0:
320,192,27516,1,0,0:0:0:35:Snare.wav
448,192,27516,1,0,0:0:0:35:BaSS.wav
192,192,27671,1,0,0:0:0:0:
320,192,27826,1,0,0:0:0:35:Snare.wav
448,192,27826,1,0,0:0:0:35:BaSS.wav
64,192,27980,1,0,0:0:0:0:
64,192,28135,1,0,0:0:0:35:Snare.wav
192,192,28135,1,0,0:0:0:35:BaSS.wav
320,192,28290,1,0,0:0:0:0:
192,192,28444,1,0,0:0:0:35:BaSS.wav
64,192,28444,1,0,0:0:0:35:Snare.wav
448,192,28599,1,0,0:0:0:0:
192,192,28753,1,0,0:0:0:35:BaSS.wav
64,192,28753,1,0,0:0:0:35:Snare.wav
320,192,28908,1,0,0:0:0:0:
192,192,29063,1,0,0:0:0:35:BaSS.wav
64,192,29063,1,0,0:0:0:35:Snare.wav
448,192,29217,1,0,0:0:0:0:
192,192,29372,1,0,0:0:0:35:Snare.wav
64,192,29372,1,0,0:0:0:35:Crash.wav
192,192,29527,1,0,0:0:0:35:Snare.wav
64,192,29527,1,0,0:0:0:0:
320,192,29681,1,0,0:0:0:35:Snare.wav
448,192,29681,1,0,0:0:0:0:
320,192,29836,1,0,0:0:0:35:Snare.wav
448,192,29836,1,0,0:0:0:0:
320,192,29991,1,0,0:0:0:35:Snare.wav
64,192,29991,1,0,0:0:0:0:
64,192,30145,1,0,0:0:0:35:Snare.wav
320,192,30145,1,0,0:0:0:0:
192,192,30300,1,0,0:0:0:35:Snare.wav
448,192,30300,1,0,0:0:0:0:
448,192,30454,1,0,0:0:0:35:Snare.wav
192,192,30454,1,0,0:0:0:0:
64,192,30609,1,0,0:0:0:35:BaSS.wav
192,192,30686,1,0,0:0:0:0:
320,192,30764,1,0,0:0:0:0:
448,192,30841,1,0,0:0:0:0:
64,192,30918,128,0,31228:0:0:0:0:
320,192,31228,1,0,0:0:0:35:BaSS.wav
448,192,31228,128,0,31537:0:0:0:0:
64,192,31537,1,0,0:0:0:0:
192,192,31614,1,0,0:0:0:0:
320,192,31692,1,0,0:0:0:0:
448,192,31769,1,0,0:0:0:0:
192,192,31846,1,0,0:0:0:35:BaSS.wav
64,192,31846,128,0,32465:0:0:0:0:
192,192,32465,1,0,0:0:0:0:
320,192,32619,1,0,0:0:0:0:
448,192,32697,1,0,0:0:0:0:
192,192,32774,1,0,0:0:0:0:
320,192,32851,1,0,0:0:0:0:
64,192,32929,1,0,0:0:0:0:
192,192,33006,1,0,0:0:0:0:
320,192,33083,1,0,0:0:0:35:BaSS.wav
448,192,33083,1,0,0:0:0:0:
192,192,33161,1,0,0:0:0:0:
64,192,33238,1,0,0:0:0:0:
320,192,33315,1,0,0:0:0:35:BaSS.wav
448,192,33315,1,0,0:0:0:0:
192,192,33393,1,0,0:0:0:0:
64,192,33470,1,0,0:0:0:0:
320,192,33547,1,0,0:0:0:35:BaSS.wav
448,192,33547,1,0,0:0:0:0:
192,192,33625,1,0,0:0:0:0:
64,192,33702,1,0,0:0:0:0:
448,192,33779,1,0,0:0:0:0:
320,192,33857,128,0,34011:0:0:0:0:
64,192,34011,1,0,0:0:0:35:BaSS.wav
192,192,34088,1,0,0:0:0:35:BaSS.wav
448,192,34166,1,0,0:0:0:35:BaSS.wav
320,192,34243,1,0,0:0:0:0:
448,192,34320,128,0,34784:0:0:0:35:Crash.wav
64,192,34320,1,0,0:0:0:35:BaSS.wav
192,192,34784,1,0,0:0:0:0:
320,192,34862,1,0,0:0:0:0:
192,192,34939,1,0,0:0:0:35:BaSS.wav
64,192,34939,1,0,0:0:0:0:
320,192,35016,1,0,0:0:0:0:
448,192,35094,1,0,0:0:0:0:
192,192,35171,1,0,0:0:0:35:BaSS.wav
64,192,35171,1,0,0:0:0:0:
320,192,35248,1,0,0:0:0:0:
448,192,35326,1,0,0:0:0:0:
192,192,35403,1,0,0:0:0:35:BaSS.wav
64,192,35403,1,0,0:0:0:0:
320,192,35480,1,0,0:0:0:0:
448,192,35558,1,0,0:0:0:0:
320,192,35635,1,0,0:0:0:0:
192,192,35712,1,0,0:0:0:35:BaSS.wav
64,192,35712,1,0,0:0:0:0:
320,192,35867,1,0,0:0:0:35:BaSS.wav
448,192,35867,1,0,0:0:0:0:
192,192,36021,1,0,0:0:0:35:BaSS.wav
64,192,36021,1,0,0:0:0:0:
320,192,36099,1,0,0:0:0:35:BaSS.wav
448,192,36099,1,0,0:0:0:0:
192,192,36176,128,0,36331:0:0:0:35:BaSS.wav
64,192,36176,128,0,36331:0:0:0:0:
448,192,36331,1,0,0:0:0:35:BaSS.wav
320,192,36485,1,0,0:0:0:35:BaSS.wav
192,192,36563,1,0,0:0:0:35:BaSS.wav
320,192,36640,1,0,0:0:0:35:BaSS.wav
192,192,36717,1,0,0:0:0:0:
448,192,36795,1,0,0:0:0:35:BaSS.wav
64,192,36795,1,0,0:0:0:35:Crash.wav
320,192,36872,1,0,0:0:0:0:
192,192,36949,1,0,0:0:0:0:
448,192,37027,1,0,0:0:0:0:
320,192,37104,1,0,0:0:0:0:
192,192,37181,1,0,0:0:0:0:
448,192,37259,1,0,0:0:0:0:
320,192,37336,1,0,0:0:0:0:
192,192,37413,1,0,0:0:0:35:BaSS.wav
64,192,37413,1,0,0:0:0:0:
320,192,37645,1,0,0:0:0:35:BaSS.wav
192,192,37645,1,0,0:0:0:0:
448,192,37877,1,0,0:0:0:35:BaSS.wav
320,192,37877,1,0,0:0:0:0:
64,192,38032,1,0,0:0:0:35:BaSS.wav
448,192,38032,1,0,0:0:0:35:Crash.wav
192,192,38109,1,0,0:0:0:0:
320,192,38186,1,0,0:0:0:0:
64,192,38264,1,0,0:0:0:0:
192,192,38341,1,0,0:0:0:0:
320,192,38418,1,0,0:0:0:0:
64,192,38496,1,0,0:0:0:0:
192,192,38573,1,0,0:0:0:0:
448,192,38650,1,0,0:0:0:35:BaSS.wav
320,192,38650,1,0,0:0:0:0:
320,192,38882,1,0,0:0:0:35:BaSS.wav
192,192,38882,1,0,0:0:0:0:
64,192,39114,1,0,0:0:0:35:BaSS.wav
192,192,39114,1,0,0:0:0:0:
320,192,39269,1,0,0:0:0:35:BaSS.wav
448,192,39269,1,0,0:0:0:35:Crash.wav
192,192,39424,1,0,0:0:0:0:
320,192,39501,1,0,0:0:0:35:BaSS.wav
64,192,39501,1,0,0:0:0:35:Crash.wav
192,192,39656,1,0,0:0:0:0:
448,192,39733,1,0,0:0:0:35:BaSS.wav
64,192,39733,1,0,0:0:0:35:Crash.wav
320,192,39887,1,0,0:0:0:0:
448,192,39965,1,0,0:0:0:35:BaSS.wav
192,192,39965,1,0,0:0:0:35:Crash.wav
320,192,40197,1,0,0:0:0:35:Crash.wav
448,192,40197,1,0,0:0:0:35:BaSS.wav
192,192,40351,1,0,0:0:0:35:BaSS.wav
64,192,40351,1,0,0:0:0:35:Crash.wav
448,192,40506,1,0,0:0:0:0:
320,192,40583,1,0,0:0:0:0:
192,192,40661,1,0,0:0:0:35:BaSS.wav
64,192,40738,1,0,0:0:0:0:
320,192,40815,1,0,0:0:0:35:BaSS.wav
192,192,40893,1,0,0:0:0:35:BaSS.wav
320,192,40970,1,0,0:0:0:35:BaSS.wav
192,192,41047,1,0,0:0:0:35:BaSS.wav
64,192,41125,1,0,0:0:0:35:BaSS.wav
448,192,41202,1,0,0:0:0:35:BaSS.wav
64,192,41279,1,0,0:0:0:35:BaSS.wav
448,192,41357,1,0,0:0:0:35:BaSS.wav
64,192,41434,1,0,0:0:0:35:BaSS.wav
192,192,41511,1,0,0:0:0:35:BaSS.wav
320,192,41588,1,0,0:0:0:35:BaSS.wav
448,192,41666,1,0,0:0:0:35:BaSS.wav
192,192,41743,1,0,0:0:0:35:BaSS.wav
64,192,41743,128,0,42052:0:0:0:35:Crash.wav
320,192,42052,1,0,0:0:0:35:Snare.wav
448,192,42052,1,0,0:0:0:0:
320,192,42362,1,0,0:0:0:35:Snare.wav
448,192,42362,1,0,0:0:0:0:
64,192,42516,1,0,0:0:0:0:
192,192,42594,1,0,0:0:0:0:
448,192,42671,1,0,0:0:0:35:Snare.wav
320,192,42671,1,0,0:0:0:0:
64,192,42748,1,0,0:0:0:0:
192,192,42826,1,0,0:0:0:0:
320,192,42903,1,0,0:0:0:0:
448,192,42980,1,0,0:0:0:35:Snare.wav
64,192,42980,1,0,0:0:0:35:Crash.wav
320,192,43058,1,0,0:0:0:0:
192,192,43135,1,0,0:0:0:0:
448,192,43212,1,0,0:0:0:0:
320,192,43290,1,0,0:0:0:35:Snare.wav
192,192,43367,1,0,0:0:0:0:
448,192,43444,1,0,0:0:0:0:
320,192,43521,1,0,0:0:0:0:
192,192,43599,1,0,0:0:0:35:Snare.wav
448,192,43676,1,0,0:0:0:0:
320,192,43753,1,0,0:0:0:0:
192,192,43831,1,0,0:0:0:0:
64,192,43908,1,0,0:0:0:35:Snare.wav
192,192,43985,1,0,0:0:0:0:
320,192,44063,1,0,0:0:0:0:
448,192,44140,1,0,0:0:0:0:
64,192,44217,1,0,0:0:0:35:Crash.wav
192,192,44217,128,0,44527:0:0:0:35:Snare.wav
320,192,44527,1,0,0:0:0:35:Snare.wav
448,192,44527,1,0,0:0:0:0:
64,192,44681,1,0,0:0:0:0:
192,192,44759,1,0,0:0:0:0:
448,192,44836,1,0,0:0:0:35:Snare.wav
64,192,44836,1,0,0:0:0:0:
320,192,44913,1,0,0:0:0:0:
192,192,44991,1,0,0:0:0:0:
64,192,45068,1,0,0:0:0:0:
448,192,45145,1,0,0:0:0:35:Snare.wav
320,192,45223,1,0,0:0:0:0:
192,192,45300,1,0,0:0:0:0:
64,192,45377,1,0,0:0:0:0:
320,192,45454,1,0,0:0:0:35:Snare.wav
448,192,45454,1,0,0:0:0:35:Crash.wav
192,192,45532,1,0,0:0:0:0:
448,192,45609,1,0,0:0:0:0:
320,192,45686,1,0,0:0:0:0:
64,192,45764,1,0,0:0:0:35:Snare.wav
192,192,45841,1,0,0:0:0:0:
320,192,45918,1,0,0:0:0:0:
192,192,45996,1,0,0:0:0:0:
448,192,46073,1,0,0:0:0:35:Crash.wav
64,192,46073,1,0,0:0:0:35:Snare.wav
320,192,46150,1,0,0:0:0:0:
192,192,46228,1,0,0:0:0:0:
64,192,46305,1,0,0:0:0:0:
448,192,46382,128,0,46692:0:0:0:0:
192,192,46692,1,0,0:0:0:35:BaSS.wav
64,192,46692,1,0,0:0:0:35:Crash.wav
192,192,46846,1,0,0:0:0:35:Snare.wav
64,192,46846,1,0,0:0:0:0:
320,192,47001,1,0,0:0:0:35:BaSS.wav
64,192,47001,1,0,0:0:0:0:
320,192,47156,1,0,0:0:0:35:Snare.wav
64,192,47156,1,0,0:0:0:0:
192,192,47310,1,0,0:0:0:35:BaSS.wav
320,192,47310,1,0,0:0:0:0:
192,192,47465,1,0,0:0:0:35:Snare.wav
320,192,47465,1,0,0:0:0:0:
192,192,47619,1,0,0:0:0:35:BaSS.wav
448,192,47619,1,0,0:0:0:0:
448,192,47774,1,0,0:0:0:35:Snare.wav
192,192,47774,1,0,0:0:0:0:
320,192,47929,1,0,0:0:0:35:Crash.wav
448,192,47929,1,0,0:0:0:35:BaSS.wav
448,192,48083,1,0,0:0:0:35:Snare.wav
320,192,48083,1,0,0:0:0:0:
192,192,48238,1,0,0:0:0:35:BaSS.wav
64,192,48238,1,0,0:0:0:0:
192,192,48393,1,0,0:0:0:35:Snare.wav
64,192,48393,1,0,0:0:0:0:
320,192,48547,1,0,0:0:0:35:BaSS.wav
64,192,48547,1,0,0:0:0:0:
64,192,48702,1,0,0:0:0:35:Snare.wav
320,192,48702,1,0,0:0:0:0:
192,192,48857,1,0,0:0:0:35:BaSS.wav
448,192,48857,1,0,0:0:0:0:
448,192,49011,1,0,0:0:0:35:Snare.wav
192,192,49011,1,0,0:0:0:0:
64,192,49166,1,0,0:0:0:0:
192,192,49243,1,0,0:0:0:0:
320,192,49320,1,0,0:0:0:0:
448,192,49398,1,0,0:0:0:0:
64,192,49475,1,0,0:0:0:0:
448,192,49552,1,0,0:0:0:0:
192,192,49630,1,0,0:0:0:0:
320,192,49707,1,0,0:0:0:0:
64,192,49784,1,0,0:0:0:0:
448,192,49862,1,0,0:0:0:0:
192,192,49939,1,0,0:0:0:0:
320,192,50016,1,0,0:0:0:0:
64,192,50094,1,0,0:0:0:35:BaSS.wav
448,192,50171,1,0,0:0:0:35:BaSS.wav
64,192,50248,1,0,0:0:0:35:BaSS.wav
448,192,50326,1,0,0:0:0:35:BaSS.wav
64,192,50403,1,0,0:0:0:35:BaSS.wav
192,192,50480,1,0,0:0:0:0:
320,192,50558,1,0,0:0:0:0:
448,192,50635,1,0,0:0:0:0:
64,192,50712,1,0,0:0:0:0:
192,192,50790,1,0,0:0:0:0:
320,192,50867,1,0,0:0:0:0:
448,192,50944,1,0,0:0:0:0:
64,192,51021,1,0,0:0:0:0:
192,192,51099,1,0,0:0:0:0:
320,192,51176,1,0,0:0:0:0:
192,192,51253,1,0,0:0:0:0:
64,192,51331,1,0,0:0:0:0:
448,192,51331,1,0,0:0:0:0:
320,192,51408,1,0,0:0:0:0:
192,192,51485,1,0,0:0:0:0:
64,192,51563,1,0,0:0:0:0:
448,192,51640,128,0,51949:0:0:0:35:Crash.wav
320,192,51640,1,0,0:0:0:35:BaSS.wav
192,192,51949,1,0,0:0:0:35:BaSS.wav
64,192,51949,1,0,0:0:0:0:
320,192,52104,1,0,0:0:0:0:
192,192,52181,1,0,0:0:0:0:
64,192,52259,1,0,0:0:0:35:BaSS.wav
448,192,52259,1,0,0:0:0:0:
320,192,52413,1,0,0:0:0:0:
64,192,52568,1,0,0:0:0:35:BaSS.wav
448,192,52568,1,0,0:0:0:0:
192,192,52723,1,0,0:0:0:0:
448,192,52877,128,0,53032:0:0:0:35:BaSS.wav
320,192,52877,1,0,0:0:0:0:
192,192,53032,1,0,0:0:0:0:
64,192,53186,128,0,53341:0:0:0:35:BaSS.wav
320,192,53186,1,0,0:0:0:0:
192,192,53341,1,0,0:0:0:0:
448,192,53496,128,0,53650:0:0:0:35:BaSS.wav
64,192,53496,1,0,0:0:0:0:
320,192,53650,1,0,0:0:0:0:
64,192,53805,128,0,53960:0:0:0:35:BaSS.wav
448,192,53805,1,0,0:0:0:0:
192,192,53960,1,0,0:0:0:0:
64,192,54114,128,0,54424:0:0:0:35:BaSS.wav
448,192,54114,1,0,0:0:0:0:
192,192,54114,1,0,0:0:0:0:
448,192,54424,1,0,0:0:0:35:BaSS.wav
320,192,54424,1,0,0:0:0:0:
192,192,54578,1,0,0:0:0:0:
320,192,54656,1,0,0:0:0:0:
448,192,54733,1,0,0:0:0:35:BaSS.wav
64,192,54733,1,0,0:0:0:0:
192,192,54887,1,0,0:0:0:0:
64,192,55042,1,0,0:0:0:35:BaSS.wav
448,192,55042,1,0,0:0:0:0:
320,192,55197,1,0,0:0:0:0:
64,192,55351,1,0,0:0:0:35:BaSS.wav
192,192,55351,1,0,0:0:0:0:
448,192,55506,1,0,0:0:0:0:
192,192,55661,1,0,0:0:0:35:BaSS.wav
64,192,55661,1,0,0:0:0:0:
448,192,55738,1,0,0:0:0:0:
320,192,55815,1,0,0:0:0:0:
192,192,55893,1,0,0:0:0:0:
64,192,55970,1,0,0:0:0:35:BaSS.wav
448,192,55970,1,0,0:0:0:0:
192,192,56125,1,0,0:0:0:0:
448,192,56279,1,0,0:0:0:35:BaSS.wav
320,192,56279,1,0,0:0:0:0:
64,192,56434,1,0,0:0:0:35:BaSS.wav
192,192,56434,1,0,0:0:0:0:
320,192,56588,1,0,0:0:0:35:BaSS.wav
448,192,56588,1,0,0:0:0:0:
64,192,56588,1,0,0:0:0:0:
192,192,56743,1,0,0:0:0:0:
64,192,56898,1,0,0:0:0:35:BaSS.wav
448,192,56898,1,0,0:0:0:0:
320,192,56975,1,0,0:0:0:0:
192,192,57052,1,0,0:0:0:0:
320,192,57130,1,0,0:0:0:0:
448,192,57207,1,0,0:0:0:35:BaSS.wav
64,192,57207,1,0,0:0:0:0:
192,192,57284,1,0,0:0:0:0:
320,192,57362,1,0,0:0:0:0:
192,192,57439,1,0,0:0:0:0:
64,192,57516,1,0,0:0:0:35:BaSS.wav
448,192,57516,1,0,0:0:0:0:
320,192,57671,1,0,0:0:0:0:
192,192,57826,1,0,0:0:0:35:BaSS.wav
448,192,57826,1,0,0:0:0:0:
64,192,57826,1,0,0:0:0:0:
320,192,57980,1,0,0:0:0:0:
64,192,58135,1,0,0:0:0:35:BaSS.wav
192,192,58135,1,0,0:0:0:0:
448,192,58290,1,0,0:0:0:0:
192,192,58444,1,0,0:0:0:35:BaSS.wav
64,192,58444,1,0,0:0:0:0:
448,192,58521,1,0,0:0:0:0:
192,192,58599,1,0,0:0:0:0:
448,192,58753,1,0,0:0:0:35:BaSS.wav
320,192,58753,1,0,0:0:0:0:
64,192,58908,1,0,0:0:0:0:
64,192,59063,1,0,0:0:0:35:BaSS.wav
192,192,59063,1,0,0:0:0:0:
448,192,59063,1,0,0:0:0:0:
320,192,59217,1,0,0:0:0:0:
192,192,59295,1,0,0:0:0:0:
448,192,59372,1,0,0:0:0:35:BaSS.wav
64,192,59372,1,0,0:0:0:0:
320,192,59449,1,0,0:0:0:0:
192,192,59527,1,0,0:0:0:0:
64,192,59604,1,0,0:0:0:0:
448,192,59681,1,0,0:0:0:35:BaSS.wav
320,192,59681,1,0,0:0:0:0:
192,192,59836,1,0,0:0:0:0:
448,192,59991,1,0,0:0:0:35:BaSS.wav
64,192,59991,1,0,0:0:0:0:
320,192,60145,1,0,0:0:0:0:
448,192,60300,1,0,0:0:0:35:BaSS.wav
64,192,60300,128,0,60454:0:0:0:0:
192,192,60300,1,0,0:0:0:0:
320,192,60454,1,0,0:0:0:0:
448,192,60609,128,0,60764:0:0:0:35:BaSS.wav
192,192,60609,1,0,0:0:0:0:
64,192,60764,1,0,0:0:0:0:
448,192,60918,1,0,0:0:0:35:BaSS.wav
320,192,60918,1,0,0:0:0:0:
192,192,60996,1,0,0:0:0:0:
320,192,61073,128,0,61228:0:0:0:0:
448,192,61228,1,0,0:0:0:35:Snare.wav
192,192,61228,1,0,0:0:0:35:BaSS.wav
64,192,61228,1,0,0:0:0:0:
320,192,61382,1,0,0:0:0:0:
448,192,61537,128,0,61846:0:0:0:35:BaSS.wav
192,192,61537,1,0,0:0:0:35:Crash.wav
64,192,61537,1,0,0:0:0:0:
320,192,61846,1,0,0:0:0:35:BaSS.wav
192,192,61846,1,0,0:0:0:0:
64,192,62001,1,0,0:0:0:0:
320,192,62078,1,0,0:0:0:0:
448,192,62156,1,0,0:0:0:35:BaSS.wav
64,192,62156,1,0,0:0:0:0:
320,192,62310,1,0,0:0:0:0:
192,192,62465,1,0,0:0:0:35:BaSS.wav
64,192,62465,1,0,0:0:0:0:
320,192,62542,1,0,0:0:0:0:
448,192,62619,1,0,0:0:0:0:
320,192,62774,1,0,0:0:0:35:BaSS.wav
64,192,62774,128,0,62929:0:0:0:0:
192,192,62929,1,0,0:0:0:0:
64,192,63083,1,0,0:0:0:35:BaSS.wav
448,192,63083,128,0,63238:0:0:0:0:
320,192,63238,1,0,0:0:0:0:
192,192,63393,128,0,63547:0:0:0:35:BaSS.wav
64,192,63393,1,0,0:0:0:0:
448,192,63547,1,0,0:0:0:0:
320,192,63702,128,0,63857:0:0:0:35:BaSS.wav
448,192,63702,1,0,0:0:0:0:
64,192,63857,1,0,0:0:0:0:
192,192,64011,1,0,0:0:0:35:BaSS.wav
448,192,64011,128,0,64320:0:0:0:0:
64,192,64011,1,0,0:0:0:0:
320,192,64320,1,0,0:0:0:35:BaSS.wav
64,192,64320,1,0,0:0:0:0:
448,192,64475,1,0,0:0:0:0:
320,192,64552,1,0,0:0:0:0:
192,192,64630,1,0,0:0:0:35:BaSS.wav
64,192,64630,1,0,0:0:0:0:
320,192,64707,1,0,0:0:0:0:
448,192,64784,1,0,0:0:0:0:
320,192,64939,1,0,0:0:0:35:BaSS.wav
192,192,64939,1,0,0:0:0:0:
64,192,65094,1,0,0:0:0:0:
320,192,65248,1,0,0:0:0:35:BaSS.wav
448,192,65248,128,0,65403:0:0:0:0:
64,192,65403,128,0,65558:0:0:0:0:
192,192,65558,1,0,0:0:0:35:BaSS.wav
320,192,65558,128,0,65712:0:0:0:0:
448,192,65712,128,0,65867:0:0:0:0:
64,192,65867,1,0,0:0:0:35:BaSS.wav
320,192,65867,1,0,0:0:0:0:
192,192,65944,1,0,0:0:0:0:
320,192,66021,1,0,0:0:0:0:
448,192,66099,1,0,0:0:0:35:BaSS.wav
64,192,66099,1,0,0:0:0:0:
448,192,66331,1,0,0:0:0:35:BaSS.wav
64,192,66331,1,0,0:0:0:0:
192,192,66485,1,0,0:0:0:35:BaSS.wav
320,192,66485,128,0,66795:0:0:0:0:
448,192,66795,1,0,0:0:0:35:BaSS.wav
64,192,66795,1,0,0:0:0:35:Crash.wav
320,192,66872,1,0,0:0:0:0:
192,192,66949,1,0,0:0:0:0:
64,192,67027,1,0,0:0:0:0:
320,192,67104,1,0,0:0:0:35:BaSS.wav
192,192,67104,128,0,67413:0:0:0:0:
448,192,67413,1,0,0:0:0:35:BaSS.wav
64,192,67413,1,0,0:0:0:35:Crash.wav
192,192,67491,1,0,0:0:0:0:
320,192,67568,1,0,0:0:0:0:
448,192,67645,1,0,0:0:0:0:
192,192,67723,1,0,0:0:0:35:BaSS.wav
64,192,67723,128,0,68032:0:0:0:0:
448,192,68032,1,0,0:0:0:35:BaSS.wav
192,192,68032,1,0,0:0:0:35:Crash.wav
320,192,68109,1,0,0:0:0:0:
192,192,68186,1,0,0:0:0:0:
64,192,68264,1,0,0:0:0:0:
320,192,68341,1,0,0:0:0:35:BaSS.wav
448,192,68341,128,0,68573:0:0:0:0:
320,192,68573,1,0,0:0:0:35:Crash.wav
64,192,68573,1,0,0:0:0:35:BaSS.wav
192,192,68805,1,0,0:0:0:35:Crash.wav
448,192,68805,1,0,0:0:0:35:BaSS.wav
320,192,68960,1,0,0:0:0:35:BaSS.wav
448,192,68960,1,0,0:0:0:0:
320,192,69114,1,0,0:0:0:35:BaSS.wav
448,192,69114,1,0,0:0:0:0:
192,192,69269,1,0,0:0:0:35:BaSS.wav
64,192,69269,1,0,0:0:0:0:
192,192,69424,1,0,0:0:0:35:BaSS.wav
64,192,69424,1,0,0:0:0:0:
448,192,69578,1,0,0:0:0:35:BaSS.wav
64,192,69656,1,0,0:0:0:35:BaSS.wav
320,192,69733,1,0,0:0:0:35:BaSS.wav
192,192,69810,1,0,0:0:0:35:BaSS.wav
448,192,69887,1,0,0:0:0:35:BaSS.wav
64,192,69965,1,0,0:0:0:35:BaSS.wav
320,192,70042,1,0,0:0:0:35:BaSS.wav
192,192,70119,1,0,0:0:0:35:BaSS.wav
320,192,70197,128,0,70815:0:0:0:35:BaSS.wav
448,192,70197,1,0,0:0:0:0:
192,192,70815,128,0,71434:0:0:0:0:
448,192,71434,1,0,0:0:0:35:Crash.wav
64,192,71434,1,0,0:0:0:35:BaSS.wav
448,192,71743,1,0,0:0:0:0:
320,192,72052,1,0,0:0:0:0:
320,192,72362,1,0,0:0:0:0:
192,192,72671,1,0,0:0:0:0:
192,192,72980,1,0,0:0:0:0:
64,192,73290,1,0,0:0:0:0:
192,192,73367,1,0,0:0:0:0:
448,192,73444,1,0,0:0:0:0:
320,192,73521,1,0,0:0:0:0:
64,192,73599,1,0,0:0:0:0:
192,192,73676,1,0,0:0:0:0:
320,192,73753,128,0,73908:0:0:0:0:
64,192,73908,1,0,0:0:0:35:Crash.wav
64,192,74217,1,0,0:0:0:0:
192,192,74527,1,0,0:0:0:0:
192,192,74836,1,0,0:0:0:0:
320,192,75145,1,0,0:0:0:0:
320,192,75454,1,0,0:0:0:0:
448,192,75764,1,0,0:0:0:0:
320,192,75841,1,0,0:0:0:0:
64,192,75918,1,0,0:0:0:0:
192,192,75996,1,0,0:0:0:0:
448,192,76073,1,0,0:0:0:0:
320,192,76150,1,0,0:0:0:0:
192,192,76228,128,0,76382:0:0:0:0:
448,192,76382,1,0,0:0:0:35:Crash.wav
320,192,76460,1,0,0:0:0:0:
192,192,76537,1,0,0:0:0:0:
64,192,76614,1,0,0:0:0:0:
448,192,76692,1,0,0:0:0:0:
320,192,76769,1,0,0:0:0:0:
192,192,76846,1,0,0:0:0:0:
64,192,76924,1,0,0:0:0:0:
320,192,77001,1,0,0:0:0:35:Crash.wav
448,192,77078,1,0,0:0:0:35:BaSS.wav
192,192,77156,1,0,0:0:0:35:BaSS.wav
320,192,77233,1,0,0:0:0:35:BaSS.wav
64,192,77310,1,0,0:0:0:35:BaSS.wav
192,192,77387,1,0,0:0:0:35:BaSS.wav
320,192,77465,1,0,0:0:0:35:BaSS.wav
448,192,77542,1,0,0:0:0:35:BaSS.wav
64,192,77619,1,0,0:0:0:35:BaSS.wav
448,192,77697,1,0,0:0:0:35:BaSS.wav
192,192,77774,1,0,0:0:0:35:BaSS.wav
320,192,77851,1,0,0:0:0:35:BaSS.wav
64,192,77929,1,0,0:0:0:35:BaSS.wav
448,192,78006,1,0,0:0:0:35:BaSS.wav
192,192,78083,1,0,0:0:0:35:BaSS.wav
320,192,78161,1,0,0:0:0:35:BaSS.wav
64,192,78238,1,0,0:0:0:35:BaSS.wav
448,192,78315,1,0,0:0:0:35:BaSS.wav
64,192,78393,1,0,0:0:0:35:BaSS.wav
448,192,78470,1,0,0:0:0:35:BaSS.wav
192,192,78547,1,0,0:0:0:35:BaSS.wav
320,192,78625,1,0,0:0:0:35:BaSS.wav
192,192,78702,1,0,0:0:0:35:BaSS.wav
320,192,78779,1,0,0:0:0:35:BaSS.wav
448,192,78857,128,0,80094:0:0:0:35:BaSS.wav
64,192,78857,1,0,0:0:0:0:
64,192,80094,1,0,0:0:0:0:
192,192,80171,1,0,0:0:0:0:
320,192,80248,1,0,0:0:0:0:
448,192,80326,1,0,0:0:0:0:
320,192,80403,1,0,0:0:0:0:
192,192,80480,1,0,0:0:0:0:
64,192,80558,1,0,0:0:0:0:
192,192,80635,1,0,0:0:0:0:
320,192,80712,1,0,0:0:0:35:BaSS.wav
448,192,80712,128,0,81021:0:0:0:0:
192,192,81021,1,0,0:0:0:35:BaSS.wav
64,192,81021,128,0,81331:0:0:0:0:
192,192,81331,1,0,0:0:0:35:BaSS.wav
320,192,81331,1,0,0:0:0:35:Crash.wav
448,192,81331,1,0,0:0:0:0:
64,192,81485,1,0,0:0:0:0:
192,192,81640,1,0,0:0:0:35:Snare.wav
448,192,81640,1,0,0:0:0:0:
64,192,81795,1,0,0:0:0:0:
448,192,81949,1,0,0:0:0:35:BaSS.wav
192,192,81949,1,0,0:0:0:0:
320,192,82027,1,0,0:0:0:0:
192,192,82181,1,0,0:0:0:0:
448,192,82259,1,0,0:0:0:35:Snare.wav
64,192,82259,1,0,0:0:0:0:
320,192,82413,1,0,0:0:0:0:
448,192,82568,1,0,0:0:0:35:BaSS.wav
64,192,82568,1,0,0:0:0:0:
192,192,82723,1,0,0:0:0:0:
320,192,82800,1,0,0:0:0:0:
448,192,82877,1,0,0:0:0:35:Snare.wav
64,192,82877,1,0,0:0:0:0:
192,192,83032,1,0,0:0:0:0:
320,192,83186,1,0,0:0:0:35:BaSS.wav
448,192,83186,1,0,0:0:0:0:
64,192,83341,1,0,0:0:0:0:
192,192,83418,1,0,0:0:0:0:
320,192,83496,1,0,0:0:0:35:Snare.wav
448,192,83496,1,0,0:0:0:0:
192,192,83650,1,0,0:0:0:0:
448,192,83805,1,0,0:0:0:35:BaSS.wav
64,192,83805,1,0,0:0:0:0:
320,192,83960,1,0,0:0:0:0:
192,192,84114,1,0,0:0:0:35:Snare.wav
64,192,84114,1,0,0:0:0:0:
320,192,84269,1,0,0:0:0:0:
448,192,84424,1,0,0:0:0:35:BaSS.wav
64,192,84424,1,0,0:0:0:0:
192,192,84501,1,0,0:0:0:0:
320,192,84656,1,0,0:0:0:0:
448,192,84733,1,0,0:0:0:35:Snare.wav
64,192,84733,1,0,0:0:0:0:
192,192,84887,1,0,0:0:0:0:
448,192,85042,1,0,0:0:0:35:BaSS.wav
320,192,85042,1,0,0:0:0:0:
64,192,85197,1,0,0:0:0:0:
320,192,85274,1,0,0:0:0:0:
192,192,85351,1,0,0:0:0:35:Snare.wav
448,192,85351,1,0,0:0:0:0:
64,192,85506,1,0,0:0:0:0:
320,192,85661,1,0,0:0:0:35:BaSS.wav
448,192,85661,1,0,0:0:0:0:
192,192,85815,1,0,0:0:0:0:
320,192,85893,1,0,0:0:0:0:
448,192,85970,1,0,0:0:0:0:
64,192,85970,1,0,0:0:0:0:
320,192,86125,1,0,0:0:0:0:
64,192,86279,1,0,0:0:0:35:Crash.wav
192,192,86279,1,0,0:0:0:35:BaSS.wav
448,192,86279,1,0,0:0:0:0:
320,192,86434,1,0,0:0:0:0:
192,192,86588,1,0,0:0:0:35:Snare.wav
64,192,86588,1,0,0:0:0:0:
448,192,86743,1,0,0:0:0:0:
320,192,86898,1,0,0:0:0:35:BaSS.wav
192,192,86898,1,0,0:0:0:0:
64,192,86975,1,0,0:0:0:0:
448,192,87130,1,0,0:0:0:0:
320,192,87207,1,0,0:0:0:35:Snare.wav
192,192,87207,1,0,0:0:0:0:
64,192,87362,1,0,0:0:0:0:
320,192,87516,1,0,0:0:0:35:BaSS.wav
448,192,87516,1,0,0:0:0:0:
192,192,87516,1,0,0:0:0:0:
320,192,87748,1,0,0:0:0:35:BaSS.wav
192,192,87748,1,0,0:0:0:0:
64,192,87748,1,0,0:0:0:0:
192,192,87980,1,0,0:0:0:35:BaSS.wav
320,192,87980,1,0,0:0:0:0:
448,192,87980,1,0,0:0:0:0:
64,192,88135,1,0,0:0:0:35:BaSS.wav
320,192,88135,1,0,0:0:0:0:
448,192,88135,1,0,0:0:0:0:
192,192,88367,1,0,0:0:0:35:BaSS.wav
64,192,88367,1,0,0:0:0:0:
448,192,88367,1,0,0:0:0:0:
64,192,88599,1,0,0:0:0:35:BaSS.wav
320,192,88599,1,0,0:0:0:0:
448,192,88599,1,0,0:0:0:0:
64,192,88753,1,0,0:0:0:35:BaSS.wav
192,192,88753,1,0,0:0:0:0:
320,192,88908,1,0,0:0:0:35:BaSS.wav
192,192,88908,1,0,0:0:0:0:
320,192,89063,1,0,0:0:0:35:Snare.wav
448,192,89063,1,0,0:0:0:0:
64,192,89063,1,0,0:0:0:0:
192,192,89217,1,0,0:0:0:0:
320,192,89295,1,0,0:0:0:0:
448,192,89372,1,0,0:0:0:35:BaSS.wav
64,192,89372,1,0,0:0:0:0:
320,192,89527,1,0,0:0:0:0:
192,192,89604,1,0,0:0:0:0:
448,192,89681,1,0,0:0:0:35:Snare.wav
64,192,89681,1,0,0:0:0:0:
320,192,89836,1,0,0:0:0:35:BaSS.wav
192,192,89836,1,0,0:0:0:0:
448,192,89991,1,0,0:0:0:35:BaSS.wav
64,192,89991,1,0,0:0:0:0:
448,192,90145,1,0,0:0:0:35:BaSS.wav
64,192,90145,1,0,0:0:0:0:
192,192,90300,1,0,0:0:0:35:Snare.wav
64,192,90300,1,0,0:0:0:0:
448,192,90300,1,0,0:0:0:0:
320,192,90609,1,0,0:0:0:35:BaSS.wav
448,192,90609,128,0,90918:0:0:0:0:
64,192,90918,1,0,0:0:0:0:
192,192,90996,1,0,0:0:0:0:
320,192,91073,1,0,0:0:0:0:
448,192,91150,1,0,0:0:0:0:
320,192,91228,1,0,0:0:0:35:BaSS.wav
192,192,91228,1,0,0:0:0:35:Snare.wav
64,192,91228,1,0,0:0:0:35:Crash.wav
448,192,91382,1,0,0:0:0:0:
320,192,91537,1,0,0:0:0:35:BaSS.wav
64,192,91537,1,0,0:0:0:35:Snare.wav
192,192,91692,1,0,0:0:0:0:
448,192,91846,1,0,0:0:0:35:BaSS.wav
320,192,91846,1,0,0:0:0:35:Snare.wav
192,192,91924,1,0,0:0:0:0:
320,192,92078,1,0,0:0:0:0:
192,192,92156,1,0,0:0:0:35:BaSS.wav
64,192,92156,1,0,0:0:0:35:Snare.wav
448,192,92310,1,0,0:0:0:0:
320,192,92465,1,0,0:0:0:35:BaSS.wav
64,192,92465,1,0,0:0:0:35:Snare.wav
192,192,92619,1,0,0:0:0:0:
320,192,92697,1,0,0:0:0:0:
448,192,92774,1,0,0:0:0:35:BaSS.wav
64,192,92774,1,0,0:0:0:35:Snare.wav
320,192,92929,1,0,0:0:0:0:
192,192,93083,1,0,0:0:0:35:BaSS.wav
64,192,93083,1,0,0:0:0:35:Snare.wav
448,192,93238,1,0,0:0:0:0:
320,192,93315,1,0,0:0:0:0:
192,192,93393,1,0,0:0:0:35:Snare.wav
64,192,93393,1,0,0:0:0:35:BaSS.wav
320,192,93547,1,0,0:0:0:0:
448,192,93702,1,0,0:0:0:35:BaSS.wav
64,192,93702,1,0,0:0:0:35:Snare.wav
192,192,93857,1,0,0:0:0:0:
320,192,94011,1,0,0:0:0:35:BaSS.wav
64,192,94011,1,0,0:0:0:35:Snare.wav
448,192,94166,1,0,0:0:0:0:
192,192,94320,1,0,0:0:0:35:Snare.wav
64,192,94320,1,0,0:0:0:35:BaSS.wav
320,192,94398,1,0,0:0:0:0:
192,192,94552,1,0,0:0:0:0:
320,192,94630,1,0,0:0:0:35:Snare.wav
448,192,94630,1,0,0:0:0:35:BaSS.wav
64,192,94784,1,0,0:0:0:0:
192,192,94939,1,0,0:0:0:35:Snare.wav
448,192,94939,1,0,0:0:0:35:BaSS.wav
320,192,95094,1,0,0:0:0:0:
192,192,95171,1,0,0:0:0:0:
448,192,95248,1,0,0:0:0:35:BaSS.wav
64,192,95248,1,0,0:0:0:35:Snare.wav
320,192,95403,1,0,0:0:0:0:
192,192,95558,1,0,0:0:0:35:BaSS.wav
64,192,95558,1,0,0:0:0:35:Snare.wav
448,192,95712,1,0,0:0:0:0:
320,192,95790,1,0,0:0:0:0:
448,192,95867,1,0,0:0:0:35:Snare.wav
64,192,95867,1,0,0:0:0:35:BaSS.wav
192,192,96021,1,0,0:0:0:0:
320,192,96176,1,0,0:0:0:35:Snare.wav
448,192,96176,1,0,0:0:0:35:Crash.wav
192,192,96331,1,0,0:0:0:35:Snare.wav
64,192,96331,1,0,0:0:0:0:
320,192,96485,1,0,0:0:0:35:Snare.wav
448,192,96485,1,0,0:0:0:0:
192,192,96640,1,0,0:0:0:35:Snare.wav
64,192,96640,1,0,0:0:0:0:
320,192,96795,1,0,0:0:0:35:Snare.wav
448,192,96795,1,0,0:0:0:0:
448,192,96949,1,0,0:0:0:35:Snare.wav
320,192,96949,1,0,0:0:0:0:
192,192,97104,1,0,0:0:0:35:Snare.wav
64,192,97104,1,0,0:0:0:0:
192,192,97259,1,0,0:0:0:35:Snare.wav
64,192,97259,1,0,0:0:0:0:
448,192,97413,1,0,0:0:0:35:Snare.wav
64,192,97413,1,0,0:0:0:35:Crash.wav
64,192,97568,1,0,0:0:0:35:Snare.wav
448,192,97568,1,0,0:0:0:0:
192,192,97723,1,0,0:0:0:35:Snare.wav
448,192,97723,1,0,0:0:0:0:
192,192,97877,1,0,0:0:0:35:Snare.wav
448,192,97877,1,0,0:0:0:0:
320,192,98032,1,0,0:0:0:35:Snare.wav
64,192,98032,1,0,0:0:0:0:
320,192,98186,1,0,0:0:0:35:Snare.wav
64,192,98186,1,0,0:0:0:0:
192,192,98341,1,0,0:0:0:35:Snare.wav
320,192,98341,1,0,0:0:0:0:
192,192,98496,1,0,0:0:0:35:Snare.wav
320,192,98496,1,0,0:0:0:0:
448,192,98650,1,0,0:0:0:35:Crash.wav
64,192,98728,1,0,0:0:0:35:BaSS.wav
320,192,98805,1,0,0:0:0:35:BaSS.wav
192,192,98882,1,0,0:0:0:35:BaSS.wav
448,192,98960,1,0,0:0:0:35:BaSS.wav
64,192,99037,1,0,0:0:0:35:BaSS.wav
320,192,99114,1,0,0:0:0:35:BaSS.wav
192,192,99192,1,0,0:0:0:35:BaSS.wav
448,192,99269,1,0,0:0:0:35:BaSS.wav
320,192,99346,1,0,0:0:0:35:BaSS.wav
64,192,99424,1,0,0:0:0:35:BaSS.wav
192,192,99501,1,0,0:0:0:35:BaSS.wav
320,192,99578,1,0,0:0:0:35:BaSS.wav
448,192,99656,1,0,0:0:0:35:BaSS.wav
192,192,99733,1,0,0:0:0:35:BaSS.wav
64,192,99810,1,0,0:0:0:35:BaSS.wav
320,192,99887,1,0,0:0:0:35:Crash.wav
448,192,99887,128,0,100506:0:0:0:35:BaSS.wav
192,192,100506,1,0,0:0:0:35:Crash.wav
64,192,100506,128,0,101125:0:0:0:35:BaSS.wav
192,192,101125,1,0,0:0:0:35:BaSS.wav
448,192,101125,128,0,101279:0:0:0:35:Crash.wav
320,192,101279,1,0,0:0:0:0:
192,192,101434,1,0,0:0:0:35:BaSS.wav
448,192,101434,128,0,101588:0:0:0:0:
320,192,101588,1,0,0:0:0:0:
64,192,101743,1,0,0:0:0:35:BaSS.wav
192,192,101743,128,0,101898:0:0:0:0:
320,192,101898,128,0,102052:0:0:0:0:
64,192,102052,1,0,0:0:0:35:BaSS.wav
448,192,102052,128,0,102207:0:0:0:0:
192,192,102207,128,0,102362:0:0:0:0:
64,192,102362,128,0,102516:0:0:0:35:BaSS.wav
320,192,102362,1,0,0:0:0:0:
192,192,102516,1,0,0:0:0:0:
64,192,102671,128,0,102826:0:0:0:35:BaSS.wav
320,192,102671,1,0,0:0:0:0:
192,192,102826,1,0,0:0:0:0:
320,192,102980,128,0,103135:0:0:0:35:BaSS.wav
448,192,102980,1,0,0:0:0:0:
192,192,103135,128,0,103290:0:0:0:0:
64,192,103290,128,0,103444:0:0:0:35:BaSS.wav
448,192,103290,1,0,0:0:0:0:
320,192,103444,128,0,103599:0:0:0:0:
192,192,103599,1,0,0:0:0:35:BaSS.wav
448,192,103599,128,0,103753:0:0:0:0:
320,192,103753,1,0,0:0:0:0:
192,192,103908,1,0,0:0:0:35:BaSS.wav
64,192,103908,128,0,104063:0:0:0:0:
448,192,104063,1,0,0:0:0:0:
64,192,104217,1,0,0:0:0:35:BaSS.wav
192,192,104217,128,0,104372:0:0:0:0:
448,192,104372,128,0,104527:0:0:0:0:
64,192,104527,1,0,0:0:0:35:BaSS.wav
320,192,104527,128,0,104681:0:0:0:0:
192,192,104681,128,0,104836:0:0:0:0:
320,192,104836,1,0,0:0:0:35:BaSS.wav
64,192,104836,128,0,104991:0:0:0:0:
192,192,104991,1,0,0:0:0:0:
320,192,105145,1,0,0:0:0:35:BaSS.wav
448,192,105145,128,0,105300:0:0:0:0:
64,192,105300,1,0,0:0:0:0:
448,192,105454,1,0,0:0:0:35:BaSS.wav
320,192,105454,128,0,105609:0:0:0:0:
192,192,105609,1,0,0:0:0:0:
448,192,105764,128,0,106073:0:0:0:35:BaSS.wav
64,192,105764,128,0,106073:0:0:0:0:
192,192,106073,1,0,0:0:0:35:BaSS.wav
320,192,106073,1,0,0:0:0:0:
64,192,106150,1,0,0:0:0:0:
448,192,106228,1,0,0:0:0:0:
320,192,106305,1,0,0:0:0:0:
192,192,106382,1,0,0:0:0:35:BaSS.wav
64,192,106382,1,0,0:0:0:0:
448,192,106460,1,0,0:0:0:0:
320,192,106537,1,0,0:0:0:0:
192,192,106614,1,0,0:0:0:0:
64,192,106692,1,0,0:0:0:35:BaSS.wav
448,192,106692,1,0,0:0:0:0:
192,192,106769,1,0,0:0:0:0:
320,192,106846,1,0,0:0:0:0:
448,192,106924,1,0,0:0:0:0:
192,192,107001,1,0,0:0:0:35:BaSS.wav
64,192,107001,1,0,0:0:0:0:
320,192,107078,1,0,0:0:0:0:
192,192,107156,1,0,0:0:0:0:
64,192,107233,1,0,0:0:0:0:
448,192,107310,1,0,0:0:0:35:BaSS.wav
320,192,107310,1,0,0:0:0:0:
64,192,107387,1,0,0:0:0:0:
192,192,107465,1,0,0:0:0:0:
320,192,107542,1,0,0:0:0:0:
448,192,107619,1,0,0:0:0:35:BaSS.wav
64,192,107619,1,0,0:0:0:0:
192,192,107697,1,0,0:0:0:0:
320,192,107774,1,0,0:0:0:0:
448,192,107851,1,0,0:0:0:0:
192,192,107929,1,0,0:0:0:35:BaSS.wav
64,192,107929,1,0,0:0:0:0:
448,192,108006,1,0,0:0:0:0:
320,192,108083,1,0,0:0:0:0:
192,192,108161,1,0,0:0:0:0:
448,192,108238,1,0,0:0:0:35:BaSS.wav
64,192,108238,1,0,0:0:0:0:
320,192,108315,1,0,0:0:0:0:
192,192,108393,1,0,0:0:0:0:
64,192,108470,1,0,0:0:0:0:
320,192,108547,1,0,0:0:0:35:BaSS.wav
448,192,108547,128,0,108702:0:0:0:0:
192,192,108702,1,0,0:0:0:0:
64,192,108857,128,0,109011:0:0:0:35:BaSS.wav
320,192,108857,1,0,0:0:0:0:
192,192,109011,1,0,0:0:0:0:
320,192,109166,1,0,0:0:0:35:BaSS.wav
448,192,109166,128,0,109320:0:0:0:0:
64,192,109320,128,0,109475:0:0:0:0:
192,192,109475,1,0,0:0:0:35:BaSS.wav
320,192,109475,128,0,109630:0:0:0:0:
448,192,109630,128,0,109784:0:0:0:0:
192,192,109784,1,0,0:0:0:35:BaSS.wav
64,192,109784,128,0,109939:0:0:0:0:
320,192,109939,1,0,0:0:0:0:
448,192,110094,1,0,0:0:0:35:BaSS.wav
64,192,110094,1,0,0:0:0:0:
192,192,110248,1,0,0:0:0:0:
320,192,110326,1,0,0:0:0:0:
448,192,110403,1,0,0:0:0:35:BaSS.wav
64,192,110403,1,0,0:0:0:0:
448,192,110558,1,0,0:0:0:35:BaSS.wav
64,192,110558,1,0,0:0:0:0:
192,192,111021,1,0,0:0:0:35:BaSS.wav
64,192,111021,1,0,0:0:0:35:Crash.wav
448,192,111021,1,0,0:0:0:0:
320,192,111331,1,0,0:0:0:0:
320,192,111640,1,0,0:0:0:35:Crash.wav
448,192,111640,1,0,0:0:0:35:BaSS.wav
64,192,111640,1,0,0:0:0:0:
192,192,111872,1,0,0:0:0:35:BaSS.wav
64,192,111872,1,0,0:0:0:35:Crash.wav
448,192,111872,1,0,0:0:0:0:
320,192,112104,1,0,0:0:0:35:Crash.wav
448,192,112104,1,0,0:0:0:35:BaSS.wav
64,192,112104,1,0,0:0:0:0:
192,192,112259,1,0,0:0:0:0:
448,192,112413,1,0,0:0:0:35:BaSS.wav
320,192,112413,1,0,0:0:0:35:Crash.wav
64,192,112413,1,0,0:0:0:0:
448,192,112568,1,0,0:0:0:35:BaSS.wav
192,192,112568,1,0,0:0:0:35:Crash.wav
320,192,112568,1,0,0:0:0:0:
64,192,112723,1,0,0:0:0:0:
448,192,112877,1,0,0:0:0:35:BaSS.wav
192,192,112877,1,0,0:0:0:35:Crash.wav
320,192,112877,1,0,0:0:0:0:
64,192,113032,1,0,0:0:0:35:BaSS.wav
192,192,113032,1,0,0:0:0:35:Crash.wav
448,192,113032,1,0,0:0:0:0:
320,192,113186,1,0,0:0:0:35:BaSS.wav
192,192,113264,1,0,0:0:0:35:BaSS.wav
64,192,113341,1,0,0:0:0:35:BaSS.wav
448,192,113418,1,0,0:0:0:35:BaSS.wav
320,192,113496,1,0,0:0:0:35:Crash.wav
192,192,113496,1,0,0:0:0:35:BaSS.wav
64,192,113496,1,0,0:0:0:0:
448,192,113650,1,0,0:0:0:0:
192,192,113805,1,0,0:0:0:35:Crash.wav
448,192,113805,1,0,0:0:0:35:BaSS.wav
64,192,113805,1,0,0:0:0:0:
192,192,113960,1,0,0:0:0:0:
320,192,114114,1,0,0:0:0:35:Crash.wav
448,192,114114,1,0,0:0:0:35:BaSS.wav
64,192,114114,1,0,0:0:0:0:
192,192,114346,1,0,0:0:0:35:BaSS.wav
64,192,114346,1,0,0:0:0:35:Crash.wav
448,192,114346,1,0,0:0:0:0:
320,192,114578,1,0,0:0:0:35:Crash.wav
448,192,114578,1,0,0:0:0:35:BaSS.wav
64,192,114578,1,0,0:0:0:0:
192,192,114733,1,0,0:0:0:0:
320,192,114887,1,0,0:0:0:35:BaSS.wav
448,192,114887,1,0,0:0:0:35:Crash.wav
64,192,114887,1,0,0:0:0:0:
320,192,115119,1,0,0:0:0:35:BaSS.wav
192,192,115119,1,0,0:0:0:35:Crash.wav
64,192,115119,1,0,0:0:0:0:
192,192,115351,1,0,0:0:0:35:Crash.wav
320,192,115351,1,0,0:0:0:35:BaSS.wav
448,192,115351,1,0,0:0:0:0:
320,192,115583,1,0,0:0:0:35:Crash.wav
192,192,115583,1,0,0:0:0:35:BaSS.wav
64,192,115583,1,0,0:0:0:0:
448,192,115661,1,0,0:0:0:35:BaSS.wav
320,192,115738,1,0,0:0:0:0:
192,192,115815,1,0,0:0:0:35:BaSS.wav
64,192,115893,1,0,0:0:0:0:
320,192,115970,1,0,0:0:0:35:Crash.wav
448,192,115970,1,0,0:0:0:35:BaSS.wav
64,192,116047,1,0,0:0:0:0:
192,192,116125,1,0,0:0:0:0:
320,192,116202,1,0,0:0:0:0:
448,192,116279,1,0,0:0:0:35:BaSS.wav
320,192,116357,1,0,0:0:0:0:
192,192,116434,1,0,0:0:0:0:
64,192,116511,1,0,0:0:0:0:
448,192,116588,1,0,0:0:0:35:BaSS.wav
192,192,116666,1,0,0:0:0:0:
320,192,116743,1,0,0:0:0:0:
64,192,116820,1,0,0:0:0:0:
448,192,116898,1,0,0:0:0:35:BaSS.wav
192,192,116975,1,0,0:0:0:0:
320,192,117052,1,0,0:0:0:0:
64,192,117130,1,0,0:0:0:0:
192,192,117207,1,0,0:0:0:35:Crash.wav
448,192,117284,1,0,0:0:0:0:
64,192,117362,1,0,0:0:0:0:
320,192,117439,1,0,0:0:0:0:
192,192,117516,1,0,0:0:0:35:BaSS.wav
448,192,117594,1,0,0:0:0:0:
64,192,117671,1,0,0:0:0:0:
320,192,117748,1,0,0:0:0:0:
64,192,117826,1,0,0:0:0:35:Crash.wav
192,192,117903,1,0,0:0:0:0:
320,192,117980,1,0,0:0:0:0:
448,192,118058,1,0,0:0:0:35:BaSS.wav
64,192,118135,1,0,0:0:0:0:
192,192,118212,1,0,0:0:0:0:
320,192,118290,1,0,0:0:0:35:BaSS.wav
448,192,118367,1,0,0:0:0:0:
192,192,118444,1,0,0:0:0:35:Crash.wav
64,192,118444,1,0,0:0:0:35:BaSS.wav
320,192,118521,1,0,0:0:0:0:
192,192,118599,1,0,0:0:0:35:BaSS.wav
64,192,118676,1,0,0:0:0:0:
320,192,118753,1,0,0:0:0:35:Crash.wav
448,192,118753,1,0,0:0:0:35:BaSS.wav
192,192,118831,1,0,0:0:0:0:
320,192,118908,1,0,0:0:0:35:BaSS.wav
448,192,118985,1,0,0:0:0:0:
192,192,119063,1,0,0:0:0:35:Crash.wav
320,192,119140,1,0,0:0:0:35:BaSS.wav
192,192,119217,1,0,0:0:0:35:BaSS.wav
320,192,119295,1,0,0:0:0:35:BaSS.wav
192,192,119372,1,0,0:0:0:35:Crash.wav
320,192,119449,1,0,0:0:0:35:BaSS.wav
192,192,119527,1,0,0:0:0:35:BaSS.wav
320,192,119604,1,0,0:0:0:35:BaSS.wav
192,192,119681,128,0,120042:0:0:0:35:BaSS.wav
448,192,120042,1,0,0:0:0:0:
320,192,120094,1,0,0:0:0:0:
64,192,120145,1,0,0:0:0:0:
192,192,120197,1,0,0:0:0:0:
448,192,120248,1,0,0:0:0:0:
320,192,120300,128,0,120918:0:0:0:0:
192,192,120918,1,0,0:0:0:35:Crash.wav
64,192,120918,1,0,0:0:0:35:BaSS.wav
