osu file format v14

[General]
AudioFilename: XROSS INFECTION.mp3
AudioLeadIn: 0
PreviewTime: 72269
Countdown: 0
SampleSet: Soft
StackLeniency: 0.3
Mode: 0
LetterboxInBreaks: 0
WidescreenStoryboard: 0

[Editor]
DistanceSpacing: 1.1
BeatDivisor: 4
GridSize: 4
TimelineZoom: 2

[Metadata]
Title:XROSS INFECTION
TitleUnicode:XROSS INFECTION
Artist:BlackY vs. Yooh
ArtistUnicode:BlackY vs. Yooh
Creator:shadow_neko
Version:NOVICE
Source:SOUND VOLTEX II -infinite infection-
Tags:rhythm game SDVX Blizs eeezzzeee estellia- Fantastica Narcissu Rtyzen _IxApplePie_
BeatmapID:903742
BeatmapSetID:376506

[Difficulty]
HPDrainRate:4
CircleSize:3.2
OverallDifficulty:4
ApproachRate:5
SliderMultiplier:1.1
SliderTickRate:1

[Events]
//Background and Video events
0,0,"the library.jpg",0,0
//Break Periods
//Storyboard Layer 0 (Background)
//Storyboard Layer 1 (Fail)
//Storyboard Layer 2 (Pass)
//Storyboard Layer 3 (Foreground)
//Storyboard Sound Samples

[TimingPoints]
2450,309.278350515464,4,2,2,70,1,0
3068,-100,4,2,2,70,0,0
12346,-100,4,2,1,70,0,0
13584,-100,4,2,1,100,0,0
23480,-100,4,2,2,100,0,0
23790,-100,4,2,1,100,0,0
28429,-100,4,2,2,100,0,0
28738,-100,4,2,1,100,0,0
29666,-100,4,2,2,100,0,0
29975,-100,4,2,1,100,0,0
30903,-100,4,2,2,100,0,0
33377,-100,4,2,2,100,0,1
33687,-100,4,2,1,100,0,1
43274,-100,4,2,4,100,0,1
43584,-100,4,2,1,100,0,1
53171,-100,4,2,1,100,0,0
63068,-100,4,2,4,100,0,0
63377,-100,4,2,1,100,0,0
68017,-100,4,2,4,100,0,0
68326,-100,4,2,1,100,0,0
69254,-100,4,2,4,100,0,0
69563,-100,4,2,1,100,0,0
70491,-100,4,2,4,100,0,0
72965,-100,4,2,1,100,0,1
82862,-100,4,2,4,100,0,1
83171,-100,4,2,1,100,0,1
87810,-100,4,2,4,100,0,1
88120,-100,4,2,1,100,0,1
89047,-100,4,2,4,100,0,1
89357,-100,4,2,1,100,0,1
90285,-100,4,2,4,100,0,1
92759,-100,4,2,1,100,0,0
95233,-100,4,2,1,100,0,1
105130,-100,4,2,4,100,0,0
105439,-100,4,2,1,100,0,0
110078,-100,4,2,4,100,0,0
110388,-100,4,2,1,100,0,0
111315,-100,4,2,4,100,0,0
111625,-100,4,2,1,100,0,0
112553,-100,4,2,4,100,0,0
114099,-100,4,2,1,100,0,0
115027,-100,4,2,4,100,0,0

[Colours]
Combo1 : 242,94,131
Combo2 : 108,140,225
Combo3 : 176,102,238

[HitObjects]
320,256,2450,6,0,P|416:248|364:160,1,220,0|2,0:0|0:0,0:0:0:0:
164,228,3687,2,0,B|109:275|117:339|161:376|239:380|276:349|284:289|268:239|240:219|220:185|217:151|231:113|259:87,1,440
256,192,5001,12,0,6779,0:0:0:0:
316,60,7398,6,0,B|272:188|272:188|320:252|320:252|380:284|436:248|444:184|420:132|368:112|316:136|272:188|272:188|216:224|156:212|120:168|120:168|76:236|76:236|104:280|160:284,1,880
256,192,9950,12,4,12346,0:0:0:0:
136,80,13584,6,0,P|112:136|128:196,1,110,4|4,0:0|0:0,0:0:0:0:
204,256,14202,2,0,P|228:200|212:140,1,110,4|4,0:0|0:0,0:0:0:0:
136,80,14821,1,4,0:0:0:0:
232,28,15130,1,4,0:0:0:0:
316,100,15439,2,0,P|368:112|420:92,2,110,4|4|4,0:0|0:0|0:0,0:0:0:0:
219,153,16367,5,4,0:0:0:0:
260,256,16676,1,4,0:0:0:0:
328,168,16986,1,4,0:0:0:0:
219,153,17295,2,0,P|203:101|227:45,2,110,4|4|4,0:0|0:0|0:0,0:0:0:0:
260,256,18223,2,0,L|324:224,1,55,4|4,0:0|0:0,0:0:0:0:
348,272,18532,6,0,L|380:144,1,110,4|4,0:0|0:0,0:0:0:0:
272,124,19151,2,0,P|296:76|352:52,2,110,4|4|4,0:0|0:0|0:0,0:0:0:0:
284,232,20078,2,0,P|296:264|296:304,2,55,4|0|4,0:0|0:0|0:0,0:0:0:0:
200,160,20697,2,0,P|192:124|200:88,1,55,4|0,0:0|0:0,0:0:0:0:
204,52,21006,6,0,P|168:100|100:112,1,110,4|4,0:0|0:0,0:0:0:0:
12,132,21625,2,0,P|60:168|72:236,1,110,4|4,0:0|0:0,0:0:0:0:
92,324,22243,2,0,P|128:276|196:264,1,110,4|4,0:0|0:0,0:0:0:0:
228,273,22707,1,0,0:0:0:0:
264,231,22862,2,0,P|276:178|257:125,1,110,4|4,0:0|0:0,0:0:0:0:
165,186,23480,5,12,0:0:0:0:
76,120,23790,2,0,P|80:60|124:20,2,110,4|4|4,0:0|0:0|0:0,0:0:0:0:
113,223,24718,2,0,B|168:215|168:215|211:182,1,110,4|4,0:0|0:0,0:0:0:0:
252,80,25336,2,0,B|279:128|279:128|337:164,1,110,4|4,0:0|0:0,0:0:0:0:
384,64,25955,5,4,0:0:0:0:
325,157,26264,2,0,P|317:213|353:269,1,110,4|4,0:0|0:0,0:0:0:0:
428,192,26882,1,4,0:0:0:0:
325,157,27192,1,4,0:0:0:0:
216,172,27501,2,0,P|223:109|256:72,1,110,4|4,0:0|0:0,0:0:0:0:
357,70,28120,2,0,L|357:0,2,55,4|4|12,0:0|0:0|0:0,0:0:0:0:
357,125,28584,5,8,0:0:0:0:
357,180,28738,2,0,P|307:159|256:176,1,110,4|4,0:0|0:0,0:0:0:0:
193,266,29357,1,4,0:0:0:0:
303,268,29666,6,0,P|292:210|252:174,1,110,12|4,0:0|0:0,0:0:0:0:
159,117,30285,2,0,P|193:78|248:64,1,110,4|4,0:0|0:0,0:0:0:0:
345,115,30903,2,0,P|316:191|242:218,2,165,12|12|12,0:0|0:0|0:0,0:0:0:0:
257,48,32140,2,0,P|255:143|347:99,1,220,12|4,0:0|0:0,0:0:0:0:
154,224,33377,6,4,B|154:299|154:299|174:333,1,110,12|4,0:0|0:0,0:0:0:0:
264,269,33996,1,4,0:0:0:0:
357,211,34305,1,4,0:0:0:0:
266,150,34614,2,4,P|249:96|267:38,1,110
358,95,35233,2,4,B|349:168|349:168|318:208,1,110
228,247,35852,6,4,P|233:133|318:87,2,220
336,225,37398,1,4,0:0:0:0:
306,331,37707,1,4,0:0:0:0:
198,353,38017,2,4,L|221:292,1,55
228,247,38326,6,4,L|229:126,1,110
120,119,38944,2,4,P|141:67|184:37,1,110
228,137,39563,2,4,B|211:214|128:228|128:228|97:267|122:311,2,220
120,119,41109,5,12,0:0:0:0:
184,32,41419,2,4,P|236:18|286:38,1,110,4|12,0:0|0:0,0:0:0:0:
330,143,42037,2,4,P|277:156|227:136,1,110,4|12,0:0|0:0,0:0:0:0:
227,247,42656,2,14,L|227:359,2,110,12|12|14,0:0|0:0|0:0,0:0:0:0:
227,136,43584,6,4,L|343:92,1,110
259,13,44202,1,4,0:0:0:0:
166,71,44511,2,4,P|138:115|146:171,1,110
43,208,45130,2,4,P|75:248|129:263,1,110
237,240,45748,5,4,0:0:0:0:
344,215,46058,1,4,0:0:0:0:
317,108,46367,1,4,0:0:0:0:
210,133,46676,1,4,0:0:0:0:
237,240,46986,2,4,P|108:169|181:28,1,330
211,133,48223,6,4,P|172:168|116:168,2,110,12|4|4,0:0|0:0|0:0,0:0:0:0:
256,32,49151,1,4,0:0:0:0:
301,133,49460,2,4,P|339:168|395:168,2,110,12|4|4,0:0|0:0|0:0,0:0:0:0:
256,32,50388,1,4,0:0:0:0:
256,144,50697,6,4,L|256:252,1,82.5,12|4,0:0|0:0,0:0:0:0:
185,270,51161,2,4,P|157:297|147:340,2,82.5
256,226,51779,6,0,P|324:210|192:186,1,495,4|12,0:0|0:0,0:0:0:0:
128,232,53403,2,4,P|96:256|52:256,2,82.5
252,84,54408,2,0,L|320:112,2,55,12|4|0,0:0|0:0|0:0,0:0:0:0:
200,64,54872,1,0,0:0:0:0:
200,120,55027,2,0,L|200:196,1,55,12|4,0:0|0:0,0:0:0:0:
200,230,55336,2,0,P|144:220|96:240,1,110,0|12,0:0|0:0,0:0:0:0:
112,320,55877,6,4,P|100:356|60:380,2,82.5
26,148,56882,2,0,L|139:117,1,110,8|0,0:0|0:0,0:0:0:0:
88,20,57501,2,0,L|200:48,1,110,8|0,0:0|0:0,0:0:0:0:
248,60,57965,1,0,0:0:0:0:
300,76,58120,6,4,P|308:128|296:176,1,82.5,12|4,0:0|0:0,0:0:0:0:
232,200,58584,2,4,P|284:192|332:204,1,82.5
200,352,59357,6,4,P|168:328|160:272,1,82.5,12|4,0:0|0:0,0:0:0:0:
176,208,59821,2,4,P|152:240|96:248,1,82.5
152,60,60594,6,4,L|168:152,1,82.5,12|4,0:0|0:0,0:0:0:0:
300,176,61212,2,4,L|284:268,1,82.5,12|4,0:0|0:0,0:0:0:0:
224,136,61831,2,0,P|260:100|316:88,2,110,0|0|12,0:0|0:0|0:0,0:0:0:0:
200,216,62681,2,4,L|184:124,1,82.5
174,80,63068,6,0,P|145:128|94:146,1,110,14|0,0:0|0:0,0:0:0:0:
125,252,63687,2,0,P|123:308|88:349,2,110
96,145,64614,1,0,0:0:0:0:
199,183,64924,2,0,P|246:189|296:166,2,82.5
150,158,65542,6,0,P|137:104|159:51,1,110,8|0,0:0|0:0,0:0:0:0:
258,8,66161,1,0,0:0:0:0:
332,88,66470,1,0,0:0:0:0:
228,112,66779,1,0,0:0:0:0:
322,180,67089,1,0,0:0:0:0:
322,180,67398,2,0,L|298:289,1,110
193,256,68017,6,4,P|138:258|97:295,2,110,14|4|4,0:0|0:0|0:0,0:0:0:0:
299,288,68944,1,4,0:0:0:0:
245,192,69254,2,4,P|235:139|256:87,1,110,14|4,0:0|0:0,0:0:0:0:
320,180,69872,2,4,P|312:232|244:268,1,110
164,224,70491,6,14,B|104:184|128:108|128:108|168:92|168:92|184:44|184:44,2,220
368,163,72346,2,0,P|313:179|264:164,1,110
315,69,72965,6,4,P|370:53|419:68,2,110,12|4|4,0:0|0:0|0:0,0:0:0:0:
264,164,73893,1,4,0:0:0:0:
159,196,74202,2,4,P|151:140|183:96,2,110,12|4|4,0:0|0:0|0:0,0:0:0:0:
245,264,75130,1,4,0:0:0:0:
331,196,75439,6,4,P|339:140|307:96,2,110,12|4|4,0:0|0:0|0:0,0:0:0:0:
245,264,76367,1,4,0:0:0:0:
160,194,76676,2,4,L|272:154,1,110,12|4,0:0|0:0,0:0:0:0:
372,134,77295,2,4,L|260:94,1,110
173,152,77913,6,4,L|173:268,1,110,12|4,0:0|0:0,0:0:0:0:
270,316,78532,2,4,L|270:200,1,110
268,97,79151,1,12,0:0:0:0:
173,152,79460,1,4,0:0:0:0:
270,206,79769,2,4,P|326:204|359:166,1,110
361,110,80233,1,0,0:0:0:0:
364,56,80388,6,4,P|398:14|451:2,1,110,12|4,0:0|0:0,0:0:0:0:
452,112,81006,1,4,0:0:0:0:
452,224,81315,1,4,0:0:0:0:
352,176,81625,1,12,0:0:0:0:
352,288,81934,1,4,0:0:0:0:
264,224,82243,2,4,L|264:160,2,55,12|4|4,0:0|0:0|0:0,0:0:0:0:
192,308,82862,6,4,P|156:264|152:204,1,110,14|4,0:0|0:0,0:0:0:0:
204,116,83480,2,4,P|240:160|244:220,1,110,12|4,0:0|0:0,0:0:0:0:
192,308,84099,2,4,B|112:288|112:288|72:296,2,110,12|4|12,0:0|0:0|0:0,0:0:0:0:
294,344,85027,1,4,0:0:0:0:
396,308,85336,6,4,P|404:252|380:200,1,110,12|4,0:0|0:0,0:0:0:0:
320,112,85955,2,4,P|312:56|336:4,1,110,12|4,0:0|0:0,0:0:0:0:
424,72,86573,1,12,0:0:0:0:
372,169,86882,1,4,0:0:0:0:
399,276,87192,1,12,0:0:0:0:
204,176,87810,6,4,B|124:200|124:200|96:224,2,110,14|4|4,0:0|0:0|0:0,0:0:0:0:
312,200,88738,1,4,0:0:0:0:
392,124,89047,2,4,P|412:76|392:24,1,110,14|4,0:0|0:0,0:0:0:0:
292,72,89666,1,4,0:0:0:0:
192,120,89975,1,4,0:0:0:0:
264,204,90285,6,14,P|228:284|192:196,2,220
216,80,92759,6,0,L|100:120,1,110
204,176,93377,2,0,L|132:276,1,110
248,268,93996,2,0,B|324:252|324:252|352:224,2,110
436,170,95233,6,0,P|444:130|368:226,1,495,12|0,0:0|0:0,0:0:0:0:
375,276,96779,2,0,P|370:335|330:367,1,110,4|4,0:0|0:0,0:0:0:0:
264,279,97398,6,4,B|184:267|184:267|172:239,1,110
257,170,98017,1,4,0:0:0:0:
349,229,98326,2,4,B|390:260|390:260|319:299,1,110
244,344,98944,2,4,P|224:292|247:225,1,110
195,138,99563,1,4,0:0:0:0:
127,224,99872,6,4,P|135:255|129:286,1,55
113,329,100181,2,4,P|154:301|214:311,1,110,12|4,0:0|0:0,0:0:0:0:
235,202,100800,2,4,B|250:238|250:238|314:282,2,110
199,98,101728,1,4,0:0:0:0:
128,182,102037,2,4,B|110:205|77:211|77:211|76:266,1,110
186,250,102656,6,4,P|241:232|268:185,1,110
305,86,103274,2,4,P|334:40|386:25,1,110
403,134,103893,2,4,P|457:140|505:110,2,110
305,86,104821,2,4,L|259:119,1,55
210,95,105130,6,4,L|211:212,1,110,14|4,0:0|0:0,0:0:0:0:
188,313,105748,2,4,L|288:253,1,110
388,225,106367,2,4,L|286:167,1,110
210,95,106986,1,4,0:0:0:0:
145,183,107295,1,4,0:0:0:0:
77,270,107604,6,4,P|125:295|181:291,1,110,12|4,0:0|0:0,0:0:0:0:
269,228,108223,2,4,P|221:203|165:207,1,110
77,270,108841,2,4,B|92:189|92:189|82:148,1,110
193,135,109460,2,4,B|186:108|186:108|201:27,1,110
293,82,110078,5,14,0:0:0:0:
295,190,110388,1,4,0:0:0:0:
206,250,110697,1,4,0:0:0:0:
108,208,111006,1,4,0:0:0:0:
193,135,111315,2,4,P|245:122|299:139,1,110,14|4,0:0|0:0,0:0:0:0:
346,236,111934,2,4,P|294:249|240:232,1,110
297,138,112553,6,0,B|399:86|399:86|453:100,2,165,14|14|14,0:0|0:0|0:0,0:0:0:0:
241,232,113790,2,0,P|240:288|267:334,2,110,14|0|0,0:0|0:0|0:0,0:0:0:0:
347,258,114718,1,0,0:0:0:0:
382,153,115027,2,12,L|406:74,1,82.5,14|6,0:0|0:0,0:0:0:0:
