osu file format v14

[General]
AudioFilename: XROSS INFECTION.mp3
AudioLeadIn: 0
PreviewTime: 72269
Countdown: 0
SampleSet: Soft
StackLeniency: 0.3
Mode: 0
LetterboxInBreaks: 0
WidescreenStoryboard: 0

[Editor]
DistanceSpacing: 1.1
BeatDivisor: 4
GridSize: 4
TimelineZoom: 2

[Metadata]
Title:XROSS INFECTION
TitleUnicode:XROSS INFECTION
Artist:BlackY vs. Yooh
ArtistUnicode:BlackY vs. Yooh
Creator:shadow_neko
Version:INFINITE
Source:SOUND VOLTEX II -infinite infection-
Tags:rhythm game SDVX Blizs eeezzzeee estellia- Fantastica Narcissu Rtyzen _IxApplePie_
BeatmapID:903740
BeatmapSetID:376506

[Difficulty]
HPDrainRate:6
CircleSize:4
OverallDifficulty:7
ApproachRate:9
SliderMultiplier:1.4
SliderTickRate:1

[Events]
//Background and Video events
0,0,"the library.jpg",0,0
//Break Periods
//Storyboard Layer 0 (Background)
//Storyboard Layer 1 (Fail)
//Storyboard Layer 2 (Pass)
//Storyboard Layer 3 (Foreground)
//Storyboard Sound Samples

[TimingPoints]
2450,309.278350515464,4,2,2,70,1,0
2450,-142.857142857143,4,2,2,70,0,0
5001,-142.857142857143,4,2,1,15,0,0
7398,-100,4,2,1,70,0,0
7707,-100,4,2,1,50,0,0
8635,-100,4,2,1,50,0,0
9872,-100,4,2,1,60,0,0
11109,-100,4,2,1,70,0,0
12037,-83.3333333333333,4,2,1,80,0,0
12346,-200,4,2,1,80,0,0
12424,-200,4,2,1,45,0,0
13584,-66.6666666666667,4,2,2,80,0,0
13738,-66.6666666666667,4,2,1,80,0,0
23480,-66.6666666666667,4,2,2,80,0,0
23635,-66.6666666666667,4,2,1,80,0,0
28429,-66.6666666666667,4,2,2,80,0,0
28584,-66.6666666666667,4,2,1,80,0,0
29666,-66.6666666666667,4,2,2,80,0,0
29743,-66.6666666666667,4,2,1,80,0,0
30903,-66.6666666666667,4,2,2,80,0,0
32218,-66.6666666666667,4,2,1,80,0,0
33377,-66.6666666666667,4,2,1,100,0,1
38944,-83.3333333333333,4,2,1,100,0,1
39176,-83.3333333333333,4,2,1,50,0,1
39254,-74.0740740740741,4,2,1,100,0,1
39486,-74.0740740740741,4,2,1,50,0,1
39563,-66.6666666666667,4,2,1,100,0,1
43274,-66.6666666666667,4,2,3,100,0,1
43429,-66.6666666666667,4,2,1,100,0,1
50697,-66.6666666666667,4,2,3,100,0,1
51934,-66.6666666666667,4,2,1,100,0,1
52553,-58.8235294117647,4,2,1,100,0,1
53171,-66.6666666666667,4,2,1,100,0,0
53635,-66.6666666666667,4,2,1,100,0,0
54408,-83.3333333333333,4,2,1,100,0,0
55645,-66.6666666666667,4,2,1,100,0,0
56882,-83.3333333333333,4,2,1,100,0,0
58352,-66.6666666666667,4,2,1,100,0,0
63068,-66.6666666666667,4,2,2,100,0,0
63300,-66.6666666666667,4,2,1,100,0,0
68017,-66.6666666666667,4,2,2,100,0,0
68171,-66.6666666666667,4,2,1,100,0,0
69254,-66.6666666666667,4,2,2,100,0,0
69408,-66.6666666666667,4,2,1,100,0,0
70491,-66.6666666666667,4,2,2,100,0,0
70529,-66.6666666666667,4,2,1,100,0,0
71109,-66.6666666666667,4,2,2,100,0,0
71148,-66.6666666666667,4,2,1,100,0,0
72346,-111.111111111111,4,2,1,100,0,0
72656,-83.3333333333333,4,2,1,100,0,0
72965,-66.6666666666667,4,2,1,100,0,1
82862,-66.6666666666667,4,2,2,100,0,1
83017,-66.6666666666667,4,2,1,100,0,1
87810,-66.6666666666667,4,2,2,100,0,1
87965,-66.6666666666667,4,2,1,100,0,1
89047,-66.6666666666667,4,2,2,100,0,1
89202,-66.6666666666667,4,2,1,100,0,1
90285,-66.6666666666667,4,2,2,100,0,1
90323,-66.6666666666667,4,2,1,100,0,1
90903,-66.6666666666667,4,2,2,100,0,1
90942,-66.6666666666667,4,2,1,100,0,1
91522,-66.6666666666667,4,2,2,100,0,1
93996,-66.6666666666667,4,2,1,85,0,0
95233,-66.6666666666667,4,2,1,100,0,1
105130,-66.6666666666667,4,2,2,100,0,0
105285,-66.6666666666667,4,2,1,100,0,0
107295,-58.8235294117647,4,2,1,100,0,0
107604,-66.6666666666667,4,2,1,100,0,0
108223,-57.1428571428571,4,2,1,100,0,0
108841,-66.6666666666667,4,2,1,100,0,0
110078,-66.6666666666667,4,2,2,100,0,0
110233,-66.6666666666667,4,2,1,100,0,0
111315,-66.6666666666667,4,2,2,100,0,0
111470,-66.6666666666667,4,2,1,100,0,0
112553,-200,4,2,2,100,0,0
112707,-200,4,2,1,5,0,0
112785,-100,4,2,2,100,0,0
112939,-100,4,2,1,5,0,0
113017,-66.6666666666667,4,2,2,100,0,0
113171,-66.6666666666667,4,2,1,5,0,0
113248,-50,4,2,2,100,0,0
113403,-50,4,2,1,5,0,0
113480,-66.6666666666667,4,2,2,100,0,0
113790,-66.6666666666667,4,2,2,100,0,0
113867,-66.6666666666667,4,2,1,100,0,0
115027,-50,4,2,2,100,0,0
115259,-50,4,2,5,100,0,0

[Colours]
Combo1 : 242,94,131
Combo2 : 108,140,225
Combo3 : 176,102,238

[HitObjects]
160,88,2450,6,0,P|96:156|132:244,1,195.999994018555,4|2,0:0|0:0,0:0:0:0:
276,64,3687,1,0,0:0:0:0:
276,64,4924,2,0,B|288:120|360:136|392:72|392:72|420:120|476:100|476:100|412:180|420:272|456:292|516:256|532:220|524:172|464:184|392:192|356:204|324:228|312:272,1,685.999979064942
312,268,7398,6,0,L|304:308,3,35
240,216,7707,2,0,L|200:208,3,35
264,116,8017,2,0,L|272:76,3,35
295,57,8326,1,0,0:0:0:0:
328,45,8403,1,0,0:0:0:0:
363,45,8480,1,0,0:0:0:0:
395,57,8558,1,0,0:0:0:0:
421,80,8635,6,0,P|440:124|432:168,1,70
300,184,8944,2,0,P|328:146|370:131,1,70
452,236,9254,2,0,P|405:230|371:201,1,70
276,72,9563,1,0,0:0:0:0:
220,248,9718,1,0,0:0:0:0:
347,135,9872,6,0,L|390:123,3,35
295,232,10181,2,0,L|307:276,3,35
200,175,10491,2,0,L|156:186,3,35
255,81,10800,2,0,L|242:37,3,35
213,31,11109,5,0,0:0:0:0:
178,29,11187,1,0,0:0:0:0:
147,45,11264,1,0,0:0:0:0:
122,69,11341,1,0,0:0:0:0:
110,101,11419,1,0,0:0:0:0:
119,135,11496,1,0,0:0:0:0:
137,164,11573,1,0,0:0:0:0:
151,196,11650,1,0,0:0:0:0:
149,231,11728,5,0,0:0:0:0:
131,260,11804,1,0,0:0:0:0:
101,278,11882,1,0,0:0:0:0:
67,279,11959,1,0,0:0:0:0:
35,265,12037,2,0,L|72:214,1,41.9999987182618
158,149,12192,2,0,L|210:137,1,41.9999987182618
321,168,12346,6,0,B|357:188|399:231|398:289|348:307|310:266|338:217|397:198|442:198,1,262.5,4|0,0:0|0:0,0:0:0:0:
456,200,13584,6,0,P|472:257|440:322,1,105.000004005432,12|0,0:0|0:0,0:0:0:0:
359,115,13893,2,0,P|400:72|472:67,1,105.000004005432,4|0,0:0|0:0,0:0:0:0:
339,244,14202,5,4,0:0:0:0:
288,233,14279,1,0,0:0:0:0:
251,196,14356,1,0,0:0:0:0:
456,200,14511,1,4,0:0:0:0:
344,348,14666,1,0,0:0:0:0:
368,91,14821,5,4,0:0:0:0:
329,272,14975,1,0,0:0:0:0:
248,27,15130,1,4,0:0:0:0:
289,207,15285,1,0,0:0:0:0:
428,88,15439,5,4,0:0:0:0:
385,117,15516,1,0,0:0:0:0:
334,127,15593,1,0,0:0:0:0:
196,100,15748,1,4,0:0:0:0:
232,296,15903,1,0,0:0:0:0:
304,88,16058,6,0,P|340:52|396:36,1,105.000004005432,4|0,0:0|0:0,0:0:0:0:
232,216,16367,2,0,P|182:229|126:215,1,105.000004005432,4|0,0:0|0:0,0:0:0:0:
368,172,16676,6,0,P|417:185|459:225,1,105.000004005432,4|0,0:0|0:0,0:0:0:0:
180,208,16986,2,0,P|143:172|127:116,1,105.000004005432,4|0,0:0|0:0,0:0:0:0:
316,272,17295,6,0,P|329:321|315:377,1,105.000004005432,4|0,0:0|0:0,0:0:0:0:
156,164,17604,2,0,P|169:114|209:72,1,105.000004005432,4|0,0:0|0:0,0:0:0:0:
164,312,17913,6,0,P|128:348|71:364,1,105.000004005432,4|0,0:0|0:0,0:0:0:0:
36,136,18223,1,4,0:0:0:0:
168,320,18377,1,4,0:0:0:0:
213,191,18532,6,0,L|248:92,1,105.000004005432,4|0,0:0|0:0,0:0:0:0:
133,220,18841,2,0,L|169:324,1,105.000004005432,4|0,0:0|0:0,0:0:0:0:
172,108,19151,1,4,0:0:0:0:
72,268,19305,1,0,0:0:0:0:
240,196,19460,1,4,0:0:0:0:
273,181,19537,1,0,0:0:0:0:
307,166,19614,1,0,0:0:0:0:
212,100,19769,5,4,0:0:0:0:
269,308,19924,1,0,0:0:0:0:
369,102,20078,1,4,0:0:0:0:
338,134,20155,1,0,0:0:0:0:
307,166,20232,1,0,0:0:0:0:
180,300,20388,5,4,0:0:0:0:
372,224,20542,1,0,0:0:0:0:
220,84,20697,1,4,0:0:0:0:
221,136,20774,1,0,0:0:0:0:
223,188,20851,1,0,0:0:0:0:
324,68,21006,5,4,0:0:0:0:
181,258,21161,1,0,0:0:0:0:
220,84,21315,2,0,P|236:144|232:204,1,105.000004005432,4|0,0:0|0:0,0:0:0:0:
101,324,21625,2,0,P|144:280|198:253,1,105.000004005432,4|0,0:0|0:0,0:0:0:0:
364,312,21934,2,0,P|304:295|254:262,1,105.000004005432,4|0,0:0|0:0,0:0:0:0:
156,116,22243,5,4,0:0:0:0:
216,316,22398,1,0,0:0:0:0:
288,120,22553,1,4,0:0:0:0:
316,89,22630,1,0,0:0:0:0:
353,69,22707,1,0,0:0:0:0:
396,200,22862,2,0,L|340:188,1,52.5000020027161,4|0,0:0|0:0,0:0:0:0:
212,164,23017,1,4,0:0:0:0:
88,212,23171,6,0,B|109:272|169:258|169:258|172:287|216:248|252:324,1,210.000008010865,4|12,0:0|0:0,0:0:0:0:
164,372,23635,5,0,0:0:0:0:
82,313,23790,2,0,P|74:257|94:201,1,105.000004005432,4|0,0:0|0:0,0:0:0:0:
205,104,24099,1,0,0:0:0:0:
247,88,24176,1,0,0:0:0:0:
292,99,24253,1,0,0:0:0:0:
323,132,24331,1,0,0:0:0:0:
330,177,24408,2,0,P|313:224|266:253,1,105.000004005432,4|0,0:0|0:0,0:0:0:0:
168,168,24718,5,4,0:0:0:0:
238,343,24872,1,0,0:0:0:0:
330,177,25027,1,4,0:0:0:0:
360,144,25104,1,0,0:0:0:0:
402,129,25181,1,0,0:0:0:0:
406,217,25336,5,4,0:0:0:0:
288,42,25491,1,0,0:0:0:0:
220,240,25645,1,4,0:0:0:0:
185,210,25723,1,0,0:0:0:0:
168,168,25800,1,0,0:0:0:0:
184,72,25955,6,0,P|156:120|104:168,1,105.000004005432,4|0,0:0|0:0,0:0:0:0:
40,192,26264,2,0,P|76:229|102:275,1,105.000004005432,4|0,0:0|0:0,0:0:0:0:
156,348,26573,2,0,P|182:302|218:264,1,105.000004005432,4|0,0:0|0:0,0:0:0:0:
300,228,26882,2,0,P|263:190|237:144,1,105.000004005432,4|0,0:0|0:0,0:0:0:0:
232,56,27192,6,0,L|132:96,1,105.000004005432,4|0,0:0|0:0,0:0:0:0:
140,8,27501,1,4,0:0:0:0:
76,176,27656,1,0,0:0:0:0:
240,108,27810,2,0,L|337:69,1,105.000004005432,4|4,0:0|0:0,0:0:0:0:
152,51,28120,2,0,P|132:107|164:175,1,105.000004005432,4|4,0:0|0:0,0:0:0:0:
224,268,28429,5,12,0:0:0:0:
240,108,28584,1,4,0:0:0:0:
92,168,28738,1,4,0:0:0:0:
260,273,28893,1,4,0:0:0:0:
227,75,29048,1,4,0:0:0:0:
68,195,29202,1,4,0:0:0:0:
268,168,29357,1,4,0:0:0:0:
184,316,29511,1,4,0:0:0:0:
344,208,29666,6,0,L|396:192,2,52.5000020027161,12|0|4,0:0|0:0|0:0,0:0:0:0:
208,248,29975,2,0,P|164:216|152:160,1,105.000004005432,4|4,0:0|0:0,0:0:0:0:
272,80,30285,2,0,L|228:176,1,105.000004005432,4|4,0:0|0:0,0:0:0:0:
340,24,30594,2,0,L|351:134,1,105.000004005432,4|4,0:0|0:0,0:0:0:0:
364,252,30903,6,0,P|280:240|232:172,1,157.500006008148,12|12,0:0|0:0,0:0:0:0:
168,12,31367,2,0,P|199:90|164:166,1,157.500006008148,12|12,0:0|0:0,0:0:0:0:
56,304,31831,1,12,0:0:0:0:
124,229,31986,1,12,0:0:0:0:
225,239,32140,5,12,0:0:0:0:
243,258,32217,1,0,0:0:0:0:
251,283,32294,1,0,0:0:0:0:
249,309,32371,1,0,0:0:0:0:
237,332,32450,2,0,P|268:344|301:364,1,52.5000020027161,4|0,0:0|0:0,0:0:0:0:
344,300,32604,2,0,P|313:288|280:268,1,52.5000020027161
225,239,32759,2,0,L|200:200,7,26.2500010013581,4|0|0|0|0|0|0|0,0:0|0:0|0:0|0:0|0:0|0:0|0:0|0:0,0:0:0:0:
192,179,33068,2,0,L|188:147,7,26.2500010013581,4|0|0|0|0|0|0|0,0:0|0:0|0:0|0:0|0:0|0:0|0:0|0:0,0:0:0:0:
195,111,33377,6,0,P|227:63|271:39,1,105.000004005432,6|0,0:0|0:0,0:0:0:0:
348,36,33687,1,4,0:0:0:0:
250,203,33841,1,0,0:0:0:0:
267,40,33996,1,4,0:0:0:0:
324,168,34150,1,0,0:0:0:0:
188,152,34305,6,0,P|153:115|154:58,2,105.000004005432,4|0|6,0:0|0:0|0:0,0:0:0:0:
266,74,34769,1,0,0:0:0:0:
188,152,34924,2,0,P|182:205|207:253,2,105.000004005432,4|0|6,0:0|0:0|0:0,0:0:0:0:
294,184,35388,1,0,0:0:0:0:
215,333,35542,1,4,0:0:0:0:
188,152,35697,1,0,0:0:0:0:
120,313,35852,6,0,L|204:249,1,105.000004005432,6|0,0:0|0:0,0:0:0:0:
294,184,36161,2,0,L|270:300,1,105.000004005432,4|0,0:0|0:0,0:0:0:0:
188,145,36470,2,0,L|205:262,1,105.000004005432,6|0,0:0|0:0,0:0:0:0:
140,64,36779,1,4,0:0:0:0:
116,208,36934,1,0,0:0:0:0:
256,92,37089,6,0,P|304:160|244:256,2,210.000008010865,6|4|6,0:0|0:0|0:0,0:0:0:0:
208,172,37862,1,0,0:0:0:0:
312,192,38017,1,4,0:0:0:0:
400,136,38171,1,0,0:0:0:0:
420,32,38326,6,0,P|368:36|324:72,1,105.000004005432,6|0,0:0|0:0,0:0:0:0:
255,4,38635,2,0,P|233:50|239:101,1,105.000004005432,4|0,0:0|0:0,0:0:0:0:
312,192,38944,2,0,L|192:236,1,125.999996154785,6|0,0:0|0:0,0:0:0:0:
172,252,39254,2,0,P|188:184|180:104,1,141.750000540733,6|0,0:0|0:0,0:0:0:0:
156,96,39563,6,0,L|252:152,1,105.000004005432,6|0,0:0|0:0,0:0:0:0:
264,56,39872,1,4,0:0:0:0:
220,216,40027,1,0,0:0:0:0:
341,103,40181,6,0,L|241:151,1,105.000004005432,6|0,0:0|0:0,0:0:0:0:
128,228,40491,1,4,0:0:0:0:
156,96,40645,1,0,0:0:0:0:
304,280,40800,5,6,0:0:0:0:
246,148,40955,1,0,0:0:0:0:
208,304,41109,1,4,0:0:0:0:
336,188,41264,1,0,0:0:0:0:
344,180,41341,1,0,0:0:0:0:
352,172,41419,2,0,P|387:214|392:263,1,105.000004005432,4|0,0:0|0:0,0:0:0:0:
256,204,41728,2,0,P|246:148|266:104,1,105.000004005432,4|0,0:0|0:0,0:0:0:0:
420,68,42037,5,6,0:0:0:0:
256,92,42192,1,4,0:0:0:0:
431,81,42346,1,4,0:0:0:0:
252,76,42501,2,4,P|248:48|252:24,2,52.5000020027161,4|4|6,0:0|0:0|0:0,0:0:0:0:
280,232,42810,1,4,0:0:0:0:
124,200,42965,2,4,L|81:166,1,52.5000020027161
96,136,43120,2,4,L|80:68,1,52.5000020027161
112,68,43274,5,14,0:0:0:0:
228,176,43429,1,0,0:0:0:0:
188,76,43584,1,4,0:0:0:0:
116,216,43738,1,0,0:0:0:0:
228,176,43893,2,0,L|336:132,1,105.000004005432,4|0,0:0|0:0,0:0:0:0:
352,200,44202,6,0,L|416:68,2,105.000004005432,4|0|6,0:0|0:0|0:0,0:0:0:0:
300,308,44666,1,0,0:0:0:0:
196,248,44821,2,0,P|168:204|188:144,2,105.000004005432,4|0|6,0:0|0:0|0:0,0:0:0:0:
300,308,45285,1,0,0:0:0:0:
264,121,45439,1,4,0:0:0:0:
196,248,45594,1,0,0:0:0:0:
304,192,45748,6,0,P|340:144|336:84,1,105.000004005432,6|0,0:0|0:0,0:0:0:0:
196,248,46058,1,4,0:0:0:0:
299,309,46212,2,0,P|358:314|407:278,1,105.000004005432,0|4,0:0|0:0,0:0:0:0:
468,196,46522,1,0,0:0:0:0:
365,135,46676,2,0,P|305:129|256:165,1,105.000004005432,4|0,0:0|0:0,0:0:0:0:
196,248,46986,6,0,L|160:200,3,52.5000020027161,6|0|0|0,0:0|0:0|0:0|0:0,0:0:0:0:
184,184,47295,2,0,L|171:125,3,52.5000020027161,4|0|0|0,0:0|0:0|0:0|0:0,0:0:0:0:
200,120,47604,2,0,L|213:61,3,52.5000020027161,4|0|0|0,0:0|0:0|0:0|0:0,0:0:0:0:
240,72,47913,2,0,L|277:24,3,52.5000020027161,4|0|4|0,0:0|0:0|0:0|0:0,0:0:0:0:
300,40,48223,5,6,0:0:0:0:
326,200,48377,1,4,0:0:0:0:
416,64,48532,2,0,L|323:143,1,105.000004005432,4|4,0:0|0:0,0:0:0:0:
240,72,48841,2,0,L|209:190,1,105.000004005432,4|4,0:0|0:0,0:0:0:0:
100,179,49151,2,0,L|142:293,1,105.000004005432,4|4,0:0|0:0,0:0:0:0:
163,105,49460,5,6,0:0:0:0:
55,254,49614,1,4,0:0:0:0:
213,173,49769,1,4,0:0:0:0:
251,157,49846,1,0,0:0:0:0:
293,156,49924,1,4,0:0:0:0:
181,282,50078,5,6,0:0:0:0:
112,112,50233,1,4,0:0:0:0:
251,157,50388,1,4,0:0:0:0:
292,157,50465,1,0,0:0:0:0:
327,138,50542,1,4,0:0:0:0:
209,93,50697,6,4,P|171:157|211:221,1,157.500006008148,14|12,0:0|0:0,0:0:0:0:
295,284,51161,2,4,P|332:219|291:156,1,157.500006008148,12|12,0:0|0:0,0:0:0:0:
268,48,51625,2,4,L|268:176,1,105.000004005432,12|12,0:0|0:0,0:0:0:0:
268,284,51934,5,0,0:0:0:0:
283,282,52011,1,0,0:0:0:0:
298,277,52088,1,0,0:0:0:0:
312,269,52165,1,0,0:0:0:0:
324,259,52243,1,0,0:0:0:0:
334,247,52320,1,0,0:0:0:0:
341,233,52398,1,0,0:0:0:0:
345,218,52475,1,0,0:0:0:0:
346,203,52553,6,0,L|332:158,7,29.7500005674362
337,124,52862,2,0,L|351:79,7,29.7500005674362
328,48,53171,6,4,B|316:16|316:16|264:40|264:40|228:40|228:40|200:72,1,157.500006008148
140,144,53635,2,4,B|168:184|168:184|152:264|152:264|188:292,1,157.500006008148
337,124,54408,6,0,B|389:112|389:112|432:84,2,83.9999974365235,4|4|0,0:0|0:0|0:0,0:0:0:0:
248,140,54872,1,0,0:0:0:0:
160,120,55027,2,0,L|152:168,1,41.9999987182618,4|0,0:0|0:0,0:0:0:0:
104,216,55181,2,0,L|96:264,1,41.9999987182618,4|0,0:0|0:0,0:0:0:0:
176,232,55336,2,0,L|216:216,1,41.9999987182618
284,172,55491,2,0,L|320:140,1,41.9999987182618
214,216,55645,6,4,P|232:300|292:348,2,157.500006008148
240,68,56341,1,4,0:0:0:0:
240,68,56882,5,0,0:0:0:0:
324,128,57037,1,4,0:0:0:0:
364,136,57114,1,4,0:0:0:0:
404,124,57192,1,0,0:0:0:0:
240,68,57346,1,4,0:0:0:0:
136,128,57501,6,0,L|100:140,4,20.9999993591309,4|0|4|0|4,0:0|0:0|0:0|0:0|0:0,0:0:0:0:
248,172,57810,1,0,0:0:0:0:
144,232,57965,2,0,L|108:244,4,20.9999993591309,4|0|4|0|4,0:0|0:0|0:0|0:0|0:0,0:0:0:0:
316,288,58352,2,4,P|340:312|264:328,2,157.500006008148
198,148,59047,5,0,0:0:0:0:
192,123,59124,1,0,0:0:0:0:
199,97,59201,1,0,0:0:0:0:
215,77,59278,1,0,0:0:0:0:
239,66,59357,1,4,0:0:0:0:
320,184,59589,1,4,0:0:0:0:
228,292,59821,1,4,0:0:0:0:
152,176,60053,1,4,0:0:0:0:
160,129,60130,6,0,P|164:97|160:61,1,52.5000020027161
232,8,60285,2,0,P|228:40|232:76,1,52.5000020027161
292,132,60439,2,0,P|296:100|292:64,1,52.5000020027161
364,12,60594,6,0,P|364:72|424:116,1,105.000004005432,4|0,0:0|0:0,0:0:0:0:
420,136,60826,2,0,P|428:152|432:172,9,26.2500010013581,4|0|0|0|0|0|0|0|0|0,0:0|0:0|0:0|0:0|0:0|0:0|0:0|0:0|0:0|0:0,0:0:0:0:
436,202,61212,6,0,P|392:234|328:218,1,105.000004005432,4|0,0:0|0:0,0:0:0:0:
302,235,61444,2,0,P|280:255|272:289,4,52.5000020027161,4|0|0|0|0,0:0|0:0|0:0|0:0|0:0,0:0:0:0:
319,197,61831,5,4,0:0:0:0:
307,151,61908,1,0,0:0:0:0:
272,120,61985,1,4,0:0:0:0:
226,112,62063,1,0,0:0:0:0:
184,130,62140,1,4,0:0:0:0:
232,248,62295,1,4,0:0:0:0:
332,64,62450,2,4,P|400:44|468:92,2,157.500006008148
380,184,63068,6,0,P|388:104|329:63,1,157.500006008148,12|0,0:0|0:0,0:0:0:0:
184,160,63532,2,0,P|228:180|284:164,1,105.000004005432
308,144,63764,1,0,0:0:0:0:
295,194,63841,1,0,0:0:0:0:
314,242,63918,1,0,0:0:0:0:
358,269,63995,1,0,0:0:0:0:
409,267,64073,1,0,0:0:0:0:
450,234,64150,1,0,0:0:0:0:
308,144,64305,5,0,0:0:0:0:
289,106,64382,1,0,0:0:0:0:
291,65,64460,2,0,P|304:32|324:12,1,52.5000020027161
256,192,64614,2,0,P|221:198|193:190,1,52.5000020027161
128,108,64769,2,0,P|150:135|158:162,1,52.5000020027161
192,288,64924,2,0,P|156:224|200:160,2,157.500006008148
297,187,65542,6,0,P|297:107|213:67,2,157.500006008148
198,160,66161,1,0,0:0:0:0:
221,114,66238,1,0,0:0:0:0:
267,89,66315,2,0,P|320:96|360:136,1,105.000004005432
428,104,66625,1,0,0:0:0:0:
412,176,66741,6,0,P|417:207|440:235,3,52.5000020027161
363,261,67089,2,0,P|335:269|303:265,3,52.5000020027161
263,256,67398,1,0,0:0:0:0:
234,215,67475,1,0,0:0:0:0:
245,167,67553,1,0,0:0:0:0:
287,143,67630,1,0,0:0:0:0:
334,158,67707,2,0,P|389:149|429:111,1,105.000004005432
280,32,68017,5,12,0:0:0:0:
196,176,68171,1,4,0:0:0:0:
301,306,68326,1,4,0:0:0:0:
260,116,68480,1,4,0:0:0:0:
137,267,68635,1,4,0:0:0:0:
184,68,68790,1,4,0:0:0:0:
301,306,68944,1,4,0:0:0:0:
100,154,69099,1,4,0:0:0:0:
235,255,69254,6,0,P|249:198|294:160,1,105.000004005432,12|4,0:0|0:0,0:0:0:0:
428,103,69563,2,0,P|372:119|316:99,1,105.000004005432,4|4,0:0|0:0,0:0:0:0:
268,60,69872,1,4,0:0:0:0:
340,260,70027,1,4,0:0:0:0:
375,38,70181,1,4,0:0:0:0:
268,192,70336,1,4,0:0:0:0:
192,100,70491,6,0,L|164:64,7,26.2500010013581,12|0|0|0|0|0|0|0,0:0|0:0|0:0|0:0|0:0|0:0|0:0|0:0,0:0:0:0:
152,48,70800,2,0,B|152:180|152:180|168:200,1,157.500006008148,12|0,0:0|0:0,0:0:0:0:
184,236,71109,6,0,P|180:256|164:280,7,26.2500010013581,12|0|0|0|0|0|0|0,0:0|0:0|0:0|0:0|0:0|0:0|0:0|0:0,0:0:0:0:
152,292,71419,2,0,P|188:324|252:220,1,210.000008010865,12|4,0:0|0:0,0:0:0:0:
204,136,71882,1,0,0:0:0:0:
238,42,72036,1,0,0:0:0:0:
338,29,72191,1,0,0:0:0:0:
392,108,72346,6,0,P|344:132|292:112,1,94.499997116089,4|0,0:0|0:0,0:0:0:0:
256,92,72656,2,0,P|284:160|252:224,1,125.999996154785,4|0,0:0|0:0,0:0:0:0:
224,244,72965,5,4,0:0:0:0:
140,92,73120,1,0,0:0:0:0:
80,204,73274,1,4,0:0:0:0:
256,92,73429,2,0,L|284:160,1,52.5000020027161
320,240,73584,2,0,L|340:176,1,52.5000020027161,4|0,0:0|0:0,0:0:0:0:
365,87,73738,1,0,0:0:0:0:
168,148,73893,5,4,0:0:0:0:
316,288,74047,2,0,L|332:340,2,52.5000020027161,0|0|4,0:0|0:0|0:0,0:0:0:0:
256,92,74357,1,0,0:0:0:0:
132,248,74511,1,4,0:0:0:0:
268,164,74666,2,0,P|320:148|384:156,1,105.000004005432,0|4,0:0|0:0,0:0:0:0:
184,104,74975,2,0,P|228:128|256:176,1,105.000004005432,0|4,0:0|0:0,0:0:0:0:
132,168,75285,1,0,0:0:0:0:
105,129,75362,1,0,0:0:0:0:
104,82,75439,5,4,0:0:0:0:
208,36,75594,1,0,0:0:0:0:
132,248,75748,1,4,0:0:0:0:
268,164,75903,1,0,0:0:0:0:
305,150,75980,1,0,0:0:0:0:
346,147,76058,1,4,0:0:0:0:
385,157,76134,1,0,0:0:0:0:
419,177,76212,1,0,0:0:0:0:
316,332,76367,5,4,0:0:0:0:
189,223,76522,1,0,0:0:0:0:
195,200,76599,1,0,0:0:0:0:
210,182,76676,2,0,B|283:144|283:144|338:158,1,105.000004005432,4|0,0:0|0:0,0:0:0:0:
398,54,76986,2,0,B|325:93|325:93|306:146,1,105.000004005432,4|0,0:0|0:0,0:0:0:0:
254,276,77295,2,0,P|235:223|181:197,1,105.000004005432,4|0,0:0|0:0,0:0:0:0:
52,184,77604,2,0,P|71:237|125:263,1,105.000004005432,4|4,0:0|0:0,0:0:0:0:
189,77,77913,5,4,0:0:0:0:
151,167,78068,1,0,0:0:0:0:
160,268,78223,2,0,P|228:244|252:172,1,105.000004005432,4|0,0:0|0:0,0:0:0:0:
252,172,78455,2,4,P|264:92|336:48,1,157.500006008148,0|0,0:0|0:0,0:0:0:0:
336,140,78841,1,4,0:0:0:0:
189,77,78996,1,0,0:0:0:0:
184,236,79151,6,0,L|232:136,1,105.000004005432,4|0,0:0|0:0,0:0:0:0:
280,304,79460,2,0,L|248:200,1,105.000004005432,4|0,0:0|0:0,0:0:0:0:
112,136,79769,1,4,0:0:0:0:
156,159,79846,1,0,0:0:0:0:
204,140,79924,1,0,0:0:0:0:
219,92,80000,1,0,0:0:0:0:
192,49,80078,2,0,P|152:100|164:176,1,105.000004005432,4|0,0:0|0:0,0:0:0:0:
200,288,80388,5,4,0:0:0:0:
320,188,80542,1,0,0:0:0:0:
268,300,80697,1,4,0:0:0:0:
272,140,80852,1,0,0:0:0:0:
320,256,81006,2,4,P|256:206|296:123,2,157.500006008148,4|0|0,0:0|0:0|0:0,0:0:0:0:
264,68,81625,5,4,0:0:0:0:
184,200,81779,1,0,0:0:0:0:
320,84,81934,1,4,0:0:0:0:
184,200,82089,2,4,L|244:168,1,52.5000020027161
376,100,82244,1,4,0:0:0:0:
184,200,82398,1,4,0:0:0:0:
120,64,82553,1,4,0:0:0:0:
104,232,82707,1,4,0:0:0:0:
192,104,82862,6,0,P|228:68|288:48,1,105.000004005432,12|0,0:0|0:0,0:0:0:0:
380,220,83171,1,4,0:0:0:0:
289,173,83325,1,0,0:0:0:0:
392,0,83480,6,0,P|405:49|392:111,1,105.000004005432,4|0,0:0|0:0,0:0:0:0:
192,104,83790,1,4,0:0:0:0:
277,49,83944,1,0,0:0:0:0:
380,220,84099,6,0,P|331:206|283:164,1,105.000004005432,4|0,0:0|0:0,0:0:0:0:
392,0,84408,1,4,0:0:0:0:
396,101,84562,1,0,0:0:0:0:
392,116,84640,2,4,P|328:152|264:104,1,157.500006008148,0|0,0:0|0:0,0:0:0:0:
328,12,85027,1,4,0:0:0:0:
192,104,85181,1,0,0:0:0:0:
332,188,85336,6,0,P|356:240|336:292,1,105.000004005432,4|0,0:0|0:0,0:0:0:0:
328,300,85568,1,0,0:0:0:0:
308,312,85645,2,0,P|264:280|208:280,1,105.000004005432,4|0,0:0|0:0,0:0:0:0:
192,288,85877,1,0,0:0:0:0:
172,304,85955,2,0,P|132:264|148:176,1,105.000004005432,4|0,0:0|0:0,0:0:0:0:
208,104,86264,5,4,0:0:0:0:
213,53,86341,1,0,0:0:0:0:
180,14,86418,1,0,0:0:0:0:
129,13,86495,1,0,0:0:0:0:
93,49,86573,2,4,B|104:100|76:160|76:160|116:144,2,157.500006008148,4|0|0,0:0|0:0|0:0,0:0:0:0:
256,192,87192,12,12,87810,0:0:0:0:
304,108,87965,5,4,0:0:0:0:
168,212,88120,1,4,0:0:0:0:
336,232,88274,1,4,0:0:0:0:
164,92,88429,5,4,0:0:0:0:
208,296,88584,1,4,0:0:0:0:
236,64,88738,1,4,0:0:0:0:
128,232,88893,1,4,0:0:0:0:
352,124,89047,5,12,0:0:0:0:
276,248,89202,1,4,0:0:0:0:
236,64,89357,1,4,0:0:0:0:
274,241,89511,1,4,0:0:0:0:
296,12,89666,5,4,0:0:0:0:
140,120,89821,1,4,0:0:0:0:
316,188,89975,1,4,0:0:0:0:
196,32,90130,1,4,0:0:0:0:
180,224,90285,6,0,L|177:250,7,26.2500010013581,12|0|0|0|0|0|0|0,0:0|0:0|0:0|0:0|0:0|0:0|0:0|0:0,0:0:0:0:
214,203,90594,1,12,0:0:0:0:
247,182,90671,1,0,0:0:0:0:
280,161,90748,1,0,0:0:0:0:
314,140,90825,1,0,0:0:0:0:
347,119,90903,6,0,L|352:144,7,26.2500010013581,12|0|0|0|0|0|0|0,0:0|0:0|0:0|0:0|0:0|0:0|0:0|0:0,0:0:0:0:
310,102,91212,1,12,0:0:0:0:
275,85,91290,1,0,0:0:0:0:
240,68,91367,1,0,0:0:0:0:
203,51,91444,1,0,0:0:0:0:
168,35,91522,6,0,L|196:193,1,157.500006008148,12|12,0:0|0:0,0:0:0:0:
347,119,91986,2,0,L|328:297,2,157.500006008148,12|12|12,0:0|0:0|0:0,0:0:0:0:
195,190,92604,1,12,0:0:0:0:
219,321,92759,1,0,0:0:0:0:
274,298,92913,1,0,0:0:0:0:
330,275,93068,1,0,0:0:0:0:
386,252,93223,1,0,0:0:0:0:
442,230,93377,1,0,0:0:0:0:
266,115,93687,1,0,0:0:0:0:
219,321,93998,5,4,0:0:0:0:
262,325,94075,1,0,0:0:0:0:
303,314,94153,1,0,0:0:0:0:
339,288,94229,1,0,0:0:0:0:
363,252,94306,1,4,0:0:0:0:
372,209,94383,1,0,0:0:0:0:
366,165,94460,1,0,0:0:0:0:
344,129,94537,1,0,0:0:0:0:
310,100,94614,2,0,L|295:121,7,26.2500010013581,4|0|0|0|0|0|0|0,0:0|0:0|0:0|0:0|0:0|0:0|0:0|0:0,0:0:0:0:
288,61,94924,1,0,0:0:0:0:
288,61,95233,5,4,0:0:0:0:
156,164,95388,1,0,0:0:0:0:
194,326,95542,5,4,0:0:0:0:
154,156,95697,1,0,0:0:0:0:
45,248,95852,5,4,0:0:0:0:
85,72,96006,1,0,0:0:0:0:
194,326,96161,5,4,0:0:0:0:
152,148,96315,1,0,0:0:0:0:
111,259,96470,6,0,L|163:147,1,105.000004005432,4|0,0:0|0:0,0:0:0:0:
360,84,96779,2,0,L|316:180,1,105.000004005432,4|0,0:0|0:0,0:0:0:0:
156,164,97089,2,0,B|132:120|132:120|144:44,2,105.000004005432,4|0|4,0:0|0:0|0:0,0:0:0:0:
260,272,97553,1,0,0:0:0:0:
208,108,97707,5,4,0:0:0:0:
108,224,97862,1,0,0:0:0:0:
276,156,98017,2,4,P|284:76|228:28,2,157.500006008148,4|0|0,0:0|0:0|0:0,0:0:0:0:
208,108,98635,1,4,0:0:0:0:
340,20,98790,1,0,0:0:0:0:
276,180,98944,6,0,P|280:252|352:272,1,157.500006008148,4|0,0:0|0:0,0:0:0:0:
368,252,99254,1,4,0:0:0:0:
212,300,99408,2,0,L|164:264,1,52.5000020027161
132,188,99563,1,4,0:0:0:0:
119,148,99640,1,0,0:0:0:0:
128,107,99717,1,0,0:0:0:0:
156,76,99794,1,0,0:0:0:0:
195,63,99872,1,4,0:0:0:0:
288,136,100027,5,4,0:0:0:0:
295,134,100104,1,0,0:0:0:0:
304,132,100181,2,0,P|344:96|352:24,2,105.000004005432,4|0|4,0:0|0:0|0:0,0:0:0:0:
184,212,100645,2,0,P|144:248|136:320,2,105.000004005432,0|4|0,0:0|0:0|0:0,0:0:0:0:
304,212,101109,6,0,P|344:248|352:320,2,105.000004005432,4|0|4,0:0|0:0|0:0,0:0:0:0:
184,132,101573,2,0,P|144:96|136:24,2,105.000004005432,0|4|0,0:0|0:0|0:0,0:0:0:0:
304,212,102037,1,4,0:0:0:0:
224,48,102192,1,0,0:0:0:0:
120,196,102346,1,4,0:0:0:0:
279,109,102501,1,0,0:0:0:0:
203,217,102656,6,0,L|237:360,1,105.000004005432,4|0,0:0|0:0,0:0:0:0:
191,112,102965,1,4,0:0:0:0:
127,282,103120,1,0,0:0:0:0:
303,211,103274,2,0,L|269:68,1,105.000004005432,4|0,0:0|0:0,0:0:0:0:
259,29,103584,1,4,0:0:0:0:
202,216,103738,1,0,0:0:0:0:
109,106,103893,2,4,P|92:126|81:150,3,52.5000020027161,4|0|0|0,0:0|0:0|0:0|0:0,0:0:0:0:
68,194,104202,1,4,0:0:0:0:
69,240,104279,1,0,0:0:0:0:
84,283,104357,1,0,0:0:0:0:
112,320,104434,2,0,P|132:338|158:349,1,52.5000020027161,4|4,0:0|0:0,0:0:0:0:
184,192,104666,2,0,L|149:84,2,105.000004005432,4|4|4,0:0|0:0|0:0,0:0:0:0:
216,292,105130,5,12,0:0:0:0:
151,92,105285,1,0,0:0:0:0:
116,224,105439,5,4,0:0:0:0:
172,19,105594,1,0,0:0:0:0:
116,232,105748,6,0,L|164:200,1,52.5000020027161,4|0,0:0|0:0,0:0:0:0:
277,123,105903,1,0,0:0:0:0:
101,37,106058,5,4,0:0:0:0:
201,267,106212,1,0,0:0:0:0:
245,31,106367,5,4,0:0:0:0:
116,214,106522,1,0,0:0:0:0:
277,105,106676,5,4,0:0:0:0:
101,19,106831,1,0,0:0:0:0:
201,267,106986,5,4,0:0:0:0:
201,267,107295,2,0,P|226:183|314:155,1,178.500003404617,4|0,0:0|0:0,0:0:0:0:
287,193,107604,5,4,0:0:0:0:
193,73,107759,1,0,0:0:0:0:
292,266,107913,1,4,0:0:0:0:
362,62,108068,1,0,0:0:0:0:
292,266,108223,2,4,P|312:198|229:134,2,183.750001752377,4|0|0,0:0|0:0|0:0,0:0:0:0:
286,75,108841,5,4,0:0:0:0:
236,212,108996,1,4,0:0:0:0:
362,62,109151,1,4,0:0:0:0:
236,212,109305,1,4,0:0:0:0:
431,103,109460,1,4,0:0:0:0:
415,152,109537,1,4,0:0:0:0:
374,183,109614,1,4,0:0:0:0:
322,184,109691,1,4,0:0:0:0:
279,155,109769,1,4,0:0:0:0:
248,51,109924,1,0,0:0:0:0:
172,196,110078,5,12,0:0:0:0:
316,84,110233,1,4,0:0:0:0:
224,295,110388,1,4,0:0:0:0:
212,115,110542,1,4,0:0:0:0:
224,295,110697,2,4,L|273:181,1,105.000004005432
316,84,111006,1,4,0:0:0:0:
172,196,111161,1,4,0:0:0:0:
356,148,111315,5,12,0:0:0:0:
282,324,111470,1,4,0:0:0:0:
252,105,111625,1,4,0:0:0:0:
252,105,111702,1,0,0:0:0:0:
252,105,111779,1,4,0:0:0:0:
138,243,111934,5,4,0:0:0:0:
165,113,112089,1,4,0:0:0:0:
238,335,112243,1,4,0:0:0:0:
238,335,112320,1,0,0:0:0:0:
238,335,112398,1,4,0:0:0:0:
255,137,112553,6,0,P|276:131|300:133,1,35,12|0,0:0|0:0,0:0:0:0:
300,112,112785,6,0,P|265:109|234:124,1,70,12|0,0:0|0:0,0:0:0:0:
214,109,113017,6,0,P|259:84|309:93,1,105.000004005432,12|0,0:0|0:0,0:0:0:0:
322,76,113248,6,0,P|256:58|200:97,1,140,12|0,0:0|0:0,0:0:0:0:
196,129,113480,5,12,0:0:0:0:
286,253,113635,1,12,0:0:0:0:
249,59,113790,5,12,0:0:0:0:
280,33,113867,1,0,0:0:0:0:
322,33,113944,1,0,0:0:0:0:
353,59,114021,1,0,0:0:0:0:
360,100,114099,1,4,0:0:0:0:
340,136,114176,1,0,0:0:0:0:
302,150,114253,1,0,0:0:0:0:
264,164,114332,1,0,0:0:0:0:
244,200,114408,5,4,0:0:0:0:
251,241,114487,1,0,0:0:0:0:
282,267,114564,1,0,0:0:0:0:
324,267,114641,1,0,0:0:0:0:
356,242,114718,2,0,L|361:181,1,52.5000020027161,4|0,0:0|0:0,0:0:0:0:
302,150,114872,2,0,L|297:89,1,52.5000020027161
356,56,115027,6,4,P|364:129|245:146,1,210,12|2,0:0|0:0,0:0:0:0:
