osu file format v14

[General]
AudioFilename: XROSS INFECTION.mp3
AudioLeadIn: 0
PreviewTime: 72269
Countdown: 0
SampleSet: Soft
StackLeniency: 0.2
Mode: 0
LetterboxInBreaks: 0
WidescreenStoryboard: 0

[Editor]
Bookmarks: 73042,73429,73584,74047,74202,78996,80078,80542,81470,81779,103584,103738,105130,107759,110156,114718,114950
DistanceSpacing: 1.1
BeatDivisor: 4
GridSize: 4
TimelineZoom: 2

[Metadata]
Title:XROSS INFECTION
TitleUnicode:XROSS INFECTION
Artist:BlackY vs. Yooh
ArtistUnicode:BlackY vs. Yooh
Creator:shadow_neko
Version:AVANT-GARDE
Source:SOUND VOLTEX II -infinite infection-
Tags:rhythm game SDVX Blizs eeezzzeee estellia- Fantastica Narcissu Rtyzen _IxApplePie_
BeatmapID:903737
BeatmapSetID:376506

[Difficulty]
HPDrainRate:6.3
CircleSize:4
OverallDifficulty:8
ApproachRate:9.3
SliderMultiplier:1.5
SliderTickRate:2

[Events]
//Background and Video events
0,0,"the library.jpg",0,0
//Break Periods
//Storyboard Layer 0 (Background)
//Storyboard Layer 1 (Fail)
//Storyboard Layer 2 (Pass)
//Storyboard Layer 3 (Foreground)
//Storyboard Layer 4 (Overlay)
//Storyboard Sound Samples

[TimingPoints]
2450,309.278350515464,4,2,2,70,1,0
2450,-142.857142857143,4,2,2,70,0,0
3919,-142.857142857143,4,2,2,30,0,0
5156,-142.857142857143,4,2,2,20,0,0
5620,-142.857142857143,4,2,2,10,0,0
6315,-142.857142857143,4,2,2,20,0,0
6625,-142.857142857143,4,2,2,30,0,0
6934,-142.857142857143,4,2,2,40,0,0
7398,-100,4,2,1,50,0,0
9872,-100,4,2,1,60,0,0
11109,-100,4,2,1,70,0,0
12037,-100,4,2,1,80,0,0
12346,-200,4,2,1,80,0,0
12424,-200,4,2,1,45,0,0
13584,-66.6666666666667,4,2,2,80,0,0
13738,-66.6666666666667,4,2,1,80,0,0
23480,-66.6666666666667,4,2,2,80,0,0
23635,-66.6666666666667,4,2,1,80,0,0
28429,-66.6666666666667,4,2,2,80,0,0
28584,-66.6666666666667,4,2,1,80,0,0
29666,-66.6666666666667,4,2,2,80,0,0
29821,-66.6666666666667,4,2,1,80,0,0
30903,-66.6666666666667,4,2,2,80,0,0
32218,-66.6666666666667,4,2,1,80,0,0
33377,-66.6666666666667,4,2,1,100,0,1
39176,-66.6666666666667,4,2,1,50,0,1
39254,-66.6666666666667,4,2,1,100,0,1
39486,-66.6666666666667,4,2,1,50,0,1
39563,-66.6666666666667,4,2,1,100,0,1
43274,-66.6666666666667,4,2,3,100,0,1
43429,-66.6666666666667,4,2,1,100,0,1
50697,-66.6666666666667,4,2,3,100,0,1
53171,-83.3333333333333,4,2,1,70,0,0
63068,-83.3333333333333,4,2,4,70,0,0
63223,-83.3333333333333,4,2,1,70,0,0
68017,-83.3333333333333,4,2,1,85,0,0
72346,-111.111111111111,4,2,1,100,0,0
72656,-83.3333333333333,4,2,1,100,0,0
72965,-66.6666666666667,4,2,1,100,0,1
82862,-66.6666666666667,4,2,4,100,0,1
83017,-66.6666666666667,4,2,1,100,0,1
92759,-83.3333333333333,4,2,1,70,0,0
93996,-83.3333333333333,4,2,1,85,0,0
94924,-142.857142857143,4,2,1,85,0,0
95156,-142.857142857143,4,2,1,5,0,0
95233,-66.6666666666667,4,2,1,100,0,1
105130,-66.6666666666667,4,2,4,100,0,0
105285,-66.6666666666667,4,2,1,100,0,0
106986,-83.3333333333333,4,2,1,100,0,0
107218,-83.3333333333333,4,2,1,5,0,0
107295,-58.8235294117647,4,2,1,100,0,0
107604,-66.6666666666667,4,2,1,100,0,0
110078,-66.6666666666667,4,2,4,100,0,0
110156,-66.6666666666667,4,2,1,100,0,0
111315,-66.6666666666667,4,2,4,100,0,0
111393,-66.6666666666667,4,2,1,100,0,0
112553,-66.6666666666667,4,2,4,100,0,0
115027,-66.6666666666667,4,2,4,100,0,0
115259,-66.6666666666667,4,2,5,100,0,0

[Colours]
Combo1 : 242,94,131
Combo2 : 108,140,225
Combo3 : 176,102,238

[HitObjects]
170,275,2450,5,4,0:0:0:0:
120,201,3068,2,0,P|72:177|11:193,1,104.999996795654,2|0,0:0|0:0,0:0:0:0:
4,326,3687,2,0,P|48:296|66:254,2,78.7499975967408,2|0|0,0:0|0:0|0:0,0:0:0:0:
244,290,4924,2,0,P|190:286|154:259,1,78.7499975967408,2|0,0:0|0:0,0:0:0:0:
373,208,5388,2,0,P|397:256|390:301,1,78.7499975967408,2|0,0:0|0:0,0:0:0:0:
237,137,6006,6,0,P|240:126|249:112,3,26.2499991989136,2|0|0|0,0:0|0:0|0:0|0:0,0:0:0:0:
162,147,6315,2,0,P|150:149|134:149,3,26.2499991989136,2|0|0|0,0:0|0:0|0:0|0:0,0:0:0:0:
143,76,6625,2,0,P|146:65|155:51,3,26.2499991989136,2|0|0|0,0:0|0:0|0:0|0:0,0:0:0:0:
68,86,6934,2,0,P|56:88|40:88,3,26.2499991989136,2|0|0|0,0:0|0:0|0:0|0:0,0:0:0:0:
237,137,7243,1,0,0:0:0:0:
241,192,7321,1,0,0:0:0:0:
246,246,7398,6,0,P|209:244|178:263,1,75
141,287,7630,1,0,0:0:0:0:
97,289,7707,1,0,0:0:0:0:
57,268,7785,1,0,0:0:0:0:
32,232,7861,1,0,0:0:0:0:
27,188,7938,1,0,0:0:0:0:
44,147,8017,5,0,0:0:0:0:
77,118,8093,1,0,0:0:0:0:
121,109,8170,1,0,0:0:0:0:
163,121,8248,1,0,0:0:0:0:
201,146,8326,1,0,0:0:0:0:
239,168,8403,1,0,0:0:0:0:
283,170,8480,1,0,0:0:0:0:
323,151,8558,1,0,0:0:0:0:
349,115,8635,6,0,P|367:143|395:162,3,37.5
303,237,8944,2,0,P|290:251|282:267,3,37.5
266,310,9254,1,0,0:0:0:0:
303,333,9331,1,0,0:0:0:0:
347,330,9408,1,0,0:0:0:0:
380,301,9485,1,0,0:0:0:0:
391,258,9563,1,0,0:0:0:0:
430,278,9640,1,0,0:0:0:0:
474,273,9717,1,0,0:0:0:0:
509,245,9794,1,0,0:0:0:0:
475,216,9872,6,0,P|455:173|466:117,1,75
427,40,10181,2,0,P|399:78|345:96,1,75
300,172,10491,2,0,P|346:175|389:213,2,75
170,254,10955,1,0,0:0:0:0:
296,340,11109,6,0,P|303:288|285:246,1,75
144,141,11419,2,0,P|185:173|230:178,1,75
392,108,11728,2,0,P|343:127|316:163,1,75
226,288,12037,5,0,0:0:0:0:
186,318,12114,1,0,0:0:0:0:
142,296,12191,1,0,0:0:0:0:
143,246,12268,1,0,0:0:0:0:
189,226,12346,6,0,B|240:257|220:311|220:311|252:255|293:245|293:245|271:216|276:181|296:160,1,281.25,4|0,0:0|0:0,0:0:0:0:
302,150,13584,6,0,P|246:131|218:84,1,112.500004291535,12|0,0:0|0:0,0:0:0:0:
320,36,13893,1,4,0:0:0:0:
189,226,14047,1,0,0:0:0:0:
376,156,14202,1,4,0:0:0:0:
392,149,14279,2,0,L|507:106,1,112.500004291535
344,80,14511,2,0,P|300:128|308:200,1,112.500004291535,4|0,0:0|0:0,0:0:0:0:
347,332,14821,5,0,0:0:0:0:
338,287,14898,1,0,0:0:0:0:
308,253,14975,1,0,0:0:0:0:
264,241,15052,1,0,0:0:0:0:
220,253,15130,1,0,0:0:0:0:
344,80,15285,1,0,0:0:0:0:
140,136,15439,1,0,0:0:0:0:
151,150,15517,2,0,L|147:268,1,112.500004291535
83,91,15748,2,0,P|125:62|184:65,1,112.500004291535
366,216,16058,5,0,0:0:0:0:
319,246,16135,1,0,0:0:0:0:
264,241,16212,1,0,0:0:0:0:
294,143,16367,1,0,0:0:0:0:
290,336,16522,1,4,0:0:0:0:
85,197,16676,5,0,0:0:0:0:
131,166,16753,1,0,0:0:0:0:
186,171,16830,1,0,0:0:0:0:
157,270,16986,1,0,0:0:0:0:
161,77,17140,1,4,0:0:0:0:
366,216,17296,5,0,0:0:0:0:
319,246,17372,1,0,0:0:0:0:
264,241,17450,1,0,0:0:0:0:
392,115,17605,5,0,0:0:0:0:
442,138,17681,1,0,0:0:0:0:
466,189,17759,1,0,0:0:0:0:
157,270,17913,5,0,0:0:0:0:
150,214,17991,1,0,0:0:0:0:
186,171,18068,1,0,0:0:0:0:
449,289,18223,6,0,L|449:232,1,56.2500021457673,4|0,0:0|0:0,0:0:0:0:
186,114,18377,2,0,L|186:171,1,56.2500021457673,4|0,0:0|0:0,0:0:0:0:
449,233,18532,6,0,P|405:201|345:203,1,112.500004291535,4|0,0:0|0:0,0:0:0:0:
166,357,18841,6,0,P|215:334|243:281,1,112.500004291535,4|0,0:0|0:0,0:0:0:0:
200,49,19151,6,0,P|194:103|226:154,1,112.500004291535,4|0,0:0|0:0,0:0:0:0:
472,335,19460,6,0,P|477:280|445:229,1,112.500004291535,4|0,0:0|0:0,0:0:0:0:
142,253,19769,6,0,P|186:285|246:283,1,112.500004291535,4|0,0:0|0:0,0:0:0:0:
377,10,20078,6,0,P|327:32|299:85,1,112.500004291535,4|0,0:0|0:0,0:0:0:0:
326,307,20388,1,0,0:0:0:0:
317,232,20465,1,0,0:0:0:0:
308,156,20543,1,0,0:0:0:0:
335,384,20697,5,0,0:0:0:0:
299,81,20852,1,0,0:0:0:0:
248,203,21006,5,0,0:0:0:0:
317,232,21083,1,0,0:0:0:0:
387,262,21161,1,0,0:0:0:0:
176,172,21315,5,0,0:0:0:0:
457,292,21470,1,0,0:0:0:0:
114,272,21625,5,0,0:0:0:0:
175,296,21702,1,0,0:0:0:0:
232,266,21779,1,0,0:0:0:0:
248,203,21856,1,0,0:0:0:0:
176,172,21934,5,0,0:0:0:0:
248,203,22011,1,0,0:0:0:0:
316,164,22088,1,0,0:0:0:0:
327,87,22165,1,0,0:0:0:0:
255,56,22243,6,0,L|255:155,1,56.2500021457673
359,328,22398,2,0,L|359:229,1,56.2500021457673
114,272,22553,6,0,L|162:243,2,56.2500021457673
11,295,22785,1,0,0:0:0:0:
59,321,22862,2,0,P|72:345|74:373,1,56.2500021457673
225,164,23017,5,0,0:0:0:0:
176,190,23094,1,0,0:0:0:0:
162,243,23171,2,0,L|228:252,1,56.2500021457673,12|0,0:0|0:0,0:0:0:0:
451,158,23326,2,0,L|396:169,1,56.2500021457673,4|0,0:0|0:0,0:0:0:0:
106,236,23480,6,0,L|234:252,1,112.500004291535,12|0,0:0|0:0,0:0:0:0:
507,147,23790,2,0,L|397:169,1,112.500004291535,4|0,0:0|0:0,0:0:0:0:
105,77,24099,6,0,L|162:170,1,56.2500021457673,4|0,0:0|0:0,0:0:0:0:
273,353,24254,2,0,L|285:258,1,56.2500021457673
314,36,24408,1,0,0:0:0:0:
332,88,24485,1,0,0:0:0:0:
307,137,24562,1,0,0:0:0:0:
255,153,24639,1,0,0:0:0:0:
207,127,24718,6,0,L|218:71,2,56.2500021457673,4|0|0,0:0|0:0|0:0,0:0:0:0:
343,261,25027,1,0,0:0:0:0:
397,254,25104,1,0,0:0:0:0:
432,212,25183,1,0,0:0:0:0:
190,261,25336,6,0,L|196:319,2,56.2500021457673,4|0|0,0:0|0:0|0:0,0:0:0:0:
449,138,25645,1,0,0:0:0:0:
494,165,25723,1,0,0:0:0:0:
508,218,25800,1,0,0:0:0:0:
151,185,25955,6,0,B|131:115|131:115|140:64,1,112.500004291535,4|0,0:0|0:0,0:0:0:0:
397,254,26264,1,0,0:0:0:0:
388,305,26342,1,0,0:0:0:0:
346,340,26419,1,0,0:0:0:0:
217,71,26573,6,0,B|267:18|267:18|316:0,1,112.500004291535,4|0,0:0|0:0,0:0:0:0:
280,318,26882,1,0,0:0:0:0:
231,336,26960,1,0,0:0:0:0:
180,317,27037,1,0,0:0:0:0:
348,71,27192,6,0,B|418:88|418:88|458:121,1,112.500004291535,4|0,0:0|0:0,0:0:0:0:
166,249,27501,1,0,0:0:0:0:
126,215,27578,1,0,0:0:0:0:
117,162,27656,1,0,0:0:0:0:
469,240,27810,5,0,0:0:0:0:
416,247,27888,1,0,0:0:0:0:
380,207,27965,1,0,0:0:0:0:
327,215,28042,1,0,0:0:0:0:
280,190,28120,2,0,L|280:114,1,56.2500021457673
137,75,28274,2,0,L|137:1,1,56.2500021457673
304,289,28429,5,0,0:0:0:0:
348,71,28584,1,4,0:0:0:0:
166,249,28738,1,4,0:0:0:0:
449,114,28893,1,4,0:0:0:0:
196,176,29047,5,4,0:0:0:0:
382,332,29201,1,4,0:0:0:0:
269,61,29356,1,4,0:0:0:0:
197,320,29511,1,4,0:0:0:0:
384,133,29666,5,12,0:0:0:0:
104,93,29821,1,4,0:0:0:0:
396,133,29975,2,0,L|460:109,2,56.2500021457673,4|0|4,0:0|0:0|0:0,0:0:0:0:
92,230,30285,2,0,L|38:211,2,56.2500021457673,4|0|4,0:0|0:0|0:0,0:0:0:0:
313,304,30594,1,4,0:0:0:0:
212,85,30748,1,4,0:0:0:0:
92,230,30903,5,12,0:0:0:0:
90,274,30980,1,0,0:0:0:0:
112,312,31057,1,0,0:0:0:0:
152,333,31135,1,12,0:0:0:0:
196,329,31212,1,0,0:0:0:0:
231,302,31289,1,0,0:0:0:0:
245,258,31367,1,12,0:0:0:0:
270,293,31444,1,0,0:0:0:0:
313,304,31522,5,0,0:0:0:0:
352,283,31598,1,12,0:0:0:0:
368,242,31676,1,0,0:0:0:0:
353,201,31753,1,0,0:0:0:0:
315,179,31831,1,12,0:0:0:0:
285,146,31908,1,0,0:0:0:0:
280,101,31986,1,12,0:0:0:0:
297,60,32062,1,0,0:0:0:0:
331,31,32140,5,4,0:0:0:0:
375,23,32218,1,0,0:0:0:0:
417,35,32295,1,0,0:0:0:0:
449,67,32372,1,0,0:0:0:0:
462,109,32450,1,4,0:0:0:0:
453,153,32526,1,0,0:0:0:0:
425,187,32603,1,0,0:0:0:0:
384,205,32681,1,0,0:0:0:0:
340,196,32759,6,0,L|312:240,7,28.1250010728836,4|0|0|0|0|0|0|0,0:0|0:0|0:0|0:0|0:0|0:0|0:0|0:0,0:0:0:0:
260,272,33068,2,0,L|288:316,7,28.1250010728836,4|0|0|0|0|0|0|0,0:0|0:0|0:0|0:0|0:0|0:0|0:0|0:0,0:0:0:0:
308,328,33377,5,6,0:0:0:0:
349,350,33454,1,0,0:0:0:0:
395,344,33531,1,0,0:0:0:0:
430,313,33608,1,0,0:0:0:0:
439,266,33687,1,4,0:0:0:0:
420,224,33763,1,0,0:0:0:0:
384,192,33841,1,0,0:0:0:0:
356,152,33918,1,0,0:0:0:0:
339,108,33996,5,4,0:0:0:0:
340,61,34072,1,0,0:0:0:0:
370,26,34150,1,0,0:0:0:0:
416,27,34227,1,0,0:0:0:0:
444,64,34305,1,4,0:0:0:0:
430,108,34382,1,0,0:0:0:0:
385,120,34459,1,0,0:0:0:0:
339,109,34536,1,0,0:0:0:0:
294,90,34614,6,0,P|268:81|240:79,3,56.2500021457673,6|0|0|0,0:0|0:0|0:0|0:0,0:0:0:0:
304,184,34924,2,0,P|330:193|358:195,3,56.2500021457673,4|0|0|0,0:0|0:0|0:0|0:0,0:0:0:0:
216,152,35233,6,0,P|178:168|150:197,3,56.2500021457673,6|0|0|0,0:0|0:0|0:0|0:0,0:0:0:0:
164,272,35542,2,0,P|201:255|229:226,3,56.2500021457673,4|0|0|0,0:0|0:0|0:0|0:0,0:0:0:0:
124,280,35852,5,6,0:0:0:0:
82,256,35929,1,0,0:0:0:0:
58,216,36006,1,0,0:0:0:0:
58,168,36083,1,0,0:0:0:0:
82,127,36161,1,4,0:0:0:0:
123,104,36238,1,0,0:0:0:0:
170,104,36315,1,0,0:0:0:0:
211,128,36393,1,0,0:0:0:0:
252,152,36470,5,6,0:0:0:0:
294,173,36547,1,0,0:0:0:0:
341,180,36624,1,0,0:0:0:0:
387,168,36701,1,0,0:0:0:0:
419,134,36779,1,4,0:0:0:0:
420,88,36856,1,0,0:0:0:0:
386,56,36933,1,0,0:0:0:0:
340,59,37011,1,0,0:0:0:0:
313,96,37089,6,0,P|328:172|296:224,1,112.500004291535,6|0,0:0|0:0,0:0:0:0:
104,258,37398,2,0,P|163:207|223:209,1,112.500004291535
349,358,37707,2,6,P|275:332|246:279,1,112.500004291535,6|0,0:0|0:0,0:0:0:0:
203,73,38017,6,0,P|219:113|219:145,1,56.2500021457673,4|0,0:0|0:0,0:0:0:0:
35,213,38171,2,0,P|49:190|77:170,1,56.2500021457673,4|0,0:0|0:0,0:0:0:0:
220,125,38326,5,6,0:0:0:0:
264,142,38403,1,0,0:0:0:0:
301,171,38480,1,0,0:0:0:0:
329,210,38557,1,0,0:0:0:0:
344,255,38635,1,4,0:0:0:0:
359,210,38713,1,0,0:0:0:0:
387,171,38790,1,0,0:0:0:0:
424,142,38867,1,0,0:0:0:0:
469,125,38944,6,0,P|410:104|347:17,1,168.750006437302,6|0,0:0|0:0,0:0:0:0:
343,5,39254,2,0,P|322:64|231:122,1,168.750006437302,6|0,0:0|0:0,0:0:0:0:
220,125,39563,1,6,0:0:0:0:
344,255,39718,1,0,0:0:0:0:
469,125,39872,1,4,0:0:0:0:
343,5,40027,1,0,0:0:0:0:
220,126,40181,5,6,0:0:0:0:
213,381,40336,1,0,0:0:0:0:
344,255,40491,1,4,0:0:0:0:
91,245,40645,1,0,0:0:0:0:
344,255,40800,5,6,0:0:0:0:
388,237,40877,1,0,0:0:0:0:
418,201,40954,1,0,0:0:0:0:
419,154,41031,1,0,0:0:0:0:
392,116,41109,1,4,0:0:0:0:
349,96,41186,1,0,0:0:0:0:
299,99,41264,1,0,0:0:0:0:
265,134,41341,1,0,0:0:0:0:
252,179,41419,5,4,0:0:0:0:
220,143,41496,1,0,0:0:0:0:
172,129,41573,1,0,0:0:0:0:
126,141,41651,1,0,0:0:0:0:
93,175,41728,1,4,0:0:0:0:
84,219,41806,1,0,0:0:0:0:
102,264,41883,1,0,0:0:0:0:
143,285,41960,1,0,0:0:0:0:
189,282,42037,6,0,P|218:290|239:307,1,56.2500021457673
309,383,42192,2,0,P|301:353|305:327,1,56.2500021457673
337,229,42346,2,0,P|315:250|290:259,1,56.2500021457673
1,292,42501,5,0,0:0:0:0:
46,260,42578,1,0,0:0:0:0:
101,263,42655,1,0,0:0:0:0:
180,365,42810,1,4,0:0:0:0:
68,54,42965,5,0,0:0:0:0:
102,110,43043,1,0,0:0:0:0:
163,137,43120,1,0,0:0:0:0:
228,124,43197,1,0,0:0:0:0:
275,76,43274,5,0,0:0:0:0:
175,27,43429,1,0,0:0:0:0:
291,259,43584,1,4,0:0:0:0:
373,66,43738,1,0,0:0:0:0:
202,325,43893,5,0,0:0:0:0:
275,76,44048,1,4,0:0:0:0:
390,252,44202,1,0,0:0:0:0:
125,170,44357,1,0,0:0:0:0:
379,128,44511,5,6,0:0:0:0:
423,120,44589,1,0,0:0:0:0:
467,113,44665,1,0,0:0:0:0:
125,170,44821,1,4,0:0:0:0:
288,333,44975,1,0,0:0:0:0:
320,14,45130,5,0,0:0:0:0:
315,58,45207,1,0,0:0:0:0:
310,103,45284,1,0,0:0:0:0:
288,333,45439,1,0,0:0:0:0:
125,170,45594,1,0,0:0:0:0:
423,120,45748,6,0,P|369:151|349:205,1,112.500004291535,4|0,0:0|0:0,0:0:0:0:
443,335,46058,2,0,P|442:273|406:229,1,112.500004291535,6|0,0:0|0:0,0:0:0:0:
207,79,46367,2,0,P|261:109|317:99,1,112.500004291535,4|0,0:0|0:0,0:0:0:0:
278,0,46676,5,0,0:0:0:0:
349,268,46831,1,4,0:0:0:0:
125,170,46986,5,0,0:0:0:0:
153,217,47063,1,0,0:0:0:0:
202,243,47140,1,0,0:0:0:0:
258,239,47217,1,0,0:0:0:0:
303,207,47295,1,0,0:0:0:0:
348,174,47372,1,0,0:0:0:0:
403,171,47449,1,0,0:0:0:0:
452,197,47526,1,0,0:0:0:0:
480,245,47604,1,0,0:0:0:0:
479,300,47681,1,0,0:0:0:0:
449,347,47758,1,0,0:0:0:0:
399,371,47836,1,0,0:0:0:0:
344,363,47913,6,0,B|304:350|272:367|272:367|295:351|309:332,1,112.500004291535
309,102,48223,5,0,0:0:0:0:
107,230,48377,1,4,0:0:0:0:
230,30,48532,5,4,0:0:0:0:
218,313,48687,1,4,0:0:0:0:
355,71,48841,6,0,L|308:101,1,56.2500021457673,4|0,0:0|0:0,0:0:0:0:
107,230,48996,1,4,0:0:0:0:
94,226,49151,6,0,L|196:256,1,56.2500021457673
375,308,49305,1,4,0:0:0:0:
179,104,49460,5,6,0:0:0:0:
260,342,49614,1,4,0:0:0:0:
230,30,49769,5,4,0:0:0:0:
124,309,49924,1,4,0:0:0:0:
393,221,50078,6,0,L|307:249,1,56.2500021457673,6|0,0:0|0:0,0:0:0:0:
112,313,50233,1,4,0:0:0:0:
278,295,50388,6,0,L|192:267,1,56.2500021457673,4|0,0:0|0:0,0:0:0:0:
0,205,50542,1,4,0:0:0:0:
317,336,50697,5,14,0:0:0:0:
278,295,50774,2,0,L|264:237,1,56.2500021457673
298,135,50929,2,0,P|321:119|351:113,2,56.2500021457673
264,240,51161,5,14,0:0:0:0:
224,277,51238,2,0,L|166:291,1,56.2500021457673
68,255,51393,2,0,P|41:246|10:247,2,56.2500021457673
169,346,51625,6,0,L|169:245,1,56.2500021457673
238,100,51779,2,0,L|238:201,1,56.2500021457673
370,305,51934,5,0,0:0:0:0:
328,277,52011,1,0,0:0:0:0:
310,231,52089,1,0,0:0:0:0:
323,183,52166,1,0,0:0:0:0:
362,152,52243,1,0,0:0:0:0:
412,150,52320,1,0,0:0:0:0:
453,178,52398,1,0,0:0:0:0:
470,225,52475,1,0,0:0:0:0:
455,273,52553,6,0,L|412:264,7,28.1250010728836
332,224,52862,2,0,L|294:189,7,28.1250010728836
298,167,53171,6,8,P|304:100|356:60,1,134.999995880127,12|12,0:0|0:0,0:0:0:0:
409,246,53635,2,8,P|378:297|304:302,1,134.999995880127,12|12,0:0|0:0,0:0:0:0:
289,278,53944,1,0,0:0:0:0:
298,248,54022,2,0,L|310:204,1,44.999998626709
354,60,54254,1,0,0:0:0:0:
197,230,54408,6,0,P|169:242|150:245,1,44.999998626709
42,166,54563,2,0,P|70:154|89:151,1,44.999998626709
201,358,54718,2,0,P|183:321|182:271,1,89.9999972534181
197,230,54950,1,0,0:0:0:0:
235,252,55027,5,0,0:0:0:0:
280,254,55104,1,0,0:0:0:0:
320,235,55181,1,0,0:0:0:0:
346,199,55259,1,0,0:0:0:0:
353,155,55336,1,0,0:0:0:0:
115,201,55491,1,4,0:0:0:0:
343,77,55645,6,12,P|406:96|432:157,2,134.999995880127
141,284,56341,2,0,L|155:347,1,44.999998626709,12|0,0:0|0:0,0:0:0:0:
176,167,56496,2,0,L|188:230,1,44.999998626709
210,50,56651,2,0,L|221:110,1,44.999998626709
342,262,56882,5,0,0:0:0:0:
401,44,57037,1,4,0:0:0:0:
344,77,57114,1,4,0:0:0:0:
286,111,57192,1,0,0:0:0:0:
94,224,57346,1,0,0:0:0:0:
342,262,57501,6,4,L|384:269,4,22.4999993133545
147,101,57810,1,0,0:0:0:0:
242,323,57965,2,4,L|258:363,4,22.4999993133545,4|4|4|4|12,0:0|0:0|0:0|0:0|0:0,0:0:0:0:
210,50,58352,5,12,0:0:0:0:
156,266,58584,1,12,0:0:0:0:
351,160,58815,2,0,L|377:118,2,44.999998626709,12|0|0,0:0|0:0|0:0,0:0:0:0:
307,172,59047,2,0,P|267:157|218:165,1,89.9999972534181,12|0,0:0|0:0,0:0:0:0:
306,87,59357,5,12,0:0:0:0:
425,219,59589,1,0,0:0:0:0:
480,50,59821,1,12,0:0:0:0:
255,266,60053,1,12,0:0:0:0:
245,287,60130,2,0,L|224:328,1,44.999998626709
200,204,60285,2,0,L|224:160,1,44.999998626709
170,64,60439,2,0,L|148:104,1,44.999998626709
76,225,60594,5,12,0:0:0:0:
287,133,60826,2,0,L|316:120,8,22.4999993133545,12|0|0|0|0|0|0|0|0,0:0|0:0|0:0|0:0|0:0|0:0|0:0|0:0|0:0,0:0:0:0:
177,301,61212,5,12,0:0:0:0:
202,72,61444,2,0,L|209:22,4,44.999998626709,12|0|0|0|0,0:0|0:0|0:0|0:0|0:0,0:0:0:0:
274,249,61831,5,12,0:0:0:0:
277,286,61908,1,4,0:0:0:0:
281,323,61986,2,4,L|284:376,1,44.999998626709
354,137,62140,1,12,0:0:0:0:
357,174,62218,1,4,0:0:0:0:
361,211,62295,2,4,L|364:268,1,44.999998626709
296,84,62450,2,12,P|352:60|416:88,2,134.999995880127
184,172,63068,5,14,0:0:0:0:
363,255,63223,1,0,0:0:0:0:
212,92,63377,1,0,0:0:0:0:
248,272,63532,1,0,0:0:0:0:
367,41,63687,1,0,0:0:0:0:
372,73,63764,1,0,0:0:0:0:
396,96,63841,1,0,0:0:0:0:
429,99,63919,1,0,0:0:0:0:
458,83,63996,2,0,L|412:128,1,44.999998626709
344,196,64151,2,0,L|320:256,1,44.999998626709
288,344,64305,5,0,0:0:0:0:
280,320,64382,1,0,0:0:0:0:
272,296,64460,2,0,L|256:240,1,44.999998626709
208,69,64614,1,0,0:0:0:0:
192,88,64691,1,0,0:0:0:0:
177,108,64769,2,0,L|139:158,1,44.999998626709
73,245,64924,2,0,P|65:309|108:364,2,134.999995880127
150,144,65542,5,0,0:0:0:0:
187,111,65619,1,0,0:0:0:0:
236,101,65696,1,0,0:0:0:0:
284,114,65774,1,0,0:0:0:0:
320,148,65852,2,0,P|358:136|389:96,2,89.9999972534181
288,168,66238,5,0,0:0:0:0:
264,199,66315,1,0,0:0:0:0:
255,237,66392,1,0,0:0:0:0:
261,276,66470,2,0,P|280:312|328:336,2,89.9999972534181
255,237,66857,5,0,0:0:0:0:
264,199,66934,1,0,0:0:0:0:
288,168,67011,1,0,0:0:0:0:
320,148,67089,1,0,0:0:0:0:
354,129,67166,1,0,0:0:0:0:
377,98,67243,1,0,0:0:0:0:
377,60,67320,1,0,0:0:0:0:
353,30,67398,2,0,L|310:-9,1,44.999998626709
186,196,67553,2,0,L|229:235,1,44.999998626709
289,122,67707,2,0,L|246:83,1,44.999998626709
122,288,67862,2,0,L|165:327,1,44.999998626709
219,226,68017,5,12,0:0:0:0:
202,182,68094,1,0,0:0:0:0:
159,160,68171,1,4,0:0:0:0:
112,169,68248,1,0,0:0:0:0:
64,161,68326,1,4,0:0:0:0:
36,121,68403,1,0,0:0:0:0:
40,73,68480,1,4,0:0:0:0:
68,33,68558,1,0,0:0:0:0:
116,21,68635,5,4,0:0:0:0:
160,41,68712,1,0,0:0:0:0:
184,85,68790,1,4,0:0:0:0:
224,111,68867,1,0,0:0:0:0:
272,120,68944,1,4,0:0:0:0:
320,115,69022,1,0,0:0:0:0:
363,93,69099,1,4,0:0:0:0:
379,49,69176,1,0,0:0:0:0:
354,10,69254,5,12,0:0:0:0:
307,4,69331,1,0,0:0:0:0:
275,38,69408,1,4,0:0:0:0:
273,86,69486,1,0,0:0:0:0:
289,132,69563,1,4,0:0:0:0:
316,173,69640,1,0,0:0:0:0:
357,198,69718,1,4,0:0:0:0:
404,205,69795,1,0,0:0:0:0:
356,209,69872,5,4,0:0:0:0:
313,231,69949,1,0,0:0:0:0:
285,270,70027,1,4,0:0:0:0:
279,318,70104,1,0,0:0:0:0:
233,301,70181,1,4,0:0:0:0:
188,284,70258,1,0,0:0:0:0:
144,265,70336,1,4,0:0:0:0:
188,241,70413,1,0,0:0:0:0:
224,205,70491,6,0,L|238:187,7,22.4999993133545,12|0|0|0|0|0|0|0,0:0|0:0|0:0|0:0|0:0|0:0|0:0|0:0,0:0:0:0:
152,241,70800,1,4,0:0:0:0:
114,210,70877,1,4,0:0:0:0:
102,163,70954,1,4,0:0:0:0:
122,118,71031,1,4,0:0:0:0:
168,53,71109,6,0,L|170:30,7,22.4999993133545,12|0|0|0|0|0|0|0,0:0|0:0|0:0|0:0|0:0|0:0|0:0|0:0,0:0:0:0:
204,125,71420,1,4,0:0:0:0:
249,142,71497,1,4,0:0:0:0:
297,133,71574,1,4,0:0:0:0:
332,99,71651,1,4,0:0:0:0:
337,50,71728,5,12,0:0:0:0:
173,12,71883,1,0,0:0:0:0:
86,156,72037,1,0,0:0:0:0:
196,284,72192,1,0,0:0:0:0:
363,220,72346,6,0,P|378:173|369:123,1,101.249996910095,4|0,0:0|0:0,0:0:0:0:
217,75,72656,2,0,P|229:137|296:162,1,134.999995880127,4|0,0:0|0:0,0:0:0:0:
386,42,72965,6,0,P|317:55|285:122,1,112.500004291535,4|0,0:0|0:0,0:0:0:0:
261,249,73274,1,4,0:0:0:0:
214,90,73429,1,0,0:0:0:0:
198,132,73506,1,0,0:0:0:0:
182,174,73584,1,4,0:0:0:0:
143,281,73738,1,0,0:0:0:0:
303,123,73893,1,4,0:0:0:0:
251,260,74047,1,0,0:0:0:0:
248,304,74124,1,0,0:0:0:0:
265,345,74202,5,12,0:0:0:0:
331,160,74357,1,0,0:0:0:0:
143,281,74511,1,4,0:0:0:0:
239,92,74666,1,0,0:0:0:0:
120,326,74821,1,4,0:0:0:0:
115,76,74975,1,0,0:0:0:0:
120,374,75130,1,4,0:0:0:0:
39,176,75285,1,0,0:0:0:0:
79,156,75362,1,0,0:0:0:0:
119,132,75439,6,0,L|175:104,1,56.2500021457673,12|0,0:0|0:0,0:0:0:0:
367,56,75594,2,0,L|311:52,1,56.2500021457673
123,124,75748,2,0,L|179:96,1,56.2500021457673,4|0,0:0|0:0,0:0:0:0:
371,48,75903,2,0,L|315:44,1,56.2500021457673
127,116,76058,1,4,0:0:0:0:
97,149,76135,1,0,0:0:0:0:
86,192,76212,1,0,0:0:0:0:
98,235,76289,1,0,0:0:0:0:
131,268,76367,5,4,0:0:0:0:
263,88,76522,2,0,P|255:48|231:28,2,56.2500021457673,0|0|12,0:0|0:0|0:0,0:0:0:0:
175,276,76831,1,0,0:0:0:0:
91,88,76986,1,4,0:0:0:0:
279,200,77140,1,0,0:0:0:0:
51,148,77295,1,4,0:0:0:0:
28,123,77372,1,0,0:0:0:0:
18,91,77449,1,0,0:0:0:0:
24,58,77526,1,0,0:0:0:0:
45,32,77604,1,4,0:0:0:0:
87,60,77681,1,0,0:0:0:0:
135,72,77758,1,0,0:0:0:0:
179,48,77835,1,0,0:0:0:0:
211,8,77913,6,0,P|207:68|271:124,1,112.500004291535,12|0,0:0|0:0,0:0:0:0:
311,84,78223,2,0,P|265:123|271:208,1,112.500004291535,4|0,0:0|0:0,0:0:0:0:
255,184,78455,2,4,B|259:232|227:280|227:280|279:236,1,168.750006437302,0|0,0:0|0:0,0:0:0:0:
311,84,78841,1,4,0:0:0:0:
179,197,78996,1,0,0:0:0:0:
427,52,79151,5,12,0:0:0:0:
214,112,79305,1,0,0:0:0:0:
371,256,79460,1,4,0:0:0:0:
335,36,79614,1,0,0:0:0:0:
199,241,79769,1,4,0:0:0:0:
179,197,79846,1,0,0:0:0:0:
184,150,79923,1,0,0:0:0:0:
214,112,80000,1,0,0:0:0:0:
259,95,80078,1,4,0:0:0:0:
284,305,80233,1,0,0:0:0:0:
259,95,80388,5,12,0:0:0:0:
171,255,80542,1,0,0:0:0:0:
392,84,80697,1,4,0:0:0:0:
215,168,80852,1,0,0:0:0:0:
378,259,81006,2,0,P|422:226|426:172,1,112.500004291535,4|0,0:0|0:0,0:0:0:0:
392,84,81238,1,0,0:0:0:0:
380,86,81315,2,0,P|336:119|332:173,1,112.500004291535,4|0,0:0|0:0,0:0:0:0:
388,280,81625,5,12,0:0:0:0:
303,117,81779,1,0,0:0:0:0:
248,281,81934,1,4,0:0:0:0:
264,47,82089,1,0,0:0:0:0:
235,81,82166,1,4,0:0:0:0:
206,115,82243,1,12,0:0:0:0:
117,237,82398,1,4,0:0:0:0:
159,222,82475,1,0,0:0:0:0:
202,207,82553,1,4,0:0:0:0:
347,167,82707,1,4,0:0:0:0:
183,56,82862,5,14,0:0:0:0:
255,252,83017,1,0,0:0:0:0:
315,44,83171,1,4,0:0:0:0:
139,180,83326,1,0,0:0:0:0:
375,176,83480,5,12,0:0:0:0:
143,28,83635,1,0,0:0:0:0:
235,272,83790,1,4,0:0:0:0:
307,12,83944,1,0,0:0:0:0:
83,184,84099,5,12,0:0:0:0:
267,124,84254,1,0,0:0:0:0:
451,64,84408,1,4,0:0:0:0:
367,284,84563,2,0,L|343:224,1,56.2500021457673
267,48,84718,1,12,0:0:0:0:
183,268,84873,1,0,0:0:0:0:
223,228,84950,1,0,0:0:0:0:
263,189,85027,1,4,0:0:0:0:
381,69,85181,1,0,0:0:0:0:
367,308,85336,6,0,L|375:180,1,112.500004291535,12|0,0:0|0:0,0:0:0:0:
299,120,85568,1,0,0:0:0:0:
291,128,85645,2,0,L|283:256,1,112.500004291535,4|0,0:0|0:0,0:0:0:0:
195,300,85877,1,0,0:0:0:0:
191,288,85955,2,0,L|199:160,1,112.500004291535,12|0,0:0|0:0,0:0:0:0:
119,104,86187,1,0,0:0:0:0:
85,148,86264,5,4,0:0:0:0:
82,203,86341,1,0,0:0:0:0:
111,250,86418,1,0,0:0:0:0:
162,273,86496,1,0,0:0:0:0:
216,263,86573,2,0,P|271:252|319:304,2,112.500004291535,12|0|4,0:0|0:0|0:0,0:0:0:0:
243,364,87037,1,0,0:0:0:0:
375,256,87192,5,12,0:0:0:0:
391,203,87269,1,0,0:0:0:0:
375,149,87346,1,0,0:0:0:0:
354,97,87423,1,0,0:0:0:0:
361,43,87501,1,4,0:0:0:0:
412,26,87578,1,0,0:0:0:0:
453,61,87655,1,0,0:0:0:0:
441,113,87733,1,0,0:0:0:0:
391,132,87810,6,0,B|327:140|291:84,1,112.500004291535,12|4,0:0|0:0,0:0:0:0:
165,35,88120,2,0,B|224:60|227:126,1,112.500004291535,4|4,0:0|0:0,0:0:0:0:
247,256,88429,1,4,0:0:0:0:
375,40,88584,1,4,0:0:0:0:
139,124,88738,1,4,0:0:0:0:
375,212,88893,1,4,0:0:0:0:
139,296,89047,5,12,0:0:0:0:
227,60,89202,1,4,0:0:0:0:
91,164,89357,1,4,0:0:0:0:
159,320,89511,1,4,0:0:0:0:
235,48,89666,5,4,0:0:0:0:
99,152,89821,1,4,0:0:0:0:
167,308,89975,1,4,0:0:0:0:
339,300,90130,1,4,0:0:0:0:
383,132,90285,6,0,L|363:96,7,28.1250010728836,12|0|0|0|0|0|0|0,0:0|0:0|0:0|0:0|0:0|0:0|0:0|0:0,0:0:0:0:
287,72,90594,1,4,0:0:0:0:
242,104,90671,1,4,0:0:0:0:
226,157,90748,1,4,0:0:0:0:
245,209,90825,1,4,0:0:0:0:
241,299,90903,6,0,L|233:335,7,28.1250010728836,12|0|0|0|0|0|0|0,0:0|0:0|0:0|0:0|0:0|0:0|0:0|0:0,0:0:0:0:
171,264,91212,1,4,0:0:0:0:
164,208,91289,1,4,0:0:0:0:
192,160,91366,1,4,0:0:0:0:
242,137,91444,1,4,0:0:0:0:
296,148,91522,6,12,P|367:148|395:56,2,168.750006437302
179,124,92218,2,12,P|117:159|139:253,1,168.750006437302
224,220,92604,1,12,0:0:0:0:
296,148,92759,6,0,P|296:92|264:44,1,89.9999972534181,4|0,0:0|0:0,0:0:0:0:
224,220,93068,2,0,P|272:248|330:244,1,89.9999972534181
200,120,93377,2,0,P|132:176|144:272,1,179.999994506836
152,40,93996,5,8,0:0:0:0:
120,71,94073,1,0,0:0:0:0:
107,114,94151,1,0,0:0:0:0:
115,157,94227,1,0,0:0:0:0:
143,192,94305,1,8,0:0:0:0:
184,210,94382,1,0,0:0:0:0:
229,206,94459,1,0,0:0:0:0:
272,192,94537,1,0,0:0:0:0:
312,172,94614,6,0,L|360:168,1,44.999998626709,8|0,0:0|0:0,0:0:0:0:
512,156,94769,2,0,L|464:160,1,44.999998626709,8|0,0:0|0:0,0:0:0:0:
312,172,94924,2,0,P|276:188|256:228,1,78.7499975967408,12|0,0:0|0:0,0:0:0:0:
248,264,95233,5,12,0:0:0:0:
208,302,95310,1,0,0:0:0:0:
153,306,95387,1,0,0:0:0:0:
108,274,95464,1,0,0:0:0:0:
93,221,95542,1,4,0:0:0:0:
115,171,95619,1,0,0:0:0:0:
164,146,95696,1,0,0:0:0:0:
218,158,95774,1,0,0:0:0:0:
268,184,95852,5,4,0:0:0:0:
322,191,95929,1,0,0:0:0:0:
369,162,96006,1,0,0:0:0:0:
385,109,96084,1,0,0:0:0:0:
363,59,96161,1,4,0:0:0:0:
313,35,96238,1,0,0:0:0:0:
260,49,96315,1,0,0:0:0:0:
236,100,96393,1,0,0:0:0:0:
252,152,96470,5,4,0:0:0:0:
260,208,96547,1,0,0:0:0:0:
248,264,96625,1,0,0:0:0:0:
136,132,96779,1,4,0:0:0:0:
68,292,96934,1,0,0:0:0:0:
248,264,97089,1,4,0:0:0:0:
188,48,97243,1,0,0:0:0:0:
120,208,97398,1,4,0:0:0:0:
300,180,97553,1,0,0:0:0:0:
332,172,97630,1,0,0:0:0:0:
364,164,97707,6,0,B|448:148|448:148|424:132,1,112.500004291535,12|0,0:0|0:0,0:0:0:0:
288,76,97939,1,0,0:0:0:0:
272,84,98017,2,4,P|236:148|272:240,2,168.750006437302,4|0|0,0:0|0:0|0:0,0:0:0:0:
364,164,98635,1,4,0:0:0:0:
148,236,98790,1,0,0:0:0:0:
356,272,98944,2,0,B|288:244|300:168|300:168|344:180,1,168.750006437302,4|0,0:0|0:0,0:0:0:0:
376,196,99254,2,0,B|372:152|400:112,1,56.2500021457673,4|0,0:0|0:0,0:0:0:0:
416,24,99408,2,0,B|379:49|331:45,1,56.2500021457673
244,68,99563,5,4,0:0:0:0:
288,102,99640,1,0,0:0:0:0:
312,152,99717,1,0,0:0:0:0:
305,207,99794,1,0,0:0:0:0:
280,257,99872,1,4,0:0:0:0:
156,136,100027,5,4,0:0:0:0:
164,116,100104,1,0,0:0:0:0:
172,96,100181,2,0,L|172:32,1,56.2500021457673,12|0,0:0|0:0,0:0:0:0:
248,180,100336,1,0,0:0:0:0:
256,160,100413,2,0,L|256:96,1,56.2500021457673,0|4,0:0|0:0,0:0:0:0:
332,244,100568,1,0,0:0:0:0:
340,224,100645,2,0,L|340:160,1,56.2500021457673
412,308,100800,5,4,0:0:0:0:
420,288,100877,2,0,L|420:224,1,56.2500021457673
356,68,101032,1,0,0:0:0:0:
348,88,101109,2,0,L|348:144,1,56.2500021457673,4|0,0:0|0:0,0:0:0:0:
276,132,101264,1,0,0:0:0:0:
268,152,101341,2,0,L|268:208,1,56.2500021457673,0|4,0:0|0:0,0:0:0:0:
192,196,101496,1,0,0:0:0:0:
184,216,101573,2,0,L|184:272,1,56.2500021457673
108,260,101728,5,4,0:0:0:0:
100,280,101805,2,0,L|100:336,1,56.2500021457673
380,146,102037,2,4,L|240:240,2,168.750006437302,4|0|0,0:0|0:0|0:0,0:0:0:0:
144,184,102656,6,0,P|128:244|160:312,1,112.500004291535,12|0,0:0|0:0,0:0:0:0:
388,136,102965,2,0,P|404:76|372:8,1,112.500004291535,4|0,0:0|0:0,0:0:0:0:
288,288,103274,1,4,0:0:0:0:
196,32,103429,1,0,0:0:0:0:
96,248,103584,1,4,0:0:0:0:
148,228,103661,1,0,0:0:0:0:
184,184,103738,1,0,0:0:0:0:
108,80,103893,5,4,0:0:0:0:
75,124,103970,1,0,0:0:0:0:
80,179,104047,1,0,0:0:0:0:
120,217,104124,1,0,0:0:0:0:
175,219,104202,1,4,0:0:0:0:
217,184,104279,1,0,0:0:0:0:
226,130,104357,1,0,0:0:0:0:
252,179,104434,1,4,0:0:0:0:
279,229,104511,5,4,0:0:0:0:
304,280,104589,1,0,0:0:0:0:
325,227,104666,1,4,0:0:0:0:
346,175,104743,1,0,0:0:0:0:
368,124,104821,2,0,P|400:72|468:32,1,112.500004291535,4|4,0:0|0:0,0:0:0:0:
500,208,105130,5,14,0:0:0:0:
276,104,105285,1,0,0:0:0:0:
88,184,105439,1,4,0:0:0:0:
331,141,105594,1,0,0:0:0:0:
228,20,105748,1,4,0:0:0:0:
219,75,105825,1,0,0:0:0:0:
211,131,105902,1,0,0:0:0:0:
152,284,106058,1,4,0:0:0:0:
331,141,106212,1,0,0:0:0:0:
140,104,106367,5,4,0:0:0:0:
264,288,106522,1,0,0:0:0:0:
444,164,106676,1,4,0:0:0:0:
284,24,106831,1,0,0:0:0:0:
136,176,106986,2,0,P|192:148|272:152,1,134.999995880127,4|0,0:0|0:0,0:0:0:0:
240,224,107295,2,0,P|184:143|320:102,1,255.000004863739,4|12,0:0|0:0,0:0:0:0:
352,148,107759,5,0,0:0:0:0:
112,220,107913,1,4,0:0:0:0:
160,192,107990,1,0,0:0:0:0:
216,189,108067,1,0,0:0:0:0:
336,260,108223,1,4,0:0:0:0:
208,68,108455,1,0,0:0:0:0:
132,284,108687,1,0,0:0:0:0:
55,153,108841,6,0,L|163:193,1,112.500004291535,4|4,0:0|0:0,0:0:0:0:
370,258,109151,2,0,L|350:144,1,112.500004291535,4|4,0:0|0:0,0:0:0:0:
204,28,109460,1,4,0:0:0:0:
167,69,109537,1,4,0:0:0:0:
158,124,109614,1,4,0:0:0:0:
180,175,109691,1,4,0:0:0:0:
226,207,109769,1,4,0:0:0:0:
296,32,109924,1,0,0:0:0:0:
120,184,110078,5,14,0:0:0:0:
124,239,110156,1,0,0:0:0:0:
157,284,110232,1,4,0:0:0:0:
208,306,110309,1,0,0:0:0:0:
263,300,110387,1,4,0:0:0:0:
307,266,110464,1,0,0:0:0:0:
328,214,110541,1,4,0:0:0:0:
319,159,110619,1,0,0:0:0:0:
300,108,110697,5,4,0:0:0:0:
296,52,110774,1,0,0:0:0:0:
320,0,110852,1,4,0:0:0:0:
360,40,110929,1,0,0:0:0:0:
367,95,111006,1,4,0:0:0:0:
350,148,111083,1,0,0:0:0:0:
313,190,111160,1,4,0:0:0:0:
262,212,111238,1,0,0:0:0:0:
206,211,111315,6,0,L|148:204,1,56.2500021457673,14|0,0:0|0:0,0:0:0:0:
24,180,111470,2,0,L|82:172,1,56.2500021457673,4|0,0:0|0:0,0:0:0:0:
300,140,111625,2,0,L|241:132,1,56.2500021457673,4|0,0:0|0:0,0:0:0:0:
72,40,111779,2,0,L|100:108,1,56.2500021457673,4|0,0:0|0:0,0:0:0:0:
172,328,111934,2,0,L|176:252,1,56.2500021457673,4|0,0:0|0:0,0:0:0:0:
240,84,112089,2,0,L|244:8,1,56.2500021457673,4|0,0:0|0:0,0:0:0:0:
296,300,112243,2,0,L|300:224,1,56.2500021457673,4|0,0:0|0:0,0:0:0:0:
364,56,112398,2,0,L|368:-20,1,56.2500021457673,4|0,0:0|0:0,0:0:0:0:
400,213,112553,5,14,0:0:0:0:
354,244,112630,1,0,0:0:0:0:
298,243,112707,1,0,0:0:0:0:
252,208,112785,1,14,0:0:0:0:
184,183,112862,1,0,0:0:0:0:
114,202,112939,1,0,0:0:0:0:
68,257,113017,5,14,0:0:0:0:
118,279,113094,1,0,0:0:0:0:
172,266,113171,1,0,0:0:0:0:
207,224,113248,1,14,0:0:0:0:
217,153,113326,1,0,0:0:0:0:
179,92,113402,1,0,0:0:0:0:
111,71,113480,5,14,0:0:0:0:
200,336,113635,1,14,0:0:0:0:
260,64,113790,5,14,0:0:0:0:
308,39,113867,1,0,0:0:0:0:
358,62,113944,1,0,0:0:0:0:
371,115,114022,1,0,0:0:0:0:
338,158,114099,5,14,0:0:0:0:
284,160,114176,1,0,0:0:0:0:
228,151,114253,1,0,0:0:0:0:
173,160,114331,1,0,0:0:0:0:
112,220,114408,5,14,0:0:0:0:
167,231,114485,1,0,0:0:0:0:
222,242,114562,1,0,0:0:0:0:
277,253,114640,1,0,0:0:0:0:
360,284,114718,5,14,0:0:0:0:
304,295,114795,1,0,0:0:0:0:
249,306,114872,1,0,0:0:0:0:
194,317,114949,1,0,0:0:0:0:
140,328,115027,6,4,L|148:252,1,56.2500021457673,14|0,0:0|0:0,0:0:0:0:
164,60,115259,1,2,0:0:0:0:
