osu file format v14

[General]
AudioFilename: audio.mp3
AudioLeadIn: 0
PreviewTime: 71724
Countdown: 0
SampleSet: Soft
StackLeniency: 0.7
Mode: 3
LetterboxInBreaks: 0
SpecialStyle: 0
WidescreenStoryboard: 0

[Editor]
DistanceSpacing: 1
BeatDivisor: 4
GridSize: 4
TimelineZoom: 5.300003

[Metadata]
Title:XROSS INFECTION
TitleUnicode:XROSS INFECTION
Artist:BlackY vs. Yooh
ArtistUnicode:BlackY vs. Yooh
Creator:HXJ_Crafter
Version:xl's EXHAUST
Source:SOUND VOLTEX II -infinite infection-
Tags:KONAMI BEMANI SDVX 制作決定記念 オリジナル楽曲コンテスト production confirmation commemorative original song contest xlwan Eedow biemote
BeatmapID:1793948
BeatmapSetID:486123

[Difficulty]
HPDrainRate:7.5
CircleSize:4
OverallDifficulty:7.5
ApproachRate:5
SliderMultiplier:1.4
SliderTickRate:1

[Events]
//Background and Video events
0,0,"514.png",0,0
//Break Periods
//Storyboard Layer 0 (Background)
//Storyboard Layer 1 (Fail)
//Storyboard Layer 2 (Pass)
//Storyboard Layer 3 (Foreground)
//Storyboard Sound Samples

[TimingPoints]
2446,309.278350515464,4,2,1,60,1,0
53167,-133.333333333333,4,2,1,60,0,0
53322,-66.6666666666667,4,2,1,60,0,0
53399,-133.333333333333,4,2,1,60,0,0
53554,-66.6666666666667,4,2,1,60,0,0
53631,-133.333333333333,4,2,1,60,0,0
53786,-66.6666666666667,4,2,1,60,0,0
53863,-100,4,2,1,60,0,0
55641,-133.333333333333,4,2,1,60,0,0
55796,-66.6666666666667,4,2,1,60,0,0
55873,-133.333333333333,4,2,1,60,0,0
56028,-66.6666666666667,4,2,1,60,0,0
56105,-133.333333333333,4,2,1,60,0,0
56260,-66.6666666666667,4,2,1,60,0,0
56337,-100,4,2,1,60,0,0
58116,-133.333333333333,4,2,1,60,0,0
58270,-66.6666666666667,4,2,1,60,0,0
58348,-133.333333333333,4,2,1,60,0,0
58502,-66.6666666666667,4,2,1,60,0,0
58580,-133.333333333333,4,2,1,60,0,0
58734,-66.6666666666667,4,2,1,60,0,0
58811,-100,4,2,1,60,0,0
60590,-133.333333333333,4,2,1,60,0,0
60744,-66.6666666666667,4,2,1,60,0,0
60822,-100,4,2,1,60,0,0
61208,-133.333333333333,4,2,1,60,0,0
61363,-66.6666666666667,4,2,1,60,0,0
61440,-100,4,2,1,60,0,0
72342,-66.6666666666667,4,2,1,60,0,0
72497,-200,4,2,1,60,0,0
72652,-66.6666666666667,4,2,1,60,0,0
72806,-200,4,2,1,60,0,0
72961,-100,4,2,1,60,0,1
91518,-133.333333333333,4,2,1,60,0,1
91672,-66.6666666666667,4,2,1,60,0,1
91750,-133.333333333333,4,2,1,60,0,1
91904,-66.6666666666667,4,2,1,60,0,1
91982,-133.333333333333,4,2,1,60,0,1
92136,-66.6666666666667,4,2,1,60,0,1
92214,-133.333333333333,4,2,1,60,0,1
92368,-66.6666666666667,4,2,1,60,0,1
92446,-133.333333333333,4,2,1,60,0,1
92523,-80,4,2,1,60,0,1
92600,-133.333333333333,4,2,1,60,0,1
92677,-80,4,2,1,60,0,1
92755,-100,4,2,1,60,0,0
95229,-100,4,2,1,60,0,1
115255,-100,4,2,1,60,0,0

[HitObjects]
64,192,2446,5,8,0:0:0:0:
448,192,2446,1,2,0:0:0:0:
192,192,2446,128,0,3683:0:0:0:0:
320,192,3683,1,0,0:0:0:0:
448,192,3683,128,0,4920:0:0:0:0:
320,192,4920,1,0,0:0:0:0:
192,192,4920,128,0,7394:0:0:0:0:
64,192,7394,1,0,0:0:0:0:
320,192,7394,128,0,9868:0:0:0:0:
192,192,9868,1,0,0:0:0:0:
64,192,9868,128,0,12342:0:0:0:0:
448,192,12342,128,0,13580:0:0:0:0:
320,192,13580,1,8,0:0:0:0:
64,192,13580,1,2,0:0:0:0:
192,192,13889,1,2,0:0:0:0:
448,192,13889,1,0,0:0:0:0:
320,192,14043,1,0,0:0:0:0:
448,192,14198,1,2,0:0:0:0:
192,192,14198,1,0,0:0:0:0:
64,192,14275,1,0,0:0:0:0:
448,192,14507,1,2,0:0:0:0:
192,192,14507,1,0,0:0:0:0:
320,192,14662,1,0,0:0:0:0:
192,192,14817,1,0,0:0:0:0:
448,192,14817,1,2,0:0:0:0:
64,192,14894,1,0,0:0:0:0:
192,192,15126,1,2,0:0:0:0:
448,192,15126,1,0,0:0:0:0:
320,192,15281,1,0,0:0:0:0:
192,192,15435,1,0,0:0:0:0:
448,192,15435,1,2,0:0:0:0:
64,192,15513,1,0,0:0:0:0:
448,192,15744,1,2,0:0:0:0:
192,192,15744,1,0,0:0:0:0:
320,192,15899,1,0,0:0:0:0:
192,192,16054,1,0,0:0:0:0:
448,192,16054,1,2,0:0:0:0:
64,192,16131,1,0,0:0:0:0:
448,192,16363,1,2,0:0:0:0:
192,192,16363,1,0,0:0:0:0:
320,192,16518,1,0,0:0:0:0:
192,192,16672,1,2,0:0:0:0:
448,192,16672,1,0,0:0:0:0:
64,192,16750,1,0,0:0:0:0:
192,192,16982,1,0,0:0:0:0:
448,192,16982,1,2,0:0:0:0:
320,192,17136,1,0,0:0:0:0:
448,192,17291,1,2,0:0:0:0:
192,192,17291,1,0,0:0:0:0:
64,192,17368,1,0,0:0:0:0:
448,192,17600,1,2,0:0:0:0:
192,192,17600,1,0,0:0:0:0:
320,192,17755,1,0,0:0:0:0:
192,192,17909,1,2,0:0:0:0:
448,192,17909,1,0,0:0:0:0:
64,192,17987,1,0,0:0:0:0:
448,192,18219,1,2,0:0:0:0:
320,192,18219,1,0,0:0:0:0:
192,192,18373,1,2,0:0:0:0:
64,192,18373,1,0,0:0:0:0:
448,192,18528,1,2,0:0:0:0:
320,192,18528,1,0,0:0:0:0:
64,192,18837,1,2,0:0:0:0:
320,192,18837,1,0,0:0:0:0:
192,192,18992,1,0,0:0:0:0:
320,192,19147,1,2,0:0:0:0:
64,192,19147,1,0,0:0:0:0:
448,192,19224,1,0,0:0:0:0:
64,192,19456,1,2,0:0:0:0:
320,192,19456,1,0,0:0:0:0:
192,192,19610,1,0,0:0:0:0:
320,192,19765,1,2,0:0:0:0:
64,192,19765,1,0,0:0:0:0:
448,192,19842,1,0,0:0:0:0:
64,192,20074,1,0,0:0:0:0:
320,192,20074,1,2,0:0:0:0:
192,192,20229,1,0,0:0:0:0:
64,192,20384,1,2,0:0:0:0:
320,192,20384,1,0,0:0:0:0:
448,192,20461,1,0,0:0:0:0:
64,192,20693,1,0,0:0:0:0:
320,192,20693,1,2,0:0:0:0:
192,192,20848,1,0,0:0:0:0:
320,192,21002,1,2,0:0:0:0:
64,192,21002,1,0,0:0:0:0:
448,192,21080,1,0,0:0:0:0:
320,192,21311,1,0,0:0:0:0:
64,192,21311,1,2,0:0:0:0:
192,192,21466,1,0,0:0:0:0:
64,192,21621,1,2,0:0:0:0:
320,192,21621,1,0,0:0:0:0:
448,192,21698,1,0,0:0:0:0:
320,192,21930,1,2,0:0:0:0:
64,192,21930,1,0,0:0:0:0:
192,192,22085,1,0,0:0:0:0:
64,192,22239,1,2,0:0:0:0:
320,192,22239,1,0,0:0:0:0:
448,192,22317,1,0,0:0:0:0:
192,192,22549,1,0,0:0:0:0:
64,192,22549,1,2,0:0:0:0:
448,192,22703,1,0,0:0:0:0:
320,192,22781,1,2,0:0:0:0:
64,192,22858,1,2,0:0:0:0:
192,192,22858,1,0,0:0:0:0:
64,192,23013,1,2,0:0:0:0:
192,192,23013,1,0,0:0:0:0:
320,192,23167,1,0,0:0:0:0:
448,192,23167,1,2,0:0:0:0:
448,192,23322,1,0,0:0:0:0:
320,192,23322,1,2,0:0:0:0:
192,192,23476,1,4,0:0:0:0:
64,192,23476,1,2,0:0:0:0:
448,192,23476,1,0,0:0:0:0:
64,192,23786,1,0,0:0:0:0:
320,192,23786,1,2,0:0:0:0:
192,192,23940,1,0,0:0:0:0:
320,192,24018,1,0,0:0:0:0:
64,192,24095,1,2,0:0:0:0:
448,192,24095,1,0,0:0:0:0:
320,192,24172,1,0,0:0:0:0:
192,192,24404,1,2,0:0:0:0:
448,192,24404,1,0,0:0:0:0:
320,192,24559,1,0,0:0:0:0:
192,192,24636,1,0,0:0:0:0:
64,192,24714,1,2,0:0:0:0:
448,192,24714,1,0,0:0:0:0:
192,192,24791,1,0,0:0:0:0:
320,192,25023,1,0,0:0:0:0:
64,192,25023,1,2,0:0:0:0:
192,192,25177,1,0,0:0:0:0:
320,192,25255,1,0,0:0:0:0:
64,192,25332,1,2,0:0:0:0:
448,192,25332,1,0,0:0:0:0:
320,192,25409,1,0,0:0:0:0:
192,192,25641,1,0,0:0:0:0:
448,192,25641,1,2,0:0:0:0:
320,192,25796,1,0,0:0:0:0:
192,192,25873,1,0,0:0:0:0:
448,192,25951,1,2,0:0:0:0:
64,192,25951,1,0,0:0:0:0:
192,192,26028,1,0,0:0:0:0:
320,192,26260,1,2,0:0:0:0:
64,192,26260,1,0,0:0:0:0:
192,192,26415,1,0,0:0:0:0:
320,192,26492,1,0,0:0:0:0:
448,192,26569,1,2,0:0:0:0:
64,192,26569,1,0,0:0:0:0:
320,192,26647,1,0,0:0:0:0:
448,192,26878,1,2,0:0:0:0:
192,192,26878,1,0,0:0:0:0:
320,192,27033,1,0,0:0:0:0:
192,192,27110,1,0,0:0:0:0:
448,192,27188,1,2,0:0:0:0:
64,192,27188,1,0,0:0:0:0:
192,192,27265,1,0,0:0:0:0:
64,192,27497,1,2,0:0:0:0:
320,192,27497,1,0,0:0:0:0:
192,192,27652,1,0,0:0:0:0:
320,192,27729,1,0,0:0:0:0:
448,192,27806,1,2,0:0:0:0:
64,192,27806,1,0,0:0:0:0:
192,192,27884,1,0,0:0:0:0:
320,192,27961,1,0,0:0:0:0:
448,192,28116,1,0,0:0:0:0:
192,192,28116,1,2,0:0:0:0:
64,192,28270,1,2,0:0:0:0:
320,192,28270,1,0,0:0:0:0:
192,192,28348,1,0,0:0:0:0:
320,192,28425,1,4,0:0:0:0:
64,192,28425,1,2,0:0:0:0:
448,192,28425,128,0,28580:0:0:0:0:
192,192,28580,1,2,0:0:0:0:
64,192,28580,1,0,0:0:0:0:
320,192,28734,1,0,0:0:0:0:
448,192,28734,1,2,0:0:0:0:
192,192,28811,1,0,0:0:0:0:
448,192,28889,1,2,0:0:0:0:
64,192,28889,1,0,0:0:0:0:
192,192,29043,1,2,0:0:0:0:
320,192,29043,1,0,0:0:0:0:
64,192,29198,1,2,0:0:0:0:
448,192,29198,128,0,29353:0:0:0:0:
320,192,29353,1,2,0:0:0:0:
64,192,29507,1,2,0:0:0:0:
192,192,29507,128,0,29662:0:0:0:0:
448,192,29662,1,2,0:0:0:0:
320,192,29662,1,4,0:0:0:0:
64,192,29662,1,0,0:0:0:0:
448,192,29817,128,2,29971:0:0:0:0:
192,192,29817,1,0,0:0:0:0:
64,192,29971,1,2,0:0:0:0:
64,192,30126,128,0,30281:0:0:0:0:
320,192,30126,1,2,0:0:0:0:
192,192,30281,1,2,0:0:0:0:
448,192,30435,128,0,30590:0:0:0:0:
320,192,30435,1,2,0:0:0:0:
192,192,30590,128,2,30744:0:0:0:0:
64,192,30590,1,0,0:0:0:0:
320,192,30744,128,0,30899:0:0:0:0:
448,192,30744,1,2,0:0:0:0:
64,192,30899,1,4,0:0:0:0:
448,192,30899,1,2,0:0:0:0:
192,192,30976,1,0,0:0:0:0:
320,192,31054,1,0,0:0:0:0:
448,192,31131,1,2,0:0:0:0:
64,192,31131,1,4,0:0:0:0:
320,192,31208,1,0,0:0:0:0:
192,192,31286,1,0,0:0:0:0:
64,192,31363,1,2,0:0:0:0:
448,192,31363,1,4,0:0:0:0:
192,192,31440,1,0,0:0:0:0:
320,192,31518,1,0,0:0:0:0:
448,192,31595,1,2,0:0:0:0:
64,192,31595,1,4,0:0:0:0:
320,192,31672,1,0,0:0:0:0:
192,192,31750,1,0,0:0:0:0:
448,192,31827,1,4,0:0:0:0:
64,192,31827,1,2,0:0:0:0:
192,192,31982,1,4,0:0:0:0:
448,192,31982,1,2,0:0:0:0:
320,192,32059,1,0,0:0:0:0:
64,192,32136,1,2,0:0:0:0:
448,192,32136,1,4,0:0:0:0:
192,192,32214,1,0,0:0:0:0:
320,192,32291,1,0,0:0:0:0:
448,192,32368,1,0,0:0:0:0:
192,192,32446,1,0,0:0:0:0:
64,192,32523,1,0,0:0:0:0:
448,192,32600,1,0,0:0:0:0:
320,192,32677,1,0,0:0:0:0:
64,192,32755,128,0,33373:0:0:0:0:
192,192,32755,1,0,0:0:0:0:
320,192,32832,1,0,0:0:0:0:
448,192,32909,1,0,0:0:0:0:
192,192,32987,1,0,0:0:0:0:
320,192,33064,1,0,0:0:0:0:
448,192,33141,1,0,0:0:0:0:
320,192,33219,1,0,0:0:0:0:
448,192,33296,1,0,0:0:0:0:
320,192,33373,1,2,0:0:0:0:
192,192,33373,128,8,34610:0:0:0:0:
448,192,33528,1,0,0:0:0:0:
320,192,33683,1,0,0:0:0:0:
64,192,33683,1,2,0:0:0:0:
320,192,33837,1,0,0:0:0:0:
448,192,33992,1,0,0:0:0:0:
64,192,33992,1,2,0:0:0:0:
448,192,34147,1,0,0:0:0:0:
320,192,34301,1,2,0:0:0:0:
64,192,34301,1,0,0:0:0:0:
64,192,34456,1,0,0:0:0:0:
448,192,34610,128,0,35229:0:0:0:0:
320,192,34610,1,2,0:0:0:0:
64,192,34765,1,0,0:0:0:0:
192,192,34920,1,2,0:0:0:0:
320,192,34920,1,0,0:0:0:0:
192,192,35074,1,0,0:0:0:0:
320,192,35229,128,0,35848:0:0:0:0:
64,192,35229,1,2,0:0:0:0:
192,192,35384,1,0,0:0:0:0:
448,192,35538,1,0,0:0:0:0:
64,192,35538,1,2,0:0:0:0:
448,192,35693,1,0,0:0:0:0:
64,192,35848,128,0,36466:0:0:0:0:
192,192,35848,1,2,0:0:0:0:
448,192,36002,1,0,0:0:0:0:
192,192,36157,1,2,0:0:0:0:
320,192,36157,1,0,0:0:0:0:
320,192,36311,1,0,0:0:0:0:
192,192,36466,128,2,37085:0:0:0:0:
448,192,36466,1,0,0:0:0:0:
320,192,36621,1,0,0:0:0:0:
64,192,36775,1,0,0:0:0:0:
448,192,36775,1,2,0:0:0:0:
64,192,36930,1,0,0:0:0:0:
320,192,37085,128,2,37703:0:0:0:0:
448,192,37085,1,0,0:0:0:0:
64,192,37239,1,0,0:0:0:0:
448,192,37394,1,2,0:0:0:0:
192,192,37394,1,0,0:0:0:0:
192,192,37549,1,0,0:0:0:0:
448,192,37703,128,2,38322:0:0:0:0:
64,192,37703,1,0,0:0:0:0:
320,192,37858,1,0,0:0:0:0:
192,192,38013,1,2,0:0:0:0:
64,192,38013,1,0,0:0:0:0:
320,192,38167,1,2,0:0:0:0:
192,192,38167,1,0,0:0:0:0:
64,192,38322,128,2,38940:0:0:0:0:
320,192,38322,1,0,0:0:0:0:
192,192,38476,1,0,0:0:0:0:
320,192,38631,1,2,0:0:0:0:
448,192,38631,1,0,0:0:0:0:
448,192,38786,1,0,0:0:0:0:
320,192,38940,128,0,39250:0:0:0:0:
192,192,38940,1,2,0:0:0:0:
64,192,39095,1,0,0:0:0:0:
192,192,39250,128,0,39559:0:0:0:0:
448,192,39250,1,2,0:0:0:0:
320,192,39404,1,0,0:0:0:0:
64,192,39559,128,2,40177:0:0:0:0:
448,192,39559,1,0,0:0:0:0:
320,192,39714,1,0,0:0:0:0:
448,192,39868,1,2,0:0:0:0:
192,192,39868,1,0,0:0:0:0:
192,192,40023,1,0,0:0:0:0:
448,192,40177,128,0,40796:0:0:0:0:
320,192,40177,1,2,0:0:0:0:
192,192,40332,1,0,0:0:0:0:
320,192,40487,1,2,0:0:0:0:
64,192,40487,1,0,0:0:0:0:
320,192,40641,1,0,0:0:0:0:
192,192,40796,128,2,42033:0:0:0:0:
64,192,40796,1,0,0:0:0:0:
320,192,40951,1,0,0:0:0:0:
448,192,41105,1,0,0:0:0:0:
64,192,41105,1,2,0:0:0:0:
448,192,41260,1,0,0:0:0:0:
320,192,41415,1,0,0:0:0:0:
64,192,41415,1,2,0:0:0:0:
320,192,41569,1,0,0:0:0:0:
448,192,41724,1,2,0:0:0:0:
64,192,41724,1,0,0:0:0:0:
448,192,41878,1,0,0:0:0:0:
320,192,42033,1,2,0:0:0:0:
64,192,42033,1,0,0:0:0:0:
320,192,42188,1,4,0:0:0:0:
448,192,42188,1,0,0:0:0:0:
64,192,42188,1,0,0:0:0:0:
448,192,42342,1,2,0:0:0:0:
192,192,42342,1,0,0:0:0:0:
320,192,42497,1,2,0:0:0:0:
64,192,42497,1,0,0:0:0:0:
192,192,42574,1,2,0:0:0:0:
64,192,42652,1,4,0:0:0:0:
448,192,42652,1,0,0:0:0:0:
320,192,42652,1,0,0:0:0:0:
192,192,42806,1,2,0:0:0:0:
320,192,42806,1,0,0:0:0:0:
448,192,42961,1,2,0:0:0:0:
320,192,42961,1,0,0:0:0:0:
64,192,43038,1,2,0:0:0:0:
192,192,43038,1,0,0:0:0:0:
320,192,43116,1,0,0:0:0:0:
448,192,43116,1,2,0:0:0:0:
192,192,43193,1,0,0:0:0:0:
64,192,43193,1,2,0:0:0:0:
320,192,43270,128,8,44507:0:0:0:0:
448,192,43270,1,2,0:0:0:0:
192,192,43425,1,0,0:0:0:0:
448,192,43580,1,2,0:0:0:0:
192,192,43580,1,0,0:0:0:0:
448,192,43734,1,0,0:0:0:0:
192,192,43889,1,0,0:0:0:0:
64,192,43889,1,2,0:0:0:0:
64,192,44043,1,0,0:0:0:0:
448,192,44198,1,2,0:0:0:0:
192,192,44198,1,0,0:0:0:0:
192,192,44353,1,0,0:0:0:0:
64,192,44507,128,2,45126:0:0:0:0:
448,192,44507,1,0,0:0:0:0:
192,192,44662,1,0,0:0:0:0:
320,192,44817,1,0,0:0:0:0:
448,192,44817,1,2,0:0:0:0:
320,192,44971,1,0,0:0:0:0:
192,192,45126,128,0,45744:0:0:0:0:
448,192,45126,1,2,0:0:0:0:
448,192,45281,1,0,0:0:0:0:
64,192,45435,1,2,0:0:0:0:
320,192,45435,1,0,0:0:0:0:
320,192,45590,1,0,0:0:0:0:
448,192,45744,128,0,46982:0:0:0:0:
64,192,45744,1,2,0:0:0:0:
320,192,45899,1,0,0:0:0:0:
192,192,46054,1,0,0:0:0:0:
64,192,46054,1,2,0:0:0:0:
192,192,46208,1,0,0:0:0:0:
64,192,46363,1,2,0:0:0:0:
320,192,46363,1,0,0:0:0:0:
192,192,46518,1,0,0:0:0:0:
64,192,46672,1,2,0:0:0:0:
320,192,46672,1,0,0:0:0:0:
320,192,46827,1,0,0:0:0:0:
64,192,46982,128,0,48219:0:0:0:0:
192,192,46982,1,2,0:0:0:0:
448,192,47136,1,0,0:0:0:0:
320,192,47291,1,2,0:0:0:0:
192,192,47291,1,0,0:0:0:0:
320,192,47446,1,0,0:0:0:0:
448,192,47600,1,2,0:0:0:0:
192,192,47600,1,0,0:0:0:0:
192,192,47755,1,0,0:0:0:0:
320,192,47909,1,2,0:0:0:0:
448,192,47909,1,0,0:0:0:0:
192,192,48064,1,2,0:0:0:0:
320,192,48064,1,0,0:0:0:0:
192,192,48219,1,2,0:0:0:0:
448,192,48219,1,0,0:0:0:0:
320,192,48373,1,0,0:0:0:0:
448,192,48373,1,2,0:0:0:0:
320,192,48528,1,0,0:0:0:0:
192,192,48528,1,2,0:0:0:0:
192,192,48683,1,0,0:0:0:0:
64,192,48683,1,2,0:0:0:0:
64,192,48837,1,0,0:0:0:0:
320,192,48837,1,2,0:0:0:0:
64,192,48992,1,2,0:0:0:0:
448,192,48992,1,0,0:0:0:0:
192,192,49147,1,2,0:0:0:0:
448,192,49147,1,0,0:0:0:0:
320,192,49301,1,2,0:0:0:0:
448,192,49301,1,0,0:0:0:0:
192,192,49456,1,2,0:0:0:0:
64,192,49456,1,0,0:0:0:0:
192,192,49610,1,2,0:0:0:0:
320,192,49610,1,0,0:0:0:0:
320,192,49765,1,2,0:0:0:0:
448,192,49765,1,0,0:0:0:0:
192,192,49920,1,2,0:0:0:0:
320,192,49920,1,0,0:0:0:0:
64,192,50074,1,2,0:0:0:0:
448,192,50074,1,0,0:0:0:0:
192,192,50229,1,2,0:0:0:0:
448,192,50229,1,0,0:0:0:0:
64,192,50384,1,0,0:0:0:0:
448,192,50384,1,2,0:0:0:0:
320,192,50538,1,0,0:0:0:0:
64,192,50538,1,2,0:0:0:0:
192,192,50693,1,2,0:0:0:0:
64,192,50693,1,0,0:0:0:0:
448,192,50693,1,0,0:0:0:0:
320,192,50770,1,0,0:0:0:0:
448,192,50848,1,0,0:0:0:0:
64,192,50925,1,2,0:0:0:0:
192,192,50925,1,0,0:0:0:0:
320,192,51002,1,0,0:0:0:0:
448,192,51080,1,0,0:0:0:0:
192,192,51157,1,2,0:0:0:0:
64,192,51157,1,0,0:0:0:0:
320,192,51234,1,0,0:0:0:0:
448,192,51311,1,0,0:0:0:0:
192,192,51389,1,2,0:0:0:0:
64,192,51389,1,0,0:0:0:0:
320,192,51466,1,0,0:0:0:0:
448,192,51543,1,0,0:0:0:0:
320,192,51621,1,0,0:0:0:0:
64,192,51621,1,2,0:0:0:0:
192,192,51698,1,0,0:0:0:0:
448,192,51775,1,0,0:0:0:0:
64,192,51775,1,2,0:0:0:0:
192,192,51853,1,0,0:0:0:0:
448,192,51930,1,0,0:0:0:0:
320,192,52007,1,0,0:0:0:0:
64,192,52085,1,0,0:0:0:0:
192,192,52162,1,0,0:0:0:0:
448,192,52239,1,0,0:0:0:0:
320,192,52317,1,0,0:0:0:0:
64,192,52394,1,0,0:0:0:0:
448,192,52471,1,0,0:0:0:0:
192,192,52549,1,2,0:0:0:0:
320,192,52626,1,2,0:0:0:0:
64,192,52703,1,2,0:0:0:0:
448,192,52781,1,2,0:0:0:0:
192,192,52858,1,2,0:0:0:0:
320,192,52935,1,2,0:0:0:0:
64,192,53013,1,2,0:0:0:0:
448,192,53090,1,2,0:0:0:0:
64,192,53167,1,8,0:0:0:0:
192,192,53167,1,2,0:0:0:0:
320,192,53399,1,2,0:0:0:0:
192,192,53399,1,8,0:0:0:0:
320,192,53631,1,8,0:0:0:0:
448,192,53631,1,2,0:0:0:0:
192,192,53863,1,2,0:0:0:0:
64,192,53863,1,8,0:0:0:0:
448,192,53940,1,0,0:0:0:0:
320,192,54018,1,0,0:0:0:0:
192,192,54095,1,0,0:0:0:0:
64,192,54250,1,0,0:0:0:0:
320,192,54404,1,0,0:0:0:0:
192,192,54482,1,0,0:0:0:0:
448,192,54559,1,0,0:0:0:0:
320,192,54636,1,0,0:0:0:0:
192,192,54714,1,0,0:0:0:0:
448,192,54868,1,0,0:0:0:0:
320,192,54946,1,0,0:0:0:0:
192,192,55023,1,0,0:0:0:0:
64,192,55023,128,0,55177:0:0:0:0:
448,192,55177,128,0,55255:0:0:0:0:
320,192,55177,1,0,0:0:0:0:
320,192,55332,5,0,0:0:0:0:
448,192,55332,128,0,55409:0:0:0:0:
64,192,55487,128,0,55641:0:0:0:0:
192,192,55487,1,0,0:0:0:0:
320,192,55641,1,2,0:0:0:0:
448,192,55641,1,8,0:0:0:0:
320,192,55873,1,8,0:0:0:0:
192,192,55873,1,2,0:0:0:0:
192,192,56105,1,2,0:0:0:0:
64,192,56105,1,8,0:0:0:0:
320,192,56337,1,8,0:0:0:0:
448,192,56337,1,2,0:0:0:0:
192,192,56415,1,0,0:0:0:0:
448,192,56492,1,0,0:0:0:0:
320,192,56569,1,0,0:0:0:0:
64,192,56724,1,0,0:0:0:0:
448,192,56878,1,0,0:0:0:0:
320,192,56956,1,0,0:0:0:0:
64,192,57033,1,0,0:0:0:0:
192,192,57110,1,0,0:0:0:0:
320,192,57188,1,0,0:0:0:0:
64,192,57342,1,0,0:0:0:0:
320,192,57420,1,0,0:0:0:0:
448,192,57652,1,4,0:0:0:0:
64,192,57652,128,0,57729:0:0:0:0:
192,192,57652,1,0,0:0:0:0:
192,192,57806,1,0,0:0:0:0:
64,192,57806,128,0,57884:0:0:0:0:
448,192,57961,128,0,58116:0:0:0:0:
320,192,57961,1,4,0:0:0:0:
64,192,58116,1,2,0:0:0:0:
192,192,58116,1,8,0:0:0:0:
320,192,58348,1,8,0:0:0:0:
192,192,58348,1,2,0:0:0:0:
320,192,58580,1,8,0:0:0:0:
448,192,58580,1,2,0:0:0:0:
64,192,58811,1,2,0:0:0:0:
192,192,58811,1,8,0:0:0:0:
320,192,58889,1,0,0:0:0:0:
64,192,58966,1,0,0:0:0:0:
192,192,59043,1,0,0:0:0:0:
448,192,59198,1,0,0:0:0:0:
192,192,59353,1,2,0:0:0:0:
64,192,59353,1,8,0:0:0:0:
320,192,59585,1,8,0:0:0:0:
192,192,59585,1,2,0:0:0:0:
448,192,59817,1,2,0:0:0:0:
320,192,59817,1,8,0:0:0:0:
64,192,60049,1,8,0:0:0:0:
448,192,60049,1,2,0:0:0:0:
320,192,60126,128,0,60203:0:0:0:0:
192,192,60126,1,0,0:0:0:0:
64,192,60281,1,0,0:0:0:0:
192,192,60281,128,0,60358:0:0:0:0:
448,192,60435,128,0,60590:0:0:0:0:
320,192,60435,1,0,0:0:0:0:
64,192,60590,1,2,0:0:0:0:
192,192,60590,1,8,0:0:0:0:
448,192,60822,1,8,0:0:0:0:
320,192,60822,1,2,0:0:0:0:
448,192,61054,128,0,61208:0:0:0:0:
64,192,61208,1,2,0:0:0:0:
192,192,61208,1,8,0:0:0:0:
320,192,61440,1,8,0:0:0:0:
448,192,61440,1,2,0:0:0:0:
64,192,61518,1,0,0:0:0:0:
192,192,61595,1,0,0:0:0:0:
320,192,61672,1,0,0:0:0:0:
448,192,61750,1,0,0:0:0:0:
192,192,61827,1,0,0:0:0:0:
320,192,61904,1,0,0:0:0:0:
192,192,61982,1,0,0:0:0:0:
64,192,62059,1,0,0:0:0:0:
320,192,62136,128,0,62291:0:0:0:0:
64,192,62291,128,0,62446:0:0:0:0:
192,192,62446,1,2,0:0:0:0:
448,192,62446,1,4,0:0:0:0:
320,192,62523,1,0,0:0:0:0:
192,192,62600,1,0,0:0:0:0:
448,192,62677,1,2,0:0:0:0:
64,192,62677,1,4,0:0:0:0:
320,192,62755,1,0,0:0:0:0:
192,192,62832,1,0,0:0:0:0:
64,192,62909,1,2,0:0:0:0:
448,192,62909,1,4,0:0:0:0:
320,192,62987,1,0,0:0:0:0:
448,192,63064,1,2,0:0:0:0:
64,192,63064,1,8,0:0:0:0:
192,192,63064,1,0,0:0:0:0:
192,192,63296,1,0,0:0:0:0:
320,192,63296,1,0,0:0:0:0:
320,192,63528,1,0,0:0:0:0:
448,192,63528,1,0,0:0:0:0:
448,192,63760,1,0,0:0:0:0:
320,192,63837,1,0,0:0:0:0:
64,192,63915,1,0,0:0:0:0:
192,192,63992,1,0,0:0:0:0:
320,192,64147,1,0,0:0:0:0:
192,192,64301,1,0,0:0:0:0:
448,192,64378,1,0,0:0:0:0:
320,192,64456,1,0,0:0:0:0:
64,192,64533,1,0,0:0:0:0:
192,192,64610,1,0,0:0:0:0:
448,192,64688,1,0,0:0:0:0:
320,192,64765,1,0,0:0:0:0:
448,192,64842,1,0,0:0:0:0:
64,192,64920,1,0,0:0:0:0:
192,192,64920,1,0,0:0:0:0:
448,192,65152,1,0,0:0:0:0:
192,192,65152,1,0,0:0:0:0:
64,192,65384,1,0,0:0:0:0:
448,192,65538,1,0,0:0:0:0:
192,192,65538,1,0,0:0:0:0:
192,192,65770,1,0,0:0:0:0:
320,192,65770,1,0,0:0:0:0:
192,192,66002,1,0,0:0:0:0:
64,192,66002,1,0,0:0:0:0:
448,192,66234,1,0,0:0:0:0:
320,192,66311,1,0,0:0:0:0:
64,192,66389,1,0,0:0:0:0:
192,192,66466,1,0,0:0:0:0:
448,192,66621,1,0,0:0:0:0:
192,192,66775,1,0,0:0:0:0:
448,192,66853,1,0,0:0:0:0:
320,192,66930,1,0,0:0:0:0:
64,192,67007,1,0,0:0:0:0:
192,192,67085,1,0,0:0:0:0:
448,192,67162,1,0,0:0:0:0:
320,192,67239,1,0,0:0:0:0:
64,192,67317,1,0,0:0:0:0:
192,192,67394,1,0,0:0:0:0:
448,192,67471,1,0,0:0:0:0:
320,192,67549,1,0,0:0:0:0:
192,192,67626,1,0,0:0:0:0:
64,192,67626,1,0,0:0:0:0:
448,192,67781,1,0,0:0:0:0:
320,192,67858,1,0,0:0:0:0:
192,192,67935,1,0,0:0:0:0:
320,192,68013,1,4,0:0:0:0:
64,192,68013,1,2,0:0:0:0:
192,192,68167,1,0,0:0:0:0:
448,192,68167,1,2,0:0:0:0:
320,192,68244,1,0,0:0:0:0:
448,192,68322,1,2,0:0:0:0:
192,192,68322,1,0,0:0:0:0:
64,192,68476,1,2,0:0:0:0:
320,192,68476,1,0,0:0:0:0:
192,192,68554,1,0,0:0:0:0:
448,192,68631,1,2,0:0:0:0:
320,192,68631,1,0,0:0:0:0:
64,192,68786,1,2,0:0:0:0:
192,192,68786,128,0,68940:0:0:0:0:
320,192,68940,1,2,0:0:0:0:
448,192,68940,128,0,69095:0:0:0:0:
192,192,69095,128,2,69250:0:0:0:0:
64,192,69095,1,0,0:0:0:0:
448,192,69250,1,4,0:0:0:0:
320,192,69250,1,2,0:0:0:0:
192,192,69404,1,0,0:0:0:0:
64,192,69404,1,2,0:0:0:0:
320,192,69482,1,0,0:0:0:0:
448,192,69559,1,2,0:0:0:0:
64,192,69559,1,0,0:0:0:0:
192,192,69714,1,0,0:0:0:0:
320,192,69714,1,2,0:0:0:0:
64,192,69791,1,0,0:0:0:0:
192,192,69868,1,0,0:0:0:0:
448,192,69868,1,2,0:0:0:0:
320,192,70023,128,0,70177:0:0:0:0:
448,192,70023,1,2,0:0:0:0:
64,192,70177,128,0,70332:0:0:0:0:
192,192,70177,1,2,0:0:0:0:
320,192,70332,128,0,70487:0:0:0:0:
448,192,70332,1,2,0:0:0:0:
192,192,70487,1,6,0:0:0:0:
448,192,70641,1,2,0:0:0:0:
320,192,70719,1,2,0:0:0:0:
64,192,70796,1,2,0:0:0:0:
192,192,70796,1,0,0:0:0:0:
320,192,70873,1,2,0:0:0:0:
192,192,70951,1,2,0:0:0:0:
448,192,71028,1,2,0:0:0:0:
320,192,71028,1,0,0:0:0:0:
64,192,71105,1,6,0:0:0:0:
448,192,71260,128,2,71337:0:0:0:0:
320,192,71260,1,0,0:0:0:0:
192,192,71415,1,2,0:0:0:0:
64,192,71415,128,0,71492:0:0:0:0:
320,192,71492,1,2,0:0:0:0:
448,192,71569,128,2,71724:0:0:0:0:
192,192,71569,1,0,0:0:0:0:
320,192,71647,1,2,0:0:0:0:
64,192,71724,1,2,0:0:0:0:
192,192,71724,1,8,0:0:0:0:
320,192,71878,1,0,0:0:0:0:
192,192,72033,1,0,0:0:0:0:
64,192,72188,1,0,0:0:0:0:
192,192,72342,1,4,0:0:0:0:
320,192,72342,1,2,0:0:0:0:
448,192,72342,1,0,0:0:0:0:
320,192,72652,1,4,0:0:0:0:
192,192,72652,1,2,0:0:0:0:
64,192,72652,1,0,0:0:0:0:
192,192,72961,1,2,0:0:0:0:
448,192,72961,1,8,0:0:0:0:
64,192,72961,1,0,0:0:0:0:
320,192,73116,1,0,0:0:0:0:
192,192,73270,1,0,0:0:0:0:
64,192,73270,1,2,0:0:0:0:
448,192,73425,1,0,0:0:0:0:
320,192,73502,1,0,0:0:0:0:
448,192,73580,1,2,0:0:0:0:
64,192,73580,1,0,0:0:0:0:
192,192,73657,1,0,0:0:0:0:
448,192,73811,1,0,0:0:0:0:
320,192,73889,1,2,0:0:0:0:
64,192,73889,1,0,0:0:0:0:
192,192,74043,1,0,0:0:0:0:
320,192,74121,1,0,0:0:0:0:
448,192,74198,1,0,0:0:0:0:
64,192,74198,1,2,0:0:0:0:
192,192,74353,1,0,0:0:0:0:
448,192,74507,1,2,0:0:0:0:
320,192,74507,1,0,0:0:0:0:
192,192,74662,1,0,0:0:0:0:
64,192,74817,1,2,0:0:0:0:
320,192,74817,1,0,0:0:0:0:
448,192,74971,1,0,0:0:0:0:
320,192,75049,1,0,0:0:0:0:
64,192,75126,1,2,0:0:0:0:
448,192,75126,1,0,0:0:0:0:
192,192,75281,1,0,0:0:0:0:
320,192,75358,1,0,0:0:0:0:
192,192,75435,1,2,0:0:0:0:
64,192,75435,1,0,0:0:0:0:
320,192,75590,1,0,0:0:0:0:
448,192,75744,1,2,0:0:0:0:
192,192,75744,1,0,0:0:0:0:
64,192,75899,1,0,0:0:0:0:
192,192,75976,1,0,0:0:0:0:
320,192,76054,1,0,0:0:0:0:
64,192,76054,1,2,0:0:0:0:
448,192,76131,1,0,0:0:0:0:
192,192,76286,1,0,0:0:0:0:
320,192,76363,1,0,0:0:0:0:
64,192,76363,1,2,0:0:0:0:
64,192,76518,1,0,0:0:0:0:
192,192,76595,1,0,0:0:0:0:
320,192,76672,1,2,0:0:0:0:
448,192,76672,1,0,0:0:0:0:
448,192,76827,1,0,0:0:0:0:
320,192,76982,1,2,0:0:0:0:
64,192,76982,1,0,0:0:0:0:
320,192,77136,1,0,0:0:0:0:
64,192,77291,128,2,77909:0:0:0:0:
448,192,77291,1,0,0:0:0:0:
192,192,77291,1,0,0:0:0:0:
192,192,77600,1,2,0:0:0:0:
320,192,77600,1,0,0:0:0:0:
448,192,77755,1,2,0:0:0:0:
320,192,77755,1,0,0:0:0:0:
192,192,77909,1,2,0:0:0:0:
448,192,77909,1,0,0:0:0:0:
320,192,78064,1,0,0:0:0:0:
64,192,78219,1,2,0:0:0:0:
192,192,78219,1,0,0:0:0:0:
448,192,78373,1,0,0:0:0:0:
320,192,78451,1,0,0:0:0:0:
448,192,78528,1,2,0:0:0:0:
64,192,78528,1,0,0:0:0:0:
64,192,78683,1,0,0:0:0:0:
448,192,78837,1,2,0:0:0:0:
192,192,78837,1,0,0:0:0:0:
192,192,78992,1,0,0:0:0:0:
64,192,79147,1,2,0:0:0:0:
448,192,79147,128,0,79301:0:0:0:0:
320,192,79301,1,0,0:0:0:0:
192,192,79456,1,2,0:0:0:0:
64,192,79456,128,0,79610:0:0:0:0:
320,192,79610,1,0,0:0:0:0:
448,192,79765,1,0,0:0:0:0:
64,192,79765,1,2,0:0:0:0:
320,192,79842,1,0,0:0:0:0:
192,192,79920,1,0,0:0:0:0:
64,192,79997,1,0,0:0:0:0:
448,192,80074,128,0,80229:0:0:0:0:
192,192,80074,1,2,0:0:0:0:
320,192,80229,128,0,80384:0:0:0:0:
64,192,80384,1,2,0:0:0:0:
192,192,80384,1,0,0:0:0:0:
192,192,80538,1,0,0:0:0:0:
320,192,80693,1,2,0:0:0:0:
448,192,80693,128,0,80848:0:0:0:0:
64,192,80848,128,0,81002:0:0:0:0:
192,192,81002,1,2,0:0:0:0:
320,192,81002,128,0,81157:0:0:0:0:
64,192,81157,1,0,0:0:0:0:
192,192,81234,1,0,0:0:0:0:
448,192,81311,1,0,0:0:0:0:
64,192,81311,1,2,0:0:0:0:
448,192,81466,1,0,0:0:0:0:
320,192,81621,1,2,0:0:0:0:
64,192,81621,128,0,81775:0:0:0:0:
192,192,81775,1,0,0:0:0:0:
64,192,81930,1,2,0:0:0:0:
448,192,81930,128,0,82085:0:0:0:0:
192,192,82085,1,0,0:0:0:0:
320,192,82162,1,2,0:0:0:0:
64,192,82239,1,2,0:0:0:0:
192,192,82239,1,0,0:0:0:0:
448,192,82394,1,2,0:0:0:0:
320,192,82394,1,0,0:0:0:0:
64,192,82549,1,2,0:0:0:0:
192,192,82549,128,0,82703:0:0:0:0:
448,192,82703,1,2,0:0:0:0:
320,192,82703,128,0,82858:0:0:0:0:
64,192,82858,1,2,0:0:0:0:
192,192,82858,1,8,0:0:0:0:
448,192,82935,1,0,0:0:0:0:
320,192,83013,1,0,0:0:0:0:
448,192,83167,1,0,0:0:0:0:
192,192,83167,1,2,0:0:0:0:
192,192,83322,1,0,0:0:0:0:
64,192,83476,1,2,0:0:0:0:
320,192,83476,1,0,0:0:0:0:
192,192,83554,1,0,0:0:0:0:
320,192,83631,1,0,0:0:0:0:
448,192,83786,1,2,0:0:0:0:
64,192,83786,1,0,0:0:0:0:
448,192,83940,1,0,0:0:0:0:
320,192,84095,1,0,0:0:0:0:
64,192,84095,1,2,0:0:0:0:
192,192,84172,1,0,0:0:0:0:
448,192,84250,1,0,0:0:0:0:
320,192,84327,1,0,0:0:0:0:
192,192,84404,1,0,0:0:0:0:
64,192,84404,1,2,0:0:0:0:
320,192,84559,1,0,0:0:0:0:
192,192,84636,1,0,0:0:0:0:
320,192,84714,1,0,0:0:0:0:
448,192,84714,1,2,0:0:0:0:
64,192,84791,1,0,0:0:0:0:
192,192,84868,1,0,0:0:0:0:
448,192,84946,1,0,0:0:0:0:
320,192,85023,1,2,0:0:0:0:
64,192,85023,1,0,0:0:0:0:
320,192,85177,1,0,0:0:0:0:
448,192,85332,1,2,0:0:0:0:
192,192,85332,1,0,0:0:0:0:
64,192,85409,1,0,0:0:0:0:
192,192,85487,1,0,0:0:0:0:
320,192,85564,1,0,0:0:0:0:
64,192,85641,1,2,0:0:0:0:
448,192,85641,1,0,0:0:0:0:
320,192,85719,1,0,0:0:0:0:
192,192,85796,1,0,0:0:0:0:
64,192,85873,1,0,0:0:0:0:
192,192,85951,1,2,0:0:0:0:
448,192,85951,1,0,0:0:0:0:
320,192,86105,1,0,0:0:0:0:
448,192,86260,1,2,0:0:0:0:
64,192,86260,128,0,86337:0:0:0:0:
192,192,86337,128,0,86415:0:0:0:0:
320,192,86415,128,0,86492:0:0:0:0:
448,192,86492,128,0,86569:0:0:0:0:
64,192,86569,128,2,86724:0:0:0:0:
192,192,86569,1,0,0:0:0:0:
320,192,86801,128,0,86956:0:0:0:0:
64,192,86878,1,2,0:0:0:0:
448,192,86878,1,0,0:0:0:0:
192,192,87033,128,0,87188:0:0:0:0:
448,192,87188,128,2,87806:0:0:0:0:
64,192,87188,1,0,0:0:0:0:
64,192,87497,1,2,0:0:0:0:
192,192,87497,1,0,0:0:0:0:
192,192,87652,1,2,0:0:0:0:
320,192,87652,1,0,0:0:0:0:
64,192,87806,1,8,0:0:0:0:
320,192,87806,1,2,0:0:0:0:
192,192,87961,1,2,0:0:0:0:
448,192,87961,1,0,0:0:0:0:
320,192,88038,1,0,0:0:0:0:
448,192,88116,1,0,0:0:0:0:
64,192,88116,1,2,0:0:0:0:
64,192,88270,1,2,0:0:0:0:
320,192,88270,1,0,0:0:0:0:
192,192,88348,1,0,0:0:0:0:
448,192,88425,1,2,0:0:0:0:
320,192,88425,1,0,0:0:0:0:
64,192,88580,1,2,0:0:0:0:
192,192,88580,1,0,0:0:0:0:
64,192,88734,1,2,0:0:0:0:
448,192,88734,1,0,0:0:0:0:
192,192,88889,1,2,0:0:0:0:
448,192,88889,1,0,0:0:0:0:
320,192,89043,1,8,0:0:0:0:
448,192,89043,128,2,89198:0:0:0:0:
64,192,89198,128,2,89353:0:0:0:0:
192,192,89198,1,0,0:0:0:0:
448,192,89353,128,2,89507:0:0:0:0:
320,192,89353,1,0,0:0:0:0:
64,192,89507,128,2,89662:0:0:0:0:
192,192,89507,1,0,0:0:0:0:
448,192,89662,1,2,0:0:0:0:
320,192,89662,1,0,0:0:0:0:
320,192,89817,1,2,0:0:0:0:
192,192,89817,1,0,0:0:0:0:
64,192,89971,1,2,0:0:0:0:
192,192,89971,1,0,0:0:0:0:
448,192,90126,1,2,0:0:0:0:
320,192,90126,1,0,0:0:0:0:
64,192,90281,128,4,90435:0:0:0:0:
192,192,90281,1,0,0:0:0:0:
320,192,90358,1,2,0:0:0:0:
448,192,90435,1,2,0:0:0:0:
320,192,90513,1,2,0:0:0:0:
64,192,90590,1,0,0:0:0:0:
192,192,90590,1,2,0:0:0:0:
320,192,90667,1,2,0:0:0:0:
192,192,90744,1,2,0:0:0:0:
64,192,90822,1,2,0:0:0:0:
448,192,90899,128,4,91054:0:0:0:0:
320,192,90899,1,0,0:0:0:0:
192,192,90976,1,2,0:0:0:0:
64,192,91054,1,2,0:0:0:0:
192,192,91131,1,2,0:0:0:0:
448,192,91208,1,2,0:0:0:0:
320,192,91208,1,0,0:0:0:0:
192,192,91286,1,2,0:0:0:0:
320,192,91363,1,2,0:0:0:0:
448,192,91440,1,2,0:0:0:0:
64,192,91518,1,2,0:0:0:0:
320,192,91518,1,4,0:0:0:0:
192,192,91518,1,0,0:0:0:0:
192,192,91750,1,4,0:0:0:0:
320,192,91750,1,2,0:0:0:0:
448,192,91750,1,0,0:0:0:0:
64,192,91982,1,4,0:0:0:0:
320,192,91982,1,2,0:0:0:0:
448,192,91982,1,0,0:0:0:0:
320,192,92214,1,4,0:0:0:0:
192,192,92214,1,2,0:0:0:0:
64,192,92214,1,0,0:0:0:0:
192,192,92446,1,2,0:0:0:0:
64,192,92446,1,4,0:0:0:0:
320,192,92600,1,4,0:0:0:0:
448,192,92600,1,2,0:0:0:0:
192,192,92755,1,2,0:0:0:0:
64,192,92755,1,8,0:0:0:0:
320,192,92909,1,0,0:0:0:0:
448,192,93064,1,0,0:0:0:0:
64,192,93219,1,0,0:0:0:0:
192,192,93373,1,0,0:0:0:0:
320,192,93683,1,0,0:0:0:0:
448,192,93992,1,0,0:0:0:0:
64,192,93992,1,0,0:0:0:0:
320,192,94069,1,0,0:0:0:0:
192,192,94147,1,0,0:0:0:0:
64,192,94224,1,0,0:0:0:0:
192,192,94301,1,0,0:0:0:0:
448,192,94301,1,0,0:0:0:0:
320,192,94378,1,0,0:0:0:0:
192,192,94456,1,0,0:0:0:0:
64,192,94533,1,0,0:0:0:0:
448,192,94610,128,0,94920:0:0:0:0:
320,192,94610,1,0,0:0:0:0:
64,192,94920,1,0,0:0:0:0:
192,192,94920,1,0,0:0:0:0:
320,192,95074,1,0,0:0:0:0:
192,192,95152,1,0,0:0:0:0:
448,192,95229,1,2,0:0:0:0:
64,192,95229,128,8,96621:0:0:0:0:
320,192,95384,1,0,0:0:0:0:
192,192,95538,1,2,0:0:0:0:
448,192,95538,1,0,0:0:0:0:
448,192,95693,1,0,0:0:0:0:
320,192,95848,1,2,0:0:0:0:
192,192,95848,1,0,0:0:0:0:
320,192,96002,1,0,0:0:0:0:
192,192,96157,1,2,0:0:0:0:
448,192,96157,1,0,0:0:0:0:
448,192,96311,1,0,0:0:0:0:
320,192,96466,1,2,0:0:0:0:
192,192,96466,1,0,0:0:0:0:
448,192,96621,128,0,96775:0:0:0:0:
192,192,96621,1,0,0:0:0:0:
320,192,96775,128,0,96930:0:0:0:0:
64,192,96775,1,2,0:0:0:0:
448,192,96930,128,0,97085:0:0:0:0:
192,192,97085,128,0,97239:0:0:0:0:
320,192,97085,1,2,0:0:0:0:
320,192,97239,128,0,97394:0:0:0:0:
64,192,97394,128,2,97549:0:0:0:0:
448,192,97394,1,0,0:0:0:0:
192,192,97549,128,0,97703:0:0:0:0:
448,192,97703,1,0,0:0:0:0:
64,192,97703,1,2,0:0:0:0:
320,192,97781,1,0,0:0:0:0:
64,192,97858,1,0,0:0:0:0:
192,192,97935,1,0,0:0:0:0:
320,192,98013,1,2,0:0:0:0:
448,192,98013,1,0,0:0:0:0:
192,192,98167,1,0,0:0:0:0:
320,192,98244,1,0,0:0:0:0:
64,192,98322,1,0,0:0:0:0:
448,192,98322,1,2,0:0:0:0:
320,192,98476,128,0,98631:0:0:0:0:
64,192,98631,128,0,98786:0:0:0:0:
192,192,98631,1,2,0:0:0:0:
192,192,98786,128,0,98940:0:0:0:0:
320,192,98940,128,2,99095:0:0:0:0:
448,192,98940,1,0,0:0:0:0:
64,192,99095,1,0,0:0:0:0:
320,192,99250,1,2,0:0:0:0:
192,192,99250,128,0,99404:0:0:0:0:
448,192,99404,128,0,99868:0:0:0:0:
64,192,99559,1,2,0:0:0:0:
192,192,99559,1,0,0:0:0:0:
320,192,99714,1,0,0:0:0:0:
192,192,99868,1,2,0:0:0:0:
64,192,99868,1,0,0:0:0:0:
64,192,100023,1,2,0:0:0:0:
192,192,100100,1,0,0:0:0:0:
320,192,100177,1,2,0:0:0:0:
448,192,100177,1,0,0:0:0:0:
320,192,100409,1,0,0:0:0:0:
192,192,100487,1,2,0:0:0:0:
64,192,100487,1,0,0:0:0:0:
320,192,100641,1,0,0:0:0:0:
64,192,100796,1,2,0:0:0:0:
448,192,100796,1,0,0:0:0:0:
192,192,100873,1,0,0:0:0:0:
192,192,101105,1,2,0:0:0:0:
448,192,101105,1,0,0:0:0:0:
448,192,101337,1,0,0:0:0:0:
320,192,101415,1,2,0:0:0:0:
64,192,101415,1,0,0:0:0:0:
448,192,101569,1,0,0:0:0:0:
320,192,101724,1,0,0:0:0:0:
192,192,101724,1,2,0:0:0:0:
64,192,101801,1,0,0:0:0:0:
192,192,102033,1,2,0:0:0:0:
448,192,102033,1,0,0:0:0:0:
64,192,102265,1,0,0:0:0:0:
320,192,102342,1,0,0:0:0:0:
448,192,102342,1,2,0:0:0:0:
192,192,102420,1,0,0:0:0:0:
64,192,102497,1,0,0:0:0:0:
320,192,102652,128,0,102806:0:0:0:0:
448,192,102652,1,2,0:0:0:0:
192,192,102806,128,0,102961:0:0:0:0:
64,192,102961,128,2,103116:0:0:0:0:
320,192,102961,1,0,0:0:0:0:
448,192,103116,128,0,103270:0:0:0:0:
320,192,103270,1,0,0:0:0:0:
64,192,103270,1,2,0:0:0:0:
192,192,103348,1,0,0:0:0:0:
448,192,103425,1,0,0:0:0:0:
320,192,103502,1,0,0:0:0:0:
192,192,103580,1,0,0:0:0:0:
64,192,103580,1,2,0:0:0:0:
320,192,103734,1,0,0:0:0:0:
64,192,103889,1,0,0:0:0:0:
448,192,103889,1,2,0:0:0:0:
192,192,103966,1,0,0:0:0:0:
320,192,104043,1,0,0:0:0:0:
448,192,104121,1,0,0:0:0:0:
64,192,104198,1,2,0:0:0:0:
320,192,104198,1,0,0:0:0:0:
192,192,104275,1,0,0:0:0:0:
320,192,104353,1,0,0:0:0:0:
448,192,104430,1,2,0:0:0:0:
64,192,104507,128,0,104662:0:0:0:0:
192,192,104507,1,2,0:0:0:0:
192,192,104662,128,0,104817:0:0:0:0:
320,192,104662,1,2,0:0:0:0:
448,192,104817,128,0,104971:0:0:0:0:
64,192,104817,1,2,0:0:0:0:
320,192,104971,128,0,105126:0:0:0:0:
192,192,104971,1,2,0:0:0:0:
64,192,105126,128,8,105281:0:0:0:0:
448,192,105126,1,2,0:0:0:0:
192,192,105281,128,0,105435:0:0:0:0:
320,192,105435,128,0,105590:0:0:0:0:
64,192,105435,1,2,0:0:0:0:
448,192,105590,128,0,105744:0:0:0:0:
64,192,105744,1,2,0:0:0:0:
192,192,105744,1,0,0:0:0:0:
320,192,105822,1,0,0:0:0:0:
448,192,105899,1,0,0:0:0:0:
64,192,106054,128,2,106208:0:0:0:0:
192,192,106054,1,0,0:0:0:0:
448,192,106208,128,0,106363:0:0:0:0:
64,192,106363,128,0,106518:0:0:0:0:
320,192,106363,1,2,0:0:0:0:
448,192,106518,128,0,106672:0:0:0:0:
320,192,106672,128,0,106827:0:0:0:0:
64,192,106672,1,2,0:0:0:0:
192,192,106827,128,0,106982:0:0:0:0:
64,192,106982,128,0,107136:0:0:0:0:
448,192,106982,1,2,0:0:0:0:
320,192,107291,1,2,0:0:0:0:
448,192,107291,128,0,107600:0:0:0:0:
64,192,107600,1,2,0:0:0:0:
192,192,107600,128,0,107755:0:0:0:0:
320,192,107755,128,0,107909:0:0:0:0:
64,192,107909,128,0,108064:0:0:0:0:
448,192,107909,1,2,0:0:0:0:
448,192,108064,128,0,108219:0:0:0:0:
192,192,108219,128,0,108373:0:0:0:0:
320,192,108219,1,2,0:0:0:0:
320,192,108451,1,0,0:0:0:0:
64,192,108528,1,0,0:0:0:0:
448,192,108528,1,2,0:0:0:0:
192,192,108683,1,0,0:0:0:0:
448,192,108837,1,2,0:0:0:0:
64,192,108837,1,0,0:0:0:0:
192,192,108992,1,2,0:0:0:0:
448,192,108992,1,0,0:0:0:0:
448,192,109147,1,2,0:0:0:0:
320,192,109147,1,0,0:0:0:0:
64,192,109301,1,2,0:0:0:0:
320,192,109301,1,0,0:0:0:0:
192,192,109456,1,2,0:0:0:0:
320,192,109533,1,2,0:0:0:0:
64,192,109533,1,0,0:0:0:0:
448,192,109610,1,2,0:0:0:0:
320,192,109688,1,2,0:0:0:0:
192,192,109765,1,2,0:0:0:0:
448,192,109765,1,8,0:0:0:0:
64,192,109765,1,0,0:0:0:0:
64,192,110074,1,8,0:0:0:0:
192,192,110074,1,2,0:0:0:0:
192,192,110229,1,0,0:0:0:0:
320,192,110229,1,2,0:0:0:0:
448,192,110384,1,2,0:0:0:0:
64,192,110384,1,0,0:0:0:0:
320,192,110461,1,0,0:0:0:0:
192,192,110538,1,2,0:0:0:0:
64,192,110538,1,0,0:0:0:0:
448,192,110693,1,2,0:0:0:0:
320,192,110693,1,0,0:0:0:0:
64,192,110848,1,2,0:0:0:0:
192,192,110848,1,0,0:0:0:0:
320,192,111002,1,2,0:0:0:0:
64,192,111002,1,0,0:0:0:0:
192,192,111157,1,2,0:0:0:0:
320,192,111234,1,0,0:0:0:0:
448,192,111311,1,8,0:0:0:0:
64,192,111311,128,2,111466:0:0:0:0:
192,192,111466,128,2,111621:0:0:0:0:
320,192,111466,1,0,0:0:0:0:
448,192,111621,128,2,111775:0:0:0:0:
64,192,111621,1,0,0:0:0:0:
320,192,111775,128,2,111930:0:0:0:0:
192,192,111775,1,0,0:0:0:0:
64,192,111930,128,0,112085:0:0:0:0:
448,192,111930,1,2,0:0:0:0:
448,192,112085,128,2,112239:0:0:0:0:
192,192,112085,1,0,0:0:0:0:
192,192,112239,128,2,112394:0:0:0:0:
320,192,112239,1,0,0:0:0:0:
320,192,112394,128,2,112549:0:0:0:0:
64,192,112394,1,0,0:0:0:0:
448,192,112549,1,4,0:0:0:0:
192,192,112549,1,2,0:0:0:0:
64,192,112626,1,0,0:0:0:0:
192,192,112703,1,0,0:0:0:0:
448,192,112781,1,2,0:0:0:0:
320,192,112781,1,4,0:0:0:0:
64,192,112858,1,0,0:0:0:0:
192,192,112935,1,0,0:0:0:0:
320,192,113013,1,2,0:0:0:0:
448,192,113013,1,4,0:0:0:0:
64,192,113090,1,0,0:0:0:0:
192,192,113167,1,0,0:0:0:0:
320,192,113244,1,2,0:0:0:0:
448,192,113244,1,4,0:0:0:0:
64,192,113322,1,0,0:0:0:0:
192,192,113399,1,0,0:0:0:0:
320,192,113476,1,4,0:0:0:0:
448,192,113476,1,2,0:0:0:0:
64,192,113554,1,0,0:0:0:0:
192,192,113631,1,4,0:0:0:0:
448,192,113631,1,2,0:0:0:0:
320,192,113708,1,0,0:0:0:0:
448,192,113786,1,2,0:0:0:0:
64,192,113786,1,4,0:0:0:0:
192,192,113863,1,0,0:0:0:0:
320,192,113940,1,0,0:0:0:0:
192,192,114018,1,0,0:0:0:0:
448,192,114095,1,0,0:0:0:0:
320,192,114172,1,0,0:0:0:0:
192,192,114250,1,0,0:0:0:0:
64,192,114327,1,0,0:0:0:0:
448,192,114404,1,0,0:0:0:0:
320,192,114482,1,0,0:0:0:0:
192,192,114559,1,0,0:0:0:0:
320,192,114636,1,0,0:0:0:0:
64,192,114714,1,0,0:0:0:0:
192,192,114791,1,0,0:0:0:0:
320,192,114868,1,0,0:0:0:0:
448,192,114946,1,0,0:0:0:0:
320,192,115023,1,8,0:0:0:0:
192,192,115023,1,2,0:0:0:0:
64,192,115023,1,0,0:0:0:0:
320,192,115255,1,8,0:0:0:0:
192,192,115255,1,2,0:0:0:0:
448,192,115255,1,0,0:0:0:0:
64,192,115255,1,0,0:0:0:0:
