osu file format v14

[General]
AudioFilename: audio.mp3
AudioLeadIn: 0
PreviewTime: 72119
Countdown: 0
SampleSet: None
StackLeniency: 0.7
Mode: 1
LetterboxInBreaks: 0
WidescreenStoryboard: 0

[Editor]
Bookmarks: 93078
DistanceSpacing: 0.8
BeatDivisor: 4
GridSize: 32
TimelineZoom: 2.7

[Metadata]
Title:XROSS INFECTION
TitleUnicode:XROSS INFECTION
Artist:BlackY vs. Yooh
ArtistUnicode:BlackY vs. Yooh
Creator:HXJ_Crafter
Version:tasuke's Kantan
Source:SOUND VOLTEX II -infinite infection-
Tags:SDVX 制作決定記念 オリジナル楽曲コンテスト production confirmation commemorative original song contest Thousand tasuke912 Jessichan toara_fict
BeatmapID:1803109
BeatmapSetID:861954

[Difficulty]
HPDrainRate:8
CircleSize:2
OverallDifficulty:3
ApproachRate:5
SliderMultiplier:1.2
SliderTickRate:1

[Events]
//Background and Video events
0,0,"666.jpg",0,0
//Break Periods
//Storyboard Layer 0 (Background)
//Storyboard Layer 1 (Fail)
//Storyboard Layer 2 (Pass)
//Storyboard Layer 3 (Foreground)
//Storyboard Sound Samples

[TimingPoints]
2446,309.278350515464,4,1,0,80,1,0
9791,-100,4,1,0,50,0,0
13502,-100,4,1,0,90,0,0
72961,-100,4,1,0,90,0,1
92755,-100,4,1,0,90,0,0
95229,-100,4,1,0,90,0,1
115023,-100,4,1,0,90,0,0

[HitObjects]
256,192,2446,5,4,0:0:0:0:
256,192,3683,1,2,0:0:0:0:
256,192,4920,1,2,0:0:0:0:
256,192,7394,1,2,0:0:0:0:
256,192,9868,12,2,12343,0:0:0:0:
256,192,13580,5,4,0:0:0:0:
256,192,14198,1,0,0:0:0:0:
256,192,14817,1,0,0:0:0:0:
256,192,15435,1,0,0:0:0:0:
256,192,15745,1,0,0:0:0:0:
256,192,16054,1,0,0:0:0:0:
256,192,16672,1,0,0:0:0:0:
256,192,17291,1,0,0:0:0:0:
256,192,18528,1,2,0:0:0:0:
256,192,19147,1,2,0:0:0:0:
256,192,19765,1,2,0:0:0:0:
256,192,20384,1,2,0:0:0:0:
256,192,20693,1,2,0:0:0:0:
256,192,21002,1,2,0:0:0:0:
256,192,21621,1,2,0:0:0:0:
256,192,22239,1,2,0:0:0:0:
256,192,23477,1,4,0:0:0:0:
256,192,24095,1,0,0:0:0:0:
256,192,24714,1,2,0:0:0:0:
256,192,25332,1,2,0:0:0:0:
256,192,25641,1,2,0:0:0:0:
256,192,25951,1,0,0:0:0:0:
256,192,26569,1,0,0:0:0:0:
256,192,27188,1,2,0:0:0:0:
256,192,28425,1,2,0:0:0:0:
256,192,29044,1,2,0:0:0:0:
256,192,29662,1,0,0:0:0:0:
256,192,30281,1,0,0:0:0:0:
256,192,30590,1,0,0:0:0:0:
256,192,30899,1,2,0:0:0:0:
256,192,31518,1,2,0:0:0:0:
64,64,32136,2,2,P|175:148|27:283,1,360
256,192,33373,5,4,0:0:0:0:
256,192,34611,1,2,0:0:0:0:
256,192,35229,1,2,0:0:0:0:
256,192,35848,1,0,0:0:0:0:
256,192,36466,1,0,0:0:0:0:
256,192,37085,1,2,0:0:0:0:
256,192,37703,1,2,0:0:0:0:
256,192,38322,1,0,0:0:0:0:
256,192,38940,1,0,0:0:0:0:
256,192,39250,1,0,0:0:0:0:
256,192,39559,1,0,0:0:0:0:
256,192,40178,1,2,0:0:0:0:
256,192,40796,1,0,0:0:0:0:
256,192,42033,1,2,0:0:0:0:
256,192,42652,1,0,0:0:0:0:
256,192,43270,1,6,0:0:0:0:
256,192,44507,1,2,0:0:0:0:
256,192,45126,1,2,0:0:0:0:
256,192,45745,1,0,0:0:0:0:
256,192,46982,1,2,0:0:0:0:
256,192,48219,1,0,0:0:0:0:
256,192,49456,1,0,0:0:0:0:
256,192,50074,1,0,0:0:0:0:
256,192,50693,1,2,0:0:0:0:
106,55,51930,2,2,P|183:149|371:56,1,360
256,192,53167,1,4,0:0:0:0:
256,192,53631,1,4,0:0:0:0:
256,192,55641,1,6,0:0:0:0:
256,192,56105,1,6,0:0:0:0:
256,192,58116,1,4,0:0:0:0:
256,192,58580,1,4,0:0:0:0:
256,192,59353,1,6,0:0:0:0:
256,192,59817,1,6,0:0:0:0:
256,192,60590,1,4,0:0:0:0:
256,192,61209,1,6,0:0:0:0:
256,192,62446,1,6,0:0:0:0:
256,192,63064,1,4,0:0:0:0:
256,192,68013,1,0,0:0:0:0:
256,192,68631,1,0,0:0:0:0:
256,192,69250,1,0,0:0:0:0:
256,192,69559,1,0,0:0:0:0:
256,192,69868,1,0,0:0:0:0:
256,192,70487,1,2,0:1:0:0:
256,192,71105,1,2,0:1:0:0:
256,192,72343,1,0,0:1:0:0:
256,192,72652,1,0,0:1:0:0:
256,192,72961,5,4,0:1:0:0:
256,192,73580,1,2,0:0:0:0:
256,192,74198,1,0,0:0:0:0:
256,192,74507,1,0,0:0:0:0:
256,192,74817,1,0,0:0:0:0:
256,192,75435,1,2,0:0:0:0:
256,192,76054,1,0,0:0:0:0:
256,192,76672,1,2,0:0:0:0:
256,192,76982,1,2,0:0:0:0:
256,192,77291,1,2,0:0:0:0:
256,192,77910,1,0,0:0:0:0:
256,192,78528,1,2,0:0:0:0:
256,192,79147,1,0,0:0:0:0:
256,192,79456,1,2,0:0:0:0:
256,192,79765,1,0,0:0:0:0:
256,192,80384,1,2,0:0:0:0:
256,192,81002,1,2,0:0:0:0:
256,192,81621,1,0,0:0:0:0:
256,192,82858,1,6,0:0:0:0:
256,192,83477,1,0,0:0:0:0:
256,192,84095,1,2,0:0:0:0:
256,192,84404,1,2,0:0:0:0:
256,192,84714,1,0,0:0:0:0:
256,192,85332,1,0,0:0:0:0:
256,192,85951,1,2,0:0:0:0:
256,192,86569,1,0,0:0:0:0:
256,192,86879,1,0,0:0:0:0:
256,192,87188,1,2,0:0:0:0:
256,192,87806,1,2,0:0:0:0:
256,192,88425,1,0,0:0:0:0:
256,192,89044,1,2,0:0:0:0:
256,192,89353,1,0,0:0:0:0:
256,192,89662,1,2,0:0:0:0:
256,192,90281,1,0,0:0:0:0:
256,192,90899,1,0,0:0:0:0:
256,192,91518,1,2,0:0:0:0:
256,192,92755,1,6,0:0:0:0:
256,192,95229,5,4,0:0:0:0:
256,192,95848,1,2,0:0:0:0:
256,192,96466,1,0,0:0:0:0:
256,192,96776,1,0,0:0:0:0:
256,192,97085,1,2,0:0:0:0:
256,192,97703,1,0,0:0:0:0:
256,192,98322,1,2,0:0:0:0:
256,192,98940,1,0,0:0:0:0:
256,192,99250,1,2,0:0:0:0:
256,192,99559,1,0,0:0:0:0:
256,192,100178,1,2,0:0:0:0:
256,192,100796,1,0,0:0:0:0:
256,192,101415,1,2,0:0:0:0:
256,192,101724,1,2,0:0:0:0:
256,192,102033,1,0,0:0:0:0:
256,192,102652,1,2,0:0:0:0:
256,192,103270,1,0,0:0:0:0:
256,192,103889,1,2,0:0:0:0:
256,192,104198,1,0,0:0:0:0:
256,192,104507,1,2,0:0:0:0:
256,192,105126,1,4,0:0:0:0:
256,192,105745,1,2,0:0:0:0:
256,192,106363,1,0,0:0:0:0:
256,192,106672,1,0,0:0:0:0:
256,192,106982,1,2,0:0:0:0:
256,192,107291,1,2,0:0:0:0:
256,192,107600,1,0,0:0:0:0:
256,192,108219,1,2,0:0:0:0:
256,192,108837,1,0,0:0:0:0:
256,192,109147,1,2,0:0:0:0:
256,192,109456,1,2,0:0:0:0:
256,192,110074,1,2,0:0:0:0:
256,192,110693,1,0,0:0:0:0:
256,192,111312,1,2,0:0:0:0:
256,192,111621,1,2,0:0:0:0:
256,192,111930,1,0,0:0:0:0:
256,192,112239,1,0,0:0:0:0:
256,192,112549,1,2,0:0:0:0:
256,192,113167,1,2,0:0:0:0:
347,369,113786,2,0,L|461:9,1,360
256,192,115023,1,4,0:0:0:0:
