osu file format v14

[General]
AudioFilename: audio.mp3
AudioLeadIn: 0
PreviewTime: 72119
Countdown: 0
SampleSet: None
StackLeniency: 0.7
Mode: 1
LetterboxInBreaks: 0
WidescreenStoryboard: 0

[Editor]
Bookmarks: 93078
DistanceSpacing: 0.8
BeatDivisor: 4
GridSize: 32
TimelineZoom: 2.7

[Metadata]
Title:XROSS INFECTION
TitleUnicode:XROSS INFECTION
Artist:BlackY vs. Yooh
ArtistUnicode:BlackY vs. Yooh
Creator:HXJ_Crafter
Version:Thousand's Inner Oni
Source:SOUND VOLTEX II -infinite infection-
Tags:SDVX 制作決定記念 オリジナル楽曲コンテスト production confirmation commemorative original song contest Thousand tasuke912 Jessichan toara_fict
BeatmapID:1803110
BeatmapSetID:861954

[Difficulty]
HPDrainRate:6
CircleSize:2
OverallDifficulty:6
ApproachRate:5
SliderMultiplier:1.9599999666214
SliderTickRate:1

[Events]
//Background and Video events
0,0,"666.jpg",0,0
//Break Periods
//Storyboard Layer 0 (Background)
//Storyboard Layer 1 (Fail)
//Storyboard Layer 2 (Pass)
//Storyboard Layer 3 (Foreground)
//Storyboard Sound Samples

[TimingPoints]
2446,309.278350515464,4,1,0,80,1,8
6080,-100,4,1,0,70,0,0
7394,-100,4,1,0,80,0,0
8631,-100,4,1,0,90,0,0
9868,-100,4,1,0,100,0,0
12343,-100,4,1,0,5,0,0
13502,-100,4,1,0,100,0,0
53786,-100,4,1,0,70,0,0
55641,-100,4,1,0,100,0,0
56260,-100,4,1,0,70,0,0
57574,-100,4,1,0,80,0,0
71724,-133.333333333333,4,1,0,70,0,0
72343,-100,4,1,0,80,0,0
72961,-100,4,1,0,100,0,1
92755,-100,4,1,0,70,0,0
95229,-100,4,1,0,90,0,1
115255,-100,4,1,0,90,0,0

[HitObjects]
256,192,1286,12,0,2291,0:0:0:0:
256,192,2446,5,4,0:0:0:0:
256,192,3683,5,8,0:0:0:0:
256,192,4920,1,0,0:0:0:0:
256,192,7394,1,8,0:0:0:0:
256,192,7549,1,0,0:0:0:0:
256,192,7626,1,0,0:0:0:0:
256,192,7703,1,8,0:0:0:0:
256,192,7781,1,8,0:0:0:0:
256,192,7858,1,0,0:0:0:0:
256,192,7935,1,0,0:0:0:0:
256,192,8013,1,8,0:0:0:0:
256,192,8090,1,0,0:0:0:0:
256,192,8167,1,8,0:0:0:0:
256,192,8245,1,0,0:0:0:0:
256,192,8322,1,8,0:0:0:0:
256,192,8399,1,8,0:0:0:0:
256,192,8477,1,0,0:0:0:0:
256,192,8554,1,0,0:0:0:0:
256,192,8631,1,8,0:0:0:0:
256,192,8709,1,8,0:0:0:0:
256,192,8786,1,0,0:0:0:0:
256,192,8863,1,0,0:0:0:0:
256,192,8940,1,8,0:0:0:0:
256,192,9018,1,8,0:0:0:0:
256,192,9095,1,0,0:0:0:0:
256,192,9172,1,8,0:0:0:0:
256,192,9250,1,0,0:0:0:0:
256,192,9327,1,8,0:0:0:0:
256,192,9404,1,0,0:0:0:0:
256,192,9482,1,0,0:0:0:0:
256,192,9559,1,8,0:0:0:0:
256,192,9636,1,8,0:0:0:0:
256,192,9714,1,0,0:0:0:0:
256,192,9791,1,0,0:0:0:0:
256,192,9868,1,8,0:0:0:0:
288,192,9946,1,8,0:0:0:0:
256,192,10023,1,0,0:0:0:0:
256,192,10100,1,0,0:0:0:0:
256,192,10178,1,8,0:0:0:0:
256,192,10255,1,0,0:0:0:0:
256,192,10332,1,8,0:0:0:0:
256,192,10410,1,0,0:0:0:0:
256,192,10487,1,8,0:0:0:0:
256,192,10564,1,8,0:0:0:0:
256,192,10641,1,0,0:0:0:0:
256,192,10719,1,0,0:0:0:0:
256,192,10796,1,8,0:0:0:0:
256,192,10873,1,0,0:0:0:0:
256,192,10951,1,8,0:0:0:0:
256,192,11028,1,0,0:0:0:0:
256,192,11105,1,8,0:0:0:0:
256,192,11183,1,8,0:0:0:0:
256,192,11260,1,0,0:0:0:0:
256,192,11337,1,0,0:0:0:0:
256,192,11415,1,8,0:0:0:0:
256,192,11492,1,8,0:0:0:0:
256,192,11569,1,8,0:0:0:0:
256,192,11647,1,0,0:0:0:0:
256,192,11724,1,8,0:0:0:0:
256,192,11801,1,0,0:0:0:0:
256,192,11879,1,8,0:0:0:0:
256,192,11956,1,0,0:0:0:0:
256,192,12033,1,8,0:0:0:0:
256,192,12111,1,8,0:0:0:0:
256,192,12188,1,0,0:0:0:0:
256,192,12265,1,8,0:0:0:0:
256,192,12343,12,8,13425,0:0:0:0:
256,192,13580,5,0,0:0:0:0:
256,192,13657,1,8,0:0:0:0:
256,192,13734,1,0,0:0:0:0:
256,192,13812,1,0,0:0:0:0:
256,192,13889,1,8,0:0:0:0:
256,192,14121,1,8,0:0:0:0:
256,192,14198,1,0,0:0:0:0:
256,192,14276,1,8,0:0:0:0:
256,192,14353,1,0,0:0:0:0:
256,192,14430,1,0,0:0:0:0:
256,192,14507,1,8,0:0:0:0:
256,192,14739,1,8,0:0:0:0:
256,192,14817,1,0,0:0:0:0:
256,192,14894,1,8,0:0:0:0:
256,192,14971,1,0,0:0:0:0:
256,192,15049,1,0,0:0:0:0:
256,192,15126,1,8,0:0:0:0:
256,192,15358,1,8,0:0:0:0:
256,192,15435,1,0,0:0:0:0:
256,192,15513,1,8,0:0:0:0:
256,192,15590,1,8,0:0:0:0:
256,192,15667,1,0,0:0:0:0:
256,192,15745,1,8,0:0:0:0:
256,160,15977,1,8,0:0:0:0:
256,160,16054,1,8,0:0:0:0:
256,192,16131,1,8,0:0:0:0:
256,192,16209,1,0,0:0:0:0:
256,192,16286,1,0,0:0:0:0:
256,192,16363,1,8,0:0:0:0:
256,192,16595,1,8,0:0:0:0:
256,192,16672,1,0,0:0:0:0:
256,192,16750,1,8,0:0:0:0:
256,192,16827,1,8,0:0:0:0:
256,192,16904,1,0,0:0:0:0:
256,192,16982,1,8,0:0:0:0:
256,192,17214,1,8,0:0:0:0:
256,192,17291,1,0,0:0:0:0:
256,192,17368,1,0,0:0:0:0:
256,192,17446,1,8,0:0:0:0:
256,192,17523,1,0,0:0:0:0:
256,192,17600,1,8,0:0:0:0:
256,192,17832,1,8,0:0:0:0:
224,192,17910,1,0,0:0:0:0:
256,192,17987,1,8,0:0:0:0:
256,192,18064,1,0,0:0:0:0:
256,192,18219,1,8,0:0:0:0:
256,192,18451,1,8,0:0:0:0:
256,192,18528,1,0,0:0:0:0:
256,192,18605,1,0,0:0:0:0:
224,192,18683,1,8,0:0:0:0:
224,192,18760,1,0,0:0:0:0:
224,192,18837,1,8,0:0:0:0:
224,192,19069,1,8,0:0:0:0:
224,192,19147,1,0,0:0:0:0:
224,192,19224,1,8,0:0:0:0:
224,192,19301,1,8,0:0:0:0:
224,160,19379,1,0,0:0:0:0:
224,192,19456,1,8,0:0:0:0:
224,192,19688,1,8,0:0:0:0:
224,192,19765,1,0,0:0:0:0:
224,192,19843,1,0,0:0:0:0:
224,192,19920,1,0,0:0:0:0:
224,192,19997,1,0,0:0:0:0:
224,192,20074,1,8,0:0:0:0:
224,192,20306,1,8,0:0:0:0:
224,192,20384,1,0,0:0:0:0:
224,192,20461,1,8,0:0:0:0:
224,192,20538,1,0,0:0:0:0:
224,192,20616,1,0,0:0:0:0:
224,192,20693,1,8,0:0:0:0:
224,192,20925,1,8,0:0:0:0:
224,192,21002,1,0,0:0:0:0:
224,192,21080,1,8,0:0:0:0:
224,192,21157,1,0,0:0:0:0:
224,192,21234,1,8,0:0:0:0:
224,192,21312,1,8,0:0:0:0:
192,192,21544,1,8,0:0:0:0:
192,160,21621,1,0,0:0:0:0:
192,192,21698,1,0,0:0:0:0:
192,192,21776,1,0,0:0:0:0:
192,192,21853,1,8,0:0:0:0:
192,192,21930,1,8,0:0:0:0:
192,192,22162,1,8,0:0:0:0:
192,192,22239,1,0,0:0:0:0:
192,192,22317,1,0,0:0:0:0:
192,192,22394,1,8,0:0:0:0:
224,192,22471,1,0,0:0:0:0:
192,192,22549,1,8,0:0:0:0:
224,192,22781,1,8,0:0:0:0:
224,192,22858,1,0,0:0:0:0:
192,192,22935,1,8,0:0:0:0:
256,192,23090,1,0,0:0:0:0:
192,192,23167,1,8,0:0:0:0:
192,192,23245,1,0,0:0:0:0:
192,192,23322,1,0,0:0:0:0:
192,192,23399,1,8,0:0:0:0:
192,192,23477,1,0,0:0:0:0:
192,192,23631,1,0,0:0:0:0:
192,160,23786,1,8,0:0:0:0:
192,192,24018,1,8,0:0:0:0:
192,192,24095,1,0,0:0:0:0:
192,192,24172,1,8,0:0:0:0:
192,192,24250,1,0,0:0:0:0:
192,160,24404,1,8,0:0:0:0:
192,192,24559,1,0,0:0:0:0:
192,192,24714,1,0,0:0:0:0:
192,192,24791,1,8,0:0:0:0:
160,192,24868,1,0,0:0:0:0:
160,192,25023,1,8,0:0:0:0:
160,192,25255,1,0,0:0:0:0:
160,192,25332,1,8,0:0:0:0:
160,192,25409,1,0,0:0:0:0:
160,192,25487,1,0,0:0:0:0:
192,192,25641,1,8,0:0:0:0:
192,192,25796,1,0,0:0:0:0:
192,192,25951,1,8,0:0:0:0:
192,192,26028,1,8,0:0:0:0:
192,192,26105,1,0,0:0:0:0:
224,192,26260,1,8,0:0:0:0:
224,192,26492,1,0,0:0:0:0:
192,192,26569,1,8,0:0:0:0:
224,192,26646,1,8,0:0:0:0:
224,192,26724,1,0,0:0:0:0:
224,192,26879,1,8,0:0:0:0:
224,192,27111,1,8,0:0:0:0:
224,192,27188,1,0,0:0:0:0:
224,192,27265,1,8,0:0:0:0:
224,192,27343,1,0,0:0:0:0:
224,192,27497,1,8,0:0:0:0:
224,192,27729,1,8,0:0:0:0:
224,192,27806,1,0,0:0:0:0:
224,192,27884,1,8,0:0:0:0:
224,192,27961,1,8,0:0:0:0:
224,192,28038,1,0,0:0:0:0:
224,192,28116,1,8,0:0:0:0:
224,192,28270,1,0,0:0:0:0:
224,192,28425,1,12,0:0:0:0:
224,192,28580,1,0,0:0:0:0:
224,192,28657,1,0,0:0:0:0:
224,192,28734,1,8,0:0:0:0:
224,192,28812,1,8,0:0:0:0:
224,192,28889,1,0,0:0:0:0:
224,192,28966,1,8,0:0:0:0:
224,192,29044,1,8,0:0:0:0:
224,192,29198,1,8,0:0:0:0:
192,192,29353,1,4,0:0:0:0:
192,192,29507,1,8,0:0:0:0:
224,192,29585,1,8,0:0:0:0:
224,192,29662,1,0,0:0:0:0:
224,192,29817,1,8,0:0:0:0:
224,160,29971,1,0,0:0:0:0:
224,192,30049,1,0,0:0:0:0:
224,192,30126,1,8,0:0:0:0:
224,192,30281,1,0,0:0:0:0:
224,192,30358,1,0,0:0:0:0:
224,192,30435,1,8,0:0:0:0:
192,192,30513,1,8,0:0:0:0:
192,192,30590,1,0,0:0:0:0:
192,192,30667,1,0,0:0:0:0:
224,192,30745,1,8,0:0:0:0:
192,192,30822,1,8,0:0:0:0:
192,192,30899,1,4,0:0:0:0:
192,192,31131,1,12,0:0:0:0:
192,192,31363,1,4,0:0:0:0:
192,192,31595,1,12,0:0:0:0:
224,192,31827,1,4,0:0:0:0:
192,192,31982,1,8,0:0:0:0:
224,192,32059,1,0,0:0:0:0:
192,192,32136,1,8,0:0:0:0:
192,192,32291,1,0,0:0:0:0:
192,192,32368,1,8,0:0:0:0:
192,192,32446,1,8,0:0:0:0:
224,192,32600,1,8,0:0:0:0:
224,192,32678,1,8,0:0:0:0:
224,192,32755,1,8,0:0:0:0:
192,192,32832,1,0,0:0:0:0:
192,192,32910,1,0,0:0:0:0:
192,192,32987,1,8,0:0:0:0:
192,192,33064,1,8,0:0:0:0:
192,192,33141,1,8,0:0:0:0:
192,192,33219,1,0,0:0:0:0:
192,192,33296,1,8,0:0:0:0:
192,192,33373,1,0,0:0:0:0:
224,192,33528,1,0,0:0:0:0:
224,192,33605,1,8,0:0:0:0:
192,192,33683,1,8,0:0:0:0:
192,192,33837,1,0,0:0:0:0:
192,192,33992,1,0,0:0:0:0:
192,192,34069,1,8,0:0:0:0:
224,192,34147,1,0,0:0:0:0:
224,192,34224,1,8,0:0:0:0:
224,192,34301,1,8,0:0:0:0:
192,192,34456,1,8,0:0:0:0:
192,192,34533,1,8,0:0:0:0:
192,192,34611,1,0,0:0:0:0:
224,192,34765,1,0,0:0:0:0:
224,192,34920,1,0,0:0:0:0:
224,192,35074,1,0,0:0:0:0:
224,192,35152,1,0,0:0:0:0:
224,192,35229,1,0,0:0:0:0:
224,192,35306,1,0,0:0:0:0:
192,192,35384,1,0,0:0:0:0:
192,192,35461,1,0,0:0:0:0:
192,192,35538,1,8,0:0:0:0:
192,192,35693,1,8,0:0:0:0:
192,192,35770,1,0,0:0:0:0:
192,192,35848,1,0,0:0:0:0:
224,192,36002,1,8,0:0:0:0:
224,192,36157,1,8,0:0:0:0:
224,192,36312,1,0,0:0:0:0:
224,192,36389,1,0,0:0:0:0:
224,192,36466,1,8,0:0:0:0:
224,192,36544,1,8,0:0:0:0:
224,192,36621,1,0,0:0:0:0:
224,192,36698,1,0,0:0:0:0:
224,192,36776,1,8,0:0:0:0:
224,192,36930,1,8,0:0:0:0:
224,192,37007,1,8,0:0:0:0:
224,192,37085,1,0,0:0:0:0:
224,160,37239,1,0,0:0:0:0:
224,192,37394,1,8,0:0:0:0:
256,192,37549,1,0,0:0:0:0:
256,192,37626,1,0,0:0:0:0:
256,192,37703,1,8,0:0:0:0:
256,192,37781,1,8,0:0:0:0:
256,192,37858,1,8,0:0:0:0:
256,192,37935,1,0,0:0:0:0:
256,192,38013,1,8,0:0:0:0:
256,192,38167,1,0,0:0:0:0:
256,192,38245,1,8,0:0:0:0:
256,192,38322,1,0,0:0:0:0:
256,192,38477,1,0,0:0:0:0:
256,192,38631,1,8,0:0:0:0:
256,192,38786,1,0,0:0:0:0:
256,192,38940,1,8,0:0:0:0:
256,192,39018,1,8,0:0:0:0:
256,192,39095,1,0,0:0:0:0:
256,160,39250,1,8,0:0:0:0:
256,192,39404,1,0,0:0:0:0:
256,192,39482,1,8,0:0:0:0:
256,192,39559,1,0,0:0:0:0:
256,192,39714,1,0,0:0:0:0:
256,160,39868,1,8,0:0:0:0:
256,160,40023,1,0,0:0:0:0:
256,160,40178,1,8,0:0:0:0:
256,160,40255,1,0,0:0:0:0:
256,160,40332,1,8,0:0:0:0:
256,160,40487,1,8,0:0:0:0:
256,160,40641,1,0,0:0:0:0:
256,160,40719,1,8,0:0:0:0:
256,160,40796,1,8,0:0:0:0:
256,160,40951,1,8,0:0:0:0:
256,160,41105,1,0,0:0:0:0:
256,160,41260,1,8,0:0:0:0:
256,160,41337,1,0,0:0:0:0:
256,160,41415,1,8,0:0:0:0:
256,160,41569,1,8,0:0:0:0:
256,160,41724,1,0,0:0:0:0:
256,160,41879,1,8,0:0:0:0:
256,160,41956,1,8,0:0:0:0:
256,160,42033,1,0,0:0:0:0:
256,160,42188,1,12,0:0:0:0:
256,160,42343,1,0,0:0:0:0:
256,160,42497,1,0,0:0:0:0:
256,160,42652,1,12,0:0:0:0:
256,160,42806,1,0,0:0:0:0:
256,160,42884,1,0,0:0:0:0:
256,160,42961,1,8,0:0:0:0:
256,160,43038,1,8,0:0:0:0:
256,160,43116,1,0,0:0:0:0:
256,160,43193,1,8,0:0:0:0:
256,160,43270,1,4,0:0:0:0:
256,160,43425,1,0,0:0:0:0:
256,160,43580,1,8,0:0:0:0:
256,160,43734,1,8,0:0:0:0:
256,160,43812,1,8,0:0:0:0:
256,160,43889,1,0,0:0:0:0:
256,160,43966,1,8,0:0:0:0:
256,160,44044,1,8,0:0:0:0:
256,160,44198,1,0,0:0:0:0:
256,160,44276,1,8,0:0:0:0:
256,160,44353,1,0,0:0:0:0:
256,160,44507,1,8,0:0:0:0:
256,160,44662,1,0,0:0:0:0:
256,160,44817,1,8,0:0:0:0:
256,160,44971,1,0,0:0:0:0:
256,160,45049,1,0,0:0:0:0:
256,160,45126,1,0,0:0:0:0:
256,160,45203,1,8,0:0:0:0:
256,160,45281,1,8,0:0:0:0:
224,160,45435,1,8,0:0:0:0:
224,160,45513,1,8,0:0:0:0:
224,160,45590,1,0,0:0:0:0:
256,160,45745,1,8,0:0:0:0:
256,160,45899,1,0,0:0:0:0:
256,160,46054,1,8,0:0:0:0:
256,160,46209,1,0,0:0:0:0:
256,160,46363,1,8,0:0:0:0:
256,160,46440,1,8,0:0:0:0:
256,160,46518,1,0,0:0:0:0:
288,160,46672,1,8,0:0:0:0:
256,160,46827,1,0,0:0:0:0:
256,160,46904,1,8,0:0:0:0:
256,160,46982,1,0,0:0:0:0:
256,160,47136,1,0,0:0:0:0:
256,160,47291,1,8,0:0:0:0:
256,160,47446,1,0,0:0:0:0:
256,160,47523,1,8,0:0:0:0:
256,160,47600,1,0,0:0:0:0:
256,160,47755,1,0,0:0:0:0:
256,128,47910,1,8,0:0:0:0:
256,160,48064,1,0,0:0:0:0:
256,160,48141,1,8,0:0:0:0:
256,160,48219,1,0,0:0:0:0:
256,160,48373,1,8,0:0:0:0:
256,160,48528,1,0,0:0:0:0:
256,160,48683,1,0,0:0:0:0:
256,160,48837,1,8,0:0:0:0:
256,160,48992,1,0,0:0:0:0:
256,160,49147,1,0,0:0:0:0:
224,160,49301,1,8,0:0:0:0:
224,160,49456,1,8,0:0:0:0:
256,160,49611,1,8,0:0:0:0:
256,160,49765,1,0,0:0:0:0:
256,160,49920,1,0,0:0:0:0:
256,160,50074,1,8,0:0:0:0:
256,160,50229,1,0,0:0:0:0:
256,160,50384,1,0,0:0:0:0:
256,160,50538,1,8,0:0:0:0:
256,160,50693,1,8,0:0:0:0:
256,160,50925,1,0,0:0:0:0:
256,160,51157,1,8,0:0:0:0:
256,160,51389,1,8,0:0:0:0:
256,160,51621,1,0,0:0:0:0:
224,160,51698,1,8,0:0:0:0:
224,160,51776,1,8,0:0:0:0:
224,160,51853,1,0,0:0:0:0:
224,160,51930,1,8,0:0:0:0:
224,160,52085,1,0,0:0:0:0:
224,160,52162,1,8,0:0:0:0:
224,160,52239,1,8,0:0:0:0:
224,160,52317,1,8,0:0:0:0:
224,160,52394,1,0,0:0:0:0:
224,160,52471,1,8,0:0:0:0:
224,128,52549,1,8,0:0:0:0:
224,160,52626,1,0,0:0:0:0:
224,128,52703,1,8,0:0:0:0:
224,160,52781,1,8,0:0:0:0:
224,128,52858,1,0,0:0:0:0:
224,160,52935,1,0,0:0:0:0:
224,128,53013,1,0,0:0:0:0:
224,128,53090,1,0,0:0:0:0:
224,128,53167,1,12,0:0:0:0:
224,128,53399,1,4,0:0:0:0:
224,160,53631,1,4,0:0:0:0:
224,160,53863,1,0,0:0:0:0:
224,160,53940,1,8,0:0:0:0:
256,160,54018,1,0,0:0:0:0:
224,160,54095,1,0,0:0:0:0:
224,160,54250,1,0,0:0:0:0:
224,160,54404,1,8,0:0:0:0:
224,160,54559,1,0,0:0:0:0:
224,160,54636,1,8,0:0:0:0:
224,160,54714,1,8,0:0:0:0:
224,160,54868,1,0,0:0:0:0:
224,160,54946,1,8,0:0:0:0:
224,160,55023,1,0,0:0:0:0:
224,160,55178,1,8,0:0:0:0:
224,160,55255,1,0,0:0:0:0:
224,160,55332,1,8,0:0:0:0:
224,160,55410,1,0,0:0:0:0:
224,160,55487,1,8,0:0:0:0:
224,128,55564,1,0,0:0:0:0:
224,160,55641,1,12,0:0:0:0:
224,128,55873,1,4,0:0:0:0:
224,128,56105,1,12,0:0:0:0:
224,160,56337,1,0,0:0:0:0:
224,160,56414,1,8,0:0:0:0:
224,160,56492,1,0,0:0:0:0:
224,128,56569,1,0,0:0:0:0:
224,128,56724,1,8,0:0:0:0:
224,160,56879,1,8,0:0:0:0:
224,128,57033,1,0,0:0:0:0:
224,160,57111,1,8,0:0:0:0:
224,160,57188,1,8,0:0:0:0:
224,160,57343,1,0,0:0:0:0:
224,160,57420,1,8,0:0:0:0:
192,128,57652,1,8,0:0:0:0:
224,160,57729,1,0,0:0:0:0:
224,160,57806,1,8,0:0:0:0:
224,160,57884,1,0,0:0:0:0:
224,160,57961,1,8,0:0:0:0:
224,160,58038,1,8,0:0:0:0:
224,160,58116,1,4,0:0:0:0:
256,160,58348,1,12,0:0:0:0:
224,160,58580,1,4,0:0:0:0:
224,160,58812,1,0,0:0:0:0:
224,160,58889,1,8,0:0:0:0:
224,160,58966,1,8,0:0:0:0:
256,160,59043,1,0,0:0:0:0:
224,160,59198,1,0,0:0:0:0:
224,160,59353,1,12,0:0:0:0:
224,160,59585,1,12,0:0:0:0:
224,160,59817,1,4,0:0:0:0:
224,160,60049,1,12,0:0:0:0:
224,160,60281,1,8,0:0:0:0:
224,160,60358,1,0,0:0:0:0:
224,160,60435,1,8,0:0:0:0:
224,160,60590,1,4,0:0:0:0:
224,160,60822,1,4,0:0:0:0:
224,160,61054,1,8,0:0:0:0:
224,160,61105,1,8,0:0:0:0:
224,160,61157,1,8,0:0:0:0:
224,160,61209,1,0,0:0:0:0:
224,160,61440,1,4,0:0:0:0:
224,160,61672,1,8,0:0:0:0:
224,160,61724,1,8,0:0:0:0:
224,160,61776,1,8,0:0:0:0:
224,160,61827,1,0,0:0:0:0:
224,160,61904,1,0,0:0:0:0:
224,160,61982,1,0,0:0:0:0:
224,160,62059,1,8,0:0:0:0:
224,160,62136,1,8,0:0:0:0:
256,192,62214,1,0,0:0:0:0:
224,160,62291,1,0,0:0:0:0:
224,192,62343,1,0,0:0:0:0:
224,160,62394,1,0,0:0:0:0:
224,192,62446,1,8,0:0:0:0:
224,192,62678,1,4,0:0:0:0:
224,192,62910,1,12,0:0:0:0:
224,192,63064,1,0,0:0:0:0:
224,160,63219,1,8,0:0:0:0:
224,192,63296,1,8,0:0:0:0:
224,160,63451,1,0,0:0:0:0:
224,160,63528,1,8,0:0:0:0:
224,192,63760,1,0,0:0:0:0:
224,192,63837,1,8,0:0:0:0:
224,192,63915,1,8,0:0:0:0:
224,192,63992,1,0,0:0:0:0:
224,192,64147,1,8,0:0:0:0:
224,192,64301,1,0,0:0:0:0:
224,160,64456,1,8,0:0:0:0:
224,160,64533,1,8,0:0:0:0:
224,160,64611,1,0,0:0:0:0:
224,160,64688,1,0,0:0:0:0:
224,160,64765,1,8,0:0:0:0:
224,160,64843,1,8,0:0:0:0:
224,160,64920,1,8,0:0:0:0:
224,160,65074,1,0,0:0:0:0:
224,160,65151,1,8,0:0:0:0:
224,160,65384,1,8,0:0:0:0:
224,160,65461,1,0,0:0:0:0:
224,160,65538,1,8,0:0:0:0:
224,160,65693,1,0,0:0:0:0:
224,160,65770,1,8,0:0:0:0:
224,160,65925,1,0,0:0:0:0:
224,160,66002,1,8,0:0:0:0:
224,160,66157,1,0,0:0:0:0:
224,160,66234,1,8,0:0:0:0:
224,160,66312,1,8,0:0:0:0:
224,160,66389,1,8,0:0:0:0:
224,160,66466,1,0,0:0:0:0:
224,160,66621,1,8,0:0:0:0:
224,160,66776,1,0,0:0:0:0:
224,160,66930,1,8,0:0:0:0:
224,160,67007,1,0,0:0:0:0:
224,160,67085,1,8,0:0:0:0:
224,160,67162,1,0,0:0:0:0:
224,160,67239,1,0,0:0:0:0:
224,160,67317,1,8,0:0:0:0:
224,160,67394,1,8,0:0:0:0:
224,160,67549,1,0,0:0:0:0:
224,160,67626,1,8,0:0:0:0:
224,160,67703,1,0,0:0:0:0:
224,160,67781,1,8,0:0:0:0:
224,160,67858,1,0,0:0:0:0:
224,160,67935,1,0,0:0:0:0:
224,160,68013,1,8,0:0:0:0:
224,160,68167,1,8,0:0:0:0:
224,160,68245,1,0,0:0:0:0:
224,160,68322,1,8,0:0:0:0:
224,160,68477,1,0,0:0:0:0:
224,160,68554,1,8,0:0:0:0:
224,160,68631,1,8,0:0:0:0:
224,160,68709,1,0,0:0:0:0:
224,160,68786,1,8,0:0:0:0:
224,160,68863,1,0,0:0:0:0:
224,160,68940,1,8,0:0:0:0:
224,160,69095,1,8,0:0:0:0:
224,160,69172,1,0,0:0:0:0:
224,160,69250,1,0,0:0:0:0:
224,160,69404,1,0,0:0:0:0:
224,160,69482,1,8,0:0:0:0:
224,160,69559,1,8,0:0:0:0:
224,160,69714,1,0,0:0:0:0:
224,160,69791,1,0,0:0:0:0:
224,160,69868,1,8,0:0:0:0:
224,160,69946,1,0,0:0:0:0:
224,160,70023,1,8,0:0:0:0:
224,160,70100,1,0,0:0:0:0:
224,160,70178,1,8,0:0:0:0:
224,160,70255,1,8,0:0:0:0:
224,160,70332,1,0,0:0:0:0:
224,160,70410,1,0,0:0:0:0:
224,160,70487,1,8,0:0:0:0:
224,160,70538,1,8,0:0:0:0:
224,160,70590,1,8,0:0:0:0:
224,160,70641,1,8,0:0:0:0:
224,160,70719,1,0,0:0:0:0:
224,160,70796,1,0,0:0:0:0:
224,160,70873,1,8,0:0:0:0:
224,160,70951,1,0,0:0:0:0:
224,160,71028,1,0,0:0:0:0:
224,160,71105,1,8,0:0:0:0:
224,160,71157,1,8,0:0:0:0:
224,160,71209,1,8,0:0:0:0:
224,160,71260,1,8,0:0:0:0:
224,160,71337,1,0,0:0:0:0:
224,160,71415,1,8,0:0:0:0:
224,160,71492,1,0,0:0:0:0:
224,160,71569,1,8,0:0:0:0:
224,160,71724,1,8,0:0:0:0:
224,160,71879,1,8,0:0:0:0:
224,160,72033,1,0,0:0:0:0:
224,160,72188,1,8,0:0:0:0:
224,160,72343,1,4,0:0:0:0:
224,160,72497,1,8,0:0:0:0:
224,160,72574,1,8,0:0:0:0:
224,160,72652,1,0,0:0:0:0:
224,160,72729,1,8,0:0:0:0:
224,160,72806,1,0,0:0:0:0:
224,160,72884,1,0,0:0:0:0:
224,160,72961,1,8,0:0:0:0:
224,160,73116,1,8,0:0:0:0:
224,160,73193,1,8,0:0:0:0:
224,160,73270,1,0,0:0:0:0:
224,160,73425,1,8,0:0:0:0:
224,160,73502,1,0,0:0:0:0:
224,160,73657,1,8,0:0:0:0:
224,160,73734,1,8,0:0:0:0:
224,160,73812,1,0,0:0:0:0:
224,160,73889,1,8,0:0:0:0:
256,160,73966,1,0,0:0:0:0:
256,160,74044,1,8,0:0:0:0:
256,160,74121,1,8,0:0:0:0:
256,160,74198,1,0,0:0:0:0:
256,160,74353,1,8,0:0:0:0:
256,160,74430,1,0,0:0:0:0:
256,160,74507,1,8,0:0:0:0:
256,160,74662,1,0,0:0:0:0:
256,160,74739,1,0,0:0:0:0:
256,160,74817,1,8,0:0:0:0:
256,160,74971,1,0,0:0:0:0:
224,160,75048,1,8,0:0:0:0:
256,160,75203,1,0,0:0:0:0:
256,160,75281,1,8,0:0:0:0:
256,160,75358,1,8,0:0:0:0:
256,160,75435,1,0,0:0:0:0:
256,160,75590,1,8,0:0:0:0:
256,160,75667,1,0,0:0:0:0:
256,160,75745,1,8,0:0:0:0:
256,160,75822,1,0,0:0:0:0:
256,160,75899,1,8,0:0:0:0:
256,160,75977,1,8,0:0:0:0:
256,160,76131,1,8,0:0:0:0:
256,160,76286,1,0,0:0:0:0:
256,160,76363,1,8,0:0:0:0:
256,160,76518,1,8,0:0:0:0:
224,160,76595,1,0,0:0:0:0:
256,160,76672,1,8,0:0:0:0:
256,160,76827,1,0,0:0:0:0:
256,160,76982,1,8,0:0:0:0:
256,160,77136,1,0,0:0:0:0:
256,160,77291,1,8,0:0:0:0:
256,160,77446,1,8,0:0:0:0:
256,160,77600,1,0,0:0:0:0:
256,160,77678,1,8,0:0:0:0:
256,160,77755,1,0,0:0:0:0:
256,160,77910,1,8,0:0:0:0:
256,160,77987,1,0,0:0:0:0:
256,160,78064,1,8,0:0:0:0:
256,160,78141,1,0,0:0:0:0:
256,160,78219,1,8,0:0:0:0:
256,160,78373,1,0,0:0:0:0:
256,160,78451,1,8,0:0:0:0:
256,160,78605,1,0,0:0:0:0:
256,160,78683,1,8,0:0:0:0:
256,160,78760,1,0,0:0:0:0:
256,160,78837,1,8,0:0:0:0:
256,160,78915,1,0,0:0:0:0:
256,160,78992,1,8,0:0:0:0:
224,160,79147,1,8,0:0:0:0:
224,160,79301,1,0,0:0:0:0:
256,160,79379,1,0,0:0:0:0:
256,160,79456,1,8,0:0:0:0:
256,160,79611,1,0,0:0:0:0:
224,160,79765,1,8,0:0:0:0:
224,160,79843,1,0,0:0:0:0:
224,160,79920,1,8,0:0:0:0:
224,160,79997,1,8,0:0:0:0:
224,160,80074,1,8,0:0:0:0:
224,160,80229,1,8,0:0:0:0:
256,160,80384,1,8,0:0:0:0:
256,160,80461,1,0,0:0:0:0:
256,160,80538,1,8,0:0:0:0:
256,160,80693,1,0,0:0:0:0:
256,160,80848,1,8,0:0:0:0:
256,160,81002,1,8,0:0:0:0:
256,160,81157,1,0,0:0:0:0:
256,160,81234,1,8,0:0:0:0:
224,160,81389,1,0,0:0:0:0:
224,160,81466,1,8,0:0:0:0:
256,160,81544,1,8,0:0:0:0:
256,160,81621,1,8,0:0:0:0:
256,160,81776,1,0,0:0:0:0:
256,160,81930,1,8,0:0:0:0:
256,160,82085,1,0,0:0:0:0:
256,160,82162,1,0,0:0:0:0:
256,160,82239,1,8,0:0:0:0:
256,160,82317,1,0,0:0:0:0:
256,160,82394,1,8,0:0:0:0:
256,160,82471,1,0,0:0:0:0:
256,160,82549,1,8,0:0:0:0:
256,160,82626,1,0,0:0:0:0:
256,160,82703,1,8,0:0:0:0:
256,160,82858,1,4,0:0:0:0:
256,160,83013,1,8,0:0:0:0:
256,160,83167,1,8,0:0:0:0:
256,160,83322,1,0,0:0:0:0:
256,160,83477,1,8,0:0:0:0:
256,160,83631,1,8,0:0:0:0:
256,160,83786,1,0,0:0:0:0:
256,160,83940,1,8,0:0:0:0:
256,160,84095,1,0,0:0:0:0:
256,160,84250,1,8,0:0:0:0:
256,160,84404,1,8,0:0:0:0:
256,160,84559,1,0,0:0:0:0:
256,160,84636,1,8,0:0:0:0:
256,160,84714,1,0,0:0:0:0:
256,160,84868,1,8,0:0:0:0:
256,160,85023,1,0,0:0:0:0:
256,160,85178,1,8,0:0:0:0:
256,160,85332,1,0,0:0:0:0:
256,160,85487,1,0,0:0:0:0:
256,160,85564,1,0,0:0:0:0:
256,160,85641,1,8,0:0:0:0:
256,160,85719,1,0,0:0:0:0:
256,160,85796,1,8,0:0:0:0:
256,160,85951,1,8,0:0:0:0:
256,160,86105,1,0,0:0:0:0:
256,160,86260,1,0,0:0:0:0:
256,160,86337,1,8,0:0:0:0:
256,160,86415,1,8,0:0:0:0:
256,160,86492,1,0,0:0:0:0:
256,160,86569,1,8,0:0:0:0:
256,160,86724,1,0,0:0:0:0:
256,160,86801,1,8,0:0:0:0:
256,160,86956,1,0,0:0:0:0:
256,160,87033,1,8,0:0:0:0:
256,160,87111,1,0,0:0:0:0:
256,160,87188,1,8,0:0:0:0:
256,160,87343,1,0,0:0:0:0:
256,160,87420,1,0,0:0:0:0:
256,160,87497,1,8,0:0:0:0:
256,160,87652,1,0,0:0:0:0:
256,160,87806,1,8,0:0:0:0:
256,160,87884,1,0,0:0:0:0:
256,160,87961,1,8,0:0:0:0:
256,160,88038,1,8,0:0:0:0:
256,160,88116,1,8,0:0:0:0:
256,160,88270,1,0,0:0:0:0:
256,160,88348,1,8,0:0:0:0:
256,160,88502,1,0,0:0:0:0:
256,160,88580,1,8,0:0:0:0:
256,160,88657,1,8,0:0:0:0:
256,160,88734,1,8,0:0:0:0:
256,160,88812,1,0,0:0:0:0:
256,160,88889,1,8,0:0:0:0:
256,160,89044,1,12,0:0:0:0:
256,160,89198,1,0,0:0:0:0:
256,160,89276,1,0,0:0:0:0:
256,160,89353,1,8,0:0:0:0:
256,160,89430,1,0,0:0:0:0:
256,160,89507,1,0,0:0:0:0:
256,160,89585,1,8,0:0:0:0:
256,160,89739,1,0,0:0:0:0:
256,160,89817,1,8,0:0:0:0:
256,160,89894,1,0,0:0:0:0:
256,160,89971,1,8,0:0:0:0:
256,160,90049,1,0,0:0:0:0:
256,160,90126,1,8,0:0:0:0:
256,160,90281,1,8,0:0:0:0:
256,160,90332,1,8,0:0:0:0:
256,160,90384,1,8,0:0:0:0:
256,160,90435,1,0,0:0:0:0:
256,160,90513,1,0,0:0:0:0:
256,160,90590,1,8,0:0:0:0:
256,160,90667,1,8,0:0:0:0:
256,160,90745,1,0,0:0:0:0:
256,160,90822,1,0,0:0:0:0:
256,160,90899,1,8,0:0:0:0:
256,160,90951,1,8,0:0:0:0:
256,160,91002,1,8,0:0:0:0:
256,160,91054,1,0,0:0:0:0:
256,160,91131,1,0,0:0:0:0:
256,160,91209,1,8,0:0:0:0:
256,160,91286,1,0,0:0:0:0:
256,160,91363,1,0,0:0:0:0:
256,160,91518,1,12,0:0:0:0:
256,160,91750,1,12,0:0:0:0:
256,160,91982,1,12,0:0:0:0:
256,160,92214,1,12,0:0:0:0:
256,160,92446,1,12,0:0:0:0:
256,160,92600,1,12,0:0:0:0:
256,192,92755,12,4,93837,0:0:0:0:
256,192,93992,5,8,0:0:0:0:
256,192,94069,1,8,0:0:0:0:
256,192,94147,1,0,0:0:0:0:
256,192,94224,1,0,0:0:0:0:
256,192,94301,1,8,0:0:0:0:
256,192,94379,1,8,0:0:0:0:
256,192,94456,1,0,0:0:0:0:
256,192,94533,1,0,0:0:0:0:
256,192,94611,1,8,0:0:0:0:
256,192,94662,1,8,0:0:0:0:
256,192,94714,1,8,0:0:0:0:
256,192,94765,1,0,0:0:0:0:
256,192,94843,1,0,0:0:0:0:
256,192,94920,1,8,0:0:0:0:
256,192,95074,1,0,0:0:0:0:
224,192,95152,1,8,0:0:0:0:
224,192,95229,1,8,0:0:0:0:
192,192,95383,1,0,0:0:0:0:
192,160,95538,1,8,0:0:0:0:
192,192,95770,1,8,0:0:0:0:
192,192,95847,1,0,0:0:0:0:
192,192,95924,1,8,0:0:0:0:
192,192,96002,1,0,0:0:0:0:
192,160,96156,1,8,0:0:0:0:
192,192,96311,1,0,0:0:0:0:
192,192,96466,1,0,0:0:0:0:
192,192,96621,1,8,0:0:0:0:
160,192,96776,1,0,0:0:0:0:
160,192,96930,1,8,0:0:0:0:
160,192,97085,1,8,0:0:0:0:
160,192,97162,1,0,0:0:0:0:
160,192,97239,1,8,0:0:0:0:
192,192,97394,1,0,0:0:0:0:
192,192,97549,1,8,0:0:0:0:
192,192,97626,1,0,0:0:0:0:
192,192,97703,1,8,0:0:0:0:
160,192,97781,1,0,0:0:0:0:
192,192,97858,1,0,0:0:0:0:
192,192,97935,1,0,0:0:0:0:
224,192,98013,1,8,0:0:0:0:
224,192,98168,1,0,0:0:0:0:
192,192,98245,1,8,0:0:0:0:
224,192,98399,1,0,0:0:0:0:
224,192,98476,1,8,0:0:0:0:
224,192,98554,1,0,0:0:0:0:
224,192,98631,1,8,0:0:0:0:
224,192,98786,1,0,0:0:0:0:
224,192,98941,1,8,0:0:0:0:
224,192,99095,1,8,0:0:0:0:
224,192,99172,1,0,0:0:0:0:
224,192,99250,1,8,0:0:0:0:
224,192,99327,1,8,0:0:0:0:
224,192,99404,1,8,0:0:0:0:
224,192,99482,1,0,0:0:0:0:
224,192,99636,1,0,0:0:0:0:
224,192,99714,1,8,0:0:0:0:
224,192,99868,1,0,0:0:0:0:
224,192,100023,1,0,0:0:0:0:
224,192,100100,1,8,0:0:0:0:
224,192,100178,1,8,0:0:0:0:
224,192,100332,1,0,0:0:0:0:
224,192,100410,1,8,0:0:0:0:
224,192,100487,1,0,0:0:0:0:
224,192,100564,1,0,0:0:0:0:
224,192,100641,1,8,0:0:0:0:
224,192,100796,1,0,0:0:0:0:
224,192,100873,1,8,0:0:0:0:
224,192,101028,1,0,0:0:0:0:
224,192,101105,1,8,0:0:0:0:
224,192,101260,1,0,0:0:0:0:
224,192,101337,1,8,0:0:0:0:
224,192,101492,1,0,0:0:0:0:
224,192,101569,1,8,0:0:0:0:
224,192,101724,1,8,0:0:0:0:
224,192,101801,1,8,0:0:0:0:
224,192,101879,1,0,0:0:0:0:
224,192,101956,1,8,0:0:0:0:
224,192,102033,1,8,0:0:0:0:
224,192,102111,1,0,0:0:0:0:
224,192,102188,1,0,0:0:0:0:
256,192,102265,1,8,0:0:0:0:
224,192,102343,1,0,0:0:0:0:
224,192,102420,1,8,0:0:0:0:
224,192,102497,1,8,0:0:0:0:
224,192,102574,1,0,0:0:0:0:
256,192,102652,1,8,0:0:0:0:
224,160,102806,1,0,0:0:0:0:
224,192,102884,1,0,0:0:0:0:
256,192,102961,1,8,0:0:0:0:
224,192,103038,1,0,0:0:0:0:
224,192,103116,1,8,0:0:0:0:
256,192,103270,1,8,0:0:0:0:
256,192,103348,1,8,0:0:0:0:
256,192,103425,1,0,0:0:0:0:
256,192,103502,1,0,0:0:0:0:
256,192,103580,1,8,0:0:0:0:
256,192,103657,1,0,0:0:0:0:
256,192,103734,1,8,0:0:0:0:
256,192,103889,1,8,0:0:0:0:
256,192,103966,1,0,0:0:0:0:
256,192,104044,1,8,0:0:0:0:
256,192,104121,1,8,0:0:0:0:
256,192,104198,1,0,0:0:0:0:
256,192,104276,1,8,0:0:0:0:
256,192,104353,1,8,0:0:0:0:
256,192,104430,1,0,0:0:0:0:
256,192,104507,1,8,0:0:0:0:
256,192,104662,1,0,0:0:0:0:
256,192,104817,1,12,0:0:0:0:
256,192,104971,1,0,0:0:0:0:
256,192,105126,1,12,0:0:0:0:
256,192,105281,1,8,0:0:0:0:
256,192,105435,1,0,0:0:0:0:
256,192,105590,1,8,0:0:0:0:
256,192,105745,1,8,0:0:0:0:
256,192,105822,1,8,0:0:0:0:
256,192,105899,1,0,0:0:0:0:
256,192,105977,1,0,0:0:0:0:
256,192,106054,1,8,0:0:0:0:
256,192,106209,1,0,0:0:0:0:
256,192,106363,1,8,0:0:0:0:
256,192,106440,1,0,0:0:0:0:
256,192,106518,1,8,0:0:0:0:
256,192,106672,1,0,0:0:0:0:
256,192,106827,1,8,0:0:0:0:
256,192,106982,1,0,0:0:0:0:
256,192,107136,1,0,0:0:0:0:
256,192,107214,1,0,0:0:0:0:
256,192,107291,1,8,0:0:0:0:
256,192,107446,1,8,0:0:0:0:
256,192,107600,1,0,0:0:0:0:
256,192,107678,1,0,0:0:0:0:
256,192,107755,1,8,0:0:0:0:
256,192,107832,1,0,0:0:0:0:
256,192,107910,1,8,0:0:0:0:
256,192,108064,1,8,0:0:0:0:
256,192,108141,1,0,0:0:0:0:
256,192,108219,1,8,0:0:0:0:
256,192,108373,1,0,0:0:0:0:
256,192,108451,1,8,0:0:0:0:
256,192,108605,1,8,0:0:0:0:
256,192,108683,1,0,0:0:0:0:
256,192,108760,1,0,0:0:0:0:
256,192,108837,1,8,0:0:0:0:
256,192,108915,1,0,0:0:0:0:
256,192,108992,1,8,0:0:0:0:
256,192,109069,1,0,0:0:0:0:
256,192,109147,1,8,0:0:0:0:
256,192,109301,1,0,0:0:0:0:
256,192,109456,1,8,0:0:0:0:
256,192,109533,1,8,0:0:0:0:
256,192,109611,1,0,0:0:0:0:
256,192,109688,1,0,0:0:0:0:
256,192,109765,1,8,0:0:0:0:
256,192,109843,1,0,0:0:0:0:
256,192,109920,1,8,0:0:0:0:
256,192,110074,1,4,0:0:0:0:
256,192,110229,1,8,0:0:0:0:
256,192,110306,1,0,0:0:0:0:
256,192,110384,1,8,0:0:0:0:
256,192,110461,1,0,0:0:0:0:
256,192,110538,1,0,0:0:0:0:
256,192,110693,1,8,0:0:0:0:
256,192,110848,1,8,0:0:0:0:
256,192,111002,1,0,0:0:0:0:
256,192,111157,1,8,0:0:0:0:
256,192,111312,1,4,0:0:0:0:
224,192,111466,1,8,0:0:0:0:
256,192,111621,1,0,0:0:0:0:
256,192,111698,1,0,0:0:0:0:
256,192,111776,1,8,0:0:0:0:
256,192,111930,1,0,0:0:0:0:
256,192,112007,1,8,0:0:0:0:
256,192,112085,1,8,0:0:0:0:
256,192,112239,1,0,0:0:0:0:
256,192,112394,1,8,0:0:0:0:
256,192,112471,1,8,0:0:0:0:
256,192,112549,1,8,0:0:0:0:
256,192,112626,1,0,0:0:0:0:
256,192,112703,1,8,0:0:0:0:
256,192,112781,1,8,0:0:0:0:
256,192,112858,1,0,0:0:0:0:
256,192,112935,1,8,0:0:0:0:
256,192,113013,1,8,0:0:0:0:
256,192,113090,1,0,0:0:0:0:
256,192,113167,1,8,0:0:0:0:
256,192,113245,1,8,0:0:0:0:
256,192,113322,1,0,0:0:0:0:
256,192,113399,1,0,0:0:0:0:
256,192,113477,1,8,0:0:0:0:
256,192,113554,1,0,0:0:0:0:
256,160,113631,1,8,0:0:0:0:
256,160,113709,1,8,0:0:0:0:
256,160,113786,1,0,0:0:0:0:
256,160,113940,1,8,0:0:0:0:
256,160,114018,1,8,0:0:0:0:
256,160,114095,1,8,0:0:0:0:
256,160,114172,1,0,0:0:0:0:
256,160,114250,1,8,0:0:0:0:
256,160,114327,1,8,0:0:0:0:
256,160,114404,1,8,0:0:0:0:
256,160,114482,1,0,0:0:0:0:
256,160,114559,1,8,0:0:0:0:
256,160,114636,1,0,0:0:0:0:
256,160,114714,1,8,0:0:0:0:
256,160,114791,1,8,0:0:0:0:
256,160,114868,1,0,0:0:0:0:
256,160,114946,1,8,0:0:0:0:
224,160,115023,1,0,0:0:0:0:
256,160,115100,1,0,0:0:0:0:
224,160,115255,1,12,0:0:0:0:
