osu file format v14

[General]
AudioFilename: audio.mp3
AudioLeadIn: 0
PreviewTime: 71724
Countdown: 0
SampleSet: None
StackLeniency: 0.7
Mode: 3
LetterboxInBreaks: 0
SpecialStyle: 0
WidescreenStoryboard: 0

[Editor]
DistanceSpacing: 1
BeatDivisor: 4
GridSize: 4
TimelineZoom: 1.6

[Metadata]
Title:XROSS INFECTION
TitleUnicode:XROSS INFECTION
Artist:BlackY vs. Yooh
ArtistUnicode:BlackY vs. Yooh
Creator:HXJ_Crafter
Version:BASIC
Source:SOUND VOLTEX II -infinite infection-
Tags:KONAMI BEMANI SDVX 制作決定記念 オリジナル楽曲コンテスト production confirmation commemorative original song contest xlwan Eedow biemote
BeatmapID:1925097
BeatmapSetID:486123

[Difficulty]
HPDrainRate:6.5
CircleSize:4
OverallDifficulty:7
ApproachRate:5
SliderMultiplier:1.4
SliderTickRate:1

[Events]
//Background and Video events
0,0,"114.png",0,0
//Break Periods
2,63268,66813
//Storyboard Layer 0 (Background)
//Storyboard Layer 1 (Fail)
//Storyboard Layer 2 (Pass)
//Storyboard Layer 3 (Foreground)
//Storyboard Sound Samples

[TimingPoints]
2446,309.278350515464,4,2,1,60,1,0
72961,-100,4,2,1,60,0,1
92755,-100,4,2,1,60,0,0
95229,-100,4,2,1,60,0,1
115255,-100,4,2,1,60,0,0

[HitObjects]
448,192,2446,5,8,0:0:0:0:
64,192,2446,1,2,0:0:0:0:
320,192,3683,1,0,0:0:0:0:
192,192,4920,1,0,0:0:0:0:
64,192,7394,128,0,12342:0:0:0:0:
448,192,9868,128,0,12342:0:0:0:0:
64,192,13580,1,2,0:0:0:0:
448,192,13580,1,8,0:0:0:0:
192,192,13889,1,2,0:0:0:0:
448,192,14198,1,2,0:0:0:0:
64,192,14507,1,2,0:0:0:0:
320,192,14817,1,2,0:0:0:0:
192,192,15126,1,2,0:0:0:0:
448,192,15435,1,2,0:0:0:0:
64,192,15744,1,2,0:0:0:0:
320,192,16054,1,2,0:0:0:0:
64,192,16363,1,2,0:0:0:0:
448,192,16672,1,2,0:0:0:0:
192,192,16982,1,2,0:0:0:0:
320,192,17291,1,2,0:0:0:0:
192,192,17600,1,2,0:0:0:0:
320,192,17909,1,2,0:0:0:0:
64,192,18219,1,2,0:0:0:0:
448,192,18373,1,2,0:0:0:0:
64,192,18528,1,2,0:0:0:0:
320,192,18837,1,2,0:0:0:0:
192,192,19147,1,2,0:0:0:0:
448,192,19456,1,2,0:0:0:0:
64,192,19765,1,2,0:0:0:0:
448,192,20074,1,2,0:0:0:0:
192,192,20384,1,2,0:0:0:0:
320,192,20693,1,2,0:0:0:0:
64,192,21002,1,2,0:0:0:0:
448,192,21311,1,2,0:0:0:0:
192,192,21621,1,2,0:0:0:0:
320,192,21930,1,2,0:0:0:0:
64,192,22239,1,2,0:0:0:0:
320,192,22549,1,2,0:0:0:0:
192,192,22858,1,2,0:0:0:0:
320,192,23167,1,2,0:0:0:0:
64,192,23476,5,4,0:0:0:0:
448,192,23476,5,2,0:0:0:0:
192,192,23786,128,2,24095:0:0:0:0:
448,192,24095,1,2,0:0:0:0:
320,192,24404,128,2,24714:0:0:0:0:
64,192,24714,1,2,0:0:0:0:
192,192,25023,128,2,25332:0:0:0:0:
448,192,25332,1,2,0:0:0:0:
320,192,25641,128,2,25951:0:0:0:0:
64,192,25951,1,2,0:0:0:0:
448,192,26260,128,2,26569:0:0:0:0:
192,192,26569,1,2,0:0:0:0:
64,192,26878,128,2,27188:0:0:0:0:
320,192,27188,1,2,0:0:0:0:
448,192,27497,128,2,27806:0:0:0:0:
192,192,27806,1,2,0:0:0:0:
320,192,28116,1,2,0:0:0:0:
448,192,28270,1,2,0:0:0:0:
192,192,28425,1,4,0:0:0:0:
64,192,28425,1,2,0:0:0:0:
448,192,28734,1,2,0:0:0:0:
320,192,29043,1,2,0:0:0:0:
192,192,29353,1,2,0:0:0:0:
320,192,29662,1,2,0:0:0:0:
448,192,29662,1,4,0:0:0:0:
64,192,29971,1,2,0:0:0:0:
192,192,30281,1,2,0:0:0:0:
320,192,30590,1,2,0:0:0:0:
448,192,30899,1,6,0:0:0:0:
64,192,31131,1,6,0:0:0:0:
320,192,31363,1,6,0:0:0:0:
192,192,31595,1,6,0:0:0:0:
448,192,31827,1,6,0:0:0:0:
320,192,31982,1,6,0:0:0:0:
64,192,32136,128,2,33373:0:0:0:0:
192,192,32755,128,0,33373:0:0:0:0:
448,192,33373,128,8,34610:0:0:0:0:
320,192,34610,128,2,35229:0:0:0:0:
192,192,35229,128,2,35848:0:0:0:0:
64,192,35848,128,2,36466:0:0:0:0:
320,192,36466,128,2,37085:0:0:0:0:
64,192,37085,128,2,37703:0:0:0:0:
192,192,37703,128,2,38322:0:0:0:0:
448,192,38322,128,2,38940:0:0:0:0:
64,192,38940,128,2,39250:0:0:0:0:
192,192,39250,128,2,39559:0:0:0:0:
320,192,39559,128,2,40177:0:0:0:0:
448,192,40177,128,2,40796:0:0:0:0:
64,192,40796,128,2,42033:0:0:0:0:
448,192,42033,1,2,0:0:0:0:
64,192,42188,1,4,0:0:0:0:
448,192,42342,1,2,0:0:0:0:
192,192,42652,1,4,0:0:0:0:
320,192,42961,1,2,0:0:0:0:
448,192,43270,1,8,0:0:0:0:
64,192,43270,128,2,44507:0:0:0:0:
320,192,44507,128,2,45126:0:0:0:0:
64,192,45126,128,2,45744:0:0:0:0:
448,192,45744,128,2,46982:0:0:0:0:
192,192,46982,128,2,48219:0:0:0:0:
448,192,48219,1,2,0:0:0:0:
192,192,48528,1,2,0:0:0:0:
448,192,48837,1,2,0:0:0:0:
192,192,49147,1,2,0:0:0:0:
64,192,49456,1,2,0:0:0:0:
320,192,49765,1,2,0:0:0:0:
64,192,50074,1,2,0:0:0:0:
320,192,50384,1,2,0:0:0:0:
448,192,50693,128,2,53167:0:0:0:0:
64,192,50693,1,0,0:0:0:0:
64,192,52549,128,0,53167:0:0:0:0:
192,192,53167,1,8,0:0:0:0:
320,192,53399,1,8,0:0:0:0:
192,192,53631,1,8,0:0:0:0:
320,192,53863,1,8,0:0:0:0:
448,192,54404,1,0,0:0:0:0:
192,192,55023,128,0,55332:0:0:0:0:
64,192,55641,1,8,0:0:0:0:
192,192,55873,1,8,0:0:0:0:
320,192,56105,1,8,0:0:0:0:
448,192,56337,1,8,0:0:0:0:
64,192,56878,1,0,0:0:0:0:
448,192,57652,1,4,0:0:0:0:
448,192,57961,1,4,0:0:0:0:
64,192,58116,1,8,0:0:0:0:
192,192,58348,1,8,0:0:0:0:
320,192,58580,1,8,0:0:0:0:
448,192,58811,1,8,0:0:0:0:
448,192,59353,1,8,0:0:0:0:
320,192,59585,1,8,0:0:0:0:
192,192,59817,1,8,0:0:0:0:
64,192,60049,1,8,0:0:0:0:
64,192,60590,1,8,0:0:0:0:
192,192,60822,1,8,0:0:0:0:
448,192,61208,1,8,0:0:0:0:
320,192,61440,1,8,0:0:0:0:
64,192,61827,1,0,0:0:0:0:
448,192,62136,1,0,0:0:0:0:
64,192,62446,1,4,0:0:0:0:
192,192,62677,1,4,0:0:0:0:
320,192,62909,1,4,0:0:0:0:
448,192,63064,1,8,0:0:0:0:
64,192,68013,5,6,0:0:0:0:
192,192,68322,1,2,0:0:0:0:
320,192,68631,1,2,0:0:0:0:
448,192,68940,1,2,0:0:0:0:
192,192,69250,1,6,0:0:0:0:
320,192,69559,1,2,0:0:0:0:
64,192,69868,1,2,0:0:0:0:
192,192,70177,1,2,0:0:0:0:
448,192,70487,128,2,70796:0:0:0:0:
320,192,70487,1,4,0:0:0:0:
64,192,71105,128,2,71415:0:0:0:0:
192,192,71105,1,4,0:0:0:0:
448,192,71724,1,2,0:0:0:0:
192,192,72342,1,6,0:0:0:0:
320,192,72652,1,6,0:0:0:0:
448,192,72961,1,2,0:0:0:0:
64,192,72961,1,8,0:0:0:0:
192,192,73270,1,2,0:0:0:0:
448,192,73580,1,2,0:0:0:0:
64,192,73889,1,2,0:0:0:0:
320,192,74198,1,2,0:0:0:0:
64,192,74507,1,2,0:0:0:0:
192,192,74817,1,2,0:0:0:0:
448,192,75126,1,2,0:0:0:0:
64,192,75435,1,2,0:0:0:0:
192,192,75744,1,2,0:0:0:0:
448,192,76054,1,2,0:0:0:0:
320,192,76363,1,2,0:0:0:0:
64,192,76672,1,2,0:0:0:0:
448,192,76982,1,2,0:0:0:0:
192,192,77291,1,2,0:0:0:0:
64,192,77600,1,2,0:0:0:0:
448,192,77755,1,2,0:0:0:0:
192,192,77909,128,2,78219:0:0:0:0:
448,192,78219,128,2,78528:0:0:0:0:
64,192,78528,128,2,78837:0:0:0:0:
320,192,78837,128,2,79147:0:0:0:0:
192,192,79147,128,2,79456:0:0:0:0:
320,192,79456,128,2,79765:0:0:0:0:
64,192,79765,128,2,80074:0:0:0:0:
448,192,80074,128,2,80384:0:0:0:0:
64,192,80384,128,2,80693:0:0:0:0:
320,192,80693,128,2,81002:0:0:0:0:
192,192,81002,128,2,81311:0:0:0:0:
448,192,81311,128,2,81621:0:0:0:0:
64,192,81621,1,2,0:0:0:0:
192,192,81930,1,2,0:0:0:0:
448,192,82239,1,2,0:0:0:0:
64,192,82394,1,2,0:0:0:0:
320,192,82549,1,2,0:0:0:0:
192,192,82703,1,2,0:0:0:0:
448,192,82858,1,2,0:0:0:0:
64,192,82858,1,8,0:0:0:0:
320,192,83167,1,2,0:0:0:0:
448,192,83476,1,2,0:0:0:0:
192,192,83786,1,2,0:0:0:0:
64,192,84095,1,2,0:0:0:0:
320,192,84404,1,2,0:0:0:0:
448,192,84714,1,2,0:0:0:0:
192,192,85023,1,2,0:0:0:0:
64,192,85332,1,2,0:0:0:0:
448,192,85641,1,2,0:0:0:0:
192,192,85951,1,2,0:0:0:0:
64,192,86260,1,2,0:0:0:0:
320,192,86569,1,2,0:0:0:0:
192,192,86878,1,2,0:0:0:0:
448,192,87188,128,2,87806:0:0:0:0:
192,192,87497,1,2,0:0:0:0:
320,192,87652,1,2,0:0:0:0:
64,192,87806,1,8,0:0:0:0:
192,192,88116,1,2,0:0:0:0:
320,192,88425,1,2,0:0:0:0:
448,192,88734,1,2,0:0:0:0:
192,192,89043,1,8,0:0:0:0:
64,192,89353,1,2,0:0:0:0:
320,192,89662,1,2,0:0:0:0:
448,192,89971,1,2,0:0:0:0:
192,192,90281,128,4,90590:0:0:0:0:
320,192,90899,128,4,91208:0:0:0:0:
64,192,91518,1,6,0:0:0:0:
448,192,91750,1,6,0:0:0:0:
192,192,91982,1,6,0:0:0:0:
320,192,92214,1,6,0:0:0:0:
64,192,92446,1,6,0:0:0:0:
448,192,92600,1,6,0:0:0:0:
64,192,92755,1,8,0:0:0:0:
192,192,93992,128,0,94920:0:0:0:0:
320,192,94610,128,0,94920:0:0:0:0:
448,192,95229,128,2,96466:0:0:0:0:
64,192,95229,1,8,0:0:0:0:
320,192,95538,1,2,0:0:0:0:
192,192,95848,1,2,0:0:0:0:
320,192,96157,1,2,0:0:0:0:
64,192,96466,1,2,0:0:0:0:
320,192,96775,1,2,0:0:0:0:
448,192,97085,1,2,0:0:0:0:
64,192,97394,1,2,0:0:0:0:
448,192,97703,1,2,0:0:0:0:
320,192,98013,1,2,0:0:0:0:
64,192,98322,1,2,0:0:0:0:
192,192,98631,1,2,0:0:0:0:
448,192,98940,1,2,0:0:0:0:
64,192,99250,1,2,0:0:0:0:
320,192,99559,1,2,0:0:0:0:
192,192,99868,1,2,0:0:0:0:
64,192,100177,1,2,0:0:0:0:
448,192,100487,1,2,0:0:0:0:
192,192,100796,1,2,0:0:0:0:
320,192,101105,1,2,0:0:0:0:
64,192,101415,1,2,0:0:0:0:
320,192,101724,1,2,0:0:0:0:
192,192,102033,1,2,0:0:0:0:
448,192,102342,1,2,0:0:0:0:
64,192,102652,1,2,0:0:0:0:
320,192,102961,1,2,0:0:0:0:
192,192,103270,1,2,0:0:0:0:
448,192,103580,1,2,0:0:0:0:
192,192,103889,128,2,104198:0:0:0:0:
320,192,104198,128,2,104507:0:0:0:0:
64,192,104507,128,2,104817:0:0:0:0:
448,192,104817,128,2,105126:0:0:0:0:
64,192,105126,1,8,0:0:0:0:
320,192,105435,1,2,0:0:0:0:
64,192,105744,1,2,0:0:0:0:
448,192,106054,1,2,0:0:0:0:
192,192,106363,1,2,0:0:0:0:
448,192,106672,1,2,0:0:0:0:
192,192,106982,1,2,0:0:0:0:
320,192,107291,128,2,107600:0:0:0:0:
64,192,107600,1,2,0:0:0:0:
448,192,107909,1,2,0:0:0:0:
192,192,108219,1,2,0:0:0:0:
320,192,108528,1,2,0:0:0:0:
448,192,108837,1,2,0:0:0:0:
64,192,109147,1,2,0:0:0:0:
448,192,109456,128,2,109765:0:0:0:0:
192,192,109765,1,10,0:0:0:0:
320,192,110074,1,8,0:0:0:0:
64,192,110384,1,2,0:0:0:0:
448,192,110693,1,2,0:0:0:0:
192,192,111002,1,2,0:0:0:0:
320,192,111311,1,8,0:0:0:0:
64,192,111621,1,2,0:0:0:0:
448,192,111930,1,2,0:0:0:0:
192,192,112239,1,2,0:0:0:0:
448,192,112549,1,4,0:0:0:0:
64,192,112781,1,4,0:0:0:0:
320,192,113013,1,4,0:0:0:0:
192,192,113244,1,4,0:0:0:0:
448,192,113476,1,4,0:0:0:0:
64,192,113631,1,4,0:0:0:0:
448,192,113786,128,2,115023:0:0:0:0:
64,192,115023,1,8,0:0:0:0:
320,192,115023,1,2,0:0:0:0:
448,192,115255,1,8,0:0:0:0:
192,192,115255,1,2,0:0:0:0:
