osu file format v14

[General]
AudioFilename: 35.XROSS+INFECTION.mp3
AudioLeadIn: 0
PreviewTime: 71507
Countdown: 0
SampleSet: Soft
StackLeniency: 0.7
Mode: 3
LetterboxInBreaks: 0
SpecialStyle: 0
WidescreenStoryboard: 1

[Editor]
Bookmarks: 23260,52950,72744,95012
DistanceSpacing: 1
BeatDivisor: 8
GridSize: 4
TimelineZoom: 2.599999

[Metadata]
Title:XROSS INFECTION
TitleUnicode:XROSS INFECTION
Artist:BlackY vs. Yooh
ArtistUnicode:BlackY vs. Yooh
Creator:Aste-
Version:Collab GRAVITY
Source:SOUND VOLTEX II -infinite infection-
Tags:SDVX MEGAtive Leonita Ibrahim [_A_v_a_l_o_n_] Virtue-
BeatmapID:1060168
BeatmapSetID:252847

[Difficulty]
HPDrainRate:8
CircleSize:4
OverallDifficulty:8
ApproachRate:5
SliderMultiplier:1.4
SliderTickRate:2

[Events]
//Background and Video events
0,0,"1366x768_the_heart_of_iron.jpg",0,0
//Break Periods
//Storyboard Layer 0 (Background)
//Storyboard Layer 1 (Fail)
//Storyboard Layer 2 (Pass)
//Storyboard Layer 3 (Foreground)
//Storyboard Sound Samples

[TimingPoints]
992,309.278350515464,4,2,1,40,1,0
12126,-200,4,2,1,40,0,0
13363,-100,4,2,1,40,0,1
33156,-100,4,2,1,40,0,0
52950,-71.4285714285714,4,2,1,40,0,0
53105,-200,4,2,1,40,0,0
53182,-71.4285714285714,4,2,1,40,0,0
53337,-200,4,2,1,40,0,0
53414,-71.4285714285714,4,2,1,40,0,0
53569,-200,4,2,1,40,0,0
53646,-100,4,2,1,40,0,0
55424,-71.4285714285714,4,2,1,40,0,0
55579,-200,4,2,1,40,0,0
55656,-71.4285714285714,4,2,1,40,0,0
55811,-200,4,2,1,40,0,0
55888,-71.4285714285714,4,2,1,40,0,0
56043,-200,4,2,1,40,0,0
56120,-100,4,2,1,40,0,0
57899,-71.4285714285714,4,2,1,40,0,0
58053,-200,4,2,1,40,0,0
58131,-71.4285714285714,4,2,1,40,0,0
58285,-200,4,2,1,40,0,0
58363,-71.4285714285714,4,2,1,40,0,0
58517,-200,4,2,1,40,0,0
58595,-100,4,2,1,40,0,0
59136,-71.4285714285714,4,2,1,40,0,0
59290,-200,4,2,1,40,0,0
59368,-71.4285714285714,4,2,1,40,0,0
59522,-200,4,2,1,40,0,0
59600,-71.4285714285714,4,2,1,40,0,0
59754,-200,4,2,1,40,0,0
59832,-100,4,2,1,40,0,0
60373,-71.4285714285714,4,2,1,40,0,0
60528,-200,4,2,1,40,0,0
60605,-100,4,2,1,40,0,0
60992,-71.4285714285714,4,2,1,40,0,0
61146,-200,4,2,1,40,0,0
61223,-100,4,2,1,40,0,0
62229,-71.4285714285714,4,2,1,40,0,0
62383,-200,4,2,1,40,0,0
62461,-71.4285714285714,4,2,1,40,0,0
62615,-200,4,2,1,40,0,0
62693,-71.4285714285714,4,2,1,40,0,0
62770,-200,4,2,1,40,0,0
62847,-100,4,2,1,40,0,0
72126,-71.4285714285714,4,2,1,40,0,0
72357,-200,4,2,1,40,0,0
72435,-71.4285714285714,4,2,1,40,0,0
72667,-250,4,2,1,40,0,0
72744,-100,4,2,1,40,0,1
92538,-100,4,2,1,40,0,0
95012,-100,4,2,1,40,0,1
112332,-71.4285714285714,4,2,1,40,0,1
112486,-200,4,2,1,40,0,1
112564,-71.4285714285714,4,2,1,40,0,1
112718,-200,4,2,1,40,0,1
112796,-71.4285714285714,4,2,1,40,0,1
112950,-200,4,2,1,40,0,1
113028,-71.4285714285714,4,2,1,40,0,1
113182,-200,4,2,1,40,0,1
113260,-100,4,2,1,40,0,1
113569,-100,4,2,1,40,0,1
114883,-100,4,2,1,40,0,0

[HitObjects]
448,192,2229,128,0,3466:0:0:0:0:
192,192,2229,1,0,0:0:0:0:
64,192,2229,1,0,0:0:0:0:
320,192,2229,1,0,0:0:0:0:
64,192,3466,128,0,4703:0:0:0:0:
448,192,4703,128,0,7177:0:0:0:0:
64,192,5940,1,0,0:0:0:0:
192,192,6017,1,0,0:0:0:0:
320,192,6095,1,0,0:0:0:0:
64,192,6172,1,0,0:0:0:0:
320,192,6249,1,0,0:0:0:0:
192,192,6327,1,0,0:0:0:0:
64,192,6404,1,0,0:0:0:0:
320,192,6481,1,0,0:0:0:0:
64,192,6559,1,0,0:0:0:0:
192,192,6636,1,0,0:0:0:0:
320,192,6713,1,0,0:0:0:0:
192,192,6790,1,0,0:0:0:0:
64,192,6868,1,0,0:0:0:0:
320,192,6945,1,0,0:0:0:0:
64,192,7022,1,0,0:0:0:0:
192,192,7100,1,0,0:0:0:0:
64,192,7177,128,0,9651:0:0:0:0:
320,192,7177,1,0,0:0:0:0:
192,192,7254,1,0,0:0:0:0:
320,192,7332,1,0,0:0:0:0:
448,192,7409,1,0,0:0:0:0:
192,192,7486,1,0,0:0:0:0:
320,192,7564,1,0,0:0:0:0:
448,192,7641,1,0,0:0:0:0:
192,192,7718,1,0,0:0:0:0:
320,192,7796,1,0,0:0:0:0:
448,192,7873,1,0,0:0:0:0:
192,192,7950,1,0,0:0:0:0:
448,192,8028,1,0,0:0:0:0:
320,192,8105,1,0,0:0:0:0:
192,192,8182,1,0,0:0:0:0:
448,192,8260,1,0,0:0:0:0:
320,192,8337,1,0,0:0:0:0:
192,192,8414,1,0,0:0:0:0:
448,192,8492,1,0,0:0:0:0:
320,192,8569,1,0,0:0:0:0:
192,192,8646,1,0,0:0:0:0:
448,192,8723,1,0,0:0:0:0:
320,192,8801,1,0,0:0:0:0:
192,192,8878,1,0,0:0:0:0:
320,192,8955,1,0,0:0:0:0:
448,192,9033,1,0,0:0:0:0:
192,192,9110,1,0,0:0:0:0:
320,192,9187,1,0,0:0:0:0:
448,192,9265,1,0,0:0:0:0:
192,192,9342,1,0,0:0:0:0:
448,192,9419,1,0,0:0:0:0:
192,192,9497,1,0,0:0:0:0:
320,192,9574,1,0,0:0:0:0:
448,192,9651,128,0,12126:0:0:0:0:
192,192,9651,1,0,0:0:0:0:
320,192,9729,1,0,0:0:0:0:
64,192,9806,1,0,0:0:0:0:
192,192,9883,1,0,0:0:0:0:
320,192,9961,1,0,0:0:0:0:
192,192,10038,1,0,0:0:0:0:
64,192,10115,1,0,0:0:0:0:
320,192,10193,1,0,0:0:0:0:
192,192,10270,1,0,0:0:0:0:
320,192,10347,1,0,0:0:0:0:
64,192,10424,1,0,0:0:0:0:
192,192,10502,1,0,0:0:0:0:
320,192,10579,1,0,0:0:0:0:
64,192,10656,1,0,0:0:0:0:
320,192,10734,1,0,0:0:0:0:
192,192,10811,1,0,0:0:0:0:
64,192,10888,1,0,0:0:0:0:
320,192,10966,1,0,0:0:0:0:
192,192,11043,1,0,0:0:0:0:
64,192,11120,1,0,0:0:0:0:
320,192,11198,1,0,0:0:0:0:
192,192,11275,1,0,0:0:0:0:
64,192,11352,1,0,0:0:0:0:
320,192,11430,1,0,0:0:0:0:
192,192,11507,1,0,0:0:0:0:
320,192,11584,1,0,0:0:0:0:
64,192,11662,1,0,0:0:0:0:
192,192,11739,1,0,0:0:0:0:
320,192,11816,1,0,0:0:0:0:
64,192,11894,1,0,0:0:0:0:
320,192,11971,1,0,0:0:0:0:
192,192,12048,1,0,0:0:0:0:
64,192,12126,1,0,0:0:0:0:
320,192,12126,1,0,0:0:0:0:
64,192,13363,1,0,0:0:0:0:
192,192,13363,1,0,0:0:0:0:
448,192,13363,1,0,0:0:0:0:
320,192,13517,1,0,0:0:0:0:
64,192,13672,1,0,0:0:0:0:
192,192,13672,1,0,0:0:0:0:
448,192,13672,1,0,0:0:0:0:
320,192,13749,1,0,0:0:0:0:
192,192,13827,1,0,0:0:0:0:
64,192,13904,1,0,0:0:0:0:
448,192,13981,1,0,0:0:0:0:
320,192,13981,1,0,0:0:0:0:
192,192,14059,1,0,0:0:0:0:
320,192,14136,1,0,0:0:0:0:
448,192,14213,1,0,0:0:0:0:
64,192,14290,1,0,0:0:0:0:
192,192,14290,1,0,0:0:0:0:
320,192,14290,1,0,0:0:0:0:
448,192,14368,1,0,0:0:0:0:
320,192,14445,1,0,0:0:0:0:
192,192,14522,1,0,0:0:0:0:
448,192,14600,1,0,0:0:0:0:
64,192,14600,1,0,0:0:0:0:
320,192,14677,1,0,0:0:0:0:
192,192,14754,1,0,0:0:0:0:
64,192,14832,1,0,0:0:0:0:
448,192,14909,1,0,0:0:0:0:
192,192,14909,1,0,0:0:0:0:
320,192,14909,1,0,0:0:0:0:
64,192,14986,1,0,0:0:0:0:
192,192,15064,1,0,0:0:0:0:
320,192,15141,1,0,0:0:0:0:
64,192,15218,1,0,0:0:0:0:
448,192,15218,1,0,0:0:0:0:
192,192,15296,1,0,0:0:0:0:
320,192,15373,1,0,0:0:0:0:
448,192,15450,1,0,0:0:0:0:
64,192,15528,1,0,0:0:0:0:
192,192,15528,1,0,0:0:0:0:
320,192,15528,1,0,0:0:0:0:
448,192,15605,1,0,0:0:0:0:
320,192,15682,1,0,0:0:0:0:
192,192,15760,1,0,0:0:0:0:
448,192,15837,1,0,0:0:0:0:
320,192,15837,1,0,0:0:0:0:
192,192,15914,1,0,0:0:0:0:
64,192,15992,1,0,0:0:0:0:
448,192,16069,1,0,0:0:0:0:
64,192,16146,1,0,0:0:0:0:
320,192,16146,1,0,0:0:0:0:
192,192,16146,1,0,0:0:0:0:
448,192,16223,1,0,0:0:0:0:
320,192,16301,1,0,0:0:0:0:
64,192,16378,1,0,0:0:0:0:
192,192,16455,1,0,0:0:0:0:
448,192,16455,1,0,0:0:0:0:
320,192,16533,1,0,0:0:0:0:
192,192,16610,1,0,0:0:0:0:
448,192,16687,1,0,0:0:0:0:
192,192,16765,1,0,0:0:0:0:
320,192,16765,1,0,0:0:0:0:
64,192,16765,1,0,0:0:0:0:
448,192,16842,1,0,0:0:0:0:
64,192,16919,1,0,0:0:0:0:
192,192,16997,1,0,0:0:0:0:
320,192,17074,1,0,0:0:0:0:
448,192,17074,1,0,0:0:0:0:
64,192,17151,1,0,0:0:0:0:
192,192,17229,1,0,0:0:0:0:
320,192,17306,1,0,0:0:0:0:
448,192,17383,1,0,0:0:0:0:
64,192,17383,1,0,0:0:0:0:
192,192,17383,1,0,0:0:0:0:
320,192,17461,1,0,0:0:0:0:
192,192,17538,1,0,0:0:0:0:
64,192,17615,1,0,0:0:0:0:
320,192,17693,1,0,0:0:0:0:
448,192,17693,1,0,0:0:0:0:
192,192,17770,1,0,0:0:0:0:
320,192,17847,1,0,0:0:0:0:
448,192,17924,1,0,0:0:0:0:
64,192,18002,1,0,0:0:0:0:
192,192,18002,1,0,0:0:0:0:
320,192,18002,1,0,0:0:0:0:
192,192,18156,1,0,0:0:0:0:
320,192,18156,1,0,0:0:0:0:
448,192,18311,1,0,0:0:0:0:
64,192,18311,1,0,0:0:0:0:
320,192,18388,1,0,0:0:0:0:
192,192,18466,1,0,0:0:0:0:
64,192,18543,1,0,0:0:0:0:
192,192,18620,1,0,0:0:0:0:
448,192,18620,1,0,0:0:0:0:
320,192,18620,1,0,0:0:0:0:
64,192,18698,1,0,0:0:0:0:
192,192,18775,1,0,0:0:0:0:
320,192,18852,1,0,0:0:0:0:
64,192,18930,1,0,0:0:0:0:
192,192,18930,1,0,0:0:0:0:
448,192,19007,1,0,0:0:0:0:
320,192,19084,1,0,0:0:0:0:
192,192,19162,1,0,0:0:0:0:
448,192,19239,1,0,0:0:0:0:
64,192,19239,1,0,0:0:0:0:
320,192,19239,1,0,0:0:0:0:
192,192,19316,1,0,0:0:0:0:
448,192,19394,1,0,0:0:0:0:
320,192,19471,1,0,0:0:0:0:
192,192,19548,1,0,0:0:0:0:
64,192,19548,1,0,0:0:0:0:
448,192,19626,1,0,0:0:0:0:
320,192,19703,1,0,0:0:0:0:
192,192,19780,1,0,0:0:0:0:
64,192,19857,1,0,0:0:0:0:
448,192,19857,1,0,0:0:0:0:
320,192,19857,1,0,0:0:0:0:
192,192,19935,1,0,0:0:0:0:
320,192,20012,1,0,0:0:0:0:
64,192,20089,1,0,0:0:0:0:
192,192,20167,1,0,0:0:0:0:
448,192,20167,1,0,0:0:0:0:
320,192,20244,1,0,0:0:0:0:
192,192,20321,1,0,0:0:0:0:
64,192,20399,1,0,0:0:0:0:
448,192,20476,1,0,0:0:0:0:
320,192,20476,1,0,0:0:0:0:
192,192,20476,1,0,0:0:0:0:
64,192,20553,1,0,0:0:0:0:
192,192,20631,1,0,0:0:0:0:
320,192,20708,1,0,0:0:0:0:
64,192,20785,1,0,0:0:0:0:
448,192,20785,1,0,0:0:0:0:
192,192,20863,1,0,0:0:0:0:
448,192,20940,1,0,0:0:0:0:
320,192,21017,1,0,0:0:0:0:
192,192,21095,1,0,0:0:0:0:
64,192,21095,1,0,0:0:0:0:
448,192,21095,1,0,0:0:0:0:
320,192,21172,1,0,0:0:0:0:
192,192,21249,1,0,0:0:0:0:
64,192,21327,1,0,0:0:0:0:
192,192,21404,1,0,0:0:0:0:
320,192,21404,1,0,0:0:0:0:
448,192,21481,1,0,0:0:0:0:
64,192,21559,1,0,0:0:0:0:
192,192,21636,1,0,0:0:0:0:
320,192,21713,1,0,0:0:0:0:
64,192,21713,1,0,0:0:0:0:
448,192,21713,1,0,0:0:0:0:
192,192,21790,1,0,0:0:0:0:
320,192,21868,1,0,0:0:0:0:
64,192,21945,1,0,0:0:0:0:
192,192,22022,1,0,0:0:0:0:
448,192,22022,1,0,0:0:0:0:
320,192,22100,5,0,0:0:0:0:
448,192,22177,1,0,0:0:0:0:
64,192,22254,1,0,0:0:0:0:
448,192,22332,1,0,0:0:0:0:
320,192,22332,1,0,0:0:0:0:
192,192,22332,1,0,0:0:0:0:
64,192,22409,1,0,0:0:0:0:
192,192,22486,1,0,0:0:0:0:
320,192,22564,1,0,0:0:0:0:
64,192,22564,1,0,0:0:0:0:
192,192,22641,1,0,0:0:0:0:
448,192,22641,1,0,0:0:0:0:
64,192,22796,1,0,0:0:0:0:
192,192,22796,1,0,0:0:0:0:
448,192,22950,1,0,0:0:0:0:
64,192,22950,1,0,0:0:0:0:
192,192,23105,1,0,0:0:0:0:
320,192,23105,1,0,0:0:0:0:
320,192,23260,5,0,0:0:0:0:
448,192,23260,1,0,0:0:0:0:
64,192,23260,1,0,0:0:0:0:
192,192,23337,1,0,0:0:0:0:
448,192,23414,1,0,0:0:0:0:
320,192,23492,1,0,0:0:0:0:
448,192,23569,1,0,0:0:0:0:
192,192,23569,1,0,0:0:0:0:
64,192,23569,1,0,0:0:0:0:
320,192,23646,1,0,0:0:0:0:
192,192,23723,1,0,0:0:0:0:
320,192,23801,1,0,0:0:0:0:
448,192,23878,1,0,0:0:0:0:
64,192,23878,1,0,0:0:0:0:
192,192,23955,1,0,0:0:0:0:
320,192,24033,1,0,0:0:0:0:
192,192,24110,1,0,0:0:0:0:
320,192,24187,1,0,0:0:0:0:
448,192,24187,1,0,0:0:0:0:
64,192,24187,1,0,0:0:0:0:
192,192,24265,1,0,0:0:0:0:
448,192,24342,1,0,0:0:0:0:
320,192,24419,1,0,0:0:0:0:
192,192,24497,1,0,0:0:0:0:
64,192,24497,1,0,0:0:0:0:
320,192,24574,1,0,0:0:0:0:
448,192,24651,1,0,0:0:0:0:
192,192,24729,1,0,0:0:0:0:
320,192,24806,1,0,0:0:0:0:
448,192,24806,1,0,0:0:0:0:
64,192,24806,1,0,0:0:0:0:
192,192,24883,1,0,0:0:0:0:
320,192,24961,1,0,0:0:0:0:
448,192,25038,1,0,0:0:0:0:
320,192,25115,1,0,0:0:0:0:
64,192,25115,1,0,0:0:0:0:
192,192,25193,1,0,0:0:0:0:
448,192,25270,1,0,0:0:0:0:
320,192,25347,1,0,0:0:0:0:
448,192,25424,1,0,0:0:0:0:
64,192,25424,1,0,0:0:0:0:
192,192,25424,1,0,0:0:0:0:
320,192,25502,1,0,0:0:0:0:
192,192,25579,1,0,0:0:0:0:
64,192,25656,1,0,0:0:0:0:
320,192,25734,1,0,0:0:0:0:
448,192,25734,1,0,0:0:0:0:
192,192,25811,1,0,0:0:0:0:
320,192,25888,1,0,0:0:0:0:
448,192,25966,1,0,0:0:0:0:
64,192,26043,1,0,0:0:0:0:
192,192,26043,1,0,0:0:0:0:
320,192,26043,1,0,0:0:0:0:
448,192,26120,1,0,0:0:0:0:
192,192,26198,1,0,0:0:0:0:
320,192,26275,1,0,0:0:0:0:
448,192,26352,1,0,0:0:0:0:
64,192,26352,1,0,0:0:0:0:
192,192,26430,1,0,0:0:0:0:
320,192,26507,1,0,0:0:0:0:
192,192,26584,1,0,0:0:0:0:
320,192,26662,1,0,0:0:0:0:
448,192,26662,1,0,0:0:0:0:
64,192,26662,1,0,0:0:0:0:
192,192,26739,1,0,0:0:0:0:
320,192,26816,1,0,0:0:0:0:
448,192,26894,1,0,0:0:0:0:
64,192,26971,1,0,0:0:0:0:
192,192,26971,1,0,0:0:0:0:
320,192,27048,1,0,0:0:0:0:
192,192,27126,1,0,0:0:0:0:
320,192,27203,1,0,0:0:0:0:
448,192,27280,1,0,0:0:0:0:
192,192,27280,1,0,0:0:0:0:
64,192,27280,1,0,0:0:0:0:
320,192,27357,1,0,0:0:0:0:
64,192,27435,1,0,0:0:0:0:
192,192,27512,1,0,0:0:0:0:
320,192,27589,1,0,0:0:0:0:
64,192,27589,1,0,0:0:0:0:
192,192,27667,1,0,0:0:0:0:
448,192,27744,1,0,0:0:0:0:
320,192,27821,1,0,0:0:0:0:
192,192,27899,1,0,0:0:0:0:
64,192,27899,1,0,0:0:0:0:
448,192,27899,1,0,0:0:0:0:
320,192,27976,1,0,0:0:0:0:
192,192,28053,1,0,0:0:0:0:
64,192,28053,1,0,0:0:0:0:
320,192,28131,1,0,0:0:0:0:
448,192,28208,1,0,0:0:0:0:
192,192,28208,1,0,0:0:0:0:
64,192,28208,1,0,0:0:0:0:
320,192,28363,1,0,0:0:0:0:
448,192,28363,1,0,0:0:0:0:
320,192,28517,1,0,0:0:0:0:
192,192,28517,1,0,0:0:0:0:
64,192,28517,1,0,0:0:0:0:
64,192,28672,1,0,0:0:0:0:
448,192,28672,1,0,0:0:0:0:
320,192,28827,1,0,0:0:0:0:
448,192,28827,1,0,0:0:0:0:
192,192,28981,1,0,0:0:0:0:
320,192,28981,1,0,0:0:0:0:
64,192,28981,1,0,0:0:0:0:
192,192,29136,1,0,0:0:0:0:
64,192,29136,1,0,0:0:0:0:
448,192,29136,1,0,0:0:0:0:
320,192,29290,1,0,0:0:0:0:
448,192,29290,1,0,0:0:0:0:
320,192,29445,1,0,0:0:0:0:
192,192,29445,1,0,0:0:0:0:
64,192,29445,1,0,0:0:0:0:
64,192,29600,1,0,0:0:0:0:
192,192,29600,1,0,0:0:0:0:
448,192,29600,1,0,0:0:0:0:
320,192,29754,1,0,0:0:0:0:
448,192,29754,1,0,0:0:0:0:
64,192,29909,1,0,0:0:0:0:
192,192,29909,1,0,0:0:0:0:
320,192,29909,1,0,0:0:0:0:
64,192,30064,1,0,0:0:0:0:
448,192,30064,1,0,0:0:0:0:
192,192,30218,1,0,0:0:0:0:
320,192,30218,1,0,0:0:0:0:
448,192,30218,1,0,0:0:0:0:
320,192,30373,1,0,0:0:0:0:
64,192,30373,1,0,0:0:0:0:
192,192,30528,1,0,0:0:0:0:
448,192,30528,1,0,0:0:0:0:
320,192,30682,1,0,0:0:0:0:
448,192,30682,1,0,0:0:0:0:
64,192,30682,1,0,0:0:0:0:
192,192,30760,1,0,0:0:0:0:
320,192,30837,1,0,0:0:0:0:
192,192,30914,1,0,0:0:0:0:
64,192,30914,1,0,0:0:0:0:
448,192,30914,1,0,0:0:0:0:
320,192,30992,1,0,0:0:0:0:
192,192,31069,1,0,0:0:0:0:
320,192,31146,1,0,0:0:0:0:
448,192,31146,1,0,0:0:0:0:
64,192,31146,1,0,0:0:0:0:
192,192,31223,1,0,0:0:0:0:
320,192,31301,1,0,0:0:0:0:
192,192,31378,1,0,0:0:0:0:
64,192,31378,1,0,0:0:0:0:
448,192,31378,1,0,0:0:0:0:
320,192,31455,1,0,0:0:0:0:
192,192,31533,1,0,0:0:0:0:
64,192,31610,1,0,0:0:0:0:
320,192,31610,1,0,0:0:0:0:
448,192,31610,1,0,0:0:0:0:
192,192,31687,1,0,0:0:0:0:
320,192,31765,1,0,0:0:0:0:
448,192,31765,1,0,0:0:0:0:
192,192,31842,1,0,0:0:0:0:
448,192,31919,1,0,0:0:0:0:
320,192,31919,1,0,0:0:0:0:
64,192,31919,1,0,0:0:0:0:
64,192,31997,1,0,0:0:0:0:
192,192,31997,1,0,0:0:0:0:
448,192,32074,1,0,0:0:0:0:
320,192,32074,1,0,0:0:0:0:
192,192,32151,1,0,0:0:0:0:
64,192,32151,1,0,0:0:0:0:
448,192,32229,1,0,0:0:0:0:
320,192,32229,1,0,0:0:0:0:
192,192,32306,1,0,0:0:0:0:
64,192,32306,1,0,0:0:0:0:
448,192,32383,1,0,0:0:0:0:
320,192,32383,1,0,0:0:0:0:
192,192,32461,1,0,0:0:0:0:
64,192,32461,1,0,0:0:0:0:
448,192,32538,1,0,0:0:0:0:
320,192,32577,1,0,0:0:0:0:
192,192,32615,1,0,0:0:0:0:
64,192,32654,1,0,0:0:0:0:
448,192,32693,1,0,0:0:0:0:
320,192,32731,1,0,0:0:0:0:
64,192,32770,1,0,0:0:0:0:
192,192,32809,1,0,0:0:0:0:
320,192,32847,1,0,0:0:0:0:
448,192,32886,1,0,0:0:0:0:
64,192,32924,1,0,0:0:0:0:
192,192,32963,1,0,0:0:0:0:
448,192,33002,1,0,0:0:0:0:
320,192,33040,1,0,0:0:0:0:
192,192,33079,1,0,0:0:0:0:
64,192,33118,1,0,0:0:0:0:
320,192,33156,1,0,0:0:0:0:
448,192,33156,128,0,34394:0:0:0:0:
192,192,33311,1,0,0:0:0:0:
320,192,33388,1,0,0:0:0:0:
64,192,33466,1,0,0:0:0:0:
192,192,33466,1,0,0:0:0:0:
320,192,33543,1,0,0:0:0:0:
64,192,33620,1,0,0:0:0:0:
192,192,33698,1,0,0:0:0:0:
320,192,33775,1,0,0:0:0:0:
64,192,33775,1,0,0:0:0:0:
192,192,33930,1,0,0:0:0:0:
64,192,34007,1,0,0:0:0:0:
192,192,34084,1,0,0:0:0:0:
320,192,34084,1,0,0:0:0:0:
64,192,34162,1,0,0:0:0:0:
320,192,34239,1,0,0:0:0:0:
192,192,34316,1,0,0:0:0:0:
64,192,34394,128,0,35012:0:0:0:0:
320,192,34394,1,0,0:0:0:0:
192,192,34548,1,0,0:0:0:0:
320,192,34626,1,0,0:0:0:0:
448,192,34703,1,0,0:0:0:0:
192,192,34703,1,0,0:0:0:0:
320,192,34780,1,0,0:0:0:0:
448,192,34857,1,0,0:0:0:0:
192,192,34935,1,0,0:0:0:0:
320,192,35012,128,0,35631:0:0:0:0:
448,192,35012,1,0,0:0:0:0:
64,192,35167,1,0,0:0:0:0:
192,192,35244,1,0,0:0:0:0:
64,192,35321,1,0,0:0:0:0:
448,192,35321,1,0,0:0:0:0:
192,192,35399,1,0,0:0:0:0:
448,192,35476,1,0,0:0:0:0:
64,192,35553,1,0,0:0:0:0:
192,192,35631,128,0,36249:0:0:0:0:
448,192,35631,1,0,0:0:0:0:
320,192,35785,1,0,0:0:0:0:
64,192,35863,1,0,0:0:0:0:
320,192,35940,1,0,0:0:0:0:
448,192,35940,1,0,0:0:0:0:
64,192,36017,1,0,0:0:0:0:
448,192,36095,1,0,0:0:0:0:
320,192,36172,1,0,0:0:0:0:
448,192,36249,128,0,36868:0:0:0:0:
64,192,36249,1,0,0:0:0:0:
192,192,36404,1,0,0:0:0:0:
320,192,36481,1,0,0:0:0:0:
64,192,36559,1,0,0:0:0:0:
192,192,36559,1,0,0:0:0:0:
320,192,36636,1,0,0:0:0:0:
64,192,36713,1,0,0:0:0:0:
192,192,36790,1,0,0:0:0:0:
320,192,36868,128,0,37486:0:0:0:0:
64,192,36868,1,0,0:0:0:0:
192,192,37022,1,0,0:0:0:0:
64,192,37100,1,0,0:0:0:0:
192,192,37177,1,0,0:0:0:0:
448,192,37177,1,0,0:0:0:0:
64,192,37254,1,0,0:0:0:0:
448,192,37332,1,0,0:0:0:0:
192,192,37409,1,0,0:0:0:0:
64,192,37486,128,0,38105:0:0:0:0:
448,192,37486,1,0,0:0:0:0:
320,192,37641,1,0,0:0:0:0:
192,192,37718,1,0,0:0:0:0:
320,192,37796,1,0,0:0:0:0:
448,192,37796,1,0,0:0:0:0:
448,192,37950,1,0,0:0:0:0:
192,192,37950,1,0,0:0:0:0:
448,192,38105,128,0,38723:0:0:0:0:
320,192,38105,1,0,0:0:0:0:
64,192,38260,1,0,0:0:0:0:
192,192,38337,1,0,0:0:0:0:
64,192,38414,1,0,0:0:0:0:
320,192,38414,1,0,0:0:0:0:
192,192,38492,1,0,0:0:0:0:
320,192,38569,1,0,0:0:0:0:
64,192,38646,1,0,0:0:0:0:
192,192,38723,128,0,39033:0:0:0:0:
320,192,38723,1,0,0:0:0:0:
448,192,38878,1,0,0:0:0:0:
64,192,38955,1,0,0:0:0:0:
320,192,39033,128,0,39342:0:0:0:0:
448,192,39033,1,0,0:0:0:0:
64,192,39110,1,0,0:0:0:0:
192,192,39187,1,0,0:0:0:0:
448,192,39265,1,0,0:0:0:0:
64,192,39342,128,0,39961:0:0:0:0:
192,192,39342,1,0,0:0:0:0:
448,192,39497,1,0,0:0:0:0:
320,192,39574,1,0,0:0:0:0:
192,192,39651,1,0,0:0:0:0:
448,192,39651,1,0,0:0:0:0:
320,192,39729,1,0,0:0:0:0:
192,192,39806,1,0,0:0:0:0:
448,192,39883,1,0,0:0:0:0:
192,192,39961,128,0,40579:0:0:0:0:
320,192,39961,1,0,0:0:0:0:
448,192,40115,1,0,0:0:0:0:
320,192,40193,1,0,0:0:0:0:
448,192,40270,1,0,0:0:0:0:
64,192,40270,1,0,0:0:0:0:
320,192,40347,1,0,0:0:0:0:
64,192,40424,1,0,0:0:0:0:
320,192,40502,1,0,0:0:0:0:
448,192,40579,128,0,41816:0:0:0:0:
64,192,40579,1,0,0:0:0:0:
192,192,40734,1,0,0:0:0:0:
320,192,40811,1,0,0:0:0:0:
64,192,40888,1,0,0:0:0:0:
192,192,40888,1,0,0:0:0:0:
320,192,40966,1,0,0:0:0:0:
64,192,41043,1,0,0:0:0:0:
192,192,41120,1,0,0:0:0:0:
320,192,41198,1,0,0:0:0:0:
64,192,41198,1,0,0:0:0:0:
192,192,41352,1,0,0:0:0:0:
64,192,41430,1,0,0:0:0:0:
192,192,41507,1,0,0:0:0:0:
320,192,41507,1,0,0:0:0:0:
64,192,41584,1,0,0:0:0:0:
320,192,41662,1,0,0:0:0:0:
192,192,41739,1,0,0:0:0:0:
64,192,41816,128,0,42435:0:0:0:0:
320,192,41816,1,0,0:0:0:0:
192,192,41971,1,0,0:0:0:0:
448,192,41971,1,0,0:0:0:0:
448,192,42126,1,0,0:0:0:0:
320,192,42126,1,0,0:0:0:0:
448,192,42280,1,0,0:0:0:0:
192,192,42280,1,0,0:0:0:0:
320,192,42357,1,0,0:0:0:0:
448,192,42435,128,0,42744:0:0:0:0:
192,192,42435,1,0,0:0:0:0:
320,192,42589,1,0,0:0:0:0:
64,192,42589,1,0,0:0:0:0:
64,192,42744,1,0,0:0:0:0:
192,192,42744,1,0,0:0:0:0:
320,192,42821,1,0,0:0:0:0:
448,192,42821,1,0,0:0:0:0:
64,192,42899,1,0,0:0:0:0:
192,192,42899,1,0,0:0:0:0:
320,192,42976,1,0,0:0:0:0:
448,192,42976,1,0,0:0:0:0:
64,192,43053,1,0,0:0:0:0:
192,192,43053,1,0,0:0:0:0:
320,192,43131,1,0,0:0:0:0:
448,192,43208,1,0,0:0:0:0:
192,192,43285,1,0,0:0:0:0:
320,192,43363,1,0,0:0:0:0:
448,192,43363,1,0,0:0:0:0:
64,192,43363,1,0,0:0:0:0:
192,192,43440,1,0,0:0:0:0:
320,192,43517,1,0,0:0:0:0:
192,192,43595,1,0,0:0:0:0:
64,192,43672,1,0,0:0:0:0:
448,192,43672,1,0,0:0:0:0:
320,192,43749,1,0,0:0:0:0:
192,192,43827,1,0,0:0:0:0:
320,192,43904,1,0,0:0:0:0:
192,192,43981,1,0,0:0:0:0:
448,192,43981,1,0,0:0:0:0:
64,192,43981,1,0,0:0:0:0:
320,192,44059,1,0,0:0:0:0:
64,192,44136,1,0,0:0:0:0:
192,192,44213,1,0,0:0:0:0:
320,192,44290,1,0,0:0:0:0:
448,192,44290,1,0,0:0:0:0:
64,192,44290,1,0,0:0:0:0:
192,192,44368,1,0,0:0:0:0:
320,192,44445,1,0,0:0:0:0:
448,192,44522,1,0,0:0:0:0:
320,192,44600,1,0,0:0:0:0:
192,192,44600,1,0,0:0:0:0:
64,192,44600,1,0,0:0:0:0:
448,192,44677,1,0,0:0:0:0:
192,192,44754,1,0,0:0:0:0:
320,192,44832,1,0,0:0:0:0:
448,192,44909,1,0,0:0:0:0:
192,192,44909,1,0,0:0:0:0:
64,192,44909,1,0,0:0:0:0:
320,192,44986,1,0,0:0:0:0:
64,192,45064,1,0,0:0:0:0:
192,192,45141,1,0,0:0:0:0:
320,192,45218,1,0,0:0:0:0:
448,192,45218,1,0,0:0:0:0:
64,192,45218,1,0,0:0:0:0:
192,192,45296,1,0,0:0:0:0:
320,192,45373,1,0,0:0:0:0:
448,192,45450,1,0,0:0:0:0:
320,192,45528,1,0,0:0:0:0:
192,192,45528,1,0,0:0:0:0:
64,192,45528,1,0,0:0:0:0:
448,192,45605,1,0,0:0:0:0:
192,192,45682,1,0,0:0:0:0:
64,192,45760,1,0,0:0:0:0:
192,192,45837,1,0,0:0:0:0:
320,192,45837,1,0,0:0:0:0:
448,192,45837,1,0,0:0:0:0:
64,192,45914,1,0,0:0:0:0:
320,192,45992,1,0,0:0:0:0:
192,192,46069,1,0,0:0:0:0:
320,192,46146,1,0,0:0:0:0:
64,192,46146,1,0,0:0:0:0:
448,192,46223,1,0,0:0:0:0:
192,192,46301,1,0,0:0:0:0:
320,192,46378,1,0,0:0:0:0:
448,192,46455,1,0,0:0:0:0:
192,192,46455,1,0,0:0:0:0:
64,192,46455,1,0,0:0:0:0:
320,192,46533,1,0,0:0:0:0:
64,192,46610,1,0,0:0:0:0:
192,192,46687,1,0,0:0:0:0:
320,192,46765,1,0,0:0:0:0:
448,192,46765,1,0,0:0:0:0:
64,192,46765,1,0,0:0:0:0:
192,192,46842,1,0,0:0:0:0:
320,192,46919,1,0,0:0:0:0:
448,192,46997,1,0,0:0:0:0:
320,192,47074,1,0,0:0:0:0:
64,192,47074,1,0,0:0:0:0:
192,192,47074,1,0,0:0:0:0:
448,192,47151,1,0,0:0:0:0:
192,192,47229,1,0,0:0:0:0:
320,192,47306,1,0,0:0:0:0:
448,192,47383,1,0,0:0:0:0:
64,192,47383,1,0,0:0:0:0:
192,192,47461,1,0,0:0:0:0:
320,192,47538,1,0,0:0:0:0:
192,192,47615,1,0,0:0:0:0:
320,192,47693,1,0,0:0:0:0:
448,192,47693,1,0,0:0:0:0:
64,192,47693,1,0,0:0:0:0:
192,192,47770,1,0,0:0:0:0:
64,192,47847,1,0,0:0:0:0:
448,192,47847,1,0,0:0:0:0:
320,192,47924,1,0,0:0:0:0:
192,192,48002,1,0,0:0:0:0:
64,192,48002,1,0,0:0:0:0:
448,192,48002,1,0,0:0:0:0:
192,192,48156,1,0,0:0:0:0:
320,192,48156,1,0,0:0:0:0:
320,192,48311,1,0,0:0:0:0:
448,192,48311,1,0,0:0:0:0:
64,192,48311,1,0,0:0:0:0:
192,192,48466,1,0,0:0:0:0:
64,192,48466,1,0,0:0:0:0:
192,192,48620,1,0,0:0:0:0:
320,192,48620,1,0,0:0:0:0:
448,192,48620,1,0,0:0:0:0:
64,192,48775,1,0,0:0:0:0:
448,192,48775,1,0,0:0:0:0:
320,192,48930,1,0,0:0:0:0:
192,192,48930,1,0,0:0:0:0:
64,192,48930,1,0,0:0:0:0:
320,192,49084,1,0,0:0:0:0:
448,192,49084,1,0,0:0:0:0:
448,192,49239,1,0,0:0:0:0:
192,192,49239,1,0,0:0:0:0:
64,192,49239,1,0,0:0:0:0:
192,192,49394,1,0,0:0:0:0:
320,192,49394,1,0,0:0:0:0:
320,192,49548,1,0,0:0:0:0:
448,192,49548,1,0,0:0:0:0:
64,192,49548,1,0,0:0:0:0:
64,192,49703,1,0,0:0:0:0:
192,192,49703,1,0,0:0:0:0:
192,192,49857,1,0,0:0:0:0:
320,192,49857,1,0,0:0:0:0:
448,192,49857,1,0,0:0:0:0:
64,192,50012,1,0,0:0:0:0:
448,192,50012,1,0,0:0:0:0:
320,192,50167,1,0,0:0:0:0:
192,192,50167,1,0,0:0:0:0:
64,192,50167,1,0,0:0:0:0:
192,192,50321,1,0,0:0:0:0:
320,192,50321,1,0,0:0:0:0:
64,192,50476,1,0,0:0:0:0:
448,192,50476,1,0,0:0:0:0:
192,192,50553,1,0,0:0:0:0:
320,192,50631,1,0,0:0:0:0:
448,192,50708,1,0,0:0:0:0:
64,192,50708,1,0,0:0:0:0:
320,192,50785,1,0,0:0:0:0:
192,192,50863,1,0,0:0:0:0:
64,192,50940,1,0,0:0:0:0:
448,192,50940,1,0,0:0:0:0:
192,192,51017,1,0,0:0:0:0:
320,192,51095,1,0,0:0:0:0:
448,192,51172,1,0,0:0:0:0:
64,192,51172,1,0,0:0:0:0:
320,192,51249,1,0,0:0:0:0:
192,192,51327,1,0,0:0:0:0:
448,192,51404,1,0,0:0:0:0:
64,192,51404,1,0,0:0:0:0:
192,192,51481,1,0,0:0:0:0:
320,192,51559,1,0,0:0:0:0:
448,192,51559,1,0,0:0:0:0:
64,192,51636,1,0,0:0:0:0:
192,192,51713,1,0,0:0:0:0:
320,192,51713,1,0,0:0:0:0:
448,192,51790,1,0,0:0:0:0:
192,192,51868,1,0,0:0:0:0:
64,192,51868,1,0,0:0:0:0:
320,192,51945,1,0,0:0:0:0:
448,192,52022,1,0,0:0:0:0:
64,192,52022,1,0,0:0:0:0:
192,192,52100,1,0,0:0:0:0:
320,192,52177,1,0,0:0:0:0:
64,192,52177,1,0,0:0:0:0:
192,192,52254,1,0,0:0:0:0:
448,192,52332,1,0,0:0:0:0:
320,192,52370,1,0,0:0:0:0:
64,192,52409,1,0,0:0:0:0:
192,192,52448,1,0,0:0:0:0:
448,192,52486,1,0,0:0:0:0:
320,192,52525,1,0,0:0:0:0:
64,192,52564,1,0,0:0:0:0:
192,192,52602,1,0,0:0:0:0:
448,192,52641,1,0,0:0:0:0:
320,192,52641,1,0,0:0:0:0:
64,192,52680,1,0,0:0:0:0:
192,192,52718,1,0,0:0:0:0:
448,192,52718,1,0,0:0:0:0:
320,192,52757,1,0,0:0:0:0:
192,192,52796,1,0,0:0:0:0:
64,192,52796,1,0,0:0:0:0:
448,192,52834,1,0,0:0:0:0:
320,192,52873,1,0,0:0:0:0:
64,192,52873,1,0,0:0:0:0:
192,192,52912,1,0,0:0:0:0:
448,192,52950,1,0,0:0:0:0:
320,192,52950,1,0,0:0:0:0:
448,192,53182,1,0,0:0:0:0:
64,192,53182,1,0,0:0:0:0:
192,192,53182,1,0,0:0:0:0:
448,192,53414,1,0,0:0:0:0:
320,192,53414,1,0,0:0:0:0:
192,192,53414,1,0,0:0:0:0:
64,192,53646,1,0,0:0:0:0:
192,192,53646,1,0,0:0:0:0:
448,192,53646,1,0,0:0:0:0:
320,192,53723,1,0,0:0:0:0:
192,192,53801,1,0,0:0:0:0:
448,192,53878,1,0,0:0:0:0:
64,192,53955,1,0,0:0:0:0:
320,192,54033,1,0,0:0:0:0:
192,192,54110,1,0,0:0:0:0:
64,192,54187,1,0,0:0:0:0:
448,192,54187,1,0,0:0:0:0:
448,192,54342,1,0,0:0:0:0:
320,192,54342,1,0,0:0:0:0:
192,192,54419,1,0,0:0:0:0:
64,192,54497,1,0,0:0:0:0:
448,192,54497,1,0,0:0:0:0:
192,192,54651,1,0,0:0:0:0:
64,192,54651,1,0,0:0:0:0:
320,192,54729,1,0,0:0:0:0:
448,192,54729,1,0,0:0:0:0:
64,192,54806,1,0,0:0:0:0:
192,192,54845,1,0,0:0:0:0:
320,192,54883,1,0,0:0:0:0:
448,192,54922,1,0,0:0:0:0:
64,192,54961,1,0,0:0:0:0:
192,192,54999,1,0,0:0:0:0:
320,192,55038,1,0,0:0:0:0:
448,192,55077,1,0,0:0:0:0:
64,192,55115,1,0,0:0:0:0:
192,192,55115,1,0,0:0:0:0:
64,192,55270,1,0,0:0:0:0:
448,192,55270,1,0,0:0:0:0:
320,192,55424,1,0,0:0:0:0:
192,192,55424,1,0,0:0:0:0:
448,192,55424,1,0,0:0:0:0:
64,192,55656,1,0,0:0:0:0:
192,192,55656,1,0,0:0:0:0:
448,192,55656,1,0,0:0:0:0:
320,192,55888,1,0,0:0:0:0:
192,192,55888,1,0,0:0:0:0:
64,192,55888,1,0,0:0:0:0:
320,192,56120,1,0,0:0:0:0:
448,192,56120,1,0,0:0:0:0:
192,192,56120,1,0,0:0:0:0:
64,192,56198,1,0,0:0:0:0:
448,192,56275,1,0,0:0:0:0:
192,192,56352,1,0,0:0:0:0:
320,192,56430,1,0,0:0:0:0:
64,192,56507,1,0,0:0:0:0:
192,192,56584,1,0,0:0:0:0:
320,192,56662,1,0,0:0:0:0:
448,192,56662,1,0,0:0:0:0:
192,192,56816,1,0,0:0:0:0:
320,192,56816,1,0,0:0:0:0:
64,192,56894,1,0,0:0:0:0:
448,192,56894,1,0,0:0:0:0:
320,192,56971,1,0,0:0:0:0:
192,192,56971,1,0,0:0:0:0:
64,192,57126,1,0,0:0:0:0:
192,192,57126,1,0,0:0:0:0:
320,192,57203,1,0,0:0:0:0:
448,192,57203,1,0,0:0:0:0:
192,192,57280,1,0,0:0:0:0:
64,192,57280,1,0,0:0:0:0:
320,192,57357,1,0,0:0:0:0:
448,192,57357,1,0,0:0:0:0:
192,192,57435,1,0,0:0:0:0:
64,192,57435,1,0,0:0:0:0:
448,192,57435,1,0,0:0:0:0:
320,192,57589,1,0,0:0:0:0:
192,192,57589,1,0,0:0:0:0:
448,192,57667,1,0,0:0:0:0:
64,192,57744,1,0,0:0:0:0:
192,192,57744,1,0,0:0:0:0:
320,192,57744,1,0,0:0:0:0:
448,192,57899,1,0,0:0:0:0:
320,192,57899,1,0,0:0:0:0:
64,192,57899,1,0,0:0:0:0:
64,192,58131,1,0,0:0:0:0:
320,192,58131,1,0,0:0:0:0:
448,192,58131,1,0,0:0:0:0:
192,192,58363,1,0,0:0:0:0:
320,192,58363,1,0,0:0:0:0:
448,192,58363,1,0,0:0:0:0:
64,192,58595,1,0,0:0:0:0:
192,192,58595,1,0,0:0:0:0:
448,192,58595,1,0,0:0:0:0:
320,192,58672,1,0,0:0:0:0:
448,192,58749,1,0,0:0:0:0:
64,192,58827,1,0,0:0:0:0:
320,192,58904,1,0,0:0:0:0:
192,192,58981,1,0,0:0:0:0:
448,192,59059,1,0,0:0:0:0:
64,192,59136,1,0,0:0:0:0:
192,192,59136,1,0,0:0:0:0:
320,192,59136,1,0,0:0:0:0:
448,192,59368,1,0,0:0:0:0:
320,192,59368,1,0,0:0:0:0:
64,192,59368,1,0,0:0:0:0:
64,192,59600,1,0,0:0:0:0:
192,192,59600,1,0,0:0:0:0:
448,192,59600,1,0,0:0:0:0:
448,192,59832,1,0,0:0:0:0:
320,192,59832,1,0,0:0:0:0:
64,192,59832,1,0,0:0:0:0:
192,192,59909,1,0,0:0:0:0:
448,192,60064,1,0,0:0:0:0:
64,192,60064,1,0,0:0:0:0:
192,192,60218,1,0,0:0:0:0:
448,192,60218,1,0,0:0:0:0:
448,192,60373,1,0,0:0:0:0:
64,192,60373,1,0,0:0:0:0:
192,192,60373,1,0,0:0:0:0:
64,192,60605,1,0,0:0:0:0:
192,192,60605,1,0,0:0:0:0:
320,192,60605,1,0,0:0:0:0:
64,192,60837,1,0,0:0:0:0:
192,192,60837,1,0,0:0:0:0:
448,192,60876,1,0,0:0:0:0:
320,192,60914,1,0,0:0:0:0:
192,192,60953,1,0,0:0:0:0:
64,192,60992,1,0,0:0:0:0:
448,192,60992,1,0,0:0:0:0:
320,192,60992,1,0,0:0:0:0:
64,192,61223,1,0,0:0:0:0:
192,192,61223,1,0,0:0:0:0:
448,192,61223,1,0,0:0:0:0:
320,192,61455,1,0,0:0:0:0:
448,192,61455,1,0,0:0:0:0:
64,192,61494,1,0,0:0:0:0:
192,192,61533,1,0,0:0:0:0:
320,192,61571,1,0,0:0:0:0:
448,192,61610,1,0,0:0:0:0:
64,192,61610,1,0,0:0:0:0:
192,192,61687,1,0,0:0:0:0:
320,192,61687,1,0,0:0:0:0:
64,192,61765,1,0,0:0:0:0:
448,192,61765,1,0,0:0:0:0:
192,192,61842,1,0,0:0:0:0:
320,192,61842,1,0,0:0:0:0:
64,192,61919,1,0,0:0:0:0:
448,192,61919,1,0,0:0:0:0:
192,192,61997,1,0,0:0:0:0:
320,192,61997,1,0,0:0:0:0:
64,192,62074,1,0,0:0:0:0:
448,192,62074,1,0,0:0:0:0:
320,192,62113,1,0,0:0:0:0:
192,192,62151,1,0,0:0:0:0:
64,192,62190,1,0,0:0:0:0:
320,192,62229,1,0,0:0:0:0:
448,192,62229,1,0,0:0:0:0:
192,192,62229,1,0,0:0:0:0:
64,192,62461,1,0,0:0:0:0:
192,192,62461,1,0,0:0:0:0:
448,192,62461,1,0,0:0:0:0:
448,192,62693,1,0,0:0:0:0:
320,192,62693,1,0,0:0:0:0:
64,192,62693,1,0,0:0:0:0:
64,192,62847,1,0,0:0:0:0:
192,192,62847,1,0,0:0:0:0:
320,192,62847,1,0,0:0:0:0:
448,192,62924,1,0,0:0:0:0:
320,192,63079,1,0,0:0:0:0:
192,192,63156,1,0,0:0:0:0:
448,192,63311,1,0,0:0:0:0:
64,192,63388,1,0,0:0:0:0:
320,192,63543,1,0,0:0:0:0:
192,192,63620,1,0,0:0:0:0:
448,192,63698,1,0,0:0:0:0:
320,192,63775,1,0,0:0:0:0:
192,192,63852,1,0,0:0:0:0:
64,192,63930,1,0,0:0:0:0:
320,192,64007,1,0,0:0:0:0:
192,192,64084,1,0,0:0:0:0:
448,192,64162,1,0,0:0:0:0:
64,192,64239,1,0,0:0:0:0:
192,192,64316,1,0,0:0:0:0:
320,192,64394,1,0,0:0:0:0:
448,192,64471,1,0,0:0:0:0:
192,192,64548,1,0,0:0:0:0:
320,192,64626,1,0,0:0:0:0:
64,192,64703,1,0,0:0:0:0:
192,192,64780,1,0,0:0:0:0:
320,192,64857,1,0,0:0:0:0:
448,192,64935,1,0,0:0:0:0:
320,192,65012,1,0,0:0:0:0:
192,192,65089,1,0,0:0:0:0:
320,192,65167,1,0,0:0:0:0:
192,192,65244,1,0,0:0:0:0:
64,192,65321,1,0,0:0:0:0:
448,192,65399,1,0,0:0:0:0:
192,192,65476,1,0,0:0:0:0:
320,192,65553,1,0,0:0:0:0:
64,192,65631,1,0,0:0:0:0:
192,192,65708,1,0,0:0:0:0:
320,192,65785,1,0,0:0:0:0:
448,192,65863,1,0,0:0:0:0:
64,192,65940,1,0,0:0:0:0:
320,192,66017,1,0,0:0:0:0:
192,192,66095,1,0,0:0:0:0:
448,192,66172,1,0,0:0:0:0:
320,192,66249,1,0,0:0:0:0:
64,192,66327,1,0,0:0:0:0:
192,192,66404,1,0,0:0:0:0:
320,192,66481,1,0,0:0:0:0:
192,192,66559,1,0,0:0:0:0:
320,192,66636,1,0,0:0:0:0:
448,192,66713,1,0,0:0:0:0:
64,192,66790,1,0,0:0:0:0:
320,192,66868,1,0,0:0:0:0:
192,192,66945,1,0,0:0:0:0:
448,192,67022,1,0,0:0:0:0:
320,192,67100,1,0,0:0:0:0:
192,192,67177,1,0,0:0:0:0:
64,192,67254,1,0,0:0:0:0:
448,192,67332,1,0,0:0:0:0:
320,192,67409,1,0,0:0:0:0:
192,192,67486,1,0,0:0:0:0:
448,192,67564,1,0,0:0:0:0:
64,192,67641,1,0,0:0:0:0:
192,192,67718,1,0,0:0:0:0:
320,192,67796,1,0,0:0:0:0:
448,192,67796,1,0,0:0:0:0:
64,192,67796,1,0,0:0:0:0:
192,192,67873,1,0,0:0:0:0:
64,192,67950,1,0,0:0:0:0:
320,192,67950,1,0,0:0:0:0:
448,192,68028,1,0,0:0:0:0:
320,192,68105,1,0,0:0:0:0:
64,192,68105,1,0,0:0:0:0:
192,192,68182,1,0,0:0:0:0:
64,192,68260,1,0,0:0:0:0:
448,192,68260,1,0,0:0:0:0:
320,192,68337,1,0,0:0:0:0:
192,192,68414,1,0,0:0:0:0:
64,192,68414,1,0,0:0:0:0:
448,192,68492,1,0,0:0:0:0:
320,192,68569,1,0,0:0:0:0:
64,192,68569,1,0,0:0:0:0:
192,192,68646,1,0,0:0:0:0:
64,192,68723,1,0,0:0:0:0:
448,192,68723,1,0,0:0:0:0:
320,192,68801,1,0,0:0:0:0:
192,192,68878,1,0,0:0:0:0:
64,192,68878,1,0,0:0:0:0:
320,192,68955,1,0,0:0:0:0:
64,192,69033,1,0,0:0:0:0:
192,192,69033,1,0,0:0:0:0:
448,192,69033,1,0,0:0:0:0:
320,192,69110,1,0,0:0:0:0:
448,192,69187,1,0,0:0:0:0:
64,192,69187,1,0,0:0:0:0:
192,192,69265,1,0,0:0:0:0:
320,192,69342,1,0,0:0:0:0:
448,192,69342,1,0,0:0:0:0:
64,192,69419,1,0,0:0:0:0:
192,192,69497,1,0,0:0:0:0:
448,192,69497,1,0,0:0:0:0:
320,192,69574,1,0,0:0:0:0:
448,192,69651,1,0,0:0:0:0:
64,192,69651,1,0,0:0:0:0:
192,192,69729,1,0,0:0:0:0:
320,192,69806,1,0,0:0:0:0:
448,192,69806,1,0,0:0:0:0:
192,192,69883,1,0,0:0:0:0:
64,192,69961,1,0,0:0:0:0:
448,192,69961,1,0,0:0:0:0:
320,192,70038,1,0,0:0:0:0:
448,192,70115,1,0,0:0:0:0:
192,192,70115,1,0,0:0:0:0:
64,192,70193,1,0,0:0:0:0:
320,192,70270,1,0,0:0:0:0:
448,192,70270,1,0,0:0:0:0:
64,192,70309,1,0,0:0:0:0:
192,192,70347,1,0,0:0:0:0:
320,192,70386,1,0,0:0:0:0:
448,192,70424,1,0,0:0:0:0:
64,192,70463,1,0,0:0:0:0:
192,192,70502,1,0,0:0:0:0:
320,192,70540,1,0,0:0:0:0:
64,192,70579,1,0,0:0:0:0:
448,192,70579,1,0,0:0:0:0:
192,192,70656,1,0,0:0:0:0:
320,192,70656,1,0,0:0:0:0:
64,192,70734,1,0,0:0:0:0:
448,192,70734,1,0,0:0:0:0:
192,192,70811,1,0,0:0:0:0:
320,192,70811,1,0,0:0:0:0:
64,192,70888,1,0,0:0:0:0:
448,192,70888,1,0,0:0:0:0:
320,192,70927,5,0,0:0:0:0:
192,192,70966,1,0,0:0:0:0:
64,192,71004,1,0,0:0:0:0:
448,192,71043,1,0,0:0:0:0:
320,192,71082,1,0,0:0:0:0:
192,192,71120,1,0,0:0:0:0:
64,192,71159,1,0,0:0:0:0:
448,192,71198,1,0,0:0:0:0:
320,192,71198,1,0,0:0:0:0:
64,192,71275,1,0,0:0:0:0:
192,192,71275,1,0,0:0:0:0:
320,192,71352,1,0,0:0:0:0:
448,192,71352,1,0,0:0:0:0:
192,192,71430,1,0,0:0:0:0:
64,192,71430,1,0,0:0:0:0:
320,192,71507,1,0,0:0:0:0:
448,192,71507,1,0,0:0:0:0:
192,192,71662,1,0,0:0:0:0:
448,192,71816,1,0,0:0:0:0:
192,192,71971,1,0,0:0:0:0:
64,192,72126,5,0,0:0:0:0:
448,192,72126,1,0,0:0:0:0:
320,192,72126,1,0,0:0:0:0:
64,192,72435,1,0,0:0:0:0:
192,192,72435,1,0,0:0:0:0:
448,192,72435,1,0,0:0:0:0:
320,192,72744,5,0,0:0:0:0:
448,192,72744,1,0,0:0:0:0:
64,192,72744,1,0,0:0:0:0:
192,192,72899,1,0,0:0:0:0:
320,192,72899,1,0,0:0:0:0:
64,192,73053,1,0,0:0:0:0:
192,192,73053,1,0,0:0:0:0:
448,192,73053,1,0,0:0:0:0:
320,192,73208,1,0,0:0:0:0:
448,192,73285,1,0,0:0:0:0:
192,192,73285,1,0,0:0:0:0:
320,192,73363,1,0,0:0:0:0:
64,192,73440,128,0,73672:0:0:0:0:
448,192,73440,1,0,0:0:0:0:
192,192,73517,1,0,0:0:0:0:
192,192,73672,1,0,0:0:0:0:
320,192,73672,1,0,0:0:0:0:
448,192,73672,1,0,0:0:0:0:
320,192,73827,1,0,0:0:0:0:
448,192,73827,1,0,0:0:0:0:
192,192,73904,1,0,0:0:0:0:
64,192,73981,1,0,0:0:0:0:
320,192,73981,1,0,0:0:0:0:
448,192,74059,1,0,0:0:0:0:
192,192,74136,1,0,0:0:0:0:
320,192,74213,1,0,0:0:0:0:
192,192,74290,1,0,0:0:0:0:
64,192,74290,1,0,0:0:0:0:
448,192,74290,1,0,0:0:0:0:
320,192,74368,1,0,0:0:0:0:
448,192,74445,1,0,0:0:0:0:
192,192,74522,1,0,0:0:0:0:
320,192,74600,1,0,0:0:0:0:
64,192,74600,1,0,0:0:0:0:
448,192,74754,1,0,0:0:0:0:
64,192,74832,1,0,0:0:0:0:
192,192,74832,1,0,0:0:0:0:
320,192,74909,1,0,0:0:0:0:
448,192,74909,1,0,0:0:0:0:
320,192,75064,1,0,0:0:0:0:
64,192,75064,1,0,0:0:0:0:
192,192,75141,1,0,0:0:0:0:
64,192,75218,1,0,0:0:0:0:
448,192,75218,1,0,0:0:0:0:
320,192,75296,1,0,0:0:0:0:
192,192,75373,1,0,0:0:0:0:
448,192,75373,1,0,0:0:0:0:
64,192,75450,1,0,0:0:0:0:
192,192,75528,1,0,0:0:0:0:
320,192,75528,1,0,0:0:0:0:
448,192,75528,1,0,0:0:0:0:
64,192,75682,1,0,0:0:0:0:
192,192,75760,1,0,0:0:0:0:
320,192,75837,1,0,0:0:0:0:
448,192,75837,1,0,0:0:0:0:
64,192,75914,1,0,0:0:0:0:
192,192,75914,1,0,0:0:0:0:
448,192,75992,1,0,0:0:0:0:
320,192,76069,1,0,0:0:0:0:
64,192,76146,1,0,0:0:0:0:
192,192,76146,1,0,0:0:0:0:
448,192,76146,1,0,0:0:0:0:
320,192,76301,1,0,0:0:0:0:
448,192,76301,1,0,0:0:0:0:
192,192,76378,1,0,0:0:0:0:
320,192,76455,1,0,0:0:0:0:
64,192,76455,1,0,0:0:0:0:
448,192,76455,1,0,0:0:0:0:
192,192,76533,1,0,0:0:0:0:
320,192,76610,1,0,0:0:0:0:
64,192,76610,1,0,0:0:0:0:
448,192,76687,1,0,0:0:0:0:
320,192,76765,1,0,0:0:0:0:
192,192,76765,1,0,0:0:0:0:
64,192,76765,1,0,0:0:0:0:
448,192,76842,1,0,0:0:0:0:
192,192,76919,1,0,0:0:0:0:
64,192,76919,1,0,0:0:0:0:
320,192,76997,1,0,0:0:0:0:
192,192,77074,1,0,0:0:0:0:
448,192,77074,128,0,77383:0:0:0:0:
64,192,77151,1,0,0:0:0:0:
320,192,77229,1,0,0:0:0:0:
192,192,77306,1,0,0:0:0:0:
64,192,77383,1,0,0:0:0:0:
320,192,77383,1,0,0:0:0:0:
192,192,77461,1,0,0:0:0:0:
320,192,77538,1,0,0:0:0:0:
448,192,77538,1,0,0:0:0:0:
64,192,77615,1,0,0:0:0:0:
192,192,77693,1,0,0:0:0:0:
320,192,77693,1,0,0:0:0:0:
448,192,77693,1,0,0:0:0:0:
64,192,77847,1,0,0:0:0:0:
192,192,77847,1,0,0:0:0:0:
320,192,77924,1,0,0:0:0:0:
192,192,78002,1,0,0:0:0:0:
64,192,78002,1,0,0:0:0:0:
448,192,78002,1,0,0:0:0:0:
320,192,78156,1,0,0:0:0:0:
192,192,78234,1,0,0:0:0:0:
448,192,78234,1,0,0:0:0:0:
320,192,78311,1,0,0:0:0:0:
64,192,78311,1,0,0:0:0:0:
192,192,78388,1,0,0:0:0:0:
320,192,78466,1,0,0:0:0:0:
448,192,78466,1,0,0:0:0:0:
64,192,78543,1,0,0:0:0:0:
192,192,78620,1,0,0:0:0:0:
320,192,78620,1,0,0:0:0:0:
448,192,78620,1,0,0:0:0:0:
64,192,78698,1,0,0:0:0:0:
192,192,78775,1,0,0:0:0:0:
320,192,78775,1,0,0:0:0:0:
448,192,78852,1,0,0:0:0:0:
192,192,78930,1,0,0:0:0:0:
64,192,78930,1,0,0:0:0:0:
448,192,79084,1,0,0:0:0:0:
320,192,79162,1,0,0:0:0:0:
448,192,79239,1,0,0:0:0:0:
64,192,79239,1,0,0:0:0:0:
192,192,79239,1,0,0:0:0:0:
320,192,79394,1,0,0:0:0:0:
192,192,79471,1,0,0:0:0:0:
64,192,79548,1,0,0:0:0:0:
320,192,79548,1,0,0:0:0:0:
448,192,79626,1,0,0:0:0:0:
192,192,79703,1,0,0:0:0:0:
320,192,79780,1,0,0:0:0:0:
448,192,79857,1,0,0:0:0:0:
192,192,79857,1,0,0:0:0:0:
64,192,79857,1,0,0:0:0:0:
320,192,79935,1,0,0:0:0:0:
64,192,80012,1,0,0:0:0:0:
448,192,80012,1,0,0:0:0:0:
192,192,80089,1,0,0:0:0:0:
320,192,80167,1,0,0:0:0:0:
448,192,80167,1,0,0:0:0:0:
64,192,80321,1,0,0:0:0:0:
192,192,80321,1,0,0:0:0:0:
320,192,80399,1,0,0:0:0:0:
448,192,80476,1,0,0:0:0:0:
64,192,80476,1,0,0:0:0:0:
192,192,80476,1,0,0:0:0:0:
320,192,80553,1,0,0:0:0:0:
192,192,80631,1,0,0:0:0:0:
448,192,80631,1,0,0:0:0:0:
64,192,80708,1,0,0:0:0:0:
320,192,80785,1,0,0:0:0:0:
448,192,80785,1,0,0:0:0:0:
192,192,80940,1,0,0:0:0:0:
64,192,81017,1,0,0:0:0:0:
320,192,81017,1,0,0:0:0:0:
192,192,81095,1,0,0:0:0:0:
448,192,81095,1,0,0:0:0:0:
320,192,81172,1,0,0:0:0:0:
64,192,81249,1,0,0:0:0:0:
192,192,81249,1,0,0:0:0:0:
64,192,81404,1,0,0:0:0:0:
320,192,81404,1,0,0:0:0:0:
448,192,81404,1,0,0:0:0:0:
192,192,81559,1,0,0:0:0:0:
320,192,81713,1,0,0:0:0:0:
64,192,81713,1,0,0:0:0:0:
448,192,81713,1,0,0:0:0:0:
192,192,81868,1,0,0:0:0:0:
64,192,81945,1,0,0:0:0:0:
448,192,82022,1,0,0:0:0:0:
320,192,82022,1,0,0:0:0:0:
192,192,82022,1,0,0:0:0:0:
64,192,82100,1,0,0:0:0:0:
448,192,82177,1,0,0:0:0:0:
320,192,82177,1,0,0:0:0:0:
192,192,82254,1,0,0:0:0:0:
64,192,82332,1,0,0:0:0:0:
320,192,82332,1,0,0:0:0:0:
448,192,82332,1,0,0:0:0:0:
192,192,82409,1,0,0:0:0:0:
320,192,82486,1,0,0:0:0:0:
64,192,82486,1,0,0:0:0:0:
448,192,82564,1,0,0:0:0:0:
320,192,82641,1,0,0:0:0:0:
192,192,82641,1,0,0:0:0:0:
64,192,82641,1,0,0:0:0:0:
320,192,82796,1,0,0:0:0:0:
448,192,82796,1,0,0:0:0:0:
192,192,82873,1,0,0:0:0:0:
448,192,82950,1,0,0:0:0:0:
64,192,82950,1,0,0:0:0:0:
320,192,82950,1,0,0:0:0:0:
192,192,83028,1,0,0:0:0:0:
64,192,83105,1,0,0:0:0:0:
448,192,83105,1,0,0:0:0:0:
192,192,83260,1,0,0:0:0:0:
320,192,83260,1,0,0:0:0:0:
64,192,83414,1,0,0:0:0:0:
448,192,83414,1,0,0:0:0:0:
192,192,83492,1,0,0:0:0:0:
320,192,83569,1,0,0:0:0:0:
448,192,83569,1,0,0:0:0:0:
64,192,83569,1,0,0:0:0:0:
192,192,83646,1,0,0:0:0:0:
320,192,83723,1,0,0:0:0:0:
448,192,83723,1,0,0:0:0:0:
64,192,83878,1,0,0:0:0:0:
192,192,83878,1,0,0:0:0:0:
320,192,84033,1,0,0:0:0:0:
448,192,84033,1,0,0:0:0:0:
192,192,84110,1,0,0:0:0:0:
320,192,84187,1,0,0:0:0:0:
448,192,84187,1,0,0:0:0:0:
64,192,84187,1,0,0:0:0:0:
192,192,84265,1,0,0:0:0:0:
448,192,84342,1,0,0:0:0:0:
192,192,84419,1,0,0:0:0:0:
64,192,84419,1,0,0:0:0:0:
320,192,84497,1,0,0:0:0:0:
448,192,84497,1,0,0:0:0:0:
64,192,84574,1,0,0:0:0:0:
192,192,84651,1,0,0:0:0:0:
320,192,84651,1,0,0:0:0:0:
448,192,84729,1,0,0:0:0:0:
64,192,84806,1,0,0:0:0:0:
192,192,84806,1,0,0:0:0:0:
448,192,84883,1,0,0:0:0:0:
320,192,84961,1,0,0:0:0:0:
64,192,84961,1,0,0:0:0:0:
192,192,85038,1,0,0:0:0:0:
64,192,85115,1,0,0:0:0:0:
320,192,85115,1,0,0:0:0:0:
448,192,85115,1,0,0:0:0:0:
192,192,85270,1,0,0:0:0:0:
320,192,85270,1,0,0:0:0:0:
192,192,85424,1,0,0:0:0:0:
64,192,85424,1,0,0:0:0:0:
448,192,85424,1,0,0:0:0:0:
320,192,85579,1,0,0:0:0:0:
448,192,85579,1,0,0:0:0:0:
64,192,85734,1,0,0:0:0:0:
192,192,85734,1,0,0:0:0:0:
448,192,85811,1,0,0:0:0:0:
320,192,85888,1,0,0:0:0:0:
192,192,85888,1,0,0:0:0:0:
64,192,86043,1,0,0:0:0:0:
320,192,86043,1,0,0:0:0:0:
448,192,86043,1,0,0:0:0:0:
192,192,86120,1,0,0:0:0:0:
320,192,86198,1,0,0:0:0:0:
448,192,86275,1,0,0:0:0:0:
192,192,86352,1,0,0:0:0:0:
320,192,86352,1,0,0:0:0:0:
64,192,86352,128,0,86584:0:0:0:0:
448,192,86507,1,0,0:0:0:0:
320,192,86584,128,0,86816:0:0:0:0:
192,192,86584,1,0,0:0:0:0:
448,192,86662,1,0,0:0:0:0:
64,192,86662,1,0,0:0:0:0:
192,192,86816,128,0,86971:0:0:0:0:
64,192,86816,1,0,0:0:0:0:
448,192,86971,128,0,87589:0:0:0:0:
320,192,86971,1,0,0:0:0:0:
64,192,87048,1,0,0:0:0:0:
192,192,87126,1,0,0:0:0:0:
320,192,87203,1,0,0:0:0:0:
64,192,87280,1,0,0:0:0:0:
192,192,87280,1,0,0:0:0:0:
64,192,87435,1,0,0:0:0:0:
320,192,87435,1,0,0:0:0:0:
64,192,87589,1,0,0:0:0:0:
192,192,87589,1,0,0:0:0:0:
320,192,87667,1,0,0:0:0:0:
448,192,87744,1,0,0:0:0:0:
192,192,87744,1,0,0:0:0:0:
64,192,87821,1,0,0:0:0:0:
320,192,87899,1,0,0:0:0:0:
448,192,87899,1,0,0:0:0:0:
192,192,87899,1,0,0:0:0:0:
320,192,88053,1,0,0:0:0:0:
64,192,88053,1,0,0:0:0:0:
448,192,88131,1,0,0:0:0:0:
64,192,88208,1,0,0:0:0:0:
192,192,88208,1,0,0:0:0:0:
448,192,88363,1,0,0:0:0:0:
320,192,88363,1,0,0:0:0:0:
192,192,88440,1,0,0:0:0:0:
320,192,88517,1,0,0:0:0:0:
64,192,88517,1,0,0:0:0:0:
448,192,88517,1,0,0:0:0:0:
192,192,88595,1,0,0:0:0:0:
320,192,88672,1,0,0:0:0:0:
64,192,88672,1,0,0:0:0:0:
448,192,88749,1,0,0:0:0:0:
64,192,88827,1,0,0:0:0:0:
192,192,88827,1,0,0:0:0:0:
320,192,88827,1,0,0:0:0:0:
192,192,88981,1,0,0:0:0:0:
448,192,88981,1,0,0:0:0:0:
320,192,89136,1,0,0:0:0:0:
448,192,89136,1,0,0:0:0:0:
64,192,89136,1,0,0:0:0:0:
192,192,89290,1,0,0:0:0:0:
320,192,89290,1,0,0:0:0:0:
448,192,89368,1,0,0:0:0:0:
192,192,89445,1,0,0:0:0:0:
64,192,89445,1,0,0:0:0:0:
320,192,89522,1,0,0:0:0:0:
448,192,89600,1,0,0:0:0:0:
64,192,89600,1,0,0:0:0:0:
192,192,89677,1,0,0:0:0:0:
320,192,89754,1,0,0:0:0:0:
448,192,89754,1,0,0:0:0:0:
192,192,89832,1,0,0:0:0:0:
320,192,89909,1,0,0:0:0:0:
64,192,89909,1,0,0:0:0:0:
448,192,89986,1,0,0:0:0:0:
64,192,90064,1,0,0:0:0:0:
192,192,90064,1,0,0:0:0:0:
448,192,90102,1,0,0:0:0:0:
320,192,90141,1,0,0:0:0:0:
192,192,90180,1,0,0:0:0:0:
64,192,90218,1,0,0:0:0:0:
448,192,90257,1,0,0:0:0:0:
320,192,90296,1,0,0:0:0:0:
192,192,90334,1,0,0:0:0:0:
448,192,90373,1,0,0:0:0:0:
64,192,90373,1,0,0:0:0:0:
192,192,90450,1,0,0:0:0:0:
320,192,90450,1,0,0:0:0:0:
448,192,90528,1,0,0:0:0:0:
64,192,90528,1,0,0:0:0:0:
192,192,90605,1,0,0:0:0:0:
320,192,90605,1,0,0:0:0:0:
448,192,90682,1,0,0:0:0:0:
64,192,90682,1,0,0:0:0:0:
192,192,90721,1,0,0:0:0:0:
320,192,90760,1,0,0:0:0:0:
448,192,90798,1,0,0:0:0:0:
64,192,90837,1,0,0:0:0:0:
192,192,90876,1,0,0:0:0:0:
320,192,90914,1,0,0:0:0:0:
448,192,90953,1,0,0:0:0:0:
64,192,90992,1,0,0:0:0:0:
192,192,90992,1,0,0:0:0:0:
320,192,91069,1,0,0:0:0:0:
448,192,91069,1,0,0:0:0:0:
64,192,91146,1,0,0:0:0:0:
192,192,91146,1,0,0:0:0:0:
320,192,91223,1,0,0:0:0:0:
448,192,91223,1,0,0:0:0:0:
64,192,91301,1,0,0:0:0:0:
192,192,91301,1,0,0:0:0:0:
320,192,91301,1,0,0:0:0:0:
64,192,91533,1,0,0:0:0:0:
192,192,91533,1,0,0:0:0:0:
448,192,91533,1,0,0:0:0:0:
320,192,91765,1,0,0:0:0:0:
448,192,91765,1,0,0:0:0:0:
192,192,91765,1,0,0:0:0:0:
320,192,91997,1,0,0:0:0:0:
192,192,91997,1,0,0:0:0:0:
64,192,91997,1,0,0:0:0:0:
64,192,92229,1,0,0:0:0:0:
192,192,92229,1,0,0:0:0:0:
448,192,92229,1,0,0:0:0:0:
320,192,92383,1,0,0:0:0:0:
448,192,92383,1,0,0:0:0:0:
64,192,92383,1,0,0:0:0:0:
64,192,92538,1,0,0:0:0:0:
192,192,92538,1,0,0:0:0:0:
448,192,92538,1,0,0:0:0:0:
320,192,92693,1,0,0:0:0:0:
192,192,92847,1,0,0:0:0:0:
64,192,93002,1,0,0:0:0:0:
320,192,93156,1,0,0:0:0:0:
448,192,93466,1,0,0:0:0:0:
64,192,93775,1,0,0:0:0:0:
192,192,93775,1,0,0:0:0:0:
320,192,93852,1,0,0:0:0:0:
448,192,93852,1,0,0:0:0:0:
192,192,93930,1,0,0:0:0:0:
64,192,93930,1,0,0:0:0:0:
320,192,94007,1,0,0:0:0:0:
448,192,94007,1,0,0:0:0:0:
64,192,94084,1,0,0:0:0:0:
192,192,94084,1,0,0:0:0:0:
320,192,94162,1,0,0:0:0:0:
448,192,94162,1,0,0:0:0:0:
64,192,94239,1,0,0:0:0:0:
192,192,94239,1,0,0:0:0:0:
448,192,94316,1,0,0:0:0:0:
320,192,94316,1,0,0:0:0:0:
64,192,94394,1,0,0:0:0:0:
192,192,94432,1,0,0:0:0:0:
320,192,94471,1,0,0:0:0:0:
448,192,94510,1,0,0:0:0:0:
64,192,94548,1,0,0:0:0:0:
192,192,94587,1,0,0:0:0:0:
320,192,94626,1,0,0:0:0:0:
448,192,94664,1,0,0:0:0:0:
64,192,94703,128,0,95012:0:0:0:0:
192,192,94703,128,0,95012:0:0:0:0:
320,192,95012,1,0,0:0:0:0:
448,192,95012,128,0,96404:0:0:0:0:
192,192,95167,1,0,0:0:0:0:
64,192,95321,1,0,0:0:0:0:
192,192,95321,1,0,0:0:0:0:
320,192,95476,1,0,0:0:0:0:
320,192,95631,1,0,0:0:0:0:
64,192,95631,1,0,0:0:0:0:
192,192,95785,1,0,0:0:0:0:
192,192,95940,1,0,0:0:0:0:
64,192,95940,1,0,0:0:0:0:
320,192,96095,1,0,0:0:0:0:
192,192,96249,1,0,0:0:0:0:
64,192,96249,1,0,0:0:0:0:
320,192,96404,128,0,96559:0:0:0:0:
448,192,96559,1,0,0:0:0:0:
64,192,96559,128,0,96713:0:0:0:0:
192,192,96559,1,0,0:0:0:0:
192,192,96713,128,0,96868:0:0:0:0:
320,192,96713,1,0,0:0:0:0:
448,192,96868,128,0,97022:0:0:0:0:
64,192,96868,1,0,0:0:0:0:
192,192,97022,128,0,97177:0:0:0:0:
320,192,97022,1,0,0:0:0:0:
448,192,97177,1,0,0:0:0:0:
64,192,97177,128,0,97332:0:0:0:0:
320,192,97177,1,0,0:0:0:0:
320,192,97332,128,0,97486:0:0:0:0:
448,192,97332,1,0,0:0:0:0:
64,192,97486,1,0,0:0:0:0:
192,192,97486,128,0,97564:0:0:0:0:
448,192,97641,128,0,97718:0:0:0:0:
320,192,97641,1,0,0:0:0:0:
192,192,97796,128,0,97950:0:0:0:0:
64,192,97796,1,0,0:0:0:0:
320,192,97796,1,0,0:0:0:0:
64,192,97950,128,0,98028:0:0:0:0:
448,192,98028,128,0,98105:0:0:0:0:
320,192,98105,128,0,98182:0:0:0:0:
192,192,98105,1,0,0:0:0:0:
64,192,98182,128,0,98260:0:0:0:0:
448,192,98260,128,0,98414:0:0:0:0:
192,192,98414,128,0,98569:0:0:0:0:
64,192,98414,1,0,0:0:0:0:
320,192,98414,1,0,0:0:0:0:
320,192,98569,128,0,98723:0:0:0:0:
448,192,98569,1,0,0:0:0:0:
64,192,98723,128,0,98878:0:0:0:0:
192,192,98723,1,0,0:0:0:0:
448,192,98878,1,0,0:0:0:0:
192,192,99033,1,0,0:0:0:0:
320,192,99033,128,0,99110:0:0:0:0:
64,192,99187,128,0,99806:0:0:0:0:
448,192,99187,1,0,0:0:0:0:
192,192,99342,1,0,0:0:0:0:
320,192,99342,1,0,0:0:0:0:
448,192,99497,1,0,0:0:0:0:
192,192,99651,1,0,0:0:0:0:
448,192,99651,1,0,0:0:0:0:
192,192,99806,1,0,0:0:0:0:
320,192,99806,1,0,0:0:0:0:
448,192,99961,1,0,0:0:0:0:
64,192,99961,1,0,0:0:0:0:
320,192,99961,1,0,0:0:0:0:
192,192,100115,1,0,0:0:0:0:
320,192,100193,1,0,0:0:0:0:
448,192,100193,1,0,0:0:0:0:
192,192,100270,1,0,0:0:0:0:
64,192,100270,1,0,0:0:0:0:
64,192,100424,1,0,0:0:0:0:
448,192,100424,1,0,0:0:0:0:
192,192,100579,1,0,0:0:0:0:
448,192,100579,1,0,0:0:0:0:
320,192,100656,1,0,0:0:0:0:
64,192,100656,1,0,0:0:0:0:
192,192,100734,1,0,0:0:0:0:
448,192,100888,1,0,0:0:0:0:
320,192,100888,1,0,0:0:0:0:
64,192,100888,1,0,0:0:0:0:
192,192,101043,1,0,0:0:0:0:
64,192,101120,1,0,0:0:0:0:
448,192,101120,1,0,0:0:0:0:
320,192,101198,1,0,0:0:0:0:
192,192,101198,1,0,0:0:0:0:
448,192,101275,1,0,0:0:0:0:
64,192,101275,1,0,0:0:0:0:
192,192,101352,1,0,0:0:0:0:
320,192,101352,1,0,0:0:0:0:
64,192,101507,1,0,0:0:0:0:
192,192,101507,1,0,0:0:0:0:
320,192,101584,1,0,0:0:0:0:
448,192,101584,1,0,0:0:0:0:
192,192,101739,1,0,0:0:0:0:
320,192,101739,1,0,0:0:0:0:
64,192,101816,1,0,0:0:0:0:
448,192,101816,1,0,0:0:0:0:
448,192,101971,1,0,0:0:0:0:
320,192,101971,1,0,0:0:0:0:
192,192,102048,1,0,0:0:0:0:
64,192,102048,1,0,0:0:0:0:
320,192,102126,1,0,0:0:0:0:
448,192,102126,1,0,0:0:0:0:
192,192,102203,1,0,0:0:0:0:
64,192,102203,1,0,0:0:0:0:
320,192,102280,1,0,0:0:0:0:
448,192,102280,1,0,0:0:0:0:
64,192,102435,128,0,102589:0:0:0:0:
192,192,102435,128,0,102589:0:0:0:0:
448,192,102589,128,0,102744:0:0:0:0:
320,192,102744,1,0,0:0:0:0:
64,192,102744,128,0,102899:0:0:0:0:
192,192,102744,1,0,0:0:0:0:
448,192,102899,128,0,103053:0:0:0:0:
320,192,102899,1,0,0:0:0:0:
64,192,103053,1,0,0:0:0:0:
192,192,103053,1,0,0:0:0:0:
320,192,103131,1,0,0:0:0:0:
448,192,103208,1,0,0:0:0:0:
64,192,103208,1,0,0:0:0:0:
192,192,103285,1,0,0:0:0:0:
64,192,103363,1,0,0:0:0:0:
320,192,103363,1,0,0:0:0:0:
448,192,103517,1,0,0:0:0:0:
192,192,103517,1,0,0:0:0:0:
64,192,103595,1,0,0:0:0:0:
192,192,103672,1,0,0:0:0:0:
320,192,103672,1,0,0:0:0:0:
64,192,103749,1,0,0:0:0:0:
192,192,103827,1,0,0:0:0:0:
320,192,103904,1,0,0:0:0:0:
448,192,103981,1,0,0:0:0:0:
64,192,103981,1,0,0:0:0:0:
192,192,103981,1,0,0:0:0:0:
320,192,104059,1,0,0:0:0:0:
448,192,104136,1,0,0:0:0:0:
64,192,104136,1,0,0:0:0:0:
320,192,104213,1,0,0:0:0:0:
448,192,104290,1,0,0:0:0:0:
192,192,104290,128,0,104445:0:0:0:0:
64,192,104445,128,0,104600:0:0:0:0:
320,192,104445,1,0,0:0:0:0:
448,192,104600,128,0,104754:0:0:0:0:
320,192,104600,1,0,0:0:0:0:
192,192,104600,1,0,0:0:0:0:
192,192,104754,128,0,104909:0:0:0:0:
64,192,104754,1,0,0:0:0:0:
64,192,104909,1,0,0:0:0:0:
448,192,104909,1,0,0:0:0:0:
320,192,104909,128,0,105064:0:0:0:0:
192,192,105064,128,0,105218:0:0:0:0:
448,192,105064,1,0,0:0:0:0:
448,192,105218,128,0,105373:0:0:0:0:
64,192,105218,1,0,0:0:0:0:
320,192,105218,1,0,0:0:0:0:
320,192,105373,128,0,105528:0:0:0:0:
192,192,105373,1,0,0:0:0:0:
64,192,105528,128,0,105605:0:0:0:0:
448,192,105528,1,0,0:0:0:0:
192,192,105605,128,0,105682:0:0:0:0:
448,192,105682,128,0,105837:0:0:0:0:
320,192,105682,1,0,0:0:0:0:
320,192,105837,128,0,105992:0:0:0:0:
64,192,105837,1,0,0:0:0:0:
192,192,105837,1,0,0:0:0:0:
192,192,105992,128,0,106146:0:0:0:0:
64,192,106146,128,0,106301:0:0:0:0:
448,192,106146,1,0,0:0:0:0:
320,192,106301,128,0,106455:0:0:0:0:
192,192,106301,1,0,0:0:0:0:
192,192,106455,128,0,106610:0:0:0:0:
448,192,106455,1,0,0:0:0:0:
64,192,106455,1,0,0:0:0:0:
320,192,106610,128,0,106765:0:0:0:0:
448,192,106610,1,0,0:0:0:0:
64,192,106765,128,0,106919:0:0:0:0:
192,192,106765,1,0,0:0:0:0:
320,192,106919,1,0,0:0:0:0:
192,192,107074,128,0,107383:0:0:0:0:
64,192,107074,1,0,0:0:0:0:
448,192,107074,1,0,0:0:0:0:
320,192,107229,1,0,0:0:0:0:
448,192,107383,128,0,107461:0:0:0:0:
64,192,107383,1,0,0:0:0:0:
192,192,107538,1,0,0:0:0:0:
320,192,107538,128,0,107615:0:0:0:0:
64,192,107693,128,0,107847:0:0:0:0:
448,192,107693,1,0,0:0:0:0:
192,192,107693,1,0,0:0:0:0:
448,192,107847,128,0,107924:0:0:0:0:
320,192,107847,1,0,0:0:0:0:
192,192,108002,128,0,108156:0:0:0:0:
64,192,108002,1,0,0:0:0:0:
448,192,108156,1,0,0:0:0:0:
320,192,108234,1,0,0:0:0:0:
448,192,108311,1,0,0:0:0:0:
64,192,108311,1,0,0:0:0:0:
192,192,108311,1,0,0:0:0:0:
320,192,108466,1,0,0:0:0:0:
192,192,108620,1,0,0:0:0:0:
64,192,108620,1,0,0:0:0:0:
64,192,108775,1,0,0:0:0:0:
448,192,108775,1,0,0:0:0:0:
64,192,108930,1,0,0:0:0:0:
320,192,108930,1,0,0:0:0:0:
448,192,108930,1,0,0:0:0:0:
192,192,109084,1,0,0:0:0:0:
320,192,109084,1,0,0:0:0:0:
320,192,109239,1,0,0:0:0:0:
448,192,109239,1,0,0:0:0:0:
64,192,109316,1,0,0:0:0:0:
192,192,109316,1,0,0:0:0:0:
320,192,109394,1,0,0:0:0:0:
448,192,109394,1,0,0:0:0:0:
192,192,109471,1,0,0:0:0:0:
64,192,109471,1,0,0:0:0:0:
320,192,109548,1,0,0:0:0:0:
448,192,109548,1,0,0:0:0:0:
64,192,109548,1,0,0:0:0:0:
448,192,109857,1,0,0:0:0:0:
64,192,109857,1,0,0:0:0:0:
192,192,109857,1,0,0:0:0:0:
320,192,109935,1,0,0:0:0:0:
192,192,110012,1,0,0:0:0:0:
448,192,110012,1,0,0:0:0:0:
64,192,110089,1,0,0:0:0:0:
320,192,110167,1,0,0:0:0:0:
448,192,110167,1,0,0:0:0:0:
192,192,110244,1,0,0:0:0:0:
64,192,110321,1,0,0:0:0:0:
448,192,110321,1,0,0:0:0:0:
320,192,110399,1,0,0:0:0:0:
192,192,110476,1,0,0:0:0:0:
448,192,110476,1,0,0:0:0:0:
64,192,110553,1,0,0:0:0:0:
320,192,110631,1,0,0:0:0:0:
448,192,110631,1,0,0:0:0:0:
192,192,110708,1,0,0:0:0:0:
448,192,110785,1,0,0:0:0:0:
64,192,110785,1,0,0:0:0:0:
320,192,110863,1,0,0:0:0:0:
192,192,110940,1,0,0:0:0:0:
448,192,110940,1,0,0:0:0:0:
320,192,111017,1,0,0:0:0:0:
448,192,111095,1,0,0:0:0:0:
64,192,111095,1,0,0:0:0:0:
192,192,111095,1,0,0:0:0:0:
320,192,111172,1,0,0:0:0:0:
192,192,111249,1,0,0:0:0:0:
64,192,111249,1,0,0:0:0:0:
448,192,111327,1,0,0:0:0:0:
64,192,111404,1,0,0:0:0:0:
320,192,111404,1,0,0:0:0:0:
192,192,111481,1,0,0:0:0:0:
64,192,111559,1,0,0:0:0:0:
448,192,111559,1,0,0:0:0:0:
320,192,111636,1,0,0:0:0:0:
192,192,111713,1,0,0:0:0:0:
64,192,111713,1,0,0:0:0:0:
448,192,111790,1,0,0:0:0:0:
320,192,111868,1,0,0:0:0:0:
64,192,111868,1,0,0:0:0:0:
192,192,111945,1,0,0:0:0:0:
64,192,112022,1,0,0:0:0:0:
448,192,112022,1,0,0:0:0:0:
320,192,112100,1,0,0:0:0:0:
192,192,112177,1,0,0:0:0:0:
64,192,112177,1,0,0:0:0:0:
320,192,112254,1,0,0:0:0:0:
64,192,112332,1,0,0:0:0:0:
192,192,112332,1,0,0:0:0:0:
448,192,112332,1,0,0:0:0:0:
192,192,112564,1,0,0:0:0:0:
320,192,112564,1,0,0:0:0:0:
448,192,112564,1,0,0:0:0:0:
64,192,112796,1,0,0:0:0:0:
448,192,112796,1,0,0:0:0:0:
192,192,112796,1,0,0:0:0:0:
448,192,113028,1,0,0:0:0:0:
320,192,113028,1,0,0:0:0:0:
64,192,113028,1,0,0:0:0:0:
64,192,113260,1,0,0:0:0:0:
192,192,113260,1,0,0:0:0:0:
320,192,113260,1,0,0:0:0:0:
64,192,113414,1,0,0:0:0:0:
320,192,113414,1,0,0:0:0:0:
448,192,113414,1,0,0:0:0:0:
64,192,113569,1,0,0:0:0:0:
192,192,113569,1,0,0:0:0:0:
320,192,113646,1,0,0:0:0:0:
448,192,113646,1,0,0:0:0:0:
64,192,113723,1,0,0:0:0:0:
192,192,113723,1,0,0:0:0:0:
320,192,113801,1,0,0:0:0:0:
448,192,113801,1,0,0:0:0:0:
192,192,113878,1,0,0:0:0:0:
64,192,113878,1,0,0:0:0:0:
320,192,113955,1,0,0:0:0:0:
448,192,113955,1,0,0:0:0:0:
192,192,114033,1,0,0:0:0:0:
64,192,114033,1,0,0:0:0:0:
320,192,114110,1,0,0:0:0:0:
448,192,114110,1,0,0:0:0:0:
192,192,114187,1,0,0:0:0:0:
64,192,114187,1,0,0:0:0:0:
448,192,114226,1,0,0:0:0:0:
320,192,114265,1,0,0:0:0:0:
64,192,114303,1,0,0:0:0:0:
192,192,114342,1,0,0:0:0:0:
448,192,114381,1,0,0:0:0:0:
320,192,114419,1,0,0:0:0:0:
64,192,114458,1,0,0:0:0:0:
192,192,114497,1,0,0:0:0:0:
448,192,114535,1,0,0:0:0:0:
320,192,114574,1,0,0:0:0:0:
64,192,114613,1,0,0:0:0:0:
192,192,114651,1,0,0:0:0:0:
448,192,114690,1,0,0:0:0:0:
320,192,114729,1,0,0:0:0:0:
64,192,114767,1,0,0:0:0:0:
192,192,114806,1,0,0:0:0:0:
448,192,114806,1,0,0:0:0:0:
320,192,114806,1,0,0:0:0:0:
64,192,115038,1,0,0:0:0:0:
192,192,115038,1,0,0:0:0:0:
448,192,115038,1,0,0:0:0:0:
