osu file format v14

[General]
AudioFilename: XROSS INFECTION.mp3
AudioLeadIn: 0
PreviewTime: 72346
Countdown: 0
SampleSet: Soft
StackLeniency: 0.7
Mode: 3
LetterboxInBreaks: 0
EpilepsyWarning: 1
SpecialStyle: 0
WidescreenStoryboard: 1

[Editor]
DistanceSpacing: 0.8
BeatDivisor: 4
GridSize: 4
TimelineZoom: 1.6

[Metadata]
Title:XROSS INFECTION
TitleUnicode:XROSS INFECTION
Artist:BlackY vs. Yooh
ArtistUnicode:BlackY vs. Yooh
Creator:-BANGKE-
Version:7K NOVICE
Source:SOUND VOLTEX II -infinite infection-
Tags:sdvx 制作決定記念 オリジナル楽曲コンテスト production confirmation commemorative original song contest ALfarris erlinadewi- Ortlinde ExKagii- Xenophilius sherrysina PureLight Nap Takane6 arviejhay
BeatmapID:815600
BeatmapSetID:372411

[Difficulty]
HPDrainRate:7.5
CircleSize:7
OverallDifficulty:7.5
ApproachRate:5
SliderMultiplier:1.4
SliderTickRate:1

[Events]
//Background and Video events
0,0,"BG xross infection.jpg",0,0
//Break Periods
//Storyboard Layer 0 (Background)
//Storyboard Layer 1 (Fail)
//Storyboard Layer 2 (Pass)
//Storyboard Layer 3 (Foreground)
//Storyboard Sound Samples

[TimingPoints]
2450,309.278350515464,4,2,1,40,1,0
72965,-100,4,2,1,40,0,1
92759,-100,4,2,1,40,0,0
95233,-100,4,2,1,40,0,1
115027,-100,4,2,1,40,0,0

[HitObjects]
256,192,1212,128,0,2450:0:0:0:0:
36,192,2450,1,4,0:0:0:0:
475,192,2450,128,0,3687:0:0:0:0:
36,192,3687,128,0,4924:0:0:0:0:
402,192,4924,128,0,7398:0:0:0:0:
109,192,7398,128,0,9872:0:0:0:0:
256,192,9872,128,0,12346:0:0:0:0:
475,192,12346,128,0,13584:0:0:0:70:LR3_BassDropSSG.wav
329,192,13584,1,4,0:0:0:0:
402,192,13584,1,0,0:0:0:0:
182,192,13893,1,8,0:0:0:0:
109,192,13893,1,0,0:0:0:0:
329,192,14202,1,0,0:0:0:0:
475,192,14202,1,0,0:0:0:0:
36,192,14511,1,0,0:0:0:0:
182,192,14511,1,8,0:0:0:0:
475,192,14821,1,0,0:0:0:0:
402,192,14821,1,0,0:0:0:0:
109,192,15130,1,8,0:0:0:0:
36,192,15130,1,0,0:0:0:0:
402,192,15439,1,0,0:0:0:0:
329,192,15439,1,0,0:0:0:0:
109,192,15748,1,0,0:0:0:0:
182,192,15748,1,8,0:0:0:0:
475,192,16058,1,0,0:0:0:0:
329,192,16058,1,0,0:0:0:0:
36,192,16367,1,0,0:0:0:0:
182,192,16367,1,8,0:0:0:0:
329,192,16676,1,0,0:0:0:0:
402,192,16676,1,0,0:0:0:0:
109,192,16986,1,0,0:0:0:0:
182,192,16986,1,8,0:0:0:0:
402,192,17295,1,0,0:0:0:0:
475,192,17295,1,0,0:0:0:0:
36,192,17604,1,0,0:0:0:0:
109,192,17604,1,8,0:0:0:0:
256,192,17913,1,0,0:0:0:0:
475,192,17913,1,0,0:0:0:0:
329,192,18223,1,8,0:0:0:0:
182,192,18377,1,0,0:0:0:0:
329,192,18532,1,0,0:0:0:0:
36,192,18841,1,0,0:0:0:0:
182,192,18841,1,8,0:0:0:0:
329,192,19151,1,0,0:0:0:0:
475,192,19151,1,0,0:0:0:0:
182,192,19460,1,8,0:0:0:0:
36,192,19460,1,0,0:0:0:0:
402,192,19769,1,0,0:0:0:0:
475,192,19769,1,0,0:0:0:0:
109,192,20078,1,8,0:0:0:0:
36,192,20078,1,0,0:0:0:0:
329,192,20388,1,0,0:0:0:0:
402,192,20388,1,0,0:0:0:0:
109,192,20697,1,0,0:0:0:0:
182,192,20697,1,8,0:0:0:0:
329,192,21006,1,0,0:0:0:0:
475,192,21006,1,0,0:0:0:0:
36,192,21315,1,0,0:0:0:0:
182,192,21315,1,8,0:0:0:0:
329,192,21625,1,0,0:0:0:0:
475,192,21625,1,0,0:0:0:0:
36,192,21934,1,0,0:0:0:0:
182,192,21934,1,8,0:0:0:0:
109,192,22243,1,0,0:0:0:0:
402,192,22243,1,0,0:0:0:0:
36,192,22553,1,0,0:0:0:0:
475,192,22553,1,8,0:0:0:0:
256,192,22785,1,0,0:0:0:0:
402,192,22862,1,0,0:0:0:0:
256,192,23017,1,0,0:0:0:0:
109,192,23171,1,0,0:0:0:0:
256,192,23326,1,0,0:0:0:0:
182,192,23480,1,0,0:0:0:0:
329,192,23480,1,4,0:0:0:0:
36,192,23790,1,0,0:0:0:0:
109,192,23790,1,8,0:0:0:0:
402,192,24099,1,0,0:0:0:0:
475,192,24099,1,0,0:0:0:0:
109,192,24408,1,0,0:0:0:0:
182,192,24408,1,8,0:0:0:0:
329,192,24718,1,0,0:0:0:0:
402,192,24718,1,0,0:0:0:0:
109,192,25027,1,8,0:0:0:0:
36,192,25027,1,0,0:0:0:0:
402,192,25336,1,0,0:0:0:0:
475,192,25336,1,0,0:0:0:0:
36,192,25645,1,0,0:0:0:0:
109,192,25645,1,8,0:0:0:0:
182,192,25955,1,0,0:0:0:0:
329,192,25955,1,0,0:0:0:0:
109,192,26264,1,0,0:0:0:0:
402,192,26264,1,8,0:0:0:0:
182,192,26573,1,0,0:0:0:0:
329,192,26573,1,0,0:0:0:0:
36,192,26882,1,0,0:0:0:0:
475,192,26882,1,8,0:0:0:0:
256,192,27192,1,0,0:0:0:0:
402,192,27192,1,0,0:0:0:0:
329,192,27501,1,8,0:0:0:0:
475,192,27501,1,0,0:0:0:0:
109,192,27810,1,0,0:0:0:0:
256,192,27810,1,0,0:0:0:0:
475,192,28120,1,8,0:0:0:0:
402,192,28274,1,0,0:0:0:0:
109,192,28429,1,4,0:0:0:0:
182,192,28584,1,0,0:0:0:0:
256,192,28738,1,0,0:0:0:0:
402,192,28893,1,0,0:0:0:0:
329,192,29047,1,0,0:0:0:0:
256,192,29202,1,0,0:0:0:0:
329,192,29357,1,0,0:0:0:0:
402,192,29511,1,0,0:0:0:0:
475,192,29666,1,4,0:0:0:0:
256,192,29821,1,0,0:0:0:0:
182,192,29975,1,0,0:0:0:0:
109,192,30130,1,0,0:0:0:0:
36,192,30285,1,0,0:0:0:0:
256,192,30439,1,0,0:0:0:0:
329,192,30594,1,0,0:0:0:0:
402,192,30748,1,0,0:0:0:0:
182,192,30903,1,0,0:0:0:0:
329,192,30903,1,4,0:0:0:0:
109,192,31135,1,4,0:0:0:0:
402,192,31135,1,0,0:0:0:0:
36,192,31367,1,0,0:0:0:0:
475,192,31367,1,4,0:0:0:0:
182,192,31599,1,4,0:0:0:0:
329,192,31599,1,0,0:0:0:0:
109,192,31831,1,0,0:0:0:0:
402,192,31831,1,4,0:0:0:0:
36,192,31986,1,4,0:0:0:0:
475,192,31986,1,0,0:0:0:0:
256,192,32140,128,0,33377:0:0:0:0:
329,192,32140,1,4,0:0:0:0:
109,192,32759,128,0,33377:0:0:0:0:
402,192,33377,1,4,0:0:0:0:
475,192,33377,128,0,34614:0:0:0:0:
109,192,33687,1,8,0:0:0:0:
36,192,33687,1,0,0:0:0:0:
182,192,33996,1,0,0:0:0:0:
256,192,33996,1,0,0:0:0:0:
329,192,34305,1,8,0:0:0:0:
402,192,34305,1,0,0:0:0:0:
182,192,34614,1,0,0:0:0:0:
109,192,34614,128,0,35233:0:0:0:0:
329,192,34924,1,8,0:0:0:0:
475,192,34924,1,0,0:0:0:0:
256,192,35233,128,0,35852:0:0:0:0:
402,192,35233,1,0,0:0:0:0:
182,192,35542,1,8,0:0:0:0:
36,192,35542,1,0,0:0:0:0:
109,192,35852,128,0,36470:0:0:0:0:
402,192,35852,1,0,0:0:0:0:
329,192,36161,1,8,0:0:0:0:
475,192,36161,1,0,0:0:0:0:
182,192,36470,1,0,0:0:0:0:
402,192,36470,128,0,37089:0:0:0:0:
256,192,36779,1,8,0:0:0:0:
329,192,36779,1,0,0:0:0:0:
36,192,37089,128,0,37707:0:0:0:0:
109,192,37089,1,0,0:0:0:0:
182,192,37398,1,0,0:0:0:0:
329,192,37398,1,8,0:0:0:0:
256,192,37707,1,0,0:0:0:0:
402,192,37707,128,0,38326:0:0:0:0:
182,192,38017,1,8,0:0:0:0:
256,192,38171,1,0,0:0:0:0:
329,192,38326,1,0,0:0:0:0:
109,192,38326,128,0,38944:0:0:0:0:
256,192,38635,1,8,0:0:0:0:
402,192,38635,1,0,0:0:0:0:
329,192,38944,1,0,0:0:0:0:
475,192,38944,128,0,39254:0:0:0:0:
402,192,39254,1,8,0:0:0:0:
256,192,39254,128,0,39563:0:0:0:0:
109,192,39563,128,0,40181:0:0:0:0:
36,192,39563,1,0,0:0:0:0:
329,192,39872,1,8,0:0:0:0:
475,192,39872,1,0,0:0:0:0:
402,192,40181,1,0,0:0:0:0:
256,192,40181,128,0,40800:0:0:0:0:
36,192,40491,1,0,0:0:0:0:
182,192,40491,1,8,0:0:0:0:
329,192,40800,1,0,0:0:0:0:
475,192,40800,128,0,42037:0:0:0:0:
36,192,41109,1,0,0:0:0:0:
182,192,41109,1,8,0:0:0:0:
109,192,41419,1,0,0:0:0:0:
256,192,41419,1,0,0:0:0:0:
182,192,41728,1,0,0:0:0:0:
329,192,41728,1,8,0:0:0:0:
402,192,42037,1,0,0:0:0:0:
256,192,42037,128,0,42656:0:0:0:0:
36,192,42192,1,0,0:0:0:0:
182,192,42192,1,4,0:0:0:0:
329,192,42346,1,0,0:0:0:0:
475,192,42346,1,0,0:0:0:0:
36,192,42501,1,0,0:0:0:0:
109,192,42578,1,0,0:0:0:0:
182,192,42656,1,4,0:0:0:0:
329,192,42656,128,0,43274:0:0:0:0:
475,192,42965,128,8,43274:0:0:0:0:
109,192,43274,1,4,0:0:0:0:
36,192,43274,128,0,44511:0:0:0:0:
329,192,43584,1,8,0:0:0:0:
475,192,43584,1,0,0:0:0:0:
255,192,43893,1,0,0:0:0:0:
402,192,43893,1,0,0:0:0:0:
329,192,44202,1,0,0:0:0:0:
109,192,44202,1,8,0:0:0:0:
182,192,44511,128,0,45130:0:0:0:0:
402,192,44511,1,0,0:0:0:0:
36,192,44821,1,8,0:0:0:0:
475,192,44821,1,0,0:0:0:0:
329,192,45130,128,0,45748:0:0:0:0:
255,192,45130,1,0,0:0:0:0:
109,192,45439,1,0,0:0:0:0:
402,192,45439,1,8,0:0:0:0:
475,192,45748,128,0,46986:0:0:0:0:
36,192,45748,1,0,0:0:0:0:
109,192,46058,1,0,0:0:0:0:
255,192,46058,1,8,0:0:0:0:
182,192,46367,1,0,0:0:0:0:
329,192,46367,1,0,0:0:0:0:
255,192,46676,1,0,0:0:0:0:
402,192,46676,1,8,0:0:0:0:
255,192,46986,128,0,48223:0:0:0:0:
109,192,46986,1,0,0:0:0:0:
329,192,47295,1,8,0:0:0:0:
475,192,47295,1,0,0:0:0:0:
36,192,47604,1,0,0:0:0:0:
182,192,47604,1,0,0:0:0:0:
329,192,47913,1,0,0:0:0:0:
475,192,47913,1,8,0:0:0:0:
109,192,48068,1,0,0:0:0:0:
182,192,48223,1,0,0:0:0:0:
329,192,48377,1,0,0:0:0:0:
402,192,48532,1,0,0:0:0:0:
255,192,48687,1,0,0:0:0:0:
109,192,48841,1,0,0:0:0:0:
36,192,48996,1,0,0:0:0:0:
256,192,49151,1,0,0:0:0:0:
329,192,49305,1,0,0:0:0:0:
402,192,49460,1,0,0:0:0:0:
475,192,49614,1,0,0:0:0:0:
182,192,49769,1,0,0:0:0:0:
109,192,49924,1,0,0:0:0:0:
36,192,50078,1,0,0:0:0:0:
256,192,50233,1,0,0:0:0:0:
329,192,50388,1,0,0:0:0:0:
402,192,50542,1,0,0:0:0:0:
329,192,50697,1,0,0:0:0:0:
182,192,50697,1,4,0:0:0:0:
109,192,50929,1,0,0:0:0:0:
402,192,50929,1,4,0:0:0:0:
36,192,51161,1,4,0:0:0:0:
475,192,51161,1,0,0:0:0:0:
182,192,51393,1,4,0:0:0:0:
329,192,51393,1,0,0:0:0:0:
109,192,51625,1,0,0:0:0:0:
402,192,51625,1,4,0:0:0:0:
36,192,51779,1,4,0:0:0:0:
475,192,51779,1,0,0:0:0:0:
255,192,51934,128,0,53171:0:0:0:0:
109,192,53171,1,0,0:0:0:0:
402,192,53171,1,4,0:0:0:0:
182,192,53403,1,4,0:0:0:0:
329,192,53403,1,0,0:0:0:0:
36,192,53635,1,4,0:0:0:0:
475,192,53635,1,0,0:0:0:0:
109,192,53867,1,0,0:0:0:0:
402,192,53867,1,4,0:0:0:0:
329,192,54099,1,0,0:0:0:0:
182,192,54254,1,0,0:0:0:0:
36,192,54408,1,0,0:0:0:0:
182,192,54563,1,0,0:0:0:0:
329,192,54718,1,0,0:0:0:0:
475,192,54872,1,0,0:0:0:0:
255,192,55027,128,8,55336:0:0:0:0:
109,192,55181,1,0,0:0:0:0:
109,192,55336,1,0,0:0:0:0:
256,192,55491,1,0,0:0:0:0:
182,192,55645,1,0,0:0:0:0:
329,192,55645,1,4,0:0:0:0:
36,192,55877,1,0,0:0:0:0:
475,192,55877,1,4,0:0:0:0:
109,192,56109,1,4,0:0:0:0:
402,192,56109,1,0,0:0:0:0:
182,192,56341,1,4,0:0:0:0:
329,192,56341,1,0,0:0:0:0:
36,192,56573,1,0,0:0:0:0:
475,192,56728,1,0,0:0:0:0:
402,192,56882,1,0,0:0:0:0:
255,192,57037,1,0,0:0:0:0:
109,192,57192,1,0,0:0:0:0:
329,192,57346,1,0,0:0:0:0:
255,192,57501,128,0,57810:0:0:0:0:
402,192,57656,1,0,0:0:0:0:
109,192,57656,1,4,0:0:0:0:
36,192,57810,1,0,0:0:0:0:
182,192,57965,1,0,0:0:0:0:
329,192,58120,1,4,0:0:0:0:
475,192,58120,1,0,0:0:0:0:
255,192,58352,1,4,0:0:0:0:
402,192,58352,1,0,0:0:0:0:
182,192,58584,1,4,0:0:0:0:
329,192,58584,1,0,0:0:0:0:
109,192,58815,1,4,0:0:0:0:
255,192,58815,1,0,0:0:0:0:
36,192,59047,128,0,59357:0:0:0:0:
402,192,59357,1,4,0:0:0:0:
475,192,59357,1,0,0:0:0:0:
36,192,59589,1,0,0:0:0:0:
109,192,59589,1,4,0:0:0:0:
329,192,59821,1,4,0:0:0:0:
402,192,59821,1,0,0:0:0:0:
109,192,60053,1,0,0:0:0:0:
182,192,60053,1,4,0:0:0:0:
255,192,60130,1,0,0:0:0:0:
329,192,60285,1,0,0:0:0:0:
402,192,60439,1,0,0:0:0:0:
36,192,60594,1,0,0:0:0:0:
182,192,60594,1,4,0:0:0:0:
475,192,60826,1,0,0:0:0:0:
255,192,60826,128,4,61212:0:0:0:0:
109,192,61212,1,0,0:0:0:0:
402,192,61212,1,4,0:0:0:0:
329,192,61444,1,0,0:0:0:0:
182,192,61444,128,4,61831:0:0:0:0:
36,192,61831,128,0,62140:0:0:0:0:
475,192,62140,128,0,62450:0:0:0:0:
109,192,62450,1,0,0:0:0:0:
402,192,62450,1,4,0:0:0:0:
182,192,62681,1,4,0:0:0:0:
329,192,62681,1,0,0:0:0:0:
36,192,62913,1,4,0:0:0:0:
475,192,62913,1,0,0:0:0:0:
109,192,63068,1,4,0:0:0:0:
402,192,63068,1,0,0:0:0:0:
256,192,63223,128,0,63377:0:0:0:0:
402,192,63532,128,0,63687:0:0:0:0:
109,192,63841,128,0,63996:0:0:0:0:
329,192,64151,128,0,64305:0:0:0:0:
182,192,64460,128,0,64614:0:0:0:0:
475,192,64769,128,0,64924:0:0:0:0:
36,192,65078,128,0,65233:0:0:0:0:
402,192,65388,128,0,65542:0:0:0:0:
109,192,65697,128,0,65852:0:0:0:0:
329,192,66006,128,0,66161:0:0:0:0:
402,192,66315,128,0,66470:0:0:0:0:
182,192,66625,128,0,66779:0:0:0:0:
329,192,66934,128,0,67089:0:0:0:0:
475,192,67243,128,0,67398:0:0:0:0:
36,192,67553,128,0,67707:0:0:0:0:
256,192,67707,128,0,68017:0:0:0:0:
329,192,68017,1,4,0:0:0:0:
256,192,68171,1,0,0:0:0:0:
182,192,68326,1,0,0:0:0:0:
109,192,68480,1,0,0:0:0:0:
36,192,68635,1,0,0:0:0:0:
182,192,68790,1,0,0:0:0:0:
329,192,68944,1,0,0:0:0:0:
475,192,69099,1,0,0:0:0:0:
329,192,69254,1,4,0:0:0:0:
182,192,69408,1,0,0:0:0:0:
36,192,69563,1,0,0:0:0:0:
256,192,69718,1,0,0:0:0:0:
475,192,69872,1,0,0:0:0:0:
329,192,70027,1,0,0:0:0:0:
256,192,70181,1,0,0:0:0:0:
182,192,70336,1,0,0:0:0:0:
109,192,70491,128,4,70800:0:0:0:0:
402,192,70800,128,4,71109:0:0:0:0:
109,192,71109,128,4,71419:0:0:0:0:
256,192,71419,128,4,71728:0:0:0:0:
402,192,71728,128,0,72346:0:0:0:70:LR3_BassDropSSG.wav
36,192,72346,128,4,72656:0:0:0:0:
109,192,72656,128,4,72965:0:0:0:0:
182,192,72965,1,0,0:0:0:0:
329,192,72965,1,4,0:0:0:0:
256,192,73274,1,8,0:0:0:0:
402,192,73274,1,0,0:0:0:0:
36,192,73584,1,0,0:0:0:0:
182,192,73584,1,0,0:0:0:0:
329,192,73893,1,8,0:0:0:0:
475,192,73893,1,0,0:0:0:0:
109,192,74202,1,0,0:0:0:0:
256,192,74202,1,0,0:0:0:0:
182,192,74511,1,0,0:0:0:0:
329,192,74511,1,8,0:0:0:0:
36,192,74821,1,0,0:0:0:0:
182,192,74821,1,0,0:0:0:0:
329,192,75130,1,8,0:0:0:0:
475,192,75130,1,0,0:0:0:0:
256,192,75285,1,0,0:0:0:0:
109,192,75439,1,0,0:0:0:0:
182,192,75439,1,0,0:0:0:0:
329,192,75748,1,8,0:0:0:0:
402,192,75748,1,0,0:0:0:0:
36,192,76058,1,0,0:0:0:0:
109,192,76058,1,0,0:0:0:0:
256,192,76367,1,0,0:0:0:0:
182,192,76367,1,8,0:0:0:0:
329,192,76676,1,0,0:0:0:0:
402,192,76676,1,0,0:0:0:0:
182,192,76986,1,8,0:0:0:0:
109,192,76986,1,0,0:0:0:0:
402,192,77295,1,0,0:0:0:0:
475,192,77295,128,0,77913:0:0:0:0:
182,192,77604,1,0,0:0:0:0:
329,192,77604,1,8,0:0:0:0:
256,192,77759,1,0,0:0:0:0:
109,192,77913,1,0,0:0:0:0:
402,192,77913,1,0,0:0:0:0:
182,192,78223,1,0,0:0:0:0:
329,192,78223,1,8,0:0:0:0:
36,192,78532,1,0,0:0:0:0:
109,192,78532,1,0,0:0:0:0:
402,192,78841,1,8,0:0:0:0:
475,192,78841,1,0,0:0:0:0:
109,192,79151,1,0,0:0:0:0:
182,192,79151,1,0,0:0:0:0:
256,192,79460,1,0,0:0:0:0:
329,192,79460,1,8,0:0:0:0:
36,192,79769,1,0,0:0:0:0:
109,192,79769,1,0,0:0:0:0:
475,192,80078,1,0,0:0:0:0:
402,192,80078,1,8,0:0:0:0:
329,192,80388,1,0,0:0:0:0:
256,192,80388,1,0,0:0:0:0:
36,192,80697,1,0,0:0:0:0:
182,192,80697,1,8,0:0:0:0:
329,192,81006,1,0,0:0:0:0:
475,192,81006,1,0,0:0:0:0:
109,192,81315,1,0,0:0:0:0:
256,192,81315,1,8,0:0:0:0:
402,192,81625,1,0,0:0:0:0:
475,192,81625,1,0,0:0:0:0:
109,192,81934,1,8,0:0:0:0:
36,192,81934,1,0,0:0:0:0:
182,192,82166,1,0,0:0:0:0:
329,192,82243,1,0,0:0:0:0:
402,192,82398,1,0,0:0:0:0:
475,192,82553,1,0,0:0:0:0:
329,192,82707,1,0,0:0:0:0:
109,192,82862,1,0,0:0:0:0:
182,192,82862,1,4,0:0:0:0:
329,192,83171,1,8,0:0:0:0:
256,192,83171,1,0,0:0:0:0:
109,192,83480,1,0,0:0:0:0:
182,192,83480,1,0,0:0:0:0:
402,192,83790,1,8,0:0:0:0:
475,192,83790,1,0,0:0:0:0:
109,192,84099,1,0,0:0:0:0:
36,192,84099,1,0,0:0:0:0:
256,192,84408,1,0,0:0:0:0:
329,192,84408,1,8,0:0:0:0:
402,192,84718,1,0,0:0:0:0:
475,192,84718,1,0,0:0:0:0:
109,192,85027,1,0,0:0:0:0:
182,192,85027,1,8,0:0:0:0:
329,192,85336,1,0,0:0:0:0:
402,192,85336,1,0,0:0:0:0:
36,192,85645,1,0,0:0:0:0:
109,192,85645,1,8,0:0:0:0:
402,192,85955,1,0,0:0:0:0:
475,192,85955,1,0,0:0:0:0:
329,192,86264,1,8,0:0:0:0:
256,192,86264,1,0,0:0:0:0:
182,192,86573,1,0,0:0:0:0:
36,192,86573,1,0,0:0:0:0:
256,192,86882,1,8,0:0:0:0:
402,192,86882,1,0,0:0:0:0:
329,192,87192,128,0,87810:0:0:0:0:
109,192,87192,1,0,0:0:0:0:
36,192,87501,1,0,0:0:0:0:
182,192,87501,1,8,0:0:0:0:
109,192,87656,1,0,0:0:0:0:
182,192,87810,1,4,0:0:0:0:
329,192,87965,1,0,0:0:0:0:
402,192,88120,1,0,0:0:0:0:
475,192,88274,1,0,0:0:0:0:
256,192,88429,1,0,0:0:0:0:
182,192,88584,1,0,0:0:0:0:
109,192,88738,1,0,0:0:0:0:
36,192,88893,1,0,0:0:0:0:
256,192,89047,1,4,0:0:0:0:
329,192,89202,1,0,0:0:0:0:
402,192,89357,1,0,0:0:0:0:
475,192,89511,1,0,0:0:0:0:
329,192,89666,1,0,0:0:0:0:
182,192,89821,1,0,0:0:0:0:
36,192,89975,1,0,0:0:0:0:
256,192,90130,1,0,0:0:0:0:
475,192,90285,128,4,90594:0:0:0:0:
256,192,90594,128,4,90903:0:0:0:0:
36,192,90903,128,4,91212:0:0:0:0:
402,192,91212,128,4,91522:0:0:0:0:
182,192,91522,1,0,0:0:0:0:
329,192,91522,1,4,0:0:0:0:
109,192,91754,1,4,0:0:0:0:
402,192,91754,1,0,0:0:0:0:
36,192,91986,1,0,0:0:0:0:
475,192,91986,1,4,0:0:0:0:
182,192,92218,1,4,0:0:0:0:
329,192,92218,1,0,0:0:0:0:
109,192,92450,1,0,0:0:0:0:
402,192,92450,1,4,0:0:0:0:
36,192,92604,1,4,0:0:0:0:
475,192,92604,1,0,0:0:0:0:
182,192,92759,1,4,0:0:0:0:
256,192,92759,128,0,93996:0:0:0:0:
475,192,93996,128,8,94614:0:0:0:0:
36,192,94614,128,8,94924:0:0:0:0:
182,192,94924,1,0,0:0:0:0:
329,192,94924,1,8,0:0:0:0:
109,192,95233,1,0,0:0:0:0:
402,192,95233,1,4,0:0:0:0:
329,192,95542,1,8,0:0:0:0:
475,192,95542,1,0,0:0:0:0:
182,192,95852,1,0,0:0:0:0:
36,192,95852,1,0,0:0:0:0:
329,192,96161,1,8,0:0:0:0:
402,192,96161,1,0,0:0:0:0:
182,192,96470,1,0,0:0:0:0:
109,192,96470,1,0,0:0:0:0:
256,192,96779,1,8,0:0:0:0:
329,192,96779,1,0,0:0:0:0:
402,192,97089,1,0,0:0:0:0:
475,192,97089,1,0,0:0:0:0:
256,192,97398,1,8,0:0:0:0:
182,192,97398,1,0,0:0:0:0:
109,192,97707,1,0,0:0:0:0:
36,192,97707,1,0,0:0:0:0:
329,192,98017,1,8,0:0:0:0:
475,192,98017,1,0,0:0:0:0:
109,192,98326,1,0,0:0:0:0:
256,192,98326,1,0,0:0:0:0:
182,192,98635,1,8,0:0:0:0:
329,192,98635,1,0,0:0:0:0:
402,192,98944,1,0,0:0:0:0:
475,192,98944,1,0,0:0:0:0:
36,192,99254,1,0,0:0:0:0:
256,192,99254,1,8,0:0:0:0:
109,192,99563,1,0,0:0:0:0:
329,192,99563,1,0,0:0:0:0:
182,192,99872,1,8,0:0:0:0:
256,192,100027,1,0,0:0:0:0:
329,192,100181,1,0,0:0:0:0:
475,192,100181,1,0,0:0:0:0:
36,192,100491,1,0,0:0:0:0:
182,192,100491,1,8,0:0:0:0:
256,192,100800,1,0,0:0:0:0:
402,192,100800,1,0,0:0:0:0:
109,192,101109,1,0,0:0:0:0:
182,192,101109,1,8,0:0:0:0:
329,192,101419,1,0,0:0:0:0:
402,192,101419,1,0,0:0:0:0:
36,192,101728,1,0,0:0:0:0:
182,192,101728,1,8,0:0:0:0:
329,192,102037,1,0,0:0:0:0:
475,192,102037,1,0,0:0:0:0:
182,192,102346,1,0,0:0:0:0:
256,192,102346,1,8,0:0:0:0:
36,192,102656,1,0,0:0:0:0:
109,192,102656,1,0,0:0:0:0:
329,192,102965,1,8,0:0:0:0:
402,192,102965,1,0,0:0:0:0:
109,192,103274,1,0,0:0:0:0:
182,192,103274,1,0,0:0:0:0:
402,192,103584,1,8,0:0:0:0:
475,192,103584,1,0,0:0:0:0:
329,192,103893,1,0,0:0:0:0:
182,192,103893,1,0,0:0:0:0:
36,192,104202,1,8,0:0:0:0:
475,192,104202,1,0,0:0:0:0:
182,192,104434,1,0,0:0:0:0:
329,192,104511,1,0,0:0:0:0:
256,192,104666,1,0,0:0:0:0:
182,192,104821,1,0,0:0:0:0:
109,192,104975,1,0,0:0:0:0:
182,192,105130,1,0,0:0:0:0:
329,192,105130,1,4,0:0:0:0:
402,192,105439,1,8,0:0:0:0:
475,192,105439,1,0,0:0:0:0:
109,192,105748,1,0,0:0:0:0:
36,192,105748,1,0,0:0:0:0:
182,192,106058,1,8,0:0:0:0:
329,192,106058,1,0,0:0:0:0:
402,192,106367,1,0,0:0:0:0:
475,192,106367,1,0,0:0:0:0:
109,192,106676,1,8,0:0:0:0:
36,192,106676,1,0,0:0:0:0:
256,192,106986,1,0,0:0:0:0:
402,192,106986,1,0,0:0:0:0:
109,192,107295,1,0,0:0:0:0:
329,192,107295,1,8,0:0:0:0:
182,192,107604,1,0,0:0:0:0:
402,192,107604,1,0,0:0:0:0:
109,192,107913,1,8,0:0:0:0:
36,192,107913,1,0,0:0:0:0:
402,192,108223,1,0,0:0:0:0:
475,192,108223,1,0,0:0:0:0:
182,192,108532,1,0,0:0:0:0:
256,192,108532,1,8,0:0:0:0:
36,192,108841,1,0,0:0:0:0:
109,192,108841,1,0,0:0:0:0:
329,192,109151,1,8,0:0:0:0:
475,192,109151,1,0,0:0:0:0:
109,192,109460,1,0,0:0:0:0:
256,192,109460,128,0,109769:0:0:0:0:
402,192,109769,1,8,0:0:0:0:
475,192,109769,1,0,0:0:0:0:
36,192,110078,1,4,0:0:0:0:
182,192,110233,1,0,0:0:0:0:
329,192,110388,1,0,0:0:0:0:
475,192,110542,1,0,0:0:0:0:
256,192,110697,1,0,0:0:0:0:
36,192,110852,1,0,0:0:0:0:
182,192,111006,1,0,0:0:0:0:
329,192,111161,1,0,0:0:0:0:
475,192,111315,1,4,0:0:0:0:
329,192,111470,1,0,0:0:0:0:
182,192,111625,1,0,0:0:0:0:
36,192,111779,1,0,0:0:0:0:
256,192,111934,1,0,0:0:0:0:
402,192,112089,1,0,0:0:0:0:
109,192,112243,1,0,0:0:0:0:
256,192,112398,1,0,0:0:0:0:
402,192,112553,1,4,0:0:0:0:
475,192,112553,1,0,0:0:0:0:
109,192,112785,1,4,0:0:0:0:
36,192,112785,1,0,0:0:0:0:
329,192,113017,1,4,0:0:0:0:
402,192,113017,1,0,0:0:0:0:
182,192,113248,1,4,0:0:0:0:
109,192,113248,1,0,0:0:0:0:
475,192,113480,1,4,0:0:0:0:
36,192,113480,1,0,0:0:0:0:
109,192,113635,1,4,0:0:0:0:
402,192,113635,1,0,0:0:0:0:
182,192,113790,1,4,0:0:0:0:
329,192,113790,128,0,114408:0:0:0:0:
182,192,114408,128,0,115027:0:0:0:0:
36,192,115027,1,0,0:0:0:0:
475,192,115027,1,0,0:0:0:0:
36,192,115259,1,0,0:0:0:0:
256,192,115259,1,4,0:0:0:0:
475,192,115259,1,0,0:0:0:0:
