osu file format v14

[General]
AudioFilename: XROSS INFECTION.mp3
AudioLeadIn: 0
PreviewTime: 72346
Countdown: 0
SampleSet: Soft
StackLeniency: 0.7
Mode: 3
LetterboxInBreaks: 0
EpilepsyWarning: 1
SpecialStyle: 0
WidescreenStoryboard: 1

[Editor]
Bookmarks: 72346
DistanceSpacing: 0.8
BeatDivisor: 4
GridSize: 4
TimelineZoom: 1.56

[Metadata]
Title:XROSS INFECTION
TitleUnicode:XROSS INFECTION
Artist:BlackY vs. Yooh
ArtistUnicode:BlackY vs. Yooh
Creator:-BANGKE-
Version:7K ADVANCED
Source:SOUND VOLTEX II -infinite infection-
Tags:sdvx 制作決定記念 オリジナル楽曲コンテスト production confirmation commemorative original song contest ALfarris erlinadewi- Ortlinde ExKagii- Xenophilius sherrysina PureLight Nap Takane6 arviejhay
BeatmapID:831887
BeatmapSetID:372411

[Difficulty]
HPDrainRate:7.7
CircleSize:7
OverallDifficulty:7.7
ApproachRate:5
SliderMultiplier:1.4
SliderTickRate:1

[Events]
//Background and Video events
0,0,"BG xross infection.jpg",0,0
//Break Periods
//Storyboard Layer 0 (Background)
//Storyboard Layer 1 (Fail)
//Storyboard Layer 2 (Pass)
//Storyboard Layer 3 (Foreground)
//Storyboard Sound Samples

[TimingPoints]
2450,309.278350515464,4,2,1,40,1,0
72965,-100,4,2,1,40,0,1
92759,-100,4,2,1,40,0,0
95233,-100,4,2,1,40,0,1
115027,-100,4,2,1,40,0,0

[HitObjects]
256,192,1212,128,0,2450:0:0:0:0:
36,192,2450,1,0,0:0:0:0:
329,192,2450,1,4,0:0:0:0:
475,192,2450,128,0,3687:0:0:0:0:
329,192,3687,128,0,4924:0:0:0:0:
182,192,3687,1,0,0:0:0:0:
182,192,4924,128,0,7398:0:0:0:0:
36,192,4924,1,0,0:0:0:0:
475,192,7398,128,0,9872:0:0:0:0:
36,192,7398,128,0,9872:0:0:0:0:
329,192,9872,128,0,12346:0:0:0:0:
182,192,9872,128,0,12346:0:0:0:0:
256,192,12346,128,0,13584:0:0:0:70:LR3_BassDropSSG.wav
36,192,13584,1,4,0:0:0:0:
182,192,13584,1,4,0:0:0:0:
475,192,13584,1,0,0:0:0:0:
402,192,13661,1,0,0:0:0:0:
256,192,13893,128,0,14125:0:0:0:0:
109,192,13893,1,8,0:0:0:0:
329,192,14125,1,0,0:0:0:0:
36,192,14202,1,0,0:0:0:0:
109,192,14279,1,0,0:0:0:0:
402,192,14511,128,0,14743:0:0:0:0:
256,192,14511,1,8,0:0:0:0:
182,192,14743,1,0,0:0:0:0:
475,192,14821,1,0,0:0:0:0:
402,192,14898,1,0,0:0:0:0:
256,192,15130,128,0,15362:0:0:0:0:
109,192,15130,1,8,0:0:0:0:
329,192,15362,1,0,0:0:0:0:
36,192,15439,1,0,0:0:0:0:
109,192,15517,1,0,0:0:0:0:
402,192,15748,128,0,15980:0:0:0:0:
256,192,15748,1,8,0:0:0:0:
182,192,15980,1,0,0:0:0:0:
475,192,16058,1,0,0:0:0:0:
402,192,16135,1,0,0:0:0:0:
256,192,16367,128,0,16599:0:0:0:0:
109,192,16367,1,8,0:0:0:0:
329,192,16599,1,0,0:0:0:0:
36,192,16676,1,0,0:0:0:0:
109,192,16754,1,0,0:0:0:0:
402,192,16986,128,0,17218:0:0:0:0:
256,192,16986,1,8,0:0:0:0:
182,192,17218,1,0,0:0:0:0:
475,192,17295,1,0,0:0:0:0:
402,192,17372,1,0,0:0:0:0:
256,192,17604,128,0,17836:0:0:0:0:
109,192,17604,1,8,0:0:0:0:
329,192,17836,1,0,0:0:0:0:
36,192,17913,1,0,0:0:0:0:
109,192,17991,1,0,0:0:0:0:
475,192,18223,1,0,0:0:0:0:
182,192,18223,128,8,18377:0:0:0:0:
36,192,18377,1,0,0:0:0:0:
402,192,18377,128,0,18532:0:0:0:0:
329,192,18455,1,0,0:0:0:0:
256,192,18532,1,0,0:0:0:0:
109,192,18532,1,0,0:0:0:0:
182,192,18609,1,0,0:0:0:0:
36,192,18841,1,8,0:0:0:0:
182,192,18841,128,0,19073:0:0:0:0:
402,192,19073,1,0,0:0:0:0:
329,192,19151,1,0,0:0:0:0:
256,192,19228,1,0,0:0:0:0:
329,192,19460,128,0,19692:0:0:0:0:
475,192,19460,1,8,0:0:0:0:
109,192,19692,1,0,0:0:0:0:
182,192,19769,1,0,0:0:0:0:
256,192,19846,1,0,0:0:0:0:
182,192,20078,128,0,20310:0:0:0:0:
36,192,20078,1,8,0:0:0:0:
402,192,20310,1,0,0:0:0:0:
329,192,20388,1,0,0:0:0:0:
256,192,20465,1,0,0:0:0:0:
329,192,20697,128,0,20929:0:0:0:0:
475,192,20697,1,8,0:0:0:0:
109,192,20929,1,0,0:0:0:0:
182,192,21006,1,0,0:0:0:0:
256,192,21084,1,0,0:0:0:0:
182,192,21315,128,0,21547:0:0:0:0:
36,192,21315,1,8,0:0:0:0:
402,192,21547,1,0,0:0:0:0:
329,192,21625,1,0,0:0:0:0:
256,192,21702,1,0,0:0:0:0:
329,192,21934,128,0,22166:0:0:0:0:
475,192,21934,1,8,0:0:0:0:
109,192,22166,1,0,0:0:0:0:
182,192,22243,1,0,0:0:0:0:
256,192,22321,1,0,0:0:0:0:
182,192,22553,128,0,22785:0:0:0:0:
36,192,22553,1,8,0:0:0:0:
402,192,22785,1,0,0:0:0:0:
329,192,22785,1,0,0:0:0:0:
109,192,22862,1,0,0:0:0:0:
182,192,22862,1,0,0:0:0:0:
402,192,23017,1,0,0:0:0:0:
329,192,23017,1,0,0:0:0:0:
109,192,23171,1,0,0:0:0:0:
182,192,23171,1,0,0:0:0:0:
402,192,23326,1,0,0:0:0:0:
329,192,23326,1,0,0:0:0:0:
256,192,23480,1,0,0:0:0:0:
36,192,23480,1,0,0:0:0:0:
475,192,23480,1,4,0:0:0:0:
182,192,23558,1,0,0:0:0:0:
329,192,23790,128,0,24022:0:0:0:0:
109,192,23790,1,8,0:0:0:0:
256,192,24022,1,0,0:0:0:0:
182,192,24099,1,0,0:0:0:0:
109,192,24176,1,0,0:0:0:0:
256,192,24408,128,0,24640:0:0:0:0:
36,192,24408,1,8,0:0:0:0:
329,192,24640,1,0,0:0:0:0:
402,192,24718,1,0,0:0:0:0:
475,192,24795,1,0,0:0:0:0:
329,192,25027,128,0,25259:0:0:0:0:
109,192,25027,1,8,0:0:0:0:
256,192,25259,1,0,0:0:0:0:
182,192,25336,1,0,0:0:0:0:
109,192,25413,1,0,0:0:0:0:
256,192,25645,128,0,25877:0:0:0:0:
36,192,25645,1,8,0:0:0:0:
329,192,25877,1,0,0:0:0:0:
402,192,25955,1,0,0:0:0:0:
475,192,26032,1,0,0:0:0:0:
329,192,26264,128,0,26496:0:0:0:0:
109,192,26264,1,8,0:0:0:0:
256,192,26496,1,0,0:0:0:0:
182,192,26573,1,0,0:0:0:0:
109,192,26651,1,0,0:0:0:0:
256,192,26882,128,0,27114:0:0:0:0:
36,192,26882,1,8,0:0:0:0:
329,192,27114,1,0,0:0:0:0:
402,192,27192,1,0,0:0:0:0:
475,192,27269,1,0,0:0:0:0:
329,192,27501,128,0,27733:0:0:0:0:
109,192,27501,1,8,0:0:0:0:
256,192,27733,1,0,0:0:0:0:
182,192,27810,1,0,0:0:0:0:
109,192,27888,1,0,0:0:0:0:
475,192,28120,1,0,0:0:0:0:
329,192,28274,1,0,0:0:0:0:
256,192,28352,1,0,0:0:0:0:
182,192,28429,1,4,0:0:0:0:
36,192,28429,1,0,0:0:0:0:
109,192,28429,1,0,0:0:0:0:
475,192,28584,1,0,0:0:0:0:
329,192,28738,1,0,0:0:0:0:
36,192,28893,1,0,0:0:0:0:
182,192,29047,1,0,0:0:0:0:
329,192,29202,1,0,0:0:0:0:
475,192,29357,1,0,0:0:0:0:
182,192,29511,1,0,0:0:0:0:
36,192,29666,1,0,0:0:0:0:
256,192,29666,1,0,0:0:0:0:
402,192,29666,1,4,0:0:0:0:
109,192,29821,1,0,0:0:0:0:
182,192,29975,1,0,0:0:0:0:
256,192,30130,1,0,0:0:0:0:
329,192,30285,1,0,0:0:0:0:
402,192,30439,1,0,0:0:0:0:
475,192,30594,1,0,0:0:0:0:
329,192,30748,1,0,0:0:0:0:
109,192,30903,1,0,0:0:0:0:
256,192,30903,1,4,0:0:0:0:
402,192,30903,1,0,0:0:0:0:
109,192,31135,1,0,0:0:0:0:
256,192,31135,1,4,0:0:0:0:
402,192,31135,1,0,0:0:0:0:
109,192,31367,1,0,0:0:0:0:
256,192,31367,1,4,0:0:0:0:
402,192,31367,1,0,0:0:0:0:
109,192,31599,1,0,0:0:0:0:
256,192,31599,1,4,0:0:0:0:
402,192,31599,1,0,0:0:0:0:
109,192,31831,1,0,0:0:0:0:
256,192,31831,1,4,0:0:0:0:
402,192,31831,1,0,0:0:0:0:
109,192,31986,1,0,0:0:0:0:
256,192,31986,1,4,0:0:0:0:
402,192,31986,1,0,0:0:0:0:
36,192,32140,1,0,0:0:0:0:
475,192,32218,1,0,0:0:0:0:
36,192,32295,1,0,0:0:0:0:
475,192,32372,1,0,0:0:0:0:
36,192,32450,1,0,0:0:0:0:
109,192,32527,1,0,0:0:0:0:
402,192,32604,1,0,0:0:0:0:
109,192,32681,1,0,0:0:0:0:
402,192,32759,1,0,0:0:0:0:
329,192,32836,1,0,0:0:0:0:
182,192,32913,1,0,0:0:0:0:
329,192,32991,1,0,0:0:0:0:
182,192,33068,1,0,0:0:0:0:
329,192,33145,1,0,0:0:0:0:
182,192,33223,1,0,0:0:0:0:
329,192,33300,1,0,0:0:0:0:
36,192,33377,1,0,0:0:0:0:
475,192,33377,1,0,0:0:0:0:
256,192,33377,128,4,34614:0:0:0:0:
182,192,33687,1,8,0:0:0:0:
109,192,33687,1,0,0:0:0:0:
329,192,33996,1,0,0:0:0:0:
475,192,33996,1,0,0:0:0:0:
402,192,34305,1,8,0:0:0:0:
182,192,34305,1,0,0:0:0:0:
475,192,34614,1,0,0:0:0:0:
36,192,34614,128,0,35233:0:0:0:0:
402,192,34924,1,8,0:0:0:0:
109,192,34924,1,0,0:0:0:0:
182,192,35233,128,0,35852:0:0:0:0:
329,192,35233,1,0,0:0:0:0:
402,192,35542,1,8,0:0:0:0:
36,192,35542,1,0,0:0:0:0:
475,192,35852,128,0,36470:0:0:0:0:
329,192,35852,1,0,0:0:0:0:
256,192,36161,1,8,0:0:0:0:
36,192,36161,1,0,0:0:0:0:
109,192,36470,1,0,0:0:0:0:
329,192,36470,128,0,37089:0:0:0:0:
182,192,36779,1,8,0:0:0:0:
402,192,36779,1,0,0:0:0:0:
36,192,37089,128,0,37707:0:0:0:0:
256,192,37089,1,0,0:0:0:0:
402,192,37398,1,8,0:0:0:0:
475,192,37398,1,0,0:0:0:0:
182,192,37707,128,0,38326:0:0:0:0:
329,192,37707,1,0,0:0:0:0:
475,192,38017,1,8,0:0:0:0:
475,192,38171,1,0,0:0:0:0:
402,192,38326,128,0,38944:0:0:0:0:
256,192,38326,1,0,0:0:0:0:
329,192,38635,1,8,0:0:0:0:
36,192,38635,1,0,0:0:0:0:
109,192,38944,128,0,39254:0:0:0:0:
256,192,38944,1,0,0:0:0:0:
182,192,39254,128,0,39563:0:0:0:0:
329,192,39254,1,8,0:0:0:0:
256,192,39563,128,0,40181:0:0:0:0:
402,192,39563,1,0,0:0:0:0:
475,192,39872,1,8,0:0:0:0:
36,192,39872,1,0,0:0:0:0:
402,192,40181,1,0,0:0:0:0:
109,192,40181,128,0,40800:0:0:0:0:
329,192,40491,1,8,0:0:0:0:
182,192,40491,1,0,0:0:0:0:
475,192,40800,128,0,42037:0:0:0:0:
256,192,40800,1,0,0:0:0:0:
182,192,41109,1,8,0:0:0:0:
329,192,41109,1,0,0:0:0:0:
109,192,41419,1,0,0:0:0:0:
256,192,41419,1,0,0:0:0:0:
36,192,41728,1,8,0:0:0:0:
182,192,41728,1,0,0:0:0:0:
109,192,42037,1,0,0:0:0:0:
256,192,42037,128,0,42656:0:0:0:0:
329,192,42192,1,4,0:0:0:0:
475,192,42192,1,0,0:0:0:0:
402,192,42346,1,0,0:0:0:0:
475,192,42501,1,0,0:0:0:0:
402,192,42578,1,0,0:0:0:0:
36,192,42656,128,0,43274:0:0:0:0:
329,192,42656,1,4,0:0:0:0:
182,192,42810,1,0,0:0:0:0:
329,192,42965,1,0,0:0:0:0:
182,192,43042,1,0,0:0:0:0:
329,192,43120,1,0,0:0:0:0:
182,192,43197,1,0,0:0:0:0:
475,192,43274,128,0,44511:0:0:0:0:
256,192,43274,1,4,0:0:0:0:
402,192,43274,1,0,0:0:0:0:
109,192,43584,1,8,0:0:0:0:
36,192,43584,1,0,0:0:0:0:
256,192,43893,1,0,0:0:0:0:
182,192,43893,1,0,0:0:0:0:
402,192,44202,1,8,0:0:0:0:
329,192,44202,1,0,0:0:0:0:
329,192,44511,1,0,0:0:0:0:
109,192,44511,128,0,45130:0:0:0:0:
256,192,44821,1,8,0:0:0:0:
475,192,44821,1,0,0:0:0:0:
402,192,45130,128,0,45748:0:0:0:0:
182,192,45130,1,0,0:0:0:0:
109,192,45439,1,8,0:0:0:0:
329,192,45439,1,0,0:0:0:0:
256,192,45748,128,0,46986:0:0:0:0:
36,192,45748,1,0,0:0:0:0:
109,192,46058,1,8,0:0:0:0:
402,192,46058,1,0,0:0:0:0:
182,192,46367,1,0,0:0:0:0:
475,192,46367,1,0,0:0:0:0:
329,192,46676,1,8,0:0:0:0:
36,192,46676,1,0,0:0:0:0:
402,192,46986,1,0,0:0:0:0:
109,192,46986,128,0,48223:0:0:0:0:
329,192,47295,1,8,0:0:0:0:
475,192,47295,1,0,0:0:0:0:
256,192,47604,1,0,0:0:0:0:
402,192,47604,1,0,0:0:0:0:
402,192,47913,1,8,0:0:0:0:
402,192,48068,1,0,0:0:0:0:
475,192,48223,128,0,49460:0:0:0:0:
256,192,48223,1,4,0:0:0:0:
182,192,48223,1,0,0:0:0:0:
36,192,48377,1,0,0:0:0:0:
109,192,48532,1,8,0:0:0:0:
329,192,48532,1,0,0:0:0:0:
182,192,48687,1,0,0:0:0:0:
256,192,48841,1,0,0:0:0:0:
36,192,48841,1,0,0:0:0:0:
329,192,48996,1,0,0:0:0:0:
402,192,49151,1,8,0:0:0:0:
109,192,49151,1,0,0:0:0:0:
329,192,49305,1,0,0:0:0:0:
256,192,49460,128,0,50078:0:0:0:0:
182,192,49614,1,0,0:0:0:0:
109,192,49769,1,8,0:0:0:0:
402,192,49769,1,0,0:0:0:0:
182,192,49924,1,0,0:0:0:0:
36,192,50078,128,0,50697:0:0:0:0:
329,192,50078,1,0,0:0:0:0:
475,192,50233,1,0,0:0:0:0:
402,192,50388,1,8,0:0:0:0:
109,192,50388,1,0,0:0:0:0:
329,192,50542,1,0,0:0:0:0:
182,192,50697,128,0,51934:0:0:0:0:
256,192,50697,1,4,0:0:0:0:
329,192,50929,1,4,0:0:0:0:
475,192,50929,1,0,0:0:0:0:
36,192,51161,1,0,0:0:0:0:
109,192,51161,1,4,0:0:0:0:
329,192,51393,1,4,0:0:0:0:
475,192,51393,1,0,0:0:0:0:
109,192,51625,1,4,0:0:0:0:
36,192,51625,1,0,0:0:0:0:
329,192,51779,1,4,0:0:0:0:
475,192,51779,1,0,0:0:0:0:
36,192,51934,1,0,0:0:0:0:
109,192,52011,1,0,0:0:0:0:
182,192,52089,1,0,0:0:0:0:
256,192,52166,1,0,0:0:0:0:
329,192,52243,1,0,0:0:0:0:
256,192,52321,1,0,0:0:0:0:
329,192,52398,1,0,0:0:0:0:
402,192,52475,1,0,0:0:0:0:
475,192,52553,1,0,0:0:0:0:
402,192,52630,1,0,0:0:0:0:
329,192,52707,1,0,0:0:0:0:
256,192,52785,1,0,0:0:0:0:
329,192,52862,1,0,0:0:0:0:
256,192,52939,1,0,0:0:0:0:
182,192,53017,1,0,0:0:0:0:
109,192,53094,1,0,0:0:0:0:
475,192,53171,128,0,53480:0:0:0:0:
329,192,53171,1,4,0:0:0:0:
36,192,53403,128,0,53635:0:0:0:0:
182,192,53403,1,4,0:0:0:0:
256,192,53635,128,0,53867:0:0:0:0:
402,192,53635,1,4,0:0:0:0:
182,192,53867,1,0,0:0:0:0:
36,192,53867,1,0,0:0:0:0:
109,192,53944,1,0,0:0:0:0:
182,192,54022,1,0,0:0:0:0:
256,192,54099,1,0,0:0:0:0:
402,192,54254,1,0,0:0:0:0:
109,192,54408,1,0,0:0:0:0:
329,192,54486,1,0,0:0:0:0:
256,192,54563,1,0,0:0:0:0:
182,192,54640,1,0,0:0:0:0:
402,192,54718,1,0,0:0:0:0:
36,192,54872,1,0,0:0:0:0:
109,192,54950,1,0,0:0:0:0:
182,192,55027,1,0,0:0:0:0:
329,192,55181,128,0,55259:0:0:0:0:
256,192,55336,128,0,55413:0:0:0:0:
329,192,55491,128,0,55645:0:0:0:0:
36,192,55645,128,0,55877:0:0:0:0:
182,192,55645,1,4,0:0:0:0:
256,192,55877,128,0,56109:0:0:0:0:
402,192,55877,1,4,0:0:0:0:
475,192,56109,128,0,56341:0:0:0:0:
329,192,56109,1,4,0:0:0:0:
36,192,56341,1,0,0:0:0:0:
182,192,56341,1,0,0:0:0:0:
256,192,56419,1,0,0:0:0:0:
329,192,56496,1,0,0:0:0:0:
402,192,56573,1,0,0:0:0:0:
475,192,56728,1,0,0:0:0:0:
329,192,56882,1,0,0:0:0:0:
256,192,56960,1,0,0:0:0:0:
182,192,57037,1,0,0:0:0:0:
109,192,57114,1,0,0:0:0:0:
36,192,57192,1,0,0:0:0:0:
182,192,57346,1,0,0:0:0:0:
329,192,57424,1,0,0:0:0:0:
182,192,57501,1,0,0:0:0:0:
329,192,57578,1,0,0:0:0:0:
109,192,57656,1,0,0:0:0:0:
256,192,57656,1,4,0:0:0:0:
402,192,57810,1,0,0:0:0:0:
329,192,57965,1,0,0:0:0:0:
182,192,58042,1,0,0:0:0:0:
475,192,58120,1,4,0:0:0:0:
256,192,58120,128,0,58352:0:0:0:0:
109,192,58352,128,0,58584:0:0:0:0:
329,192,58352,1,4,0:0:0:0:
402,192,58584,128,0,58815:0:0:0:0:
182,192,58584,1,4,0:0:0:0:
36,192,58893,1,0,0:0:0:0:
256,192,58893,1,0,0:0:0:0:
109,192,58970,1,0,0:0:0:0:
182,192,59047,1,0,0:0:0:0:
256,192,59202,1,0,0:0:0:0:
475,192,59357,128,0,59589:0:0:0:0:
182,192,59357,1,4,0:0:0:0:
402,192,59589,128,0,59821:0:0:0:0:
109,192,59589,1,4,0:0:0:0:
36,192,59821,128,0,60053:0:0:0:0:
329,192,59821,1,4,0:0:0:0:
182,192,60053,1,0,0:0:0:0:
475,192,60053,1,0,0:0:0:0:
256,192,60130,1,0,0:0:0:0:
329,192,60285,1,0,0:0:0:0:
402,192,60439,1,0,0:0:0:0:
256,192,60594,1,4,0:0:0:0:
109,192,60594,128,0,60826:0:0:0:0:
182,192,60826,1,0,0:0:0:0:
329,192,60826,1,4,0:0:0:0:
256,192,60903,128,0,61212:0:0:0:0:
329,192,61212,1,4,0:0:0:0:
475,192,61212,1,0,0:0:0:0:
182,192,61444,1,4,0:0:0:0:
36,192,61444,1,0,0:0:0:0:
256,192,61522,128,0,61831:0:0:0:0:
36,192,61831,1,0,0:0:0:0:
109,192,61908,1,0,0:0:0:0:
182,192,61986,1,0,0:0:0:0:
256,192,62063,1,0,0:0:0:0:
475,192,62140,1,0,0:0:0:0:
402,192,62218,1,0,0:0:0:0:
329,192,62295,1,0,0:0:0:0:
256,192,62372,1,0,0:0:0:0:
182,192,62450,1,4,0:0:0:0:
36,192,62450,128,0,62681:0:0:0:0:
475,192,62681,128,0,62913:0:0:0:0:
329,192,62681,1,4,0:0:0:0:
109,192,62913,1,4,0:0:0:0:
402,192,62913,1,0,0:0:0:0:
329,192,63068,1,4,0:0:0:0:
182,192,63068,1,0,0:0:0:0:
36,192,63300,1,0,0:0:0:0:
182,192,63532,1,0,0:0:0:0:
329,192,63764,1,0,0:0:0:0:
109,192,63841,1,0,0:0:0:0:
182,192,63919,1,0,0:0:0:0:
256,192,63996,1,0,0:0:0:0:
329,192,64151,1,0,0:0:0:0:
402,192,64305,1,0,0:0:0:0:
36,192,64382,1,0,0:0:0:0:
109,192,64460,1,0,0:0:0:0:
182,192,64537,1,0,0:0:0:0:
475,192,64614,1,0,0:0:0:0:
402,192,64692,1,0,0:0:0:0:
329,192,64769,1,0,0:0:0:0:
256,192,64846,1,0,0:0:0:0:
182,192,64924,1,0,0:0:0:0:
109,192,65156,1,0,0:0:0:0:
329,192,65388,1,0,0:0:0:0:
182,192,65542,1,0,0:0:0:0:
475,192,65774,1,0,0:0:0:0:
402,192,66006,1,0,0:0:0:0:
182,192,66238,1,0,0:0:0:0:
109,192,66315,1,0,0:0:0:0:
36,192,66393,1,0,0:0:0:0:
256,192,66470,1,0,0:0:0:0:
402,192,66625,1,0,0:0:0:0:
329,192,66779,1,0,0:0:0:0:
256,192,66857,1,0,0:0:0:0:
182,192,66934,1,0,0:0:0:0:
109,192,67011,1,0,0:0:0:0:
36,192,67089,1,0,0:0:0:0:
329,192,67166,1,0,0:0:0:0:
402,192,67243,1,0,0:0:0:0:
256,192,67321,1,0,0:0:0:0:
329,192,67398,1,0,0:0:0:0:
182,192,67475,1,0,0:0:0:0:
256,192,67553,1,0,0:0:0:0:
109,192,67630,1,0,0:0:0:0:
182,192,67707,1,0,0:0:0:0:
475,192,67785,1,0,0:0:0:0:
402,192,67862,1,0,0:0:0:0:
329,192,67939,1,0,0:0:0:0:
36,192,68017,1,0,0:0:0:0:
109,192,68017,1,4,0:0:0:0:
256,192,68017,1,0,0:0:0:0:
182,192,68171,1,0,0:0:0:0:
256,192,68326,1,0,0:0:0:0:
329,192,68480,1,0,0:0:0:0:
402,192,68635,1,0,0:0:0:0:
256,192,68790,1,0,0:0:0:0:
182,192,68944,1,0,0:0:0:0:
109,192,69099,1,0,0:0:0:0:
182,192,69254,1,0,0:0:0:0:
329,192,69254,1,4,0:0:0:0:
256,192,69254,1,0,0:0:0:0:
402,192,69408,1,0,0:0:0:0:
475,192,69563,1,0,0:0:0:0:
36,192,69718,1,0,0:0:0:0:
109,192,69872,1,0,0:0:0:0:
182,192,70027,1,0,0:0:0:0:
256,192,70181,1,0,0:0:0:0:
329,192,70336,1,0,0:0:0:0:
36,192,70491,128,0,70800:0:0:0:0:
182,192,70491,1,4,0:0:0:0:
402,192,70491,1,0,0:0:0:0:
402,192,70800,1,0,0:0:0:0:
329,192,70877,1,0,0:0:0:0:
109,192,70955,1,0,0:0:0:0:
182,192,71032,1,0,0:0:0:0:
475,192,71109,128,0,71419:0:0:0:0:
329,192,71109,1,4,0:0:0:0:
36,192,71109,1,0,0:0:0:0:
182,192,71419,1,0,0:0:0:0:
109,192,71496,1,0,0:0:0:0:
329,192,71573,1,0,0:0:0:0:
402,192,71651,1,0,0:0:0:0:
256,192,71728,128,0,72346:0:0:0:70:LR3_BassDropSSG.wav
475,192,71882,1,0,0:0:0:0:
402,192,72037,1,0,0:0:0:0:
329,192,72192,1,0,0:0:0:0:
182,192,72346,1,4,0:0:0:0:
36,192,72346,128,0,72656:0:0:0:0:
109,192,72346,1,0,0:0:0:0:
475,192,72656,128,0,72965:0:0:0:0:
329,192,72656,1,4,0:0:0:0:
402,192,72656,1,0,0:0:0:0:
109,192,72965,1,0,0:0:0:0:
256,192,72965,1,4,0:0:0:0:
402,192,72965,1,0,0:0:0:0:
329,192,73120,1,0,0:0:0:0:
182,192,73274,1,8,0:0:0:0:
36,192,73274,1,0,0:0:0:0:
256,192,73429,1,0,0:0:0:0:
329,192,73584,1,0,0:0:0:0:
475,192,73584,1,0,0:0:0:0:
402,192,73661,128,0,73893:0:0:0:0:
109,192,73893,1,0,0:0:0:0:
182,192,73893,1,8,0:0:0:0:
329,192,74047,1,0,0:0:0:0:
256,192,74125,1,0,0:0:0:0:
329,192,74202,1,0,0:0:0:0:
475,192,74202,1,0,0:0:0:0:
182,192,74357,1,0,0:0:0:0:
109,192,74511,1,8,0:0:0:0:
36,192,74511,1,0,0:0:0:0:
256,192,74666,1,0,0:0:0:0:
329,192,74821,1,0,0:0:0:0:
475,192,74821,1,0,0:0:0:0:
402,192,74975,1,0,0:0:0:0:
329,192,75130,1,8,0:0:0:0:
182,192,75130,1,0,0:0:0:0:
109,192,75285,1,0,0:0:0:0:
36,192,75362,1,0,0:0:0:0:
109,192,75439,1,0,0:0:0:0:
256,192,75439,1,0,0:0:0:0:
329,192,75594,1,0,0:0:0:0:
402,192,75748,1,8,0:0:0:0:
475,192,75748,1,0,0:0:0:0:
256,192,75903,1,0,0:0:0:0:
36,192,76058,1,0,0:0:0:0:
182,192,76058,1,0,0:0:0:0:
109,192,76135,128,0,76367:0:0:0:0:
256,192,76367,1,0,0:0:0:0:
402,192,76367,1,8,0:0:0:0:
182,192,76522,1,0,0:0:0:0:
256,192,76599,1,0,0:0:0:0:
329,192,76676,1,0,0:0:0:0:
475,192,76676,128,0,76831:0:0:0:0:
182,192,76831,1,0,0:0:0:0:
109,192,76986,1,8,0:0:0:0:
36,192,76986,1,0,0:0:0:0:
256,192,77140,1,0,0:0:0:0:
402,192,77295,128,0,77913:0:0:0:0:
182,192,77295,1,0,0:0:0:0:
109,192,77450,1,0,0:0:0:0:
182,192,77604,1,0,0:0:0:0:
256,192,77604,1,8,0:0:0:0:
109,192,77759,1,0,0:0:0:0:
329,192,77759,1,0,0:0:0:0:
256,192,77913,1,0,0:0:0:0:
182,192,77913,1,0,0:0:0:0:
36,192,78068,1,0,0:0:0:0:
109,192,78223,1,0,0:0:0:0:
256,192,78223,1,8,0:0:0:0:
329,192,78377,1,0,0:0:0:0:
402,192,78455,1,0,0:0:0:0:
329,192,78532,1,0,0:0:0:0:
182,192,78532,1,0,0:0:0:0:
109,192,78687,1,0,0:0:0:0:
256,192,78841,1,8,0:0:0:0:
475,192,78841,1,0,0:0:0:0:
402,192,78996,1,0,0:0:0:0:
329,192,79073,1,0,0:0:0:0:
256,192,79151,1,0,0:0:0:0:
109,192,79151,1,0,0:0:0:0:
36,192,79305,1,0,0:0:0:0:
182,192,79460,1,8,0:0:0:0:
329,192,79460,1,0,0:0:0:0:
402,192,79614,1,0,0:0:0:0:
256,192,79769,1,0,0:0:0:0:
109,192,79769,1,0,0:0:0:0:
329,192,79846,1,0,0:0:0:0:
402,192,79924,1,0,0:0:0:0:
475,192,80001,1,0,0:0:0:0:
329,192,80078,1,0,0:0:0:0:
182,192,80078,1,8,0:0:0:0:
109,192,80233,1,0,0:0:0:0:
36,192,80388,1,0,0:0:0:0:
256,192,80388,1,0,0:0:0:0:
329,192,80542,1,0,0:0:0:0:
402,192,80697,1,0,0:0:0:0:
182,192,80697,1,8,0:0:0:0:
109,192,80852,1,0,0:0:0:0:
182,192,81006,1,0,0:0:0:0:
256,192,81006,1,0,0:0:0:0:
475,192,81161,1,0,0:0:0:0:
402,192,81238,1,0,0:0:0:0:
329,192,81315,1,8,0:0:0:0:
109,192,81315,1,0,0:0:0:0:
182,192,81470,128,0,81625:0:0:0:0:
402,192,81625,128,0,81779:0:0:0:0:
256,192,81625,1,0,0:0:0:0:
109,192,81779,1,0,0:0:0:0:
36,192,81934,1,0,0:0:0:0:
329,192,81934,1,8,0:0:0:0:
256,192,82089,1,0,0:0:0:0:
182,192,82166,1,0,0:0:0:0:
329,192,82166,1,0,0:0:0:0:
109,192,82243,1,0,0:0:0:0:
402,192,82243,1,0,0:0:0:0:
36,192,82398,1,0,0:0:0:0:
475,192,82398,1,0,0:0:0:0:
329,192,82553,1,0,0:0:0:0:
182,192,82553,1,0,0:0:0:0:
109,192,82707,1,0,0:0:0:0:
402,192,82707,1,0,0:0:0:0:
182,192,82862,1,0,0:0:0:0:
256,192,82862,1,4,0:0:0:0:
329,192,82862,1,0,0:0:0:0:
36,192,83017,128,0,83171:0:0:0:0:
182,192,83171,128,0,83326:0:0:0:0:
109,192,83171,1,8,0:0:0:0:
402,192,83326,1,0,0:0:0:0:
329,192,83403,1,0,0:0:0:0:
256,192,83480,1,0,0:0:0:0:
475,192,83480,1,0,0:0:0:0:
329,192,83635,128,0,83790:0:0:0:0:
475,192,83790,128,0,83944:0:0:0:0:
402,192,83790,1,8,0:0:0:0:
109,192,83944,1,0,0:0:0:0:
182,192,84022,1,0,0:0:0:0:
256,192,84099,1,0,0:0:0:0:
36,192,84099,1,0,0:0:0:0:
182,192,84254,128,0,84408:0:0:0:0:
36,192,84408,128,0,84563:0:0:0:0:
109,192,84408,1,8,0:0:0:0:
256,192,84563,1,0,0:0:0:0:
329,192,84640,1,0,0:0:0:0:
402,192,84718,1,0,0:0:0:0:
182,192,84718,1,0,0:0:0:0:
109,192,84872,1,0,0:0:0:0:
256,192,85027,1,8,0:0:0:0:
329,192,85027,1,0,0:0:0:0:
402,192,85181,1,0,0:0:0:0:
182,192,85336,1,0,0:0:0:0:
36,192,85336,1,0,0:0:0:0:
256,192,85491,1,0,0:0:0:0:
329,192,85645,1,8,0:0:0:0:
475,192,85645,1,0,0:0:0:0:
402,192,85800,1,0,0:0:0:0:
256,192,85955,1,0,0:0:0:0:
109,192,85955,1,0,0:0:0:0:
329,192,86109,1,0,0:0:0:0:
475,192,86264,1,0,0:0:0:0:
402,192,86264,1,8,0:0:0:0:
109,192,86341,1,0,0:0:0:0:
182,192,86419,1,0,0:0:0:0:
256,192,86496,1,0,0:0:0:0:
329,192,86573,1,0,0:0:0:0:
36,192,86573,1,0,0:0:0:0:
182,192,86728,1,0,0:0:0:0:
109,192,86805,1,0,0:0:0:0:
182,192,86882,1,0,0:0:0:0:
329,192,86882,1,8,0:0:0:0:
402,192,87037,1,0,0:0:0:0:
475,192,87192,1,0,0:0:0:0:
36,192,87192,128,0,87810:0:0:0:0:
256,192,87346,1,0,0:0:0:0:
109,192,87501,1,0,0:0:0:0:
402,192,87501,1,8,0:0:0:0:
182,192,87656,1,0,0:0:0:0:
329,192,87656,1,0,0:0:0:0:
109,192,87810,1,0,0:0:0:0:
402,192,87810,1,4,0:0:0:0:
475,192,87810,1,0,0:0:0:0:
329,192,87965,1,0,0:0:0:0:
256,192,88120,1,0,0:0:0:0:
36,192,88274,1,0,0:0:0:0:
109,192,88429,1,0,0:0:0:0:
182,192,88584,1,0,0:0:0:0:
402,192,88738,1,0,0:0:0:0:
329,192,88893,1,0,0:0:0:0:
256,192,89047,1,4,0:0:0:0:
109,192,89047,1,0,0:0:0:0:
402,192,89047,1,0,0:0:0:0:
36,192,89202,1,0,0:0:0:0:
109,192,89357,1,0,0:0:0:0:
182,192,89511,1,0,0:0:0:0:
256,192,89666,1,0,0:0:0:0:
329,192,89821,1,0,0:0:0:0:
402,192,89975,1,0,0:0:0:0:
475,192,90130,1,0,0:0:0:0:
256,192,90285,128,0,90594:0:0:0:0:
109,192,90285,1,4,0:0:0:0:
475,192,90594,1,0,0:0:0:0:
329,192,90671,1,0,0:0:0:0:
475,192,90748,1,0,0:0:0:0:
329,192,90826,1,0,0:0:0:0:
109,192,90903,128,0,91212:0:0:0:0:
256,192,90903,1,4,0:0:0:0:
36,192,91212,1,0,0:0:0:0:
182,192,91290,1,0,0:0:0:0:
36,192,91367,1,0,0:0:0:0:
182,192,91444,1,0,0:0:0:0:
109,192,91522,1,0,0:0:0:0:
402,192,91522,1,4,0:0:0:0:
36,192,91754,1,4,0:0:0:0:
475,192,91754,1,0,0:0:0:0:
109,192,91986,1,4,0:0:0:0:
402,192,91986,1,0,0:0:0:0:
36,192,92218,1,0,0:0:0:0:
475,192,92218,1,4,0:0:0:0:
109,192,92450,1,4,0:0:0:0:
402,192,92450,1,0,0:0:0:0:
36,192,92604,1,0,0:0:0:0:
475,192,92604,1,4,0:0:0:0:
182,192,92759,1,0,0:0:0:0:
329,192,92759,1,0,0:0:0:0:
256,192,92759,128,4,93996:0:0:0:0:
36,192,93996,1,8,0:0:0:0:
109,192,94073,1,8,0:0:0:0:
182,192,94151,1,8,0:0:0:0:
256,192,94228,1,8,0:0:0:0:
475,192,94305,1,8,0:0:0:0:
402,192,94382,1,8,0:0:0:0:
329,192,94460,1,8,0:0:0:0:
256,192,94537,1,8,0:0:0:0:
36,192,94614,128,0,94924:0:0:0:0:
182,192,94614,1,8,0:0:0:0:
329,192,94924,1,8,0:0:0:0:
475,192,94924,1,0,0:0:0:0:
109,192,95078,1,0,0:0:0:0:
182,192,95156,1,0,0:0:0:0:
36,192,95233,1,4,0:0:0:0:
256,192,95233,128,0,96470:0:0:0:0:
475,192,95233,1,0,0:0:0:0:
402,192,95388,1,0,0:0:0:0:
109,192,95542,1,0,0:0:0:0:
182,192,95542,1,8,0:0:0:0:
402,192,95697,1,0,0:0:0:0:
182,192,95852,1,0,0:0:0:0:
109,192,95852,1,0,0:0:0:0:
402,192,96006,1,0,0:0:0:0:
182,192,96161,1,0,0:0:0:0:
109,192,96161,1,8,0:0:0:0:
402,192,96315,1,0,0:0:0:0:
182,192,96470,1,0,0:0:0:0:
109,192,96470,1,0,0:0:0:0:
36,192,96625,128,0,96779:0:0:0:0:
109,192,96779,128,8,96934:0:0:0:0:
475,192,96934,128,0,97089:0:0:0:0:
402,192,97089,128,0,97243:0:0:0:0:
109,192,97243,128,0,97398:0:0:0:0:
182,192,97398,128,8,97553:0:0:0:0:
256,192,97553,128,0,97707:0:0:0:0:
402,192,97707,128,0,97862:0:0:0:0:
475,192,97862,128,0,97939:0:0:0:0:
329,192,98017,128,8,98171:0:0:0:0:
256,192,98171,128,0,98248:0:0:0:0:
182,192,98248,128,0,98326:0:0:0:0:
36,192,98326,128,0,98480:0:0:0:0:
109,192,98480,128,0,98635:0:0:0:0:
182,192,98635,128,8,98790:0:0:0:0:
475,192,98790,128,0,98944:0:0:0:0:
402,192,98944,128,0,99099:0:0:0:0:
329,192,99254,128,8,99408:0:0:0:0:
256,192,99563,128,0,100181:0:0:0:0:
36,192,99563,1,0,0:0:0:0:
109,192,99718,1,0,0:0:0:0:
329,192,99872,1,8,0:0:0:0:
402,192,99872,1,0,0:0:0:0:
109,192,100027,1,0,0:0:0:0:
36,192,100027,1,0,0:0:0:0:
329,192,100181,1,0,0:0:0:0:
402,192,100181,1,0,0:0:0:0:
475,192,100259,1,0,0:0:0:0:
36,192,100491,128,0,100723:0:0:0:0:
182,192,100491,1,8,0:0:0:0:
109,192,100723,1,0,0:0:0:0:
182,192,100800,1,0,0:0:0:0:
256,192,100877,1,0,0:0:0:0:
475,192,101109,128,0,101341:0:0:0:0:
329,192,101109,1,8,0:0:0:0:
402,192,101341,1,0,0:0:0:0:
329,192,101419,1,0,0:0:0:0:
256,192,101496,1,0,0:0:0:0:
36,192,101728,128,0,101960:0:0:0:0:
182,192,101728,1,8,0:0:0:0:
109,192,101960,1,0,0:0:0:0:
182,192,102037,1,0,0:0:0:0:
256,192,102114,1,0,0:0:0:0:
475,192,102346,128,0,102656:0:0:0:0:
329,192,102346,1,8,0:0:0:0:
109,192,102656,128,0,102810:0:0:0:0:
36,192,102810,128,0,102965:0:0:0:0:
402,192,102965,128,8,103120:0:0:0:0:
475,192,103120,128,0,103274:0:0:0:0:
182,192,103274,128,0,103429:0:0:0:0:
256,192,103429,128,0,103506:0:0:0:0:
329,192,103584,128,8,103661:0:0:0:0:
402,192,103738,128,0,103893:0:0:0:0:
36,192,103893,128,0,103970:0:0:0:0:
182,192,103970,128,0,104047:0:0:0:0:
329,192,104047,128,0,104125:0:0:0:0:
475,192,104125,128,0,104202:0:0:0:0:
36,192,104202,128,8,104279:0:0:0:0:
182,192,104279,128,0,104357:0:0:0:0:
329,192,104357,128,0,104434:0:0:0:0:
475,192,104434,128,0,104511:0:0:0:0:
36,192,104511,128,0,104666:0:0:0:0:
109,192,104666,128,0,104821:0:0:0:0:
256,192,104821,128,0,104975:0:0:0:0:
329,192,104975,128,0,105130:0:0:0:0:
402,192,105130,1,4,0:0:0:0:
475,192,105130,1,0,0:0:0:0:
36,192,105130,1,0,0:0:0:0:
256,192,105207,1,0,0:0:0:0:
109,192,105439,128,0,105671:0:0:0:0:
402,192,105439,1,8,0:0:0:0:
182,192,105671,1,0,0:0:0:0:
329,192,105748,1,0,0:0:0:0:
475,192,105826,1,0,0:0:0:0:
402,192,106058,128,0,106290:0:0:0:0:
109,192,106058,1,8,0:0:0:0:
329,192,106290,1,0,0:0:0:0:
182,192,106367,1,0,0:0:0:0:
36,192,106444,1,0,0:0:0:0:
109,192,106676,128,0,106908:0:0:0:0:
402,192,106676,1,8,0:0:0:0:
182,192,106908,1,0,0:0:0:0:
329,192,106986,1,0,0:0:0:0:
475,192,107063,1,0,0:0:0:0:
256,192,107295,128,0,107604:0:0:0:0:
36,192,107295,1,8,0:0:0:0:
109,192,107604,128,0,107759:0:0:0:0:
475,192,107759,128,0,107913:0:0:0:0:
329,192,107913,128,8,108068:0:0:0:0:
36,192,108068,128,0,108223:0:0:0:0:
256,192,108223,128,0,108377:0:0:0:0:
182,192,108455,128,0,108532:0:0:0:0:
109,192,108532,128,8,108687:0:0:0:0:
36,192,108687,128,0,108841:0:0:0:0:
402,192,108841,128,0,108996:0:0:0:0:
475,192,108996,128,0,109151:0:0:0:0:
109,192,109151,128,8,109305:0:0:0:0:
182,192,109305,128,0,109460:0:0:0:0:
402,192,109460,1,0,0:0:0:0:
329,192,109537,1,0,0:0:0:0:
256,192,109614,1,0,0:0:0:0:
182,192,109692,1,0,0:0:0:0:
109,192,109769,1,4,0:0:0:0:
36,192,109769,1,0,0:0:0:0:
256,192,109924,1,0,0:0:0:0:
475,192,110078,1,0,0:0:0:0:
182,192,110078,1,4,0:0:0:0:
36,192,110078,1,0,0:0:0:0:
402,192,110233,1,0,0:0:0:0:
329,192,110388,1,0,0:0:0:0:
256,192,110542,1,0,0:0:0:0:
36,192,110697,1,0,0:0:0:0:
109,192,110852,1,0,0:0:0:0:
182,192,111006,1,0,0:0:0:0:
256,192,111161,1,0,0:0:0:0:
329,192,111315,1,0,0:0:0:0:
402,192,111315,1,4,0:0:0:0:
475,192,111315,1,0,0:0:0:0:
182,192,111470,1,0,0:0:0:0:
109,192,111625,1,0,0:0:0:0:
36,192,111779,1,0,0:0:0:0:
329,192,111779,1,0,0:0:0:0:
402,192,111934,1,0,0:0:0:0:
475,192,112089,1,0,0:0:0:0:
256,192,112089,1,0,0:0:0:0:
182,192,112243,1,0,0:0:0:0:
109,192,112398,1,0,0:0:0:0:
182,192,112553,1,0,0:0:0:0:
256,192,112553,1,4,0:0:0:0:
329,192,112553,1,0,0:0:0:0:
36,192,112785,1,4,0:0:0:0:
475,192,112785,1,0,0:0:0:0:
109,192,113017,1,0,0:0:0:0:
402,192,113017,1,4,0:0:0:0:
329,192,113248,1,0,0:0:0:0:
182,192,113248,1,4,0:0:0:0:
109,192,113480,1,0,0:0:0:0:
402,192,113480,1,4,0:0:0:0:
182,192,113635,1,4,0:0:0:0:
329,192,113635,1,0,0:0:0:0:
36,192,113790,1,4,0:0:0:0:
475,192,113790,1,0,0:0:0:0:
402,192,113867,1,0,0:0:0:0:
329,192,113944,1,0,0:0:0:0:
256,192,114022,1,0,0:0:0:0:
36,192,114099,1,0,0:0:0:0:
109,192,114176,1,0,0:0:0:0:
182,192,114254,1,0,0:0:0:0:
256,192,114331,1,0,0:0:0:0:
402,192,114408,128,0,115027:0:0:0:0:
329,192,114408,1,0,0:0:0:0:
36,192,115027,1,0,0:0:0:0:
256,192,115027,1,0,0:0:0:0:
475,192,115027,1,0,0:0:0:0:
36,192,115259,1,4,0:0:0:0:
256,192,115259,1,0,0:0:0:0:
475,192,115259,1,4,0:0:0:0:
