osu file format v14

[General]
AudioFilename: audio.mp3
AudioLeadIn: 0
PreviewTime: 65864
Countdown: 0
SampleSet: Soft
StackLeniency: 0.7
Mode: 3
LetterboxInBreaks: 0
SpecialStyle: 0
WidescreenStoryboard: 0

[Editor]
Bookmarks: 65864,76836,87807,98778
DistanceSpacing: 0.5
BeatDivisor: 4
GridSize: 32
TimelineZoom: 1.9

[Metadata]
Title:Happy Voice (Cut Ver.)
TitleUnicode:Happy Voice (Cut Ver.)
Artist:BlackY vs. Yooh
ArtistUnicode:BlackY vs. Yooh
Creator:by-ad
Version:Hard
Source:
Tags:Lam- FA Featured artist HAPPY HARDCORE TANO*C & SKETCH UP! Rec. Powerful DJ Genki REVOLUTION OF HAPPY #01 C91 short cut version Electronic Instrumental
BeatmapID:3688959
BeatmapSetID:1799500

[Difficulty]
HPDrainRate:7.5
CircleSize:6
OverallDifficulty:7.5
ApproachRate:5
SliderMultiplier:1.4
SliderTickRate:1

[Events]
//Background and Video events
0,0,"BG1.jpg",0,0
//Break Periods
//Storyboard Layer 0 (Background)
//Storyboard Layer 1 (Fail)
//Storyboard Layer 2 (Pass)
//Storyboard Layer 3 (Foreground)
//Storyboard Layer 4 (Overlay)
//Storyboard Sound Samples

[TimingPoints]
36,342.857142857143,4,2,1,50,1,0
65864,-100,4,2,1,50,0,1
86436,-100,4,2,1,50,0,0
87807,-100,4,2,1,50,0,1
109750,-100,4,2,1,50,0,0

[HitObjects]
298,192,36,5,0,0:0:0:0:
42,192,36,1,0,0:0:0:0:
213,192,207,1,0,0:0:0:0:
384,192,378,1,0,0:0:0:0:
128,192,378,1,0,0:0:0:0:
298,192,550,1,0,0:0:0:0:
469,192,721,1,0,0:0:0:0:
213,192,721,1,0,0:0:0:0:
384,192,893,1,0,0:0:0:0:
298,192,1064,1,0,0:0:0:0:
42,192,1064,1,0,0:0:0:0:
128,192,1236,1,0,0:0:0:0:
469,192,1407,1,0,0:0:0:0:
213,192,1407,1,0,0:0:0:0:
384,192,1578,1,0,0:0:0:0:
128,192,1750,1,0,0:0:0:0:
298,192,1750,1,0,0:0:0:0:
42,192,1921,1,0,0:0:0:0:
469,192,2093,1,0,0:0:0:0:
213,192,2093,1,0,0:0:0:0:
298,192,2264,1,0,0:0:0:0:
384,192,2436,1,0,0:0:0:0:
128,192,2436,1,0,0:0:0:0:
42,192,2607,1,0,0:0:0:0:
213,192,2778,5,0,0:0:0:0:
469,192,2778,1,0,0:0:0:0:
298,192,2950,1,0,0:0:0:0:
128,192,3121,1,0,0:0:0:0:
384,192,3121,1,0,0:0:0:0:
213,192,3293,1,0,0:0:0:0:
298,192,3464,1,0,0:0:0:0:
42,192,3464,1,0,0:0:0:0:
128,192,3636,1,0,0:0:0:0:
213,192,3807,1,0,0:0:0:0:
469,192,3807,1,0,0:0:0:0:
384,192,3978,1,0,0:0:0:0:
42,192,4150,1,0,0:0:0:0:
298,192,4150,1,0,0:0:0:0:
128,192,4321,1,0,0:0:0:0:
384,192,4493,1,0,0:0:0:0:
213,192,4493,1,0,0:0:0:0:
469,192,4664,1,0,0:0:0:0:
42,192,4836,1,0,0:0:0:0:
213,192,4836,1,0,0:0:0:0:
384,192,5007,1,0,0:0:0:0:
298,192,5178,1,0,0:0:0:0:
128,192,5178,1,0,0:0:0:0:
213,192,5350,1,0,0:0:0:0:
469,192,5521,1,0,0:0:0:0:
42,192,5521,1,0,0:0:0:0:
298,192,5693,128,0,5864:0:0:0:0:
128,192,5864,1,0,0:0:0:0:
384,192,5864,1,0,0:0:0:0:
213,192,6036,128,0,6207:0:0:0:0:
42,192,6207,1,0,0:0:0:0:
469,192,6207,1,0,0:0:0:0:
384,192,6378,128,0,6550:0:0:0:0:
298,192,6550,1,0,0:0:0:0:
128,192,6550,1,0,0:0:0:0:
42,192,6721,128,0,6893:0:0:0:0:
213,192,6893,1,0,0:0:0:0:
384,192,6893,1,0,0:0:0:0:
469,192,7064,128,0,7236:0:0:0:0:
298,192,7236,1,0,0:0:0:0:
42,192,7236,1,0,0:0:0:0:
128,192,7407,128,0,7578:0:0:0:0:
384,192,7578,1,0,0:0:0:0:
469,192,7578,1,0,0:0:0:0:
213,192,7750,128,0,7921:0:0:0:0:
42,192,7921,1,0,0:0:0:0:
384,192,7921,1,0,0:0:0:0:
298,192,8093,128,0,8264:0:0:0:0:
213,192,8264,1,0,0:0:0:0:
469,192,8264,1,0,0:0:0:0:
384,192,8436,128,0,8607:0:0:0:0:
42,192,8607,1,0,0:0:0:0:
128,192,8607,1,0,0:0:0:0:
469,192,8778,128,0,8950:0:0:0:0:
298,192,8950,1,0,0:0:0:0:
213,192,8950,1,0,0:0:0:0:
128,192,9121,128,0,9293:0:0:0:0:
469,192,9293,1,0,0:0:0:0:
298,192,9293,1,0,0:0:0:0:
42,192,9464,128,0,9636:0:0:0:0:
213,192,9636,1,0,0:0:0:0:
128,192,9636,1,0,0:0:0:0:
298,192,9807,128,0,9978:0:0:0:0:
128,192,9978,1,0,0:0:0:0:
469,192,9978,1,0,0:0:0:0:
384,192,10150,128,0,10321:0:0:0:0:
42,192,10321,1,0,0:0:0:0:
213,192,10321,128,0,10664:0:0:0:0:
469,192,10321,1,0,0:0:0:0:
298,192,10664,128,0,11007:0:0:0:0:
42,192,11007,1,0,0:0:0:0:
469,192,11007,1,0,0:0:0:0:
384,192,11007,1,0,0:0:0:0:
128,192,11007,1,0,0:0:0:0:
213,192,11178,1,0,0:0:0:0:
298,192,11350,1,0,0:0:0:0:
469,192,11350,1,0,0:0:0:0:
42,192,11350,1,0,0:0:0:0:
128,192,11521,1,0,0:0:0:0:
213,192,11693,1,0,0:0:0:0:
384,192,11693,1,0,0:0:0:0:
42,192,11693,1,0,0:0:0:0:
298,192,11864,1,0,0:0:0:0:
128,192,12036,1,0,0:0:0:0:
42,192,12036,1,0,0:0:0:0:
469,192,12036,1,0,0:0:0:0:
384,192,12207,1,0,0:0:0:0:
298,192,12378,1,0,0:0:0:0:
469,192,12378,1,0,0:0:0:0:
128,192,12378,1,0,0:0:0:0:
213,192,12550,1,0,0:0:0:0:
469,192,12721,1,0,0:0:0:0:
42,192,12721,1,0,0:0:0:0:
128,192,12807,1,0,0:0:0:0:
298,192,12893,1,0,0:0:0:0:
213,192,12893,1,0,0:0:0:0:
384,192,13064,1,0,0:0:0:0:
469,192,13064,1,0,0:0:0:0:
42,192,13064,1,0,0:0:0:0:
298,192,13321,1,0,0:0:0:0:
128,192,13407,1,0,0:0:0:0:
469,192,13407,1,0,0:0:0:0:
213,192,13578,1,0,0:0:0:0:
298,192,13750,1,0,0:0:0:0:
384,192,13750,1,0,0:0:0:0:
42,192,13750,1,0,0:0:0:0:
128,192,13921,1,0,0:0:0:0:
213,192,14093,1,0,0:0:0:0:
469,192,14093,1,0,0:0:0:0:
42,192,14093,1,0,0:0:0:0:
298,192,14264,1,0,0:0:0:0:
469,192,14436,1,0,0:0:0:0:
128,192,14436,1,0,0:0:0:0:
384,192,14436,1,0,0:0:0:0:
213,192,14607,1,0,0:0:0:0:
298,192,14778,1,0,0:0:0:0:
469,192,14778,1,0,0:0:0:0:
42,192,14778,1,0,0:0:0:0:
213,192,14950,1,0,0:0:0:0:
42,192,15121,1,0,0:0:0:0:
469,192,15121,1,0,0:0:0:0:
128,192,15121,1,0,0:0:0:0:
384,192,15293,1,0,0:0:0:0:
298,192,15464,1,0,0:0:0:0:
213,192,15464,1,0,0:0:0:0:
384,192,15550,1,0,0:0:0:0:
469,192,15636,1,0,0:0:0:0:
128,192,15636,1,0,0:0:0:0:
213,192,15807,1,0,0:0:0:0:
384,192,15807,1,0,0:0:0:0:
42,192,15807,1,0,0:0:0:0:
128,192,16064,1,0,0:0:0:0:
42,192,16150,1,0,0:0:0:0:
298,192,16150,1,0,0:0:0:0:
384,192,16321,1,0,0:0:0:0:
128,192,16493,1,0,0:0:0:0:
213,192,16493,1,0,0:0:0:0:
469,192,16493,1,0,0:0:0:0:
298,192,16664,1,0,0:0:0:0:
384,192,16664,1,0,0:0:0:0:
42,192,16836,1,0,0:0:0:0:
213,192,16836,1,0,0:0:0:0:
469,192,16836,1,0,0:0:0:0:
128,192,17007,1,0,0:0:0:0:
384,192,17007,1,0,0:0:0:0:
213,192,17178,1,0,0:0:0:0:
469,192,17178,1,0,0:0:0:0:
298,192,17178,1,0,0:0:0:0:
384,192,17350,1,0,0:0:0:0:
128,192,17350,1,0,0:0:0:0:
42,192,17521,1,0,0:0:0:0:
469,192,17521,1,0,0:0:0:0:
213,192,17521,1,0,0:0:0:0:
128,192,17693,1,0,0:0:0:0:
298,192,17693,1,0,0:0:0:0:
384,192,17864,1,0,0:0:0:0:
42,192,17864,1,0,0:0:0:0:
213,192,17864,1,0,0:0:0:0:
469,192,18036,1,0,0:0:0:0:
298,192,18036,1,0,0:0:0:0:
384,192,18207,1,0,0:0:0:0:
213,192,18207,1,0,0:0:0:0:
42,192,18207,1,0,0:0:0:0:
128,192,18378,1,0,0:0:0:0:
298,192,18378,1,0,0:0:0:0:
42,192,18550,1,0,0:0:0:0:
469,192,18550,1,0,0:0:0:0:
213,192,18550,1,0,0:0:0:0:
128,192,18721,1,0,0:0:0:0:
384,192,18721,1,0,0:0:0:0:
469,192,18893,1,0,0:0:0:0:
42,192,18893,1,0,0:0:0:0:
298,192,18893,1,0,0:0:0:0:
213,192,18978,1,0,0:0:0:0:
384,192,19064,1,0,0:0:0:0:
128,192,19064,1,0,0:0:0:0:
213,192,19236,1,0,0:0:0:0:
469,192,19236,1,0,0:0:0:0:
42,192,19236,1,0,0:0:0:0:
298,192,19321,1,0,0:0:0:0:
128,192,19407,1,0,0:0:0:0:
213,192,19493,1,0,0:0:0:0:
384,192,19578,1,0,0:0:0:0:
469,192,19578,1,0,0:0:0:0:
298,192,19664,1,0,0:0:0:0:
128,192,19750,1,0,0:0:0:0:
42,192,19836,1,0,0:0:0:0:
213,192,19921,1,0,0:0:0:0:
298,192,19921,1,0,0:0:0:0:
384,192,20007,1,0,0:0:0:0:
469,192,20093,1,0,0:0:0:0:
298,192,20178,1,0,0:0:0:0:
42,192,20264,1,0,0:0:0:0:
128,192,20264,1,0,0:0:0:0:
213,192,20350,1,0,0:0:0:0:
298,192,20436,1,0,0:0:0:0:
128,192,20521,1,0,0:0:0:0:
469,192,20607,1,0,0:0:0:0:
42,192,20607,1,0,0:0:0:0:
298,192,20693,1,0,0:0:0:0:
384,192,20778,1,0,0:0:0:0:
469,192,20864,1,0,0:0:0:0:
42,192,20950,1,0,0:0:0:0:
128,192,21036,1,0,0:0:0:0:
213,192,21121,1,0,0:0:0:0:
469,192,21207,1,0,0:0:0:0:
384,192,21293,1,0,0:0:0:0:
298,192,21378,1,0,0:0:0:0:
213,192,21464,1,0,0:0:0:0:
128,192,21550,1,0,0:0:0:0:
42,192,21636,1,0,0:0:0:0:
469,192,21636,1,0,0:0:0:0:
213,192,21807,1,0,0:0:0:0:
298,192,21807,1,0,0:0:0:0:
42,192,21978,1,0,0:0:0:0:
469,192,21978,1,0,0:0:0:0:
384,192,21978,1,0,0:0:0:0:
298,192,22150,1,0,0:0:0:0:
213,192,22321,1,0,0:0:0:0:
298,192,22493,1,0,0:0:0:0:
213,192,22664,1,0,0:0:0:0:
384,192,22836,1,0,0:0:0:0:
128,192,23007,1,0,0:0:0:0:
298,192,23178,1,0,0:0:0:0:
42,192,23350,1,0,0:0:0:0:
469,192,23350,1,0,0:0:0:0:
128,192,23521,1,0,0:0:0:0:
384,192,23693,1,0,0:0:0:0:
128,192,23864,1,0,0:0:0:0:
384,192,24036,1,0,0:0:0:0:
213,192,24207,1,0,0:0:0:0:
298,192,24378,1,0,0:0:0:0:
128,192,24550,1,0,0:0:0:0:
213,192,24721,1,0,0:0:0:0:
298,192,24721,1,0,0:0:0:0:
469,192,24893,1,0,0:0:0:0:
42,192,25064,1,0,0:0:0:0:
469,192,25236,1,0,0:0:0:0:
42,192,25407,1,0,0:0:0:0:
298,192,25578,1,0,0:0:0:0:
213,192,25750,1,0,0:0:0:0:
469,192,25921,1,0,0:0:0:0:
384,192,26093,1,0,0:0:0:0:
128,192,26093,1,0,0:0:0:0:
298,192,26264,1,0,0:0:0:0:
213,192,26436,1,0,0:0:0:0:
384,192,26607,1,0,0:0:0:0:
42,192,26778,1,0,0:0:0:0:
469,192,26778,1,0,0:0:0:0:
128,192,26950,1,0,0:0:0:0:
213,192,27121,1,0,0:0:0:0:
384,192,27293,1,0,0:0:0:0:
298,192,27464,1,0,0:0:0:0:
213,192,27464,1,0,0:0:0:0:
42,192,27636,1,0,0:0:0:0:
469,192,27807,1,0,0:0:0:0:
42,192,27978,1,0,0:0:0:0:
469,192,28150,1,0,0:0:0:0:
213,192,28321,1,0,0:0:0:0:
298,192,28493,1,0,0:0:0:0:
42,192,28664,1,0,0:0:0:0:
128,192,28836,1,0,0:0:0:0:
384,192,28836,1,0,0:0:0:0:
213,192,29007,1,0,0:0:0:0:
298,192,29178,1,0,0:0:0:0:
213,192,29350,1,0,0:0:0:0:
298,192,29521,1,0,0:0:0:0:
384,192,29693,1,0,0:0:0:0:
128,192,29864,1,0,0:0:0:0:
298,192,30036,1,0,0:0:0:0:
42,192,30207,1,0,0:0:0:0:
469,192,30207,1,0,0:0:0:0:
384,192,30378,1,0,0:0:0:0:
128,192,30550,1,0,0:0:0:0:
384,192,30721,1,0,0:0:0:0:
128,192,30893,1,0,0:0:0:0:
298,192,31064,1,0,0:0:0:0:
213,192,31236,1,0,0:0:0:0:
384,192,31407,1,0,0:0:0:0:
213,192,31578,1,0,0:0:0:0:
298,192,31578,1,0,0:0:0:0:
128,192,31750,1,0,0:0:0:0:
42,192,31921,1,0,0:0:0:0:
213,192,32093,1,0,0:0:0:0:
298,192,32264,1,0,0:0:0:0:
469,192,32436,1,0,0:0:0:0:
384,192,32607,1,0,0:0:0:0:
213,192,32778,1,0,0:0:0:0:
42,192,32950,1,0,0:0:0:0:
298,192,32950,1,0,0:0:0:0:
384,192,33121,1,0,0:0:0:0:
213,192,33293,1,0,0:0:0:0:
469,192,33293,1,0,0:0:0:0:
128,192,33464,1,0,0:0:0:0:
42,192,33636,1,0,0:0:0:0:
298,192,33636,1,0,0:0:0:0:
384,192,33807,1,0,0:0:0:0:
128,192,33978,1,0,0:0:0:0:
469,192,33978,1,0,0:0:0:0:
42,192,34150,1,0,0:0:0:0:
298,192,34321,1,0,0:0:0:0:
469,192,34493,1,0,0:0:0:0:
384,192,34664,1,0,0:0:0:0:
128,192,34664,1,0,0:0:0:0:
42,192,34836,1,0,0:0:0:0:
213,192,35007,1,0,0:0:0:0:
298,192,35178,1,0,0:0:0:0:
42,192,35350,1,0,0:0:0:0:
469,192,35350,1,0,0:0:0:0:
128,192,35521,1,0,0:0:0:0:
213,192,35693,1,0,0:0:0:0:
298,192,35864,1,0,0:0:0:0:
42,192,36036,1,0,0:0:0:0:
469,192,36036,1,0,0:0:0:0:
384,192,36207,1,0,0:0:0:0:
128,192,36207,1,0,0:0:0:0:
298,192,36378,1,0,0:0:0:0:
213,192,36550,1,0,0:0:0:0:
42,192,36721,1,0,0:0:0:0:
469,192,36893,1,0,0:0:0:0:
128,192,37064,1,0,0:0:0:0:
298,192,37236,1,0,0:0:0:0:
469,192,37407,1,0,0:0:0:0:
42,192,37578,1,0,0:0:0:0:
384,192,37750,1,0,0:0:0:0:
213,192,37750,1,0,0:0:0:0:
128,192,37921,1,0,0:0:0:0:
298,192,38093,1,0,0:0:0:0:
213,192,38264,1,0,0:0:0:0:
42,192,38436,1,0,0:0:0:0:
469,192,38436,1,0,0:0:0:0:
298,192,38607,1,0,0:0:0:0:
128,192,38778,1,0,0:0:0:0:
384,192,38778,1,0,0:0:0:0:
213,192,38950,1,0,0:0:0:0:
42,192,39121,1,0,0:0:0:0:
469,192,39121,1,0,0:0:0:0:
128,192,39293,1,0,0:0:0:0:
213,192,39464,1,0,0:0:0:0:
298,192,39464,1,0,0:0:0:0:
384,192,39636,1,0,0:0:0:0:
469,192,39807,1,0,0:0:0:0:
128,192,39978,1,0,0:0:0:0:
42,192,40150,1,0,0:0:0:0:
298,192,40150,1,0,0:0:0:0:
469,192,40321,1,0,0:0:0:0:
128,192,40493,1,0,0:0:0:0:
384,192,40664,1,0,0:0:0:0:
469,192,40836,1,0,0:0:0:0:
213,192,40836,1,0,0:0:0:0:
42,192,41007,1,0,0:0:0:0:
298,192,41178,1,0,0:0:0:0:
213,192,41350,1,0,0:0:0:0:
128,192,41521,1,0,0:0:0:0:
384,192,41521,1,0,0:0:0:0:
42,192,41693,1,0,0:0:0:0:
469,192,41693,1,0,0:0:0:0:
213,192,41864,1,0,0:0:0:0:
42,192,42036,1,0,0:0:0:0:
213,192,42207,1,0,0:0:0:0:
298,192,42378,1,0,0:0:0:0:
42,192,43578,128,0,43921:0:0:0:0:
384,192,43578,1,0,0:0:0:0:
128,192,43578,128,0,43921:0:0:0:0:
469,192,43921,1,0,0:0:0:0:
298,192,43921,1,0,0:0:0:0:
213,192,43921,1,0,0:0:0:0:
384,192,44093,128,0,44264:0:0:0:0:
42,192,44264,1,0,0:0:0:0:
213,192,44264,1,0,0:0:0:0:
298,192,44436,128,0,44607:0:0:0:0:
384,192,44607,1,0,0:0:0:0:
469,192,44607,1,0,0:0:0:0:
213,192,44778,128,0,44950:0:0:0:0:
298,192,44950,1,0,0:0:0:0:
42,192,44950,1,0,0:0:0:0:
128,192,45121,128,0,45293:0:0:0:0:
384,192,45293,1,0,0:0:0:0:
469,192,45293,1,0,0:0:0:0:
42,192,45464,128,0,45636:0:0:0:0:
213,192,45636,1,0,0:0:0:0:
298,192,45636,1,0,0:0:0:0:
384,192,45807,128,0,45978:0:0:0:0:
213,192,45978,1,0,0:0:0:0:
42,192,45978,1,0,0:0:0:0:
469,192,46150,128,0,46321:0:0:0:0:
384,192,46321,1,0,0:0:0:0:
128,192,46321,1,0,0:0:0:0:
213,192,46493,128,0,46664:0:0:0:0:
42,192,46664,1,0,0:0:0:0:
469,192,46664,1,0,0:0:0:0:
298,192,46836,128,0,47007:0:0:0:0:
128,192,47007,1,0,0:0:0:0:
384,192,47007,1,0,0:0:0:0:
42,192,47178,128,0,47350:0:0:0:0:
213,192,47350,1,0,0:0:0:0:
298,192,47350,1,0,0:0:0:0:
128,192,47521,128,0,47693:0:0:0:0:
384,192,47693,1,0,0:0:0:0:
469,192,47693,1,0,0:0:0:0:
213,192,47864,128,0,48036:0:0:0:0:
469,192,48036,1,0,0:0:0:0:
42,192,48036,1,0,0:0:0:0:
298,192,48207,128,0,48378:0:0:0:0:
213,192,48378,1,0,0:0:0:0:
128,192,48378,1,0,0:0:0:0:
384,192,48550,128,0,48721:0:0:0:0:
42,192,48721,1,0,0:0:0:0:
298,192,48721,1,0,0:0:0:0:
469,192,48893,128,0,49064:0:0:0:0:
298,192,49064,1,0,0:0:0:0:
213,192,49064,1,0,0:0:0:0:
128,192,49236,128,0,49407:0:0:0:0:
42,192,49407,1,0,0:0:0:0:
469,192,49407,1,0,0:0:0:0:
384,192,49578,128,0,49750:0:0:0:0:
298,192,49750,1,0,0:0:0:0:
128,192,49750,1,0,0:0:0:0:
213,192,49921,128,0,50093:0:0:0:0:
384,192,50093,1,0,0:0:0:0:
469,192,50093,1,0,0:0:0:0:
298,192,50264,128,0,50436:0:0:0:0:
128,192,50436,1,0,0:0:0:0:
42,192,50436,1,0,0:0:0:0:
384,192,50607,128,0,50778:0:0:0:0:
213,192,50778,1,0,0:0:0:0:
469,192,50778,1,0,0:0:0:0:
128,192,50950,128,0,51121:0:0:0:0:
42,192,51121,1,0,0:0:0:0:
298,192,51121,1,0,0:0:0:0:
213,192,51293,128,0,51464:0:0:0:0:
128,192,51464,1,0,0:0:0:0:
469,192,51464,1,0,0:0:0:0:
384,192,51636,128,0,51807:0:0:0:0:
213,192,51807,1,0,0:0:0:0:
469,192,51807,1,0,0:0:0:0:
298,192,51978,128,0,52150:0:0:0:0:
469,192,52150,1,0,0:0:0:0:
42,192,52150,128,0,54207:0:0:0:0:
213,192,52321,128,0,52493:0:0:0:0:
128,192,52493,1,0,0:0:0:0:
384,192,52493,1,0,0:0:0:0:
298,192,52664,128,0,52836:0:0:0:0:
469,192,52836,1,0,0:0:0:0:
213,192,52836,1,0,0:0:0:0:
384,192,53007,128,0,53178:0:0:0:0:
298,192,53178,1,0,0:0:0:0:
128,192,53178,1,0,0:0:0:0:
213,192,53350,128,0,53521:0:0:0:0:
128,192,53521,1,0,0:0:0:0:
469,192,53521,1,0,0:0:0:0:
384,192,53693,128,0,53864:0:0:0:0:
213,192,53864,1,0,0:0:0:0:
469,192,53864,1,0,0:0:0:0:
128,192,54036,128,0,54207:0:0:0:0:
384,192,54207,1,0,0:0:0:0:
298,192,54207,128,0,54550:0:0:0:0:
213,192,54550,128,0,54893:0:0:0:0:
128,192,54893,1,0,0:0:0:0:
42,192,54893,1,0,0:0:0:0:
384,192,54893,1,0,0:0:0:0:
469,192,54893,1,0,0:0:0:0:
213,192,55064,1,0,0:0:0:0:
128,192,55236,1,0,0:0:0:0:
298,192,55236,1,0,0:0:0:0:
384,192,55236,1,0,0:0:0:0:
469,192,55407,1,0,0:0:0:0:
384,192,55578,1,0,0:0:0:0:
128,192,55578,1,0,0:0:0:0:
42,192,55578,1,0,0:0:0:0:
213,192,55750,1,0,0:0:0:0:
298,192,55921,1,0,0:0:0:0:
128,192,55921,1,0,0:0:0:0:
469,192,55921,1,0,0:0:0:0:
42,192,56093,1,0,0:0:0:0:
384,192,56093,1,0,0:0:0:0:
213,192,56264,1,0,0:0:0:0:
298,192,56264,1,0,0:0:0:0:
128,192,56264,1,0,0:0:0:0:
469,192,56436,1,0,0:0:0:0:
384,192,56436,1,0,0:0:0:0:
298,192,56607,1,0,0:0:0:0:
42,192,56607,1,0,0:0:0:0:
384,192,56693,1,0,0:0:0:0:
213,192,56778,1,0,0:0:0:0:
469,192,56778,1,0,0:0:0:0:
384,192,56950,1,0,0:0:0:0:
42,192,56950,1,0,0:0:0:0:
298,192,56950,1,0,0:0:0:0:
128,192,57121,1,0,0:0:0:0:
298,192,57207,1,0,0:0:0:0:
213,192,57207,1,0,0:0:0:0:
469,192,57293,1,0,0:0:0:0:
384,192,57293,1,0,0:0:0:0:
128,192,57464,1,0,0:0:0:0:
298,192,57464,1,0,0:0:0:0:
469,192,57636,1,0,0:0:0:0:
213,192,57636,1,0,0:0:0:0:
42,192,57636,1,0,0:0:0:0:
128,192,57807,1,0,0:0:0:0:
213,192,57978,1,0,0:0:0:0:
384,192,57978,1,0,0:0:0:0:
469,192,57978,1,0,0:0:0:0:
298,192,58150,1,0,0:0:0:0:
213,192,58321,1,0,0:0:0:0:
469,192,58321,1,0,0:0:0:0:
42,192,58321,1,0,0:0:0:0:
128,192,58493,1,0,0:0:0:0:
384,192,58664,1,0,0:0:0:0:
42,192,58664,1,0,0:0:0:0:
213,192,58664,1,0,0:0:0:0:
128,192,58836,1,0,0:0:0:0:
469,192,58836,1,0,0:0:0:0:
298,192,59007,1,0,0:0:0:0:
384,192,59007,1,0,0:0:0:0:
213,192,59007,1,0,0:0:0:0:
42,192,59178,1,0,0:0:0:0:
128,192,59178,1,0,0:0:0:0:
213,192,59350,1,0,0:0:0:0:
469,192,59350,1,0,0:0:0:0:
298,192,59436,1,0,0:0:0:0:
128,192,59521,1,0,0:0:0:0:
384,192,59521,1,0,0:0:0:0:
469,192,59693,1,0,0:0:0:0:
42,192,59693,1,0,0:0:0:0:
213,192,59693,1,0,0:0:0:0:
384,192,59864,1,0,0:0:0:0:
298,192,59950,1,0,0:0:0:0:
213,192,59950,1,0,0:0:0:0:
128,192,60036,1,0,0:0:0:0:
42,192,60036,1,0,0:0:0:0:
298,192,60207,1,0,0:0:0:0:
384,192,60207,1,0,0:0:0:0:
213,192,60378,1,0,0:0:0:0:
42,192,60378,1,0,0:0:0:0:
469,192,60378,1,0,0:0:0:0:
298,192,60550,1,0,0:0:0:0:
128,192,60550,1,0,0:0:0:0:
384,192,60721,1,0,0:0:0:0:
213,192,60721,1,0,0:0:0:0:
298,192,60893,1,0,0:0:0:0:
469,192,60893,1,0,0:0:0:0:
384,192,61064,1,0,0:0:0:0:
213,192,61064,1,0,0:0:0:0:
128,192,61236,1,0,0:0:0:0:
42,192,61236,1,0,0:0:0:0:
213,192,61407,1,0,0:0:0:0:
298,192,61407,1,0,0:0:0:0:
384,192,61578,1,0,0:0:0:0:
469,192,61578,1,0,0:0:0:0:
128,192,61750,1,0,0:0:0:0:
213,192,61750,1,0,0:0:0:0:
298,192,61921,1,0,0:0:0:0:
42,192,61921,1,0,0:0:0:0:
469,192,62093,1,0,0:0:0:0:
384,192,62093,1,0,0:0:0:0:
213,192,62264,1,0,0:0:0:0:
298,192,62264,1,0,0:0:0:0:
384,192,62436,1,0,0:0:0:0:
128,192,62436,1,0,0:0:0:0:
213,192,62607,1,0,0:0:0:0:
42,192,62607,1,0,0:0:0:0:
298,192,62778,1,0,0:0:0:0:
469,192,62778,1,0,0:0:0:0:
128,192,62950,1,0,0:0:0:0:
42,192,62950,1,0,0:0:0:0:
298,192,63121,1,0,0:0:0:0:
213,192,63121,1,0,0:0:0:0:
384,192,63207,1,0,0:0:0:0:
469,192,63293,1,0,0:0:0:0:
42,192,63378,1,0,0:0:0:0:
128,192,63464,1,0,0:0:0:0:
213,192,63464,1,0,0:0:0:0:
298,192,63550,1,0,0:0:0:0:
384,192,63636,1,0,0:0:0:0:
213,192,63721,1,0,0:0:0:0:
42,192,63807,1,0,0:0:0:0:
469,192,63807,1,0,0:0:0:0:
298,192,63893,1,0,0:0:0:0:
128,192,63978,1,0,0:0:0:0:
213,192,64064,1,0,0:0:0:0:
298,192,64150,1,0,0:0:0:0:
384,192,64150,1,0,0:0:0:0:
469,192,64236,1,0,0:0:0:0:
128,192,64321,1,0,0:0:0:0:
42,192,64407,1,0,0:0:0:0:
213,192,64493,1,0,0:0:0:0:
298,192,64493,1,0,0:0:0:0:
128,192,64664,1,0,0:0:0:0:
384,192,64664,1,0,0:0:0:0:
42,192,64836,128,0,65178:0:0:0:0:
469,192,64836,128,0,65178:0:0:0:0:
213,192,64836,128,0,65178:0:0:0:0:
384,192,65178,1,0,0:0:0:0:
128,192,65178,1,0,0:0:0:0:
298,192,65264,1,0,0:0:0:0:
213,192,65350,1,0,0:0:0:0:
469,192,65436,1,0,0:0:0:0:
128,192,65521,1,0,0:0:0:0:
384,192,65521,1,0,0:0:0:0:
298,192,65521,1,0,0:0:0:0:
298,192,65864,1,0,0:0:0:0:
469,192,65864,1,0,0:0:0:0:
42,192,65864,1,0,0:0:0:0:
128,192,66036,1,0,0:0:0:0:
384,192,66207,1,0,0:0:0:0:
42,192,66207,1,0,0:0:0:0:
213,192,66207,1,0,0:0:0:0:
298,192,66378,1,0,0:0:0:0:
469,192,66550,1,0,0:0:0:0:
128,192,66550,1,0,0:0:0:0:
384,192,66550,1,0,0:0:0:0:
213,192,66721,1,0,0:0:0:0:
128,192,66893,1,0,0:0:0:0:
42,192,66893,128,0,67236:0:0:0:0:
384,192,66893,128,0,67064:0:0:0:0:
298,192,67064,128,0,67236:0:0:0:0:
469,192,67236,1,0,0:0:0:0:
213,192,67236,1,0,0:0:0:0:
128,192,67236,1,0,0:0:0:0:
298,192,67407,1,0,0:0:0:0:
42,192,67578,1,0,0:0:0:0:
469,192,67578,1,0,0:0:0:0:
384,192,67578,1,0,0:0:0:0:
128,192,67750,1,0,0:0:0:0:
213,192,67921,1,0,0:0:0:0:
384,192,67921,1,0,0:0:0:0:
298,192,67921,1,0,0:0:0:0:
128,192,68093,1,0,0:0:0:0:
213,192,68264,1,0,0:0:0:0:
42,192,68264,1,0,0:0:0:0:
384,192,68264,1,0,0:0:0:0:
298,192,68436,1,0,0:0:0:0:
213,192,68607,1,0,0:0:0:0:
128,192,68607,1,0,0:0:0:0:
469,192,68607,1,0,0:0:0:0:
384,192,68778,1,0,0:0:0:0:
469,192,68950,1,0,0:0:0:0:
298,192,68950,1,0,0:0:0:0:
42,192,68950,1,0,0:0:0:0:
213,192,69121,1,0,0:0:0:0:
42,192,69293,1,0,0:0:0:0:
384,192,69293,1,0,0:0:0:0:
128,192,69293,1,0,0:0:0:0:
298,192,69464,1,0,0:0:0:0:
384,192,69636,1,0,0:0:0:0:
469,192,69636,128,0,69978:0:0:0:0:
128,192,69636,128,0,69807:0:0:0:0:
213,192,69807,128,0,69978:0:0:0:0:
42,192,69978,1,0,0:0:0:0:
384,192,69978,1,0,0:0:0:0:
298,192,69978,1,0,0:0:0:0:
128,192,70150,1,0,0:0:0:0:
42,192,70321,1,0,0:0:0:0:
213,192,70321,1,0,0:0:0:0:
469,192,70321,1,0,0:0:0:0:
384,192,70493,1,0,0:0:0:0:
469,192,70664,1,0,0:0:0:0:
298,192,70664,1,0,0:0:0:0:
128,192,70664,1,0,0:0:0:0:
213,192,70836,1,0,0:0:0:0:
384,192,71007,1,0,0:0:0:0:
128,192,71007,1,0,0:0:0:0:
42,192,71007,1,0,0:0:0:0:
298,192,71178,1,0,0:0:0:0:
384,192,71350,1,0,0:0:0:0:
469,192,71350,1,0,0:0:0:0:
213,192,71350,1,0,0:0:0:0:
42,192,71521,1,0,0:0:0:0:
128,192,71693,1,0,0:0:0:0:
298,192,71693,1,0,0:0:0:0:
213,192,71693,1,0,0:0:0:0:
384,192,71864,1,0,0:0:0:0:
42,192,72036,1,0,0:0:0:0:
469,192,72036,1,0,0:0:0:0:
213,192,72036,1,0,0:0:0:0:
298,192,72207,1,0,0:0:0:0:
213,192,72378,128,0,72721:0:0:0:0:
128,192,72378,128,0,72550:0:0:0:0:
384,192,72378,1,0,0:0:0:0:
298,192,72550,128,0,72721:0:0:0:0:
42,192,72721,1,0,0:0:0:0:
384,192,72721,1,0,0:0:0:0:
469,192,72721,1,0,0:0:0:0:
213,192,72893,1,0,0:0:0:0:
128,192,73064,1,0,0:0:0:0:
42,192,73064,1,0,0:0:0:0:
298,192,73064,1,0,0:0:0:0:
469,192,73236,1,0,0:0:0:0:
298,192,73407,1,0,0:0:0:0:
384,192,73407,1,0,0:0:0:0:
128,192,73407,1,0,0:0:0:0:
213,192,73578,1,0,0:0:0:0:
469,192,73750,1,0,0:0:0:0:
298,192,73750,1,0,0:0:0:0:
42,192,73750,1,0,0:0:0:0:
128,192,73921,1,0,0:0:0:0:
213,192,74093,1,0,0:0:0:0:
42,192,74093,1,0,0:0:0:0:
384,192,74093,1,0,0:0:0:0:
298,192,74264,1,0,0:0:0:0:
384,192,74436,1,0,0:0:0:0:
469,192,74436,1,0,0:0:0:0:
128,192,74436,1,0,0:0:0:0:
298,192,74607,1,0,0:0:0:0:
469,192,74778,1,0,0:0:0:0:
213,192,74778,1,0,0:0:0:0:
42,192,74778,1,0,0:0:0:0:
128,192,74950,1,0,0:0:0:0:
42,192,75121,1,0,0:0:0:0:
298,192,75121,1,0,0:0:0:0:
469,192,75121,1,0,0:0:0:0:
213,192,75293,1,0,0:0:0:0:
128,192,75464,1,0,0:0:0:0:
42,192,75464,1,0,0:0:0:0:
384,192,75464,1,0,0:0:0:0:
298,192,75636,1,0,0:0:0:0:
213,192,75807,1,0,0:0:0:0:
384,192,75807,1,0,0:0:0:0:
469,192,75807,1,0,0:0:0:0:
128,192,75978,1,0,0:0:0:0:
42,192,76150,1,0,0:0:0:0:
469,192,76150,1,0,0:0:0:0:
213,192,76150,1,0,0:0:0:0:
298,192,76321,1,0,0:0:0:0:
128,192,76493,1,0,0:0:0:0:
384,192,76493,1,0,0:0:0:0:
213,192,76664,1,0,0:0:0:0:
298,192,76664,1,0,0:0:0:0:
384,192,76836,1,0,0:0:0:0:
469,192,76836,1,0,0:0:0:0:
42,192,76836,1,0,0:0:0:0:
128,192,77007,1,0,0:0:0:0:
213,192,77178,1,0,0:0:0:0:
298,192,77178,128,0,77350:0:0:0:0:
469,192,77178,1,0,0:0:0:0:
384,192,77350,1,0,0:0:0:0:
42,192,77521,1,0,0:0:0:0:
128,192,77521,1,0,0:0:0:0:
213,192,77521,128,0,77693:0:0:0:0:
298,192,77693,1,0,0:0:0:0:
384,192,77864,1,0,0:0:0:0:
469,192,77864,128,0,78207:0:0:0:0:
128,192,77864,128,0,78036:0:0:0:0:
213,192,78036,128,0,78207:0:0:0:0:
384,192,78207,1,0,0:0:0:0:
42,192,78207,1,0,0:0:0:0:
298,192,78207,128,0,78378:0:0:0:0:
128,192,78378,1,0,0:0:0:0:
213,192,78550,1,0,0:0:0:0:
469,192,78550,1,0,0:0:0:0:
42,192,78550,128,0,78721:0:0:0:0:
298,192,78721,1,0,0:0:0:0:
128,192,78893,1,0,0:0:0:0:
42,192,78893,1,0,0:0:0:0:
384,192,78893,128,0,79064:0:0:0:0:
298,192,79064,1,0,0:0:0:0:
469,192,79236,1,0,0:0:0:0:
384,192,79236,1,0,0:0:0:0:
128,192,79236,128,0,79407:0:0:0:0:
213,192,79407,1,0,0:0:0:0:
42,192,79578,1,0,0:0:0:0:
384,192,79578,1,0,0:0:0:0:
298,192,79578,1,0,0:0:0:0:
128,192,79750,1,0,0:0:0:0:
298,192,79921,1,0,0:0:0:0:
213,192,79921,1,0,0:0:0:0:
469,192,79921,128,0,80093:0:0:0:0:
384,192,80093,1,0,0:0:0:0:
42,192,80264,1,0,0:0:0:0:
213,192,80264,128,0,80436:0:0:0:0:
298,192,80264,1,0,0:0:0:0:
469,192,80436,1,0,0:0:0:0:
128,192,80607,128,0,80950:0:0:0:0:
42,192,80607,1,0,0:0:0:0:
384,192,80607,128,0,80778:0:0:0:0:
298,192,80778,128,0,80950:0:0:0:0:
384,192,80950,1,0,0:0:0:0:
469,192,80950,1,0,0:0:0:0:
213,192,80950,128,0,81121:0:0:0:0:
42,192,81121,1,0,0:0:0:0:
128,192,81293,1,0,0:0:0:0:
469,192,81293,1,0,0:0:0:0:
298,192,81293,128,0,81464:0:0:0:0:
213,192,81464,1,0,0:0:0:0:
128,192,81636,1,0,0:0:0:0:
42,192,81636,1,0,0:0:0:0:
384,192,81636,128,0,81807:0:0:0:0:
298,192,81807,1,0,0:0:0:0:
213,192,81978,1,0,0:0:0:0:
469,192,81978,1,0,0:0:0:0:
128,192,81978,128,0,82150:0:0:0:0:
42,192,82150,1,0,0:0:0:0:
384,192,82321,1,0,0:0:0:0:
213,192,82321,1,0,0:0:0:0:
298,192,82321,1,0,0:0:0:0:
128,192,82493,1,0,0:0:0:0:
469,192,82664,1,0,0:0:0:0:
213,192,82664,1,0,0:0:0:0:
42,192,82664,128,0,82836:0:0:0:0:
298,192,82836,1,0,0:0:0:0:
213,192,83007,1,0,0:0:0:0:
128,192,83007,1,0,0:0:0:0:
384,192,83007,128,0,83178:0:0:0:0:
469,192,83178,1,0,0:0:0:0:
298,192,83350,128,0,83693:0:0:0:0:
128,192,83350,128,0,83521:0:0:0:0:
384,192,83350,1,0,0:0:0:0:
213,192,83521,128,0,83693:0:0:0:0:
42,192,83693,1,0,0:0:0:0:
469,192,83693,1,0,0:0:0:0:
384,192,83693,128,0,83864:0:0:0:0:
128,192,83864,1,0,0:0:0:0:
42,192,84036,1,0,0:0:0:0:
298,192,84036,1,0,0:0:0:0:
213,192,84036,128,0,84207:0:0:0:0:
384,192,84207,1,0,0:0:0:0:
469,192,84378,1,0,0:0:0:0:
128,192,84378,1,0,0:0:0:0:
298,192,84378,128,0,84550:0:0:0:0:
213,192,84550,1,0,0:0:0:0:
128,192,84721,1,0,0:0:0:0:
384,192,84721,1,0,0:0:0:0:
42,192,84721,128,0,84893:0:0:0:0:
298,192,84893,1,0,0:0:0:0:
213,192,85064,128,0,85236:0:0:0:0:
128,192,85064,1,0,0:0:0:0:
469,192,85064,1,0,0:0:0:0:
384,192,85236,1,0,0:0:0:0:
42,192,85407,1,0,0:0:0:0:
469,192,85407,1,0,0:0:0:0:
298,192,85407,128,0,85578:0:0:0:0:
128,192,85578,1,0,0:0:0:0:
213,192,85750,1,0,0:0:0:0:
384,192,85750,1,0,0:0:0:0:
469,192,85750,128,0,85921:0:0:0:0:
298,192,85921,1,0,0:0:0:0:
384,192,86093,1,0,0:0:0:0:
213,192,86093,128,0,86264:0:0:0:0:
42,192,86093,1,0,0:0:0:0:
128,192,86264,1,0,0:0:0:0:
298,192,86436,1,0,0:0:0:0:
469,192,86436,1,0,0:0:0:0:
42,192,86436,1,0,0:0:0:0:
213,192,86607,128,0,86778:0:0:0:0:
128,192,86778,1,0,0:0:0:0:
384,192,86950,128,0,87121:0:0:0:0:
469,192,87121,1,0,0:0:0:0:
128,192,87293,128,0,87464:0:0:0:0:
298,192,87464,1,0,0:0:0:0:
42,192,87464,1,0,0:0:0:0:
469,192,87464,1,0,0:0:0:0:
213,192,87636,1,0,0:0:0:0:
384,192,87636,1,0,0:0:0:0:
42,192,87807,1,0,0:0:0:0:
469,192,87807,1,0,0:0:0:0:
128,192,87807,1,0,0:0:0:0:
213,192,87978,128,0,88150:0:0:0:0:
128,192,88150,1,0,0:0:0:0:
469,192,88150,1,0,0:0:0:0:
384,192,88150,1,0,0:0:0:0:
298,192,88321,128,0,88493:0:0:0:0:
469,192,88493,1,0,0:0:0:0:
213,192,88493,1,0,0:0:0:0:
42,192,88493,1,0,0:0:0:0:
384,192,88664,128,0,88836:0:0:0:0:
469,192,88836,1,0,0:0:0:0:
213,192,88836,128,0,89178:0:0:0:0:
128,192,88836,128,0,89007:0:0:0:0:
298,192,89007,128,0,89178:0:0:0:0:
469,192,89178,1,0,0:0:0:0:
128,192,89178,1,0,0:0:0:0:
42,192,89178,128,0,89350:0:0:0:0:
384,192,89350,128,0,89521:0:0:0:0:
298,192,89521,1,0,0:0:0:0:
128,192,89521,1,0,0:0:0:0:
469,192,89521,1,0,0:0:0:0:
213,192,89693,128,0,89864:0:0:0:0:
42,192,89864,1,0,0:0:0:0:
128,192,89864,1,0,0:0:0:0:
384,192,89864,1,0,0:0:0:0:
298,192,90036,128,0,90207:0:0:0:0:
384,192,90207,1,0,0:0:0:0:
469,192,90207,1,0,0:0:0:0:
128,192,90207,1,0,0:0:0:0:
42,192,90378,128,0,90550:0:0:0:0:
213,192,90550,1,0,0:0:0:0:
298,192,90550,1,0,0:0:0:0:
384,192,90550,1,0,0:0:0:0:
128,192,90721,128,0,90893:0:0:0:0:
42,192,90893,1,0,0:0:0:0:
469,192,90893,1,0,0:0:0:0:
298,192,90893,1,0,0:0:0:0:
384,192,91064,128,0,91236:0:0:0:0:
128,192,91236,1,0,0:0:0:0:
298,192,91236,1,0,0:0:0:0:
213,192,91407,128,0,91578:0:0:0:0:
42,192,91578,1,0,0:0:0:0:
298,192,91578,128,0,91750:0:0:0:0:
469,192,91578,128,0,91921:0:0:0:0:
384,192,91750,128,0,91921:0:0:0:0:
298,192,91921,1,0,0:0:0:0:
42,192,91921,1,0,0:0:0:0:
128,192,91921,128,0,92093:0:0:0:0:
384,192,92093,128,0,92264:0:0:0:0:
42,192,92264,1,0,0:0:0:0:
469,192,92264,1,0,0:0:0:0:
213,192,92264,1,0,0:0:0:0:
298,192,92436,128,0,92607:0:0:0:0:
469,192,92607,1,0,0:0:0:0:
384,192,92607,1,0,0:0:0:0:
128,192,92607,1,0,0:0:0:0:
213,192,92778,128,0,92950:0:0:0:0:
128,192,92950,1,0,0:0:0:0:
42,192,92950,1,0,0:0:0:0:
384,192,92950,1,0,0:0:0:0:
298,192,93121,128,0,93293:0:0:0:0:
384,192,93293,1,0,0:0:0:0:
469,192,93293,1,0,0:0:0:0:
42,192,93293,1,0,0:0:0:0:
128,192,93464,128,0,93636:0:0:0:0:
42,192,93636,1,0,0:0:0:0:
384,192,93636,1,0,0:0:0:0:
213,192,93636,1,0,0:0:0:0:
469,192,93807,128,0,93978:0:0:0:0:
42,192,93978,1,0,0:0:0:0:
213,192,93978,1,0,0:0:0:0:
298,192,93978,1,0,0:0:0:0:
128,192,94150,128,0,94321:0:0:0:0:
42,192,94321,1,0,0:0:0:0:
384,192,94321,128,0,94493:0:0:0:0:
298,192,94321,128,0,94664:0:0:0:0:
213,192,94493,128,0,94664:0:0:0:0:
384,192,94664,1,0,0:0:0:0:
469,192,94664,128,0,94836:0:0:0:0:
128,192,94664,1,0,0:0:0:0:
42,192,94836,128,0,95007:0:0:0:0:
213,192,95007,1,0,0:0:0:0:
298,192,95007,1,0,0:0:0:0:
384,192,95007,1,0,0:0:0:0:
128,192,95178,128,0,95350:0:0:0:0:
42,192,95350,1,0,0:0:0:0:
298,192,95350,1,0,0:0:0:0:
469,192,95350,1,0,0:0:0:0:
213,192,95521,128,0,95693:0:0:0:0:
128,192,95693,1,0,0:0:0:0:
42,192,95693,1,0,0:0:0:0:
384,192,95693,1,0,0:0:0:0:
298,192,95864,128,0,96036:0:0:0:0:
384,192,96036,1,0,0:0:0:0:
469,192,96036,1,0,0:0:0:0:
128,192,96036,1,0,0:0:0:0:
42,192,96207,128,0,96378:0:0:0:0:
213,192,96378,1,0,0:0:0:0:
298,192,96378,1,0,0:0:0:0:
384,192,96550,128,0,96721:0:0:0:0:
213,192,96721,1,0,0:0:0:0:
128,192,96721,1,0,0:0:0:0:
469,192,96721,1,0,0:0:0:0:
298,192,96893,128,0,97064:0:0:0:0:
384,192,97064,1,0,0:0:0:0:
42,192,97064,1,0,0:0:0:0:
213,192,97064,1,0,0:0:0:0:
469,192,97236,128,0,97407:0:0:0:0:
298,192,97407,1,0,0:0:0:0:
213,192,97407,1,0,0:0:0:0:
128,192,97407,1,0,0:0:0:0:
42,192,97578,128,0,97750:0:0:0:0:
213,192,97750,1,0,0:0:0:0:
469,192,97750,1,0,0:0:0:0:
384,192,97750,1,0,0:0:0:0:
298,192,97921,128,0,98093:0:0:0:0:
128,192,98093,1,0,0:0:0:0:
42,192,98093,1,0,0:0:0:0:
384,192,98093,1,0,0:0:0:0:
128,192,98436,128,0,98521:0:0:0:0:
384,192,98436,128,0,98521:0:0:0:0:
128,192,98607,128,0,98778:0:0:0:0:
384,192,98607,128,0,98778:0:0:0:0:
42,192,98778,1,0,0:0:0:0:
298,192,98778,1,0,0:0:0:0:
469,192,98778,128,0,101521:0:0:0:0:
213,192,98950,128,0,99121:0:0:0:0:
128,192,99121,1,0,0:0:0:0:
384,192,99121,1,0,0:0:0:0:
298,192,99293,128,0,99464:0:0:0:0:
42,192,99464,1,0,0:0:0:0:
213,192,99464,1,0,0:0:0:0:
384,192,99636,128,0,99807:0:0:0:0:
298,192,99807,1,0,0:0:0:0:
213,192,99807,1,0,0:0:0:0:
42,192,99978,128,0,100150:0:0:0:0:
128,192,100150,1,0,0:0:0:0:
384,192,100150,1,0,0:0:0:0:
213,192,100321,128,0,100493:0:0:0:0:
42,192,100493,1,0,0:0:0:0:
384,192,100493,1,0,0:0:0:0:
128,192,100578,1,0,0:0:0:0:
298,192,100664,128,0,100836:0:0:0:0:
213,192,100836,1,0,0:0:0:0:
128,192,100836,1,0,0:0:0:0:
42,192,101007,128,0,101178:0:0:0:0:
128,192,101093,1,0,0:0:0:0:
213,192,101178,1,0,0:0:0:0:
298,192,101178,1,0,0:0:0:0:
384,192,101350,128,0,101521:0:0:0:0:
298,192,101521,1,0,0:0:0:0:
128,192,101521,128,0,101693:0:0:0:0:
213,192,101693,1,0,0:0:0:0:
128,192,101864,1,0,0:0:0:0:
42,192,101864,1,0,0:0:0:0:
469,192,101864,128,0,102036:0:0:0:0:
298,192,102036,1,0,0:0:0:0:
469,192,102207,1,0,0:0:0:0:
384,192,102207,1,0,0:0:0:0:
213,192,102207,128,0,102378:0:0:0:0:
128,192,102378,1,0,0:0:0:0:
42,192,102550,1,0,0:0:0:0:
213,192,102550,1,0,0:0:0:0:
298,192,102550,128,0,102721:0:0:0:0:
384,192,102721,1,0,0:0:0:0:
469,192,102893,1,0,0:0:0:0:
298,192,102893,1,0,0:0:0:0:
128,192,102893,128,0,103064:0:0:0:0:
213,192,103064,1,0,0:0:0:0:
42,192,103236,128,0,103407:0:0:0:0:
384,192,103236,1,0,0:0:0:0:
128,192,103236,1,0,0:0:0:0:
298,192,103321,1,0,0:0:0:0:
213,192,103407,1,0,0:0:0:0:
128,192,103578,1,0,0:0:0:0:
42,192,103578,1,0,0:0:0:0:
384,192,103578,128,0,103750:0:0:0:0:
213,192,103750,1,0,0:0:0:0:
298,192,103836,1,0,0:0:0:0:
384,192,103921,1,0,0:0:0:0:
469,192,103921,1,0,0:0:0:0:
128,192,103921,128,0,104093:0:0:0:0:
298,192,104093,128,0,104264:0:0:0:0:
213,192,104264,1,0,0:0:0:0:
469,192,104264,1,0,0:0:0:0:
42,192,104264,128,0,107007:0:0:0:0:
298,192,104436,1,0,0:0:0:0:
384,192,104436,1,0,0:0:0:0:
128,192,104607,1,0,0:0:0:0:
213,192,104607,1,0,0:0:0:0:
384,192,104778,1,0,0:0:0:0:
469,192,104778,1,0,0:0:0:0:
128,192,104950,1,0,0:0:0:0:
298,192,104950,1,0,0:0:0:0:
213,192,105121,1,0,0:0:0:0:
384,192,105121,1,0,0:0:0:0:
128,192,105293,1,0,0:0:0:0:
469,192,105293,1,0,0:0:0:0:
213,192,105378,1,0,0:0:0:0:
298,192,105464,1,0,0:0:0:0:
384,192,105550,1,0,0:0:0:0:
213,192,105636,1,0,0:0:0:0:
128,192,105636,1,0,0:0:0:0:
298,192,105807,1,0,0:0:0:0:
469,192,105807,1,0,0:0:0:0:
384,192,105978,1,0,0:0:0:0:
213,192,105978,1,0,0:0:0:0:
128,192,106150,1,0,0:0:0:0:
469,192,106150,1,0,0:0:0:0:
384,192,106321,1,0,0:0:0:0:
298,192,106321,1,0,0:0:0:0:
128,192,106493,1,0,0:0:0:0:
469,192,106493,1,0,0:0:0:0:
213,192,106664,1,0,0:0:0:0:
298,192,106664,1,0,0:0:0:0:
384,192,106750,1,0,0:0:0:0:
298,192,106836,1,0,0:0:0:0:
128,192,107007,1,0,0:0:0:0:
469,192,107007,1,0,0:0:0:0:
384,192,107007,1,0,0:0:0:0:
213,192,107093,1,0,0:0:0:0:
298,192,107178,1,0,0:0:0:0:
128,192,107264,1,0,0:0:0:0:
42,192,107350,1,0,0:0:0:0:
469,192,107350,1,0,0:0:0:0:
384,192,107436,1,0,0:0:0:0:
298,192,107521,1,0,0:0:0:0:
213,192,107607,1,0,0:0:0:0:
384,192,107693,1,0,0:0:0:0:
128,192,107693,1,0,0:0:0:0:
298,192,107778,1,0,0:0:0:0:
213,192,107864,1,0,0:0:0:0:
298,192,107950,1,0,0:0:0:0:
42,192,108036,1,0,0:0:0:0:
469,192,108036,1,0,0:0:0:0:
128,192,108121,1,0,0:0:0:0:
384,192,108207,1,0,0:0:0:0:
298,192,108293,1,0,0:0:0:0:
42,192,108378,1,0,0:0:0:0:
469,192,108378,1,0,0:0:0:0:
213,192,108464,1,0,0:0:0:0:
128,192,108550,1,0,0:0:0:0:
42,192,108636,1,0,0:0:0:0:
298,192,108721,1,0,0:0:0:0:
384,192,108807,1,0,0:0:0:0:
469,192,108893,1,0,0:0:0:0:
42,192,108978,1,0,0:0:0:0:
128,192,109064,1,0,0:0:0:0:
213,192,109150,1,0,0:0:0:0:
469,192,109236,1,0,0:0:0:0:
384,192,109321,1,0,0:0:0:0:
298,192,109407,1,0,0:0:0:0:
42,192,109407,1,0,0:0:0:0:
128,192,109493,1,0,0:0:0:0:
213,192,109578,1,0,0:0:0:0:
298,192,109664,1,0,0:0:0:0:
128,192,109750,1,0,0:0:0:0:
384,192,109750,1,0,0:0:0:0:
