osu file format v14

[General]
AudioFilename: HAVOX [NOFX].mp3
AudioLeadIn: 0
PreviewTime: 69060
Countdown: 0
SampleSet: Normal
StackLeniency: 0.3
Mode: 0
LetterboxInBreaks: 1
WidescreenStoryboard: 1

[Editor]
Bookmarks: 1210,10352,18352,27488,36638,45781,54924,61774,69781,78917,88067,97203,106352,113210,118924,123488
DistanceSpacing: 1
BeatDivisor: 4
GridSize: 4
TimelineZoom: 1.600001

[Metadata]
Title:HAVOX
TitleUnicode:HAVOX
Artist:BlackY vs. Yooh
ArtistUnicode:BlackY vs. Yooh
Creator:Timorisu
Version:LEADER'S MASTER
Source:SOUND VOLTEX III GRAVITY WARS
Tags:sdvx 3 havoc dubstep ktgster leader
BeatmapID:1294885
BeatmapSetID:352555

[Difficulty]
HPDrainRate:7
CircleSize:4
OverallDifficulty:9
ApproachRate:9.3
SliderMultiplier:1.8
SliderTickRate:1

[Events]
//Background and Video events
0,0,"bg.jpg",0,0
//Break Periods
//Storyboard Layer 0 (Background)
//Storyboard Layer 1 (Fail)
//Storyboard Layer 2 (Pass)
//Storyboard Layer 3 (Foreground)
//Storyboard Sound Samples

[TimingPoints]
1203,285.714285714286,4,2,0,20,1,0
9774,-200,4,2,0,50,0,0
10345,-100,4,1,0,75,0,0
17417,-200,4,2,0,75,0,0
18345,-100,4,1,0,75,0,0
27488,-83.3333333333333,4,1,0,75,0,0
28488,-100,4,1,0,75,0,0
29203,-83.3333333333333,4,1,0,75,0,0
29774,-100,4,1,0,75,0,0
30345,-83.3333333333333,4,1,0,75,0,0
30774,-100,4,1,0,75,0,0
32631,-83.3333333333333,4,1,0,75,0,0
33060,-100,4,1,0,75,0,0
33774,-83.3333333333333,4,1,0,75,0,0
35345,-100,4,1,0,75,0,0
36060,-200,4,2,0,75,0,0
36631,-100,4,1,0,75,0,0
40631,-83.3333333333333,4,1,0,75,0,0
41203,-100,4,1,0,75,0,0
45203,-200,4,2,0,75,0,0
45774,-100,4,1,0,75,0,0
48060,-100,4,2,0,75,0,0
53488,-100,4,1,0,75,0,0
61203,-80,4,1,0,75,0,0
61488,-66.6666666666667,4,1,0,75,0,0
61774,-100,4,1,0,75,0,0
69774,-100,4,1,0,75,0,1
78345,-100,4,1,0,75,0,0
78917,-100,4,1,0,75,0,1
87488,-100,4,1,0,75,0,0
88060,-100,4,1,0,75,0,1
96631,-100,4,1,0,75,0,0
97203,-100,4,1,0,75,0,1
106345,285.714285714286,6,1,0,75,1,0
106345,-125,4,1,0,75,0,0
113203,-200,4,2,0,40,0,0
113238,285.714285714286,6,2,0,75,1,0
113238,-200,4,2,0,75,0,0
114917,285.714285714286,6,2,0,75,1,0
114917,-200,4,2,0,75,0,0
114953,285.714285714286,6,2,0,75,1,0
114953,-200,4,2,0,75,0,0
116631,285.714285714286,6,2,0,75,1,0
116631,-200,4,2,0,75,0,0
116667,285.714285714286,6,2,0,75,1,0
116667,-200,4,2,0,75,0,0
118345,285.714285714286,4,2,0,75,1,0
118345,-100,4,2,0,75,0,0
118917,285.714285714286,4,2,0,75,1,0

[Colours]
Combo1 : 145,0,0
Combo2 : 211,211,211
Combo3 : 244,217,19
Combo4 : 0,121,255
Combo5 : 202,0,0
Combo6 : 124,124,124
Combo7 : 179,157,9
Combo8 : 0,75,159

[HitObjects]
256,192,8060,12,0,9060,0:0:0:0:
259,307,9203,5,0,3:0:0:0:
303,309,9274,1,0,3:0:0:0:
346,297,9345,1,0,3:0:0:0:
382,270,9417,1,0,3:0:0:0:
408,233,9488,1,0,3:0:0:0:
419,190,9560,1,0,3:0:0:0:
414,145,9631,1,0,3:0:0:0:
395,105,9702,1,0,3:0:0:0:
364,72,9774,6,0,L|360:128,1,45,2|2,0:3|0:3,0:0:0:0:
242,224,10060,2,0,L|238:179,1,45,2|2,0:3|0:3,0:0:0:0:
441,225,10345,6,0,P|393:233|345:245,1,90,4|0,0:0|2:0,0:0:0:0:
94,139,10631,2,0,P|137:149|182:156,1,90,0|0,0:0|2:0,0:0:0:0:
355,15,10917,2,0,L|343:109,1,90,0|0,0:0|2:0,0:0:0:0:
300,380,11203,1,0,0:0:0:0:
156,277,11345,1,0,2:0:0:0:
300,380,11488,6,0,L|328:188,1,180,0|0,0:0|0:0,0:0:0:0:
400,120,11917,1,0,2:0:0:0:
236,164,12060,2,0,P|180:176|72:104,1,180,0|0,0:0|0:0,0:0:0:0:
188,56,12488,1,0,0:0:0:0:
12,176,12631,70,0,P|0:128|4:76,1,90,0|0,0:0|2:0,0:0:0:0:
116,240,12917,2,0,P|117:284|105:328,1,90,0|0,0:0|2:0,0:0:0:0:
105,328,13203,2,0,L|12:336,2,90,0|0|0,0:0|2:0|0:0,0:0:0:0:
372,368,13631,1,0,2:0:0:0:
281,327,13774,6,0,B|257:235|317:239|273:131,1,180,0|0,0:0|0:0,0:0:0:0:
216,12,14203,1,0,2:0:0:0:
120,52,14345,1,0,0:0:0:0:
196,200,14488,1,0,0:0:0:0:
154,183,14560,1,0,0:0:0:0:
109,176,14631,1,0,0:0:0:0:
19,352,14774,5,0,0:0:0:0:
60,335,14845,1,0,0:0:0:0:
105,328,14917,2,0,B|195:296|195:356|295:324,1,180,0|0,0:0|0:0,0:0:0:0:
400,312,15345,1,0,0:0:0:0:
400,312,15417,1,0,0:0:0:0:
400,312,15488,2,0,L|412:200,1,90,0|0,0:0|2:0,0:0:0:0:
304,224,15774,2,0,L|292:112,1,90,0|0,0:0|2:0,0:0:0:0:
376,92,16060,6,0,P|304:112|204:48,1,180
304,20,16488,1,0,2:0:0:0:
32,180,16631,2,0,P|104:200|204:136,1,180,0|0,0:0|0:0,0:0:0:0:
104,112,17060,1,0,0:0:0:0:
12,360,17203,69,0,1:0:0:0:
16,272,17345,1,0,1:0:0:0:
52,284,17417,1,0,1:0:0:0:
84,308,17488,1,0,1:0:0:0:
12,360,17631,1,0,0:0:0:0:
84,308,17774,6,0,P|112:308|144:296,1,45,0|0,1:0|0:0,0:0:0:0:
264,244,18060,2,0,P|242:238|219:239,1,45,0|0,1:0|0:0,0:0:0:0:
232,344,18345,6,0,B|288:336|288:336|348:352|348:352|416:344,1,180,4|0,0:0|0:0,0:0:0:0:
448,260,18774,1,0,0:0:0:0:
448,260,18917,2,0,P|448:220|472:160,1,90,0|0,0:0|2:0,0:0:0:0:
500,88,19203,1,0,0:0:0:0:
500,88,19345,1,0,2:0:0:0:
384,136,19488,6,0,P|328:148|220:72,1,180
328,56,19917,1,0,2:0:0:0:
144,280,20060,2,0,P|116:232|132:100,1,180,0|0,0:0|0:0,0:0:0:0:
176,28,20488,1,0,0:0:0:0:
316,260,20631,70,0,L|328:168,1,90
328,56,20917,1,0,0:0:0:0:
404,100,21060,1,0,0:0:0:0:
220,188,21203,2,0,P|176:188|123:170,1,90,0|0,0:0|2:0,0:0:0:0:
39,16,21488,2,0,L|51:108,1,90,0|0,0:0|2:0,0:0:0:0:
12,360,21774,6,0,P|-8:312|11:164,1,180
244,300,22203,1,0,2:0:0:0:
140,344,22345,1,0,0:0:0:0:
176,216,22488,1,0,0:0:0:0:
196,208,22560,1,0,0:0:0:0:
216,208,22631,1,0,0:0:0:0:
360,288,22774,1,0,0:0:0:0:
402,143,22917,6,0,L|394:43,1,90
360,288,23203,2,0,L|267:300,1,90
496,166,23488,1,0,0:0:0:0:
303,118,23631,1,0,2:0:0:0:
402,143,23774,1,0,0:0:0:0:
474,73,23917,1,0,2:0:0:0:
224,368,24060,6,0,P|200:300|228:196,1,180
360,288,24488,1,0,2:0:0:0:
113,144,24631,2,0,L|101:52,2,90
40,272,25060,1,0,0:0:0:0:
16,32,25203,70,0,P|56:48|112:56,1,90
180,68,25417,1,0,0:0:0:0:
180,68,25488,2,0,L|276:52,1,90
344,56,25703,1,0,0:0:0:0:
344,56,25774,2,0,L|440:68,1,90
500,36,25988,1,0,0:0:0:0:
500,36,26060,1,0,0:0:0:0:
500,184,26203,1,0,0:0:0:0:
500,184,26274,1,0,0:0:0:0:
500,184,26345,5,2,0:2:0:0:
416,160,26488,1,2,2:2:0:0:
256,280,26631,5,2,0:2:0:0:
344,248,26774,1,2,2:2:0:0:
504,356,26917,1,2,0:2:0:0:
416,324,27060,5,2,2:2:0:0:
371,319,27131,1,0,0:0:0:0:
327,329,27203,1,2,0:2:0:0:
288,351,27274,1,0,0:0:0:0:
243,355,27345,1,2,2:2:0:0:
199,345,27417,1,0,0:0:0:0:
160,323,27488,5,4,0:0:0:0:
172,176,27631,1,0,0:0:0:0:
68,336,27774,1,2,0:0:0:0:
32,88,27917,1,0,0:0:0:0:
172,176,28060,6,0,P|284:192|356:112,1,215.999993408203,10|2,0:0|0:0,0:0:0:0:
480,232,28488,6,0,P|428:232|384:252,1,90,2|0,0:0|0:0,0:0:0:0:
276,320,28774,2,0,L|224:312,2,45,2|0|2,0:0|0:0|0:0,0:0:0:0:
368,336,29060,1,0,0:0:0:0:
88,352,29203,6,0,L|72:232,1,107.999996704102,10|2,0:0|0:3,0:0:0:0:
176,236,29417,1,0,0:0:0:0:
188,252,29488,2,0,L|204:132,1,107.999996704102,2|2,0:3|0:3,0:0:0:0:
48,44,29774,69,0,0:0:0:0:
16,148,29917,1,0,0:0:0:0:
16,148,29988,1,0,0:0:0:0:
16,148,30060,1,0,0:0:0:0:
136,100,30203,1,0,0:0:0:0:
458,133,30345,6,0,P|384:208|280:200,1,215.999993408203,8|0,0:0|0:0,0:0:0:0:
182,308,30774,6,0,B|149:290|149:290|299:298,1,180
90,353,31203,2,0,P|67:309|131:208,1,180,0|8,0:0|0:0,0:0:0:0:
347,120,31631,1,2,0:3:0:0:
334,262,31774,1,2,0:3:0:0:
252,161,31917,5,2,0:3:0:0:
252,161,31988,1,0,0:0:0:0:
252,161,32060,1,0,0:0:0:0:
270,63,32203,1,2,0:0:0:0:
347,120,32345,1,0,0:0:0:0:
347,120,32488,1,2,0:0:0:0:
113,215,32631,70,0,B|92:55|92:55|131:102,1,215.999993408203,10|2,0:0|0:0,0:0:0:0:
27,271,33060,6,0,L|17:180,1,90,2|0,0:0|0:0,0:0:0:0:
117,313,33345,1,2,0:0:0:0:
117,313,33417,1,0,0:0:0:0:
117,313,33488,1,2,0:0:0:0:
36,368,33631,1,0,0:0:0:0:
216,325,33774,6,0,L|331:319,1,107.999996704102,10|2,0:0|0:3,0:0:0:0:
399,233,33988,1,0,0:0:0:0:
385,246,34060,2,0,L|270:240,1,107.999996704102,2|2,0:3|0:3,0:0:0:0:
170,121,34345,1,0,0:0:0:0:
299,52,34488,1,0,0:0:0:0:
299,52,34560,1,0,0:0:0:0:
299,52,34631,1,0,0:0:0:0:
436,80,34774,1,0,0:0:0:0:
321,353,34917,6,0,P|299:290|336:143,1,215.999993408203,8|0,0:0|0:0,0:0:0:0:
481,257,35345,70,0,L|462:368,1,90
385,246,35631,1,0,0:0:0:0:
385,246,35703,1,0,0:0:0:0:
385,246,35774,1,0,0:0:0:0:
444,176,35917,1,0,0:0:0:0:
299,52,36060,6,0,L|296:104,1,45,2|0,0:0|0:0,0:0:0:0:
188,244,36345,2,0,L|184:192,1,45,2|0,0:0|0:0,0:0:0:0:
268,352,36631,69,4,0:0:0:0:
360,340,36774,1,0,0:0:0:0:
448,324,36917,1,0,0:0:0:0:
304,272,37060,5,0,0:0:0:0:
304,272,37131,1,0,0:0:0:0:
304,272,37203,1,0,0:0:0:0:
448,324,37345,1,0,0:0:0:0:
392,252,37488,1,0,0:0:0:0:
268,352,37631,2,0,L|172:344,1,90,0|0,0:0|2:0,0:0:0:0:
24,268,37917,69,0,0:0:0:0:
24,268,37988,1,0,0:0:0:0:
24,268,38060,1,0,0:0:0:0:
80,360,38203,1,0,0:0:0:0:
138,246,38345,5,2,0:3:0:0:
139,237,38417,1,0,0:0:0:0:
139,228,38488,1,2,0:3:0:0:
139,219,38560,1,0,0:0:0:0:
140,210,38631,2,0,L|143:164,1,45,2|0,0:3|0:0,0:0:0:0:
44,100,38774,2,0,L|48:144,1,45,2|0,0:3|0:0,0:0:0:0:
136,64,38917,6,0,P|192:80|296:24,1,180
472,128,39345,1,0,0:0:0:0:
472,128,39417,1,0,0:0:0:0:
472,128,39488,1,0,0:0:0:0:
380,100,39631,1,0,0:0:0:0:
256,240,39774,1,0,0:0:0:0:
340,208,39917,1,0,0:0:0:0:
472,356,40060,5,0,0:0:0:0:
364,328,40203,1,0,0:0:0:0:
444,252,40345,1,0,0:0:0:0:
444,252,40488,1,0,0:0:0:0:
192,356,40631,70,0,P|198:325|214:289,1,71.9999978027344,2|0,3:3|2:0,0:0:0:0:
374,236,40822,2,0,P|344:246|304:250,1,71.9999978027344,0|0,0:0|2:0,0:0:0:0:
173,145,41012,2,0,P|196:165|220:197,1,71.9999978027344,0|0,0:0|2:0,0:0:0:0:
76,136,41203,6,0,L|64:40,1,90,0|0,0:0|2:0,0:0:0:0:
16,212,41488,1,0,0:0:0:0:
16,212,41631,1,0,2:0:0:0:
216,200,41774,2,0,L|228:104,1,90,0|0,0:0|2:0,0:0:0:0:
300,260,42060,1,0,0:0:0:0:
300,260,42203,1,0,2:0:0:0:
208,300,42345,5,0,0:0:0:0:
432,364,42488,2,0,P|452:300|412:184,1,180,0|0,2:0|2:0,0:0:0:0:
340,76,42917,2,0,L|292:64,3,45,2|0|2|0,0:3|2:0|0:3|2:0,0:0:0:0:
216,80,43203,2,0,L|172:90,3,45,2|0|2|0,0:3|2:0|0:3|2:0,0:0:0:0:
96,40,43488,5,0,0:0:0:0:
74,79,43560,1,0,0:0:0:0:
67,123,43631,1,0,0:0:0:0:
74,167,43703,1,0,0:0:0:0:
96,207,43774,69,0,0:0:0:0:
117,246,43845,1,0,0:0:0:0:
124,290,43917,1,0,0:0:0:0:
117,334,43988,1,0,0:0:0:0:
96,372,44060,5,2,0:3:0:0:
137,358,44131,1,2,0:3:0:0:
182,356,44203,1,2,0:3:0:0:
225,366,44274,1,2,0:3:0:0:
267,381,44345,5,0,0:0:0:0:
312,383,44417,1,0,0:0:0:0:
355,373,44488,1,2,0:3:0:0:
394,350,44560,1,0,0:0:0:0:
414,310,44631,5,0,0:0:0:0:
418,265,44703,1,0,0:0:0:0:
405,222,44774,1,0,0:0:0:0:
377,188,44845,1,0,0:0:0:0:
356,148,44917,69,0,0:0:0:0:
352,103,44988,1,0,0:0:0:0:
365,60,45060,1,0,0:0:0:0:
393,26,45131,1,0,0:0:0:0:
436,16,45203,6,0,L|444:88,1,67.5,0|0,2:2|0:0,0:0:0:0:
488,144,45488,2,0,L|481:188,1,45,2|0,2:2|0:0,0:0:0:0:
328,296,45774,6,0,P|288:308|220:300,1,90,4|0,0:0|2:0,0:0:0:0:
132,160,46060,2,0,P|172:148|240:156,1,90,0|0,0:0|2:0,0:0:0:0:
40,212,46345,2,0,P|32:164|36:112,1,90,0|0,0:0|2:0,0:0:0:0:
332,104,46631,2,0,P|339:148|337:193,1,90,0|0,0:0|2:0,0:0:0:0:
240,336,46917,6,0,L|140:344,1,90,0|0,0:0|2:0,0:0:0:0:
132,160,47203,2,0,L|232:152,1,90,0|0,0:0|2:0,0:0:0:0:
40,212,47488,2,0,P|28:172|26:110,1,90,0|0,0:0|2:0,0:0:0:0:
255,248,47774,2,0,P|252:292|239:335,1,90,0|0,0:0|2:0,0:0:0:0:
167,162,48060,69,2,1:2:0:0:
195,127,48131,1,0,0:0:0:0:
234,105,48203,1,2,0:2:0:0:
278,99,48274,1,0,0:0:0:0:
322,110,48345,5,2,1:2:0:0:
358,136,48417,1,0,0:0:0:0:
382,174,48488,1,2,0:2:0:0:
390,218,48560,1,0,0:0:0:0:
383,262,48631,5,2,1:2:0:0:
361,301,48703,1,0,0:0:0:0:
325,328,48774,1,2,0:2:0:0:
282,340,48845,1,0,0:0:0:0:
238,335,48917,2,0,P|206:337|166:349,3,45,2|0|2|0,1:2|0:0|0:2|0:0,0:0:0:0:
325,328,49203,5,2,1:2:0:0:
307,286,49274,1,0,0:0:0:0:
305,242,49345,1,2,0:2:0:0:
319,199,49417,1,0,0:0:0:0:
337,168,49488,69,2,1:2:0:0:
354,126,49560,1,0,0:0:0:0:
356,82,49631,1,2,0:2:0:0:
342,39,49703,1,0,0:0:0:0:
300,32,49774,6,0,P|268:36|240:48,3,45,2|0|2|0,1:2|0:0|0:2|0:0,0:0:0:0:
181,78,50060,2,0,P|159:71|137:69,3,45,2|0|2|0,1:2|0:0|0:2|0:0,0:0:0:0:
96,139,50345,5,2,1:2:0:0:
68,174,50417,1,0,0:0:0:0:
55,217,50488,1,2,0:2:0:0:
56,261,50560,1,0,0:0:0:0:
73,303,50631,5,2,1:2:0:0:
104,336,50703,1,0,0:0:0:0:
143,356,50774,1,2,0:2:0:0:
188,362,50845,1,0,0:0:0:0:
231,353,50917,69,2,1:2:0:0:
269,328,50988,1,0,0:0:0:0:
296,293,51060,1,2,0:2:0:0:
310,250,51131,1,0,0:0:0:0:
308,205,51203,6,0,P|264:191|244:191,1,45,2|0,1:2|0:0,0:0:0:0:
168,279,51345,2,0,P|189:273|210:264,1,45,2|0,0:2|0:0,0:0:0:0:
96,139,51488,6,0,P|63:131|16:128,2,60,2|0|0,1:2|0:0|0:0,0:0:0:0:
228,48,51774,2,0,P|261:39|308:36,2,60,2|0|0,1:2|0:0|0:0,0:0:0:0:
196,152,52060,2,0,P|204:185|207:232,2,60,2|0|0,1:2|0:0|0:0,0:0:0:0:
144,60,52345,2,0,P|135:26|132:-20,2,60,2|0|0,1:2|0:0|0:0,0:0:0:0:
360,220,52631,5,2,1:2:0:0:
312,368,52774,1,2,1:2:0:0:
196,332,52917,2,0,P|148:324|92:320,1,90,2|0,1:2|0:0,0:0:0:0:
312,368,53203,1,2,1:2:0:0:
355,379,53274,1,0,0:0:0:0:
399,374,53345,1,2,0:2:0:0:
439,354,53417,1,0,0:0:0:0:
469,320,53488,2,0,L|476:276,3,45,2|0|2|2,1:2|0:0|0:2|0:2,0:0:0:0:
424,200,53774,69,2,0:2:0:0:
456,52,53917,1,0,0:0:0:0:
512,148,54060,1,0,0:0:0:0:
368,112,54203,1,0,0:0:0:0:
328,248,54345,1,2,0:2:0:0:
287,266,54417,1,0,0:0:0:0:
242,265,54488,1,2,0:2:0:0:
203,244,54560,1,0,0:0:0:0:
176,208,54631,2,0,L|168:164,3,45,2|0|2|0,0:2|0:0|0:2|0:0,0:0:0:0:
192,92,54917,6,0,P|276:104|348:36,1,180,6|0,0:2|0:0,0:0:0:0:
252,16,55345,1,0,0:0:0:0:
80,188,55488,2,0,L|64:52,2,135,2|0|0,0:2|0:0|0:0,0:0:0:0:
352,356,56060,6,0,P|360:316|360:252,1,90,2|0,0:2|2:0,0:0:0:0:
150,266,56345,2,0,P|151:311|160:356,1,90,0|0,0:0|2:0,0:0:0:0:
450,381,56631,2,0,P|459:336|460:292,1,90,2|0,0:2|2:0,0:0:0:0:
54,286,56917,2,0,P|55:331|64:376,1,90,0|0,0:0|2:0,0:0:0:0:
312,232,57203,6,0,L|328:88,1,135,2|0,0:2|2:0,0:0:0:0:
344,72,57488,2,0,P|376:60|444:52,1,90,0|0,0:0|2:0,0:0:0:0:
204,300,57774,2,0,L|188:156,1,135,2|0,0:2|2:0,0:0:0:0:
172,140,58060,2,0,P|140:128|72:120,1,90,0|0,0:0|2:0,0:0:0:0:
344,72,58345,69,2,0:2:0:0:
344,72,58417,1,0,0:0:0:0:
344,72,58488,1,0,0:0:0:0:
424,136,58631,1,0,0:0:0:0:
324,268,58774,2,0,P|316:224|320:172,1,90,2|0,0:2|0:0,0:0:0:0:
344,72,59060,1,0,0:0:0:0:
440,40,59203,1,2,0:2:0:0:
440,40,59345,1,0,0:0:0:0:
252,112,59488,6,0,P|196:128|88:56,1,180,2|0,0:2|0:0,0:0:0:0:
192,36,59917,1,0,2:0:0:0:
68,188,60060,1,2,1:2:0:0:
68,188,60131,1,0,2:0:0:0:
68,188,60203,1,2,2:2:0:0:
68,188,60274,1,0,2:0:0:0:
68,188,60345,1,2,1:2:0:0:
68,188,60417,1,0,2:0:0:0:
68,188,60488,1,2,2:2:0:0:
68,188,60560,1,0,2:0:0:0:
68,188,60631,5,2,1:2:0:0:
232,268,60774,1,0,0:0:0:0:
40,360,60917,6,0,L|32:268,1,90
232,268,61203,70,0,L|244:152,1,112.5,2|0,0:2|0:0,0:0:0:0:
68,188,61488,6,0,L|56:44,1,135.000005149842,2|0,0:2|0:0,0:0:0:0:
232,36,61774,6,0,P|276:36|324:48,1,90,0|0,0:0|0:0,0:0:0:0:
288,360,62060,2,0,P|244:360|196:348,1,90,2|0,0:2|0:0,0:0:0:0:
412,168,62345,2,0,P|412:212|400:260,1,90,2|0,0:2|0:0,0:0:0:0:
88,224,62631,2,0,P|88:180|100:132,1,90,2|0,0:2|0:0,0:0:0:0:
336,104,62917,6,0,L|352:8,1,90
196,188,63203,2,0,L|180:92,1,90,2|0,0:2|0:0,0:0:0:0:
396,316,63488,2,0,L|412:220,1,90,2|0,0:2|0:0,0:0:0:0:
144,360,63774,2,0,L|128:264,1,90,2|0,0:2|0:0,0:0:0:0:
92,52,64060,69,0,0:0:0:0:
169,151,64203,1,0,0:0:0:0:
249,255,64345,1,2,0:2:0:0:
1,279,64488,1,0,0:0:0:0:
53,167,64631,1,2,0:2:0:0:
129,271,64774,1,0,0:0:0:0:
169,151,64917,1,2,0:2:0:0:
406,52,65060,1,0,0:0:0:0:
406,52,65131,1,0,0:0:0:0:
406,52,65203,5,0,0:0:0:0:
329,151,65345,1,0,0:0:0:0:
249,255,65488,1,2,0:2:0:0:
497,279,65631,1,0,0:0:0:0:
445,167,65774,1,2,0:2:0:0:
369,271,65917,1,0,0:0:0:0:
329,151,66060,1,2,0:2:0:0:
92,52,66203,5,0,0:0:0:0:
92,52,66274,1,0,0:0:0:0:
92,52,66345,2,0,L|80:96,3,45,0|0|0|0,1:0|2:0|2:0|2:0,0:0:0:0:
60,176,66631,2,0,L|72:220,3,45,0|0|0|0,1:0|2:0|2:0|2:0,0:0:0:0:
44,320,66917,5,0,1:0:0:0:
84,302,66988,1,0,2:0:0:0:
129,301,67060,1,0,2:0:0:0:
171,318,67131,1,0,2:0:0:0:
202,349,67203,69,0,1:0:0:0:
242,366,67274,1,0,2:0:0:0:
287,367,67345,1,0,2:0:0:0:
329,350,67417,1,0,2:0:0:0:
360,319,67488,5,0,1:0:0:0:
374,276,67560,1,0,2:0:0:0:
372,232,67631,1,0,2:0:0:0:
353,191,67703,1,0,2:0:0:0:
320,162,67774,5,0,1:0:0:0:
272,150,67845,1,0,2:0:0:0:
229,161,67917,1,0,2:0:0:0:
194,189,67988,1,0,2:0:0:0:
177,230,68060,2,0,L|184:264,16,22.5,0|0|0|0|0|0|0|0|0|0|0|0|0|0|0|0|0,1:0|2:0|2:0|2:0|2:0|2:0|2:0|2:0|1:0|2:0|2:0|2:0|2:0|2:0|2:0|2:0|0:0,0:0:0:0:
177,230,69203,6,0,L|184:264,15,22.5,0|0|0|0|0|0|0|0|2|0|2|0|2|0|2|0,2:0|2:0|2:0|2:0|2:0|2:0|2:0|2:0|2:2|2:0|2:2|2:0|2:2|2:0|2:2|2:0,2:0:0:0:
168,200,69774,70,0,P|108:192|64:192,1,90,4|0,0:0|0:0,0:0:0:0:
268,292,70060,1,2,0:2:0:0:
268,292,70131,1,0,0:0:0:0:
268,292,70203,1,0,2:0:0:0:
364,216,70345,2,0,P|408:214|453:207,1,90,2|0,0:2|2:0,0:0:0:0:
424,12,70631,2,0,P|379:13|334:20,1,90,2|0,0:2|2:0,0:0:0:0:
188,104,70917,6,0,P|132:120|40:52,1,180,2|2,0:2|0:2,0:0:0:0:
136,24,71345,1,0,2:0:0:0:
284,184,71488,2,0,L|300:88,1,90,2|0,0:2|2:0,0:0:0:0:
292,360,71774,1,2,0:2:0:0:
140,280,71917,1,2,0:2:0:0:
292,360,72060,6,0,P|348:372|452:300,1,180,2|2,0:2|0:2,0:0:0:0:
128,376,72488,2,0,L|32:364,2,90,0|2|0,2:0|0:2|2:0,0:0:0:0:
352,276,72917,1,2,0:2:0:0:
352,276,73060,1,0,2:0:0:0:
168,196,73203,6,0,P|160:156|160:104,1,90,2|0,0:2|2:0,0:0:0:0:
352,106,73488,2,0,P|352:151|344:196,1,90,2|0,0:2|2:0,0:0:0:0:
60,300,73774,2,0,L|44:180,2,120,2|0|0,0:2|0:0|0:0,0:0:0:0:
60,300,74345,70,0,P|104:300|152:316,1,90,4|0,0:0|2:0,0:0:0:0:
296,368,74631,2,0,L|388:360,1,90,2|0,0:2|2:0,0:0:0:0:
372,180,74917,2,0,L|280:188,1,90,2|0,0:2|2:0,0:0:0:0:
120,108,75203,1,2,0:2:0:0:
228,84,75345,1,0,2:0:0:0:
140,372,75488,6,0,P|124:328|156:184,1,180,2|2,0:2|0:2,0:0:0:0:
208,296,75917,1,0,2:0:0:0:
120,108,76060,1,2,0:2:0:0:
308,160,76203,1,0,2:0:0:0:
48,160,76345,2,0,P|36:116|40:64,1,90,2|2,0:2|0:2,0:0:0:0:
308,160,76631,6,0,P|376:176|420:120,1,135,2|0,0:2|0:0,0:0:0:0:
432,60,76917,2,0,L|436:16,3,45,2|0|2|0,0:2|0:0|0:2|0:0,0:0:0:0:
417,133,77203,2,0,L|428:224,1,90,2|0,0:2|2:0,0:0:0:0:
328,252,77488,2,0,L|339:343,1,90,2|2,0:2|0:2,0:0:0:0:
232,312,77774,6,0,P|168:292|112:336,1,135,2|0,0:2|0:0,0:0:0:0:
44,364,78060,2,0,L|36:244,1,120,0|0,0:0|0:0,0:0:0:0:
92,180,78345,2,0,L|100:120,2,60,2|0|2,0:2|0:0|0:2,0:0:0:0:
12,148,78631,2,0,L|4:88,2,60,0|2|0,0:0|0:2|0:0,0:0:0:0:
20,236,78917,70,0,P|64:260|116:264,1,90,4|0,0:0|2:0,0:0:0:0:
332,88,79203,2,0,P|287:94|248:117,1,90,2|0,0:2|2:0,0:0:0:0:
416,148,79488,2,0,P|428:92|424:40,1,90,2|0,0:2|2:0,0:0:0:0:
84,59,79774,2,0,P|85:104|96:148,1,90,2|0,0:2|2:0,0:0:0:0:
240,212,80060,6,0,L|340:200,1,90,2|0,0:2|2:0,0:0:0:0:
472,348,80345,2,0,L|372:336,1,90,2|0,0:2|2:0,0:0:0:0:
168,264,80631,2,0,P|156:212|160:164,1,90,2|0,0:2|2:0,0:0:0:0:
329,201,80917,1,2,0:2:0:0:
224,340,81060,5,2,0:2:0:0:
224,340,81131,1,0,0:0:0:0:
224,340,81203,2,0,P|172:356|72:268,1,180,2|2,0:2|0:2,0:0:0:0:
168,264,81631,1,0,2:0:0:0:
316,376,81774,2,0,L|408:368,1,90,2|0,0:2|2:0,0:0:0:0:
476,244,82060,5,2,0:2:0:0:
476,244,82131,1,0,0:0:0:0:
476,244,82203,1,0,2:0:0:0:
476,244,82274,1,0,0:0:0:0:
476,244,82345,2,0,P|428:244|380:232,1,90,2|0,0:2|2:0,0:0:0:0:
256,96,82631,2,0,P|299:86|344:86,1,90,2|0,0:2|2:0,0:0:0:0:
116,192,82917,2,0,P|98:143|108:48,1,120,2|0,0:2|0:0,0:0:0:0:
156,20,83203,2,0,L|220:8,2,60,2|0|0,0:2|0:0|0:0,0:0:0:0:
12,160,83488,70,0,L|4:256,1,90,2|0,0:2|2:0,0:0:0:0:
236,352,83774,2,0,L|244:256,1,90,2|0,0:2|2:0,0:0:0:0:
356,156,84060,2,0,L|412:148,3,45,2|0|0|0,1:2|2:0|2:0|2:0,2:0:0:0:
456,220,84345,2,0,L|512:212,3,45,2|0|0|0,1:2|2:0|2:0|2:0,2:0:0:0:
384,268,84631,5,2,1:2:0:0:
372,228,84726,1,0,0:0:0:0:
324,308,84822,5,0,0:2:0:0:
296,224,84917,1,2,1:2:0:0:
264,352,85012,5,0,0:2:0:0:
220,220,85107,1,0,0:2:0:0:
172,316,85203,2,0,P|119:313|52:280,2,120,2|0|0,0:2|0:0|0:0,0:0:0:0:
456,179,85774,70,0,P|465:134|466:90,1,90,2|0,0:2|2:0,0:0:0:0:
59,96,86060,2,0,P|61:140|70:185,1,90,2|0,0:2|2:0,0:0:0:0:
360,159,86345,2,0,P|369:114|370:70,1,90,2|0,1:2|2:0,0:0:0:0:
158,70,86631,2,0,P|159:115|168:160,1,90,0|0,0:0|2:0,0:0:0:0:
352,280,86917,5,2,1:2:0:0:
352,360,87012,1,0,2:0:0:0:
284,320,87107,1,0,1:0:0:0:
220,364,87203,2,0,L|156:356,2,60,2|0|0,1:2|2:0|2:0,1:2:0:0:
78,327,87488,6,0,P|64:296|56:264,1,60,2|0,1:2|2:0,2:0:0:0:
192,228,87679,2,0,P|172:255|148:278,1,60,0|0,2:0|2:0,2:0:0:0:
112,196,87869,2,0,P|98:165|90:132,1,60,0|0,2:0|2:0,2:0:0:0:
16,72,88060,6,0,P|56:52|112:44,1,90,4|0,0:0|2:0,0:0:0:0:
276,256,88345,2,0,P|231:248|192:228,1,90,2|0,0:2|2:0,0:0:0:0:
319,83,88631,1,2,0:2:0:0:
415,55,88774,1,0,2:0:0:0:
496,232,88917,1,2,0:2:0:0:
400,204,89060,1,0,2:0:0:0:
288,348,89203,70,0,P|236:348|184:328,1,90,2|0,0:2|2:0,0:0:0:0:
232,72,89488,2,0,P|284:72|336:92,1,90,2|0,0:2|2:0,0:0:0:0:
136,128,89774,2,0,P|124:88|116:32,1,90,2|0,0:2|2:0,0:0:0:0:
216,188,90060,1,2,0:2:0:0:
132,236,90203,1,2,0:2:0:0:
288,348,90345,6,0,L|296:252,1,90,2|0,0:2|2:0,0:0:0:0:
456,140,90631,2,0,L|448:229,1,90,2|0,0:2|2:0,0:0:0:0:
192,364,90917,2,0,P|172:320|208:220,1,135,2|2,0:2|0:2,0:0:0:0:
240,180,91203,2,0,L|248:80,1,90,2|0,0:2|2:0,0:0:0:0:
304,36,91417,5,2,0:2:0:0:
304,36,91488,2,0,P|356:24|400:24,1,90,2|0,0:2|2:0,0:0:0:0:
152,96,91774,2,0,P|107:94|63:83,1,90,2|0,0:2|2:0,0:0:0:0:
368,212,92060,2,0,P|420:200|464:200,1,90,2|0,0:2|2:0,0:0:0:0:
128,312,92345,2,0,P|83:310|39:299,1,90,2|0,3:2|2:0,0:0:0:0:
216,372,92631,6,0,P|232:328|176:208,1,180,4|2,0:0|0:2,0:0:0:0:
128,312,93060,1,0,2:0:0:0:
196,128,93203,1,2,0:2:0:0:
40,212,93345,1,0,2:0:0:0:
280,180,93488,2,0,P|288:136|276:72,1,90,2|0,0:2|2:0,0:0:0:0:
12,326,93774,70,0,P|66:289|128:311,1,135,2|0,0:2|2:0,0:0:0:0:
192,352,94060,2,0,L|288:340,1,90,2|0,0:2|2:0,0:0:0:0:
437,377,94345,2,0,P|415:314|434:251,1,135,2|0,0:2|0:0,0:0:0:0:
484,192,94631,2,0,L|492:132,2,60,2|0|0,0:2|2:0|0:0,0:0:0:0:
434,251,94917,6,0,P|382:251|322:227,1,90,2|0,0:2|2:0,0:0:0:0:
248,48,95203,2,0,P|291:36|336:37,1,90,2|2,0:2|2:2,0:0:0:0:
148,128,95488,2,0,L|136:36,1,90,2|2,0:2|2:2,0:0:0:0:
352,144,95774,2,0,P|381:139|411:142,2,60,2|0|0,2:0|0:2|2:0,0:0:0:0:
312,212,96060,2,0,L|296:336,1,120,2|0,0:2|2:0,0:0:0:0:
220,328,96345,6,0,P|160:312|100:344,1,120,2|0,0:2|2:0,0:0:0:0:
28,360,96631,2,0,L|12:232,2,120,2|2|2,0:2|0:2|0:2,0:0:0:0:
220,328,97203,6,0,B|276:320|276:320|336:336|336:336|404:328,1,180,4|2,0:0|0:2,0:0:0:0:
464,248,97631,1,0,2:0:0:0:
464,248,97774,2,0,L|476:144,1,90,2|0,0:2|2:0,0:0:0:0:
352,176,98060,2,0,L|341:86,1,90,2|0,0:2|2:0,0:0:0:0:
220,96,98345,70,0,P|152:116|56:56,1,180,2|2,0:2|0:2,0:0:0:0:
156,24,98774,1,0,2:0:0:0:
28,164,98917,2,0,P|40:208|44:260,1,90,2|0,0:2|2:0,0:0:0:0:
176,352,99203,2,0,P|180:307|192:263,1,90,2|2,0:2|0:2,0:0:0:0:
320,200,99488,6,0,P|400:220|480:164,1,180,2|0,0:2|0:0,0:0:0:0:
384,128,99917,1,0,2:0:0:0:
236,260,100060,2,0,P|224:208|228:156,1,90,2|0,0:2|2:0,0:0:0:0:
320,200,100345,1,2,0:2:0:0:
268,356,100488,5,0,2:0:0:0:
268,356,100560,1,0,2:0:0:0:
268,356,100631,2,0,B|212:348|212:348|152:364|152:364|91:356,1,180,2|0,0:2|0:0,0:0:0:0:
8,216,101060,1,0,2:0:0:0:
164,132,101203,5,2,1:2:0:0:
240,120,101298,1,0,0:2:0:0:
312,108,101393,1,0,0:2:0:0:
172,152,101488,69,2,1:2:0:0:
248,140,101583,1,0,0:2:0:0:
320,128,101678,1,0,0:2:0:0:
396,112,101774,6,0,L|403:22,1,90,0|0,0:2|2:0,0:0:0:0:
274,244,102060,2,0,L|267:154,1,90,2|0,0:2|2:0,0:0:0:0:
368,324,102345,2,0,P|408:312|472:308,1,90,2|0,0:2|2:0,0:0:0:0:
164,352,102631,2,0,P|119:347|76:335,1,90,2|0,0:2|2:0,0:0:0:0:
28,168,102917,5,2,0:2:0:0:
28,168,102988,1,0,0:0:0:0:
28,168,103060,1,2,0:2:0:0:
180,120,103203,1,0,0:0:0:0:
72,56,103345,1,0,0:0:0:0:
144,232,103488,2,0,L|204:224,3,45,2|0|0|2,1:2|0:0|0:0|0:2,0:0:0:0:
272,260,103774,2,0,L|316:265,3,45,0|0|2|0,1:0|0:0|0:2|0:0,0:0:0:0:
412,360,104060,5,6,1:2:0:0:
391,320,104131,1,0,0:0:0:0:
384,275,104203,1,0,0:0:0:0:
392,231,104274,1,0,0:0:0:0:
408,188,104345,69,0,1:0:0:0:
428,148,104417,1,0,0:0:0:0:
435,103,104488,1,0,0:0:0:0:
427,59,104560,1,0,0:0:0:0:
406,20,104631,5,2,1:2:0:0:
365,1,104703,1,0,0:0:0:0:
320,0,104774,1,0,0:0:0:0:
278,14,104845,1,0,0:0:0:0:
243,43,104917,5,2,1:2:0:0:
202,61,104988,1,0,0:0:0:0:
157,63,105060,1,0,0:0:0:0:
115,48,105131,1,0,0:0:0:0:
80,19,105203,5,2,0:2:0:0:
80,19,105488,2,0,L|68:76,3,45,0|0|0|0,0:0|0:0|0:0|0:0,0:0:0:0:
56,140,105774,2,0,P|52:184|60:232,1,90,2|2,1:2|0:2,0:0:0:0:
88,304,105988,1,0,0:0:0:0:
88,304,106060,2,0,P|128:296|160:300,1,45,2|0,0:2|0:0,0:0:0:0:
212,312,106203,2,0,P|250:325|276:344,1,45,2|0,0:2|0:0,0:0:0:0:
336,340,106345,70,0,L|432:336,1,96,4|0,0:0|0:0,0:0:0:0:
500,368,106631,2,0,P|480:316|484:268,1,96,2|0,0:2|0:0,0:0:0:0:
472,200,106916,2,0,L|460:96,1,96,2|0,0:2|0:0,0:0:0:0:
392,56,107202,2,0,L|388:8,2,48
320,96,107487,2,0,P|269:91|212:104,2,96,2|2|2,0:2|0:2|0:2,0:0:0:0:
152,156,108059,6,0,P|140:112|144:56,1,96,2|0,0:2|0:0,0:0:0:0:
220,212,108345,2,0,P|222:259|210:305,1,96,2|0,0:2|0:0,0:0:0:0:
152,360,108630,2,0,L|48:368,1,96,2|0,0:2|0:0,0:0:0:0:
4,300,108916,2,0,P|-4:256|-4:216,2,48
48,188,109202,2,0,P|56:120|48:72,2,96,2|2|2,0:2|0:2|0:2,0:0:0:0:
184,80,109773,6,0,P|236:84|288:64,1,96,2|0,0:2|0:0,0:0:0:0:
336,20,110059,2,0,L|320:128,1,96,2|0,0:2|0:0,0:0:0:0:
384,164,110345,2,0,L|400:272,1,96,2|0,0:2|0:0,0:0:0:0:
448,324,110630,2,0,P|480:332|504:344,2,48
376,360,110916,2,0,P|316:356|264:364,2,96,2|2|2,0:2|0:2|0:2,0:0:0:0:
172,352,111487,6,0,P|164:300|176:244,1,96,2|0,0:2|0:0,0:0:0:0:
200,176,111774,2,0,P|208:124|196:68,1,96,2|0,0:2|0:0,0:0:0:0:
136,36,112059,2,0,L|36:28,1,96,2|0,0:2|0:0,0:0:0:0:
8,104,112345,2,0,L|12:136,5,24
84,164,112630,2,0,L|80:196,5,24,2|0|0|0|2|0,0:2|0:0|0:0|0:0|0:2|0:0,0:0:0:0:
8,212,112916,2,0,L|12:244,5,24,0|0|2|0|0|0,0:0|0:0|0:2|0:0|0:0|0:0,0:0:0:0:
80,292,113202,69,6,0:2:0:0:
80,292,113523,1,2,0:2:0:0:
164,256,113666,1,0,0:0:0:0:
260,368,113809,2,0,L|268:312,1,45,2|0,0:2|0:0,0:0:0:0:
380,264,114096,2,0,L|386:308,1,45,2|0,0:2|0:0,0:0:0:0:
328,192,114380,2,0,P|356:180|388:176,1,45,2|0,0:2|0:0,0:0:0:0:
480,112,114666,2,0,P|458:106|437:97,1,45,2|0,0:2|0:0,0:0:0:0:
344,36,114917,5,6,1:2:0:0:
344,36,115238,2,0,L|348:12,3,22.5,2|0|0|0,0:2|0:0|0:0|0:0,0:0:0:0:
284,96,115524,2,0,P|252:92|232:92,1,45,2|0,0:2|0:0,0:0:0:0:
76,184,115810,2,0,P|108:180|128:180,1,45,2|0,0:2|0:0,0:0:0:0:
284,224,116095,2,0,L|292:268,1,45,2|0,0:2|0:0,0:0:0:0:
192,292,116381,2,0,L|184:336,1,45,2|0,0:2|0:0,0:0:0:0:
296,360,116631,5,6,1:2:0:0:
296,360,116952,2,0,L|328:356,3,22.5,2|0|0|0,0:2|0:0|0:0|0:0,0:0:0:0:
200,380,117238,2,0,P|164:376|148:368,1,45,2|0,0:2|0:0,0:0:0:0:
280,280,117524,2,0,P|301:273|323:272,1,45,2|0,0:2|0:0,0:0:0:0:
456,284,117809,2,0,L|464:232,1,45,2|0,0:2|0:0,0:0:0:0:
100,360,118095,2,0,L|92:308,1,45,2|0,0:2|0:0,0:0:0:0:
168,208,118345,70,0,L|156:116,1,90,2|2,0:3|0:3,0:0:0:0:
355,122,118630,2,0,L|344:212,1,90,2|2,0:3|0:3,0:0:0:0:
256,344,118917,69,2,1:3:0:0:
256,192,118988,12,0,123488,0:0:0:0:
