osu file format v14

[General]
AudioFilename: HAVOX [NOFX].mp3
AudioLeadIn: 0
PreviewTime: 69060
Countdown: 0
SampleSet: Normal
StackLeniency: 0.3
Mode: 0
LetterboxInBreaks: 1
WidescreenStoryboard: 1

[Editor]
Bookmarks: 1210,8067,10352,18352,27488,36638,45781,54924,69781,88067,106352,113210,118924,123488
DistanceSpacing: 1
BeatDivisor: 3
GridSize: 4
TimelineZoom: 1.700001

[Metadata]
Title:HAVOX
TitleUnicode:HAVOX
Artist:BlackY vs. Yooh
ArtistUnicode:BlackY vs. Yooh
Creator:Timorisu
Version:INFINITE
Source:SOUND VOLTEX III GRAVITY WARS
Tags:sdvx 3 havoc dubstep ktgster leader
BeatmapID:1294887
BeatmapSetID:352555

[Difficulty]
HPDrainRate:6
CircleSize:4
OverallDifficulty:8.5
ApproachRate:9.2
SliderMultiplier:1.6
SliderTickRate:1

[Events]
//Background and Video events
0,0,"bg.jpg",0,0
//Break Periods
//Storyboard Layer 0 (Background)
//Storyboard Layer 1 (Fail)
//Storyboard Layer 2 (Pass)
//Storyboard Layer 3 (Foreground)
//Storyboard Sound Samples

[TimingPoints]
1203,285.714285714286,4,2,0,10,1,0
9345,-100,4,2,0,20,0,0
9488,-100,4,2,0,30,0,0
9631,-100,4,2,0,40,0,0
9774,-100,4,2,0,50,0,0
10345,-100,4,1,0,75,0,0
27488,-133.333333333333,4,1,0,75,0,0
36631,-100,4,1,0,75,0,0
40631,-105.263157894737,4,1,0,75,0,0
41012,-100,4,1,0,75,0,0
48060,-100,4,2,0,75,0,0
53631,-100,4,1,0,75,0,0
69203,-100,4,2,0,75,0,0
69774,-100,4,1,0,75,0,1
69917,-80,4,1,0,75,0,1
75488,-76.9230769230769,4,1,0,75,0,1
78060,-80,4,1,0,75,0,1
78345,-80,4,1,0,75,0,0
78917,-80,4,1,0,75,0,1
82917,-100,4,1,0,75,0,1
83488,-80,4,1,0,75,0,1
86917,-80,4,1,0,75,0,0
88060,-66.6666666666667,4,1,0,75,0,1
94560,-89.2857142857143,4,1,0,75,0,1
94917,-66.6666666666667,4,1,0,75,0,1
97203,-66.6666666666667,4,1,0,75,0,0
97488,-66.6666666666667,4,1,0,75,0,1
103488,-80,4,1,0,75,0,1
103774,-80,4,1,0,65,0,1
104060,-80,4,1,0,55,0,1
104345,-80,4,1,0,45,0,1
104631,-80,4,1,0,35,0,1
104917,-80,4,1,0,25,0,1
106345,285.714285714286,6,1,0,75,1,0
106630,-89.2857142857143,6,1,0,75,0,0
107487,-100,6,1,0,75,0,0
108345,-89.2857142857143,6,1,0,75,0,0
109202,-100,6,1,0,75,0,0
110059,-89.2857142857143,6,1,0,75,0,0
110916,-100,6,1,0,75,0,0
111773,-89.2857142857143,6,1,0,75,0,0
112630,-100,6,1,0,75,0,0
113238,285.714285714286,6,2,0,75,1,0
114917,285.714285714286,6,2,0,75,1,0
114953,285.714285714286,6,2,0,75,1,0
116631,285.714285714286,6,2,0,75,1,0
116667,285.714285714286,6,2,0,75,1,0
118345,285.714285714286,4,2,0,75,1,0
118917,285.714285714286,4,2,0,75,1,0

[Colours]
Combo1 : 145,0,0
Combo2 : 211,211,211
Combo3 : 244,217,19
Combo4 : 0,121,255
Combo5 : 202,0,0
Combo6 : 124,124,124
Combo7 : 179,157,9
Combo8 : 0,75,159

[HitObjects]
320,256,9203,5,0,3:0:0:0:
320,256,9274,1,0,3:0:0:0:
320,256,9345,1,0,3:0:0:0:
320,256,9416,1,0,3:0:0:0:
320,256,9488,1,0,3:0:0:0:
320,256,9559,1,0,3:0:0:0:
320,256,9631,1,0,3:0:0:0:
320,256,9702,1,0,3:0:0:0:
320,256,9774,6,0,L|288:288,1,40,2|0,0:3|0:0,0:0:0:0:
192,256,9917,2,0,L|163:284,1,40,2|0,0:3|0:0,0:0:0:0:
192,128,10060,2,0,L|220:99,1,40,2|0,0:3|0:0,0:0:0:0:
320,128,10203,2,0,L|348:99,1,40,2|0,0:3|0:0,0:0:0:0:
320,256,10345,5,4,0:0:0:0:
320,256,10631,1,0,0:0:0:0:
320,256,10917,1,0,0:0:0:0:
256,208,11060,1,0,2:0:0:0:
216,332,11202,1,0,0:0:0:0:
296,332,11345,1,0,2:0:0:0:
192,256,11488,5,0,0:0:0:0:
192,256,11774,1,0,0:0:0:0:
320,256,11917,1,0,2:0:0:0:
216,332,12060,1,0,0:0:0:0:
216,332,12345,1,0,0:0:0:0:
376,316,12488,1,0,0:0:0:0:
192,256,12631,69,0,0:0:0:0:
192,256,12917,1,0,0:0:0:0:
192,256,13203,1,0,0:0:0:0:
128,208,13346,1,0,2:0:0:0:
232,132,13488,1,0,0:0:0:0:
256,208,13631,1,0,2:0:0:0:
152,132,13774,5,0,0:0:0:0:
152,132,14060,1,0,0:0:0:0:
192,256,14203,1,0,2:0:0:0:
360,132,14345,1,0,0:0:0:0:
320,256,14488,1,0,0:0:0:0:
320,256,14560,1,0,0:0:0:0:
320,256,14631,1,0,0:0:0:0:
280,132,14774,1,0,0:0:0:0:
384,208,14917,5,0,0:0:0:0:
384,208,15203,1,0,0:0:0:0:
384,208,15488,1,0,0:0:0:0:
280,132,15631,1,0,2:0:0:0:
192,256,15774,1,0,0:0:0:0:
297,333,15917,1,0,2:0:0:0:
384,208,16060,5,0,0:0:0:0:
384,208,16345,1,0,0:0:0:0:
297,333,16488,1,0,2:0:0:0:
192,256,16631,1,0,0:0:0:0:
192,256,16917,1,0,0:0:0:0:
297,333,17060,1,0,0:0:0:0:
384,208,17203,69,0,0:0:0:0:
416,185,17274,1,0,2:0:0:0:
435,151,17345,1,0,0:0:0:0:
435,111,17417,1,0,0:0:0:0:
416,76,17488,1,0,0:0:0:0:
152,132,17631,1,0,0:0:0:0:
256,312,17774,1,0,0:0:0:0:
360,132,17917,1,0,0:0:0:0:
95,76,18060,1,0,0:0:0:0:
76,111,18131,1,0,0:0:0:0:
76,151,18203,1,0,0:0:0:0:
95,185,18274,1,0,0:0:0:0:
127,207,18345,5,4,0:0:0:0:
256,312,18488,1,0,0:0:0:0:
384,208,18631,1,0,0:0:0:0:
384,208,18917,1,0,0:0:0:0:
256,104,19060,1,0,2:0:0:0:
127,207,19203,1,0,0:0:0:0:
256,312,19346,1,0,2:0:0:0:
256,104,19488,5,0,0:0:0:0:
256,104,19774,1,0,0:0:0:0:
384,208,19917,1,0,2:0:0:0:
127,207,20060,1,0,0:0:0:0:
127,207,20345,1,0,0:0:0:0:
384,208,20488,1,0,0:0:0:0:
256,312,20631,5,0,0:0:0:0:
256,308,20774,1,0,0:0:0:0:
256,304,20917,1,0,0:0:0:0:
256,304,21203,1,0,0:0:0:0:
127,207,21345,1,0,2:0:0:0:
176,56,21488,1,0,0:0:0:0:
336,56,21631,1,0,2:0:0:0:
384,208,21774,69,0,0:0:0:0:
384,208,22060,1,0,0:0:0:0:
176,56,22203,1,0,2:0:0:0:
256,304,22345,1,0,0:0:0:0:
336,56,22488,1,0,0:0:0:0:
336,56,22560,1,0,0:0:0:0:
336,56,22631,1,0,0:0:0:0:
127,207,22774,1,0,0:0:0:0:
127,207,22845,1,0,0:0:0:0:
127,207,22917,1,0,0:0:0:0:
384,208,23060,1,0,0:0:0:0:
384,208,23131,1,0,0:0:0:0:
384,208,23203,1,0,0:0:0:0:
384,208,23488,5,0,0:0:0:0:
336,56,23631,1,0,2:0:0:0:
127,207,23774,1,0,0:0:0:0:
256,304,23917,1,0,2:0:0:0:
176,56,24060,1,0,0:0:0:0:
176,56,24345,1,0,0:0:0:0:
127,207,24488,1,0,2:0:0:0:
384,208,24631,1,0,0:0:0:0:
384,208,24917,1,0,0:0:0:0:
336,56,25060,1,0,0:0:0:0:
127,207,25203,5,0,0:0:0:0:
256,304,25345,1,0,0:0:0:0:
256,304,25417,1,0,0:0:0:0:
256,304,25488,1,0,0:0:0:0:
384,208,25631,1,0,0:0:0:0:
384,208,25703,1,0,0:0:0:0:
384,208,25774,1,0,0:0:0:0:
336,56,25917,1,0,0:0:0:0:
336,56,25989,1,0,0:0:0:0:
336,56,26060,1,0,0:0:0:0:
176,56,26203,1,0,0:0:0:0:
176,56,26275,1,0,0:0:0:0:
176,56,26346,5,2,0:2:0:0:
127,207,26488,1,2,2:2:0:0:
256,304,26631,1,2,0:2:0:0:
305,153,26773,1,2,2:2:0:0:
207,153,26917,69,2,0:2:0:0:
256,304,27059,1,2,2:2:0:0:
384,208,27202,1,2,0:2:0:0:
336,56,27345,1,2,2:2:0:0:
256,304,27488,69,4,0:0:0:0:
256,304,27631,1,0,0:0:0:0:
256,304,27774,2,2,B|196:320|196:288|136:304,2,120.000004577637,2|10|2,0:0|0:0|0:0,0:0:0:0:
288,132,28488,2,2,B|272:190|244:174|228:234,1,120.000004577637,2|2,0:0|0:0,0:0:0:0:
362,346,28917,2,2,B|320:303|347:287|304:244,1,120.000004577637,2|10,0:0|0:0,0:0:0:0:
137,303,29345,1,2,0:3:0:0:
362,346,29488,1,2,0:3:0:0:
288,132,29631,1,2,0:3:0:0:
137,303,29774,1,0,0:0:0:0:
137,303,29917,6,0,B|196:288|196:320|256:304,1,120.000004577637,0|0,0:0|0:0,0:0:0:0:
288,132,30345,2,0,L|228:236,1,120.000004577637,8|0,0:0|0:0,0:0:0:0:
149,59,30774,2,0,B|209:43|209:75|268:60,1,120.000004577637,0|0,0:0|0:0,0:0:0:0:
117,231,31202,2,0,L|177:127,1,120.000004577637,0|8,0:0|0:0,0:0:0:0:
267,60,31631,1,2,0:3:0:0:
319,227,31774,1,2,0:3:0:0:
354,127,31917,1,2,0:3:0:0:
209,226,32060,1,0,0:0:0:0:
208,226,32203,6,2,P|223:283|266:323,1,120.000004577637,2|2,0:0|0:0,0:0:0:0:
478,257,32631,2,2,L|376:320,1,120.000004577637,10|2,0:0|0:0,0:0:0:0:
475,69,33060,2,2,P|518:109|532:166,1,120.000004577637,2|2,0:0|0:0,0:0:0:0:
318,227,33488,2,2,L|420:164,1,120.000004577637,2|10,0:0|0:0,0:0:0:0:
146,70,33917,1,2,0:3:0:0:
256,40,34060,1,2,0:3:0:0:
366,70,34203,1,2,0:3:0:0:
91,164,34345,1,0,0:0:0:0:
91,164,34488,70,0,L|193:227,1,120.000004577637,0|0,0:0|0:0,0:0:0:0:
37,69,34917,2,0,P|-6:109|-20:166,1,120.000004577637,8|0,0:0|0:0,0:0:0:0:
250,135,35345,2,0,L|148:72,1,120.000004577637,0|0,0:0|0:0,0:0:0:0:
245,323,35774,2,0,P|288:283|304:226,1,120.000004577637,0|2,0:0|0:0,0:0:0:0:
256,40,36345,5,2,0:0:0:0:
440,92,36631,70,0,L|516:114,2,80,4|0|0,0:0|0:0|0:0,0:0:0:0:
256,40,37060,1,0,0:0:0:0:
256,40,37131,1,0,0:0:0:0:
256,40,37203,1,0,0:0:0:0:
304,225,37345,1,0,0:0:0:0:
324,304,37488,2,0,L|345:381,2,80,0|0|0,0:0|0:0|2:0,0:0:0:0:
256,40,37917,5,0,0:0:0:0:
256,40,37988,1,0,0:0:0:0:
256,40,38060,1,0,0:0:0:0:
120,176,38203,1,0,0:0:0:0:
64,232,38345,2,0,L|7:288,1,80,2|2,0:3|0:3,0:0:0:0:
176,232,38631,1,2,0:3:0:0:
148,261,38703,1,0,0:0:0:0:
120,288,38773,1,2,0:3:0:0:
91,316,38844,1,0,0:0:0:0:
63,344,38917,69,0,0:0:0:0:
44,156,39060,1,0,0:0:0:0:
216,300,39203,1,0,0:0:0:0:
197,112,39345,1,0,0:0:0:0:
197,112,39417,1,0,0:0:0:0:
197,112,39488,2,0,L|188:32,2,80,0|0|0,0:0|0:0|0:0,0:0:0:0:
369,256,39917,5,0,0:0:0:0:
369,256,39989,1,0,0:0:0:0:
369,256,40060,2,0,L|377:335,2,80,0|0|0,0:0|0:0|0:0,0:0:0:0:
348,68,40488,1,0,0:0:0:0:
216,300,40631,2,0,L|161:385,2,101.333330627441,2|2|2,3:3|3:3|3:3,0:0:0:0:
348,68,41203,6,0,P|387:62|426:68,1,80,0|0,0:0|2:0,0:0:0:0:
369,256,41488,2,0,P|329:261|290:255,1,80,0|0,0:0|2:0,0:0:0:0:
452,152,41774,2,0,P|457:191|451:230,1,80,0|0,0:0|2:0,0:0:0:0:
264,172,42060,2,0,P|258:132|264:93,1,80,0|0,0:0|2:0,0:0:0:0:
452,152,42345,1,0,0:0:0:0:
368,256,42488,1,0,2:0:0:0:
348,68,42631,1,0,0:0:0:0:
264,172,42774,1,0,2:0:0:0:
452,152,42917,6,0,L|483:176,1,40,2|0,0:3|2:0,0:0:0:0:
368,256,43060,2,0,L|343:287,1,40,2|0,0:3|2:0,0:0:0:0:
264,172,43203,2,0,L|232:147,1,40,2|0,0:3|2:0,0:0:0:0:
348,68,43345,2,0,L|372:36,1,40,2|0,0:3|2:0,0:0:0:0:
452,152,43488,69,0,0:0:0:0:
478,181,43559,1,0,0:0:0:0:
494,218,43630,1,0,0:0:0:0:
499,257,43702,1,0,0:0:0:0:
492,297,43774,2,0,L|484:336,3,40,0|0|0|0,0:0|0:0|0:0|0:0,0:0:0:0:
296,357,44060,1,2,0:3:0:0:
269,327,44131,1,2,0:3:0:0:
253,290,44202,1,2,0:3:0:0:
248,251,44274,1,2,0:3:0:0:
255,210,44345,2,0,L|264:172,3,40,2|2|2|2,0:0|0:3|0:3|0:3,0:0:0:0:
348,68,44631,5,0,0:0:0:0:
313,48,44702,1,0,0:0:0:0:
274,42,44773,1,0,0:0:0:0:
235,50,44845,1,0,0:0:0:0:
199,68,44916,1,0,0:0:0:0:
163,85,44988,1,0,0:0:0:0:
124,93,45059,1,0,0:0:0:0:
84,87,45131,1,0,0:0:0:0:
50,67,45202,1,2,2:2:0:0:
50,67,45488,1,2,2:2:0:0:
352,192,45774,5,4,0:0:0:0:
255,288,46060,1,0,0:0:0:0:
160,192,46345,1,0,0:0:0:0:
255,96,46631,1,0,0:0:0:0:
323,259,46917,5,0,0:0:0:0:
188,259,47203,1,0,0:0:0:0:
188,124,47488,1,0,0:0:0:0:
323,124,47774,1,0,0:0:0:0:
255,288,48060,69,2,1:2:0:0:
231,318,48131,1,0,0:0:0:0:
194,332,48202,1,2,0:2:0:0:
155,325,48274,1,0,0:0:0:0:
126,298,48345,2,0,L|96:264,3,40,2|0|2|0,1:2|0:0|0:2|0:0,0:0:0:0:
32,240,48631,1,2,1:2:0:0:
56,209,48702,1,0,0:0:0:0:
93,195,48773,1,2,0:2:0:0:
132,202,48845,1,0,0:0:0:0:
161,228,48917,2,0,L|188:259,3,40,2|0|2|0,1:2|0:0|0:2|0:0,0:0:0:0:
255,288,49203,5,2,1:2:0:0:
280,318,49274,1,0,0:0:0:0:
317,332,49345,1,2,0:2:0:0:
356,325,49417,1,0,0:0:0:0:
385,298,49488,2,0,L|416:264,3,40,2|0|2|0,1:2|0:0|0:2|0:0,0:0:0:0:
480,240,49774,1,2,1:2:0:0:
456,209,49845,1,0,0:0:0:0:
419,195,49916,1,2,0:2:0:0:
380,202,49988,1,0,0:0:0:0:
350,228,50059,2,0,L|324:259,3,40,2|0|2|0,1:2|0:0|0:2|0:0,0:0:0:0:
227,316,50345,6,0,L|256:288,1,40,2|0,1:2|0:0,0:0:0:0:
148,259,50488,2,0,L|188:259,1,40,2|0,0:2|0:0,0:0:0:0:
131,163,50631,2,0,L|159:192,1,40,2|0,1:2|0:0,0:0:0:0:
188,84,50774,2,0,L|188:124,1,40,2|0,0:2|0:0,0:0:0:0:
284,67,50917,2,0,L|255:95,1,40,2|0,1:2|0:0,0:0:0:0:
363,124,51060,2,0,L|323:124,1,40,2|0,0:2|0:0,0:0:0:0:
380,220,51203,2,0,L|352:191,1,40,2|0,1:2|0:0,0:0:0:0:
323,299,51345,2,0,L|323:259,1,40,2|0,0:2|0:0,0:0:0:0:
227,316,51488,6,0,L|175:324,2,53.3333333333333,2|0|0,1:2|0:0|0:0,0:0:0:0:
131,163,51774,2,0,L|79:155,2,53.3333333333333,2|0|0,1:2|0:0|0:0,0:0:0:0:
380,220,52060,2,0,L|419:226,3,40,2|0|2|0,1:2|0:0|0:2|0:0,0:0:0:0:
284,67,52346,2,0,L|323:61,3,40,2|0|2|0,1:2|0:0|0:2|0:0,0:0:0:0:
148,260,52631,69,2,1:2:0:0:
323,299,52774,1,2,1:2:0:0:
363,124,52917,1,2,1:2:0:0:
48,111,53203,1,2,1:2:0:0:
75,82,53274,1,0,0:0:0:0:
112,67,53346,1,2,0:2:0:0:
151,67,53417,1,0,0:0:0:0:
188,84,53488,1,2,1:2:0:0:
212,215,53631,1,2,0:2:0:0:
185,244,53702,1,2,0:2:0:0:
148,260,53774,1,2,0:2:0:0:
109,259,53845,1,2,0:2:0:0:
72,242,53916,1,0,0:0:0:0:
131,163,54060,5,0,0:0:0:0:
228,316,54203,1,0,0:0:0:0:
380,220,54345,1,2,0:2:0:0:
384,216,54417,1,0,0:0:0:0:
388,212,54488,1,2,0:2:0:0:
392,208,54560,1,0,0:0:0:0:
396,204,54631,1,2,0:2:0:0:
400,200,54703,1,2,0:2:0:0:
404,196,54774,1,2,0:2:0:0:
408,192,54845,1,2,0:2:0:0:
412,187,54917,6,0,P|446:118|411:49,1,160,6|0,0:2|0:0,0:0:0:0:
363,119,55345,1,0,0:0:0:0:
312,49,55488,2,0,P|277:118|312:188,1,160,2|0,0:2|0:0,0:0:0:0:
363,119,55917,1,0,0:0:0:0:
412,187,56060,6,0,L|506:316,2,160,2|0|2,0:2|0:0|0:2,0:0:0:0:
312,49,56917,1,0,0:0:0:0:
244,204,57203,70,0,P|195:172|160:123,2,120,2|0|0,1:2|3:0|3:0,0:0:0:0:
304,272,57774,2,0,P|246:284|187:274,2,120,2|0|0,1:2|3:0|3:0,0:0:0:0:
392,280,58345,2,0,P|360:329|311:364,2,120,2|0|2,1:2|3:0|3:2,0:0:0:0:
312,49,59060,5,0,0:0:0:0:
244,204,59203,1,2,0:2:0:0:
144,68,59345,1,0,0:0:0:0:
75,222,59488,2,0,P|124:328|231:375,1,240,2|0,0:2|2:0,0:0:0:0:
244,204,60060,2,0,L|245:161,8,40,2|0|2|0|2|0|2|0|6,1:2|2:0|2:2|2:0|1:2|2:0|2:2|2:0|1:2,0:0:0:0:
75,222,60917,5,0,0:0:0:0:
144,68,61203,1,2,0:2:0:0:
244,204,61488,1,2,0:2:0:0:
154,164,61631,1,0,0:0:0:0:
154,164,61703,1,0,0:0:0:0:
154,164,61774,6,0,P|146:203|154:242,1,80,4|0,0:2|2:0,0:0:0:0:
333,243,62060,2,0,P|340:203|332:164,1,80,2|0,0:2|2:0,0:0:0:0:
66,126,62345,2,0,P|58:165|66:204,1,80,2|0,0:2|2:0,0:0:0:0:
244,204,62631,2,0,P|251:164|243:125,1,80,2|0,0:2|2:0,0:0:0:0:
154,164,62845,1,0,0:0:0:0:
154,164,62917,70,0,P|146:203|154:242,1,80,4|0,0:2|2:0,0:0:0:0:
333,243,63203,2,0,P|340:203|332:164,1,80,2|0,0:2|2:0,0:0:0:0:
64,280,63488,2,0,P|86:312|119:335,1,80,2|0,0:2|2:0,0:0:0:0:
424,128,63775,2,0,P|401:95|368:72,1,80,2|0,0:2|2:0,0:0:0:0:
154,164,63988,1,0,0:0:0:0:
154,164,64060,5,4,0:2:0:0:
282,109,64203,1,0,0:0:0:0:
161,189,64345,1,2,0:2:0:0:
302,183,64488,1,0,0:0:0:0:
161,216,64631,1,6,0:2:0:0:
302,259,64774,1,0,0:0:0:0:
154,241,64917,1,2,0:2:0:0:
282,332,65060,1,0,0:0:0:0:
154,241,65203,5,4,0:2:0:0:
347,375,65346,1,0,0:0:0:0:
161,216,65489,1,2,0:2:0:0:
374,277,65632,1,0,0:0:0:0:
161,189,65775,1,6,0:2:0:0:
374,172,65918,1,0,0:0:0:0:
154,164,66060,1,2,0:2:0:0:
347,72,66203,1,0,0:0:0:0:
208,324,66345,6,0,L|173:343,3,40,4|0|0|0,1:2|2:0|0:0|2:0,0:0:0:0:
129,251,66631,2,0,L|90:240,3,40,4|0|0|0,1:2|2:0|0:2|2:0,0:0:0:0:
124,144,66917,2,0,L|104:108,3,40,4|0|0|0,1:2|2:0|0:0|2:0,0:0:0:0:
197,64,67203,2,0,L|207:25,3,40,4|0|0|0,1:2|2:0|0:0|2:0,0:0:0:0:
304,60,67488,70,0,L|338:40,3,40,4|0|0|0,1:2|2:0|0:0|2:0,0:0:0:0:
384,132,67774,2,0,L|422:142,3,40,4|0|0|0,1:2|2:0|0:0|2:0,0:0:0:0:
389,240,68060,2,0,L|398:257,15,20,4|0|0|0|0|0|0|0|4|0|0|0|0|0|0|0,1:2|2:0|2:0|2:0|0:0|2:0|2:0|2:0|1:2|2:0|2:0|2:0|0:0|2:0|2:0|2:0,0:0:0:0:
256,200,69203,6,0,L|256:220,14,20,0|0|0|0|0|0|0|0|2|2|2|2|2|0|0,0:0|0:0|0:0|0:0|0:0|0:0|0:0|0:0|0:0|0:0|0:0|0:0|0:0|0:0|0:0,0:0:0:0:
256,192,69774,5,4,1:0:0:0:
256,48,69917,1,0,0:0:0:0:
411,75,70060,2,0,P|423:124|411:172,1,100,2|0,0:2|2:0,0:0:0:0:
207,115,70345,2,0,P|178:76|175:27,1,100,2|0,0:2|2:0,0:0:0:0:
336,27,70631,2,0,P|333:76|304:115,1,100,2|0,0:2|2:0,0:0:0:0:
100,172,70917,6,0,P|88:124|100:75,1,100,2|0,0:2|2:0,0:0:0:0:
304,280,71203,2,0,P|255:291|207:280,1,100,2|0,0:2|2:0,0:0:0:0:
411,75,71488,2,0,P|423:124|411:172,1,100,2|0,0:2|2:0,0:0:0:0:
100,172,71774,1,2,0:2:0:0:
256,48,71917,1,2,0:2:0:0:
412,171,72060,70,0,L|490:234,1,100,2|0,0:2|2:0,0:0:0:0:
207,280,72345,2,0,P|180:239|180:189,1,100,2|0,0:2|2:0,0:0:0:0:
331,189,72631,2,0,P|331:239|304:280,1,100,2|0,0:2|2:0,0:0:0:0:
21,234,72917,2,0,L|100:172,1,100,2|0,0:2|2:0,0:0:0:0:
412,171,73203,6,0,P|426:218|412:265,1,100,2|0,0:2|2:0,0:0:0:0:
99,265,73488,2,0,P|84:218|100:172,1,100,2|0,0:2|2:0,0:0:0:0:
256,48,73774,2,0,L|392:-24,2,133.333333333333,2|0|0,0:2|0:0|0:0,0:0:0:0:
100,172,74345,6,0,P|84:218|98:265,1,100,4|0,0:0|2:0,0:0:0:0:
330,119,74631,2,0,P|356:77|357:28,1,100,2|0,0:2|2:0,0:0:0:0:
154,27,74917,2,0,P|155:76|181:118,1,100,2|0,0:2|2:0,0:0:0:0:
412,265,75203,2,0,P|426:218|412:170,1,100,2|0,0:2|2:0,0:0:0:0:
181,119,75488,6,0,L|79:170,1,103.999995239258,2|0,0:2|2:0,0:0:0:0:
356,163,75774,2,0,L|363:59,1,103.999995239258,2|0,0:2|2:0,0:0:0:0:
230,293,76060,2,0,L|316:350,1,103.999995239258,2|0,0:2|2:0,0:0:0:0:
181,119,76345,69,2,0:2:0:0:
230,293,76488,1,2,0:2:0:0:
356,163,76631,2,0,L|363:59,1,103.999995239258,2|0,0:2|2:0,0:0:0:0:
155,220,76917,5,2,0:2:0:0:
330,265,77060,1,2,0:2:0:0:
282,90,77203,2,0,L|195:32,1,103.999995239258,2|0,0:2|2:0,0:0:0:0:
230,293,77488,5,2,0:2:0:0:
356,164,77631,1,2,0:2:0:0:
181,118,77774,2,0,L|87:164,1,103.999995239258,2|0,0:2|2:0,0:0:0:0:
330,265,78060,6,0,L|419:221,1,100
446,209,78274,1,2,1:2:0:0:
471,195,78345,2,0,P|476:162|472:129,1,66.6666666666667,2|0,0:2|0:0,0:0:0:0:
289,8,78536,2,0,P|256:4|223:8,1,66.6666666666667,2|0,0:2|0:0,0:0:0:0:
39,129,78726,2,0,P|36:162|41:195,1,66.6666666666667,2|0,0:2|0:0,0:0:0:0:
28,332,78917,70,0,P|77:327|121:304,1,100,4|0,0:0|2:0,0:0:0:0:
312,192,79203,2,0,P|343:153|357:106,1,100,2|0,0:2|2:0,0:0:0:0:
153,105,79488,2,0,P|168:153|200:192,1,100,2|0,0:2|2:0,0:0:0:0:
390,303,79774,2,0,P|434:326|484:332,1,100,2|0,0:2|2:0,0:0:0:0:
356,192,80060,6,0,P|313:218|284:258,1,100,2|0,0:2|2:0,0:0:0:0:
469,218,80345,2,0,P|467:167|447:122,1,100,2|0,0:2|2:0,0:0:0:0:
390,303,80631,2,0,P|434:326|484:332,2,100,2|0|2,0:2|2:0|0:2,2:0:0:0:
198,191,81060,1,2,0:2:0:0:
198,191,81131,1,0,0:0:0:0:
198,191,81203,6,0,P|167:152|153:105,1,100,2|0,0:2|2:0,0:0:0:0:
357,105,81488,2,0,P|342:153|312:192,1,100,2|0,0:2|2:0,0:0:0:0:
44,124,81774,2,0,P|49:74|72:30,1,100,2|0,0:2|2:0,0:0:0:0:
308,296,82060,2,0,P|322:343|353:382,1,100,2|0,0:2|2:0,0:0:0:0:
468,123,82345,6,0,P|462:74|439:30,1,100,2|0,0:2|2:0,0:0:0:0:
204,296,82631,2,0,P|189:343|158:382,1,100,2|0,0:2|2:0,0:0:0:0:
76,280,82917,2,0,L|29:253,2,53.3333333333333,2|0|0,0:2|0:0|0:0,0:0:0:0:
128,187,83203,2,0,L|81:160,2,53.3333333333333,2|0|0,0:2|0:0|0:0,0:0:0:0:
180,94,83488,69,2,0:2:0:0:
180,94,83583,1,0,2:0:0:0:
354,115,83774,1,2,0:2:0:0:
354,115,83869,1,0,2:0:0:0:
332,290,84060,1,2,0:2:0:0:
332,290,84155,1,0,2:0:0:0:
158,268,84345,1,2,0:2:0:0:
158,268,84440,1,0,2:0:0:0:
180,94,84631,5,2,0:2:0:0:
180,94,84726,2,0,L|189:28,1,66.6666666666667,0|0,2:0|2:0,0:0:0:0:
268,105,84917,1,2,0:2:0:0:
268,105,85012,2,0,L|277:39,1,66.6666666666667,0|0,2:0|1:0,0:0:0:0:
353,115,85203,6,0,P|384:173|367:236,2,133.333333333333,2|0|0,0:2|0:0|0:0,0:0:0:0:
374,323,85703,1,2,2:2:0:0:
374,323,85774,2,0,P|290:278|295:184,1,200,2|2,0:2|0:2,0:0:0:0:
448,272,86274,1,0,0:0:0:0:
367,235,86345,2,0,L|250:300,2,133.333333333333,2|0|0,1:2|1:0|1:0,0:0:0:0:
204,364,86917,6,0,P|171:300|204:236,1,150,2|0,1:2|0:0,0:0:0:0:
249,171,87203,2,0,P|283:235|250:299,1,150,2|0,1:2|0:0,0:0:0:0:
172,308,87488,53,2,1:2:0:0:
125,244,87583,1,2,2:2:0:0:
78,180,87678,1,2,1:2:0:0:
110,108,87774,53,2,2:2:0:0:
157,172,87869,1,2,1:2:0:0:
204,236,87964,1,2,2:2:0:0:
171,308,88060,70,0,P|115:322|64:294,1,120.000004577637,4|0,0:0|2:0,0:0:0:0:
397,71,88345,2,0,P|396:130|355:172,1,120.000004577637,2|0,0:2|2:0,0:0:0:0:
157,172,88631,2,0,P|115:130|114:71,1,120.000004577637,2|0,0:2|2:0,0:0:0:0:
447,294,88917,2,0,P|396:322|340:308,1,120.000004577637,2|0,0:2|2:0,0:0:0:0:
64,294,89203,6,0,P|115:322|171:308,1,120.000004577637,2|0,0:2|2:0,0:0:0:0:
222,85,89488,2,0,P|172:115|157:172,1,120.000004577637,2|0,0:2|2:0,0:0:0:0:
325,327,89774,2,0,P|323:268|282:226,1,120.000004577637,2|0,0:2|2:0,0:0:0:0:
64,294,90060,1,2,0:2:0:0:
325,327,90203,1,2,0:2:0:0:
222,85,90345,6,0,P|172:115|157:172,1,120.000004577637,2|0,0:2|2:0,0:0:0:0:
64,294,90631,2,0,P|115:322|171:308,1,120.000004577637,2|0,0:2|2:0,0:0:0:0:
325,327,90917,2,0,P|323:268|282:226,1,120.000004577637,2|0,0:2|2:2,0:0:0:0:
260,136,91131,1,2,2:0:0:0:
260,136,91203,2,0,P|318:136|361:177,1,120.000004577637,2|0,0:2|2:2,0:0:0:0:
452,200,91417,1,2,2:0:0:0:
452,200,91488,6,0,P|450:141|409:99,1,120.000004577637,2|0,0:2|2:0,0:0:0:0:
157,171,91774,1,2,0:2:0:0:
172,307,91917,1,0,0:0:0:0:
282,226,92060,1,2,0:2:0:0:
267,90,92203,1,0,3:0:0:0:
235,76,92274,1,0,3:0:0:0:
204,62,92345,1,2,3:2:0:0:
173,48,92417,1,0,3:0:0:0:
142,35,92488,1,0,3:0:0:0:
391,144,92631,70,0,P|415:198|413:257,1,120.000004577637,4|0,0:0|2:0,0:0:0:0:
120,239,92917,2,0,P|96:185|98:126,1,120.000004577637,2|0,0:2|2:0,0:0:0:0:
303,327,93203,2,0,P|249:351|190:349,1,120.000004577637,2|0,0:2|2:0,0:0:0:0:
208,56,93489,2,0,P|262:32|321:34,1,120.000004577637,2|0,0:2|2:0,0:0:0:0:
120,239,93774,6,0,P|96:185|98:126,1,120.000004577637,2|0,0:2|2:0,0:0:0:0:
235,280,94060,2,0,P|201:328|148:355,1,120.000004577637,2|0,0:2|2:0,0:0:0:0:
213,159,94345,2,0,P|272:165|322:196,1,120.000004577637,2|0,0:2|2:0,0:0:0:0:
345,240,94560,1,0,0:0:0:0:
367,284,94631,2,0,L|389:339,2,59.7333340625,2|0|0,0:2|0:0|0:0,0:0:0:0:
323,197,94917,6,0,P|327:137|358:87,1,120.000004577637,2|0,0:2|2:0,0:0:0:0:
512,136,95203,2,0,P|507:196|476:246,1,120.000004577637,2|2,0:2|2:2,0:0:0:0:
366,284,95488,2,0,B|328:295|328:295|289:288,3,80.0000030517579,2|2|2|2,0:2|2:2|2:2|0:2,0:0:0:0:
118,246,95917,1,2,0:2:0:0:
231,380,96060,1,2,0:2:0:0:
219,205,96203,1,0,0:0:0:0:
127,354,96345,1,2,0:2:0:0:
126,354,96631,6,0,P|87:350|52:331,1,80.0000030517579,2|0,0:2|2:0,0:0:0:0:
118,246,96822,2,0,P|101:209|99:170,1,80.0000030517579,2|0,0:2|2:0,0:0:0:0:
219,205,97012,2,0,P|241:172|275:151,1,80.0000030517579,2|0,0:2|2:0,0:0:0:0:
288,287,97203,1,4,0:0:0:0:
287,287,97488,70,0,P|233:310|174:302,1,120.000004577637,2|0,0:2|2:0,0:0:0:0:
324,186,97774,2,0,P|371:221|394:276,1,120.000004577637,2|0,0:2|2:0,0:0:0:0:
219,205,98060,2,0,P|225:146|261:99,1,120.000004577637,2|0,0:2|2:0,0:0:0:0:
484,220,98345,6,0,P|499:277|483:334,1,120.000004577637,2|0,0:2|2:0,0:0:0:0:
197,276,98631,2,0,P|254:260|312:276,1,120.000004577637,2|0,0:2|2:0,0:0:0:0:
28,334,98917,2,0,P|12:277|28:220,1,120.000004577637,2|0,0:2|2:0,0:0:0:0:
198,276,99203,1,2,0:2:0:0:
28,220,99345,1,2,0:2:0:0:
163,100,99488,5,2,0:2:0:0:
163,100,99774,1,0,0:0:0:0:
163,100,100060,2,0,P|219:83|276:100,1,120.000004577637,2|0,0:2|2:0,0:0:0:0:
459,137,100345,2,0,P|476:80|460:24,1,120.000004577637,2|0,0:2|2:0,0:0:0:0:
296,0,100631,2,0,P|347:28|376:80,1,120.000004577637,2|0,0:2|2:0,0:0:0:0:
376,81,100917,1,0,0:0:0:0:
376,81,101203,5,2,0:2:0:0:
392,104,101298,1,2,2:2:0:0:
405,131,101393,1,2,2:2:0:0:
414,160,101488,1,2,0:2:0:0:
418,190,101583,1,2,2:2:0:0:
418,220,101679,1,2,2:2:0:0:
413,249,101774,2,0,P|355:264|298:249,1,120.000004577637,0|0,0:2|2:0,0:0:0:0:
103,217,102060,2,0,P|88:274|104:332,1,120.000004577637,2|0,0:2|2:0,0:0:0:0:
276,356,102345,2,0,P|224:326|194:275,1,120.000004577637,2|0,0:2|2:0,0:0:0:0:
80,114,102631,2,0,P|29:144|0:196,1,120.000004577637,2|0,0:2|2:0,0:0:0:0:
104,332,102917,69,2,0:2:0:0:
104,332,103060,1,2,0:2:0:0:
192,180,103203,1,0,0:0:0:0:
192,180,103346,1,0,0:0:0:0:
296,312,103489,1,2,1:2:0:0:
320,342,103560,1,0,0:0:0:0:
357,356,103631,1,0,0:0:0:0:
396,349,103703,1,2,0:2:0:0:
425,322,103774,2,0,L|458:284,3,50,0|0|2|0,1:0|0:0|0:2|0:0,0:0:0:0:
292,228,104060,5,6,1:2:0:0:
254,233,104131,1,0,0:0:0:0:
223,258,104202,1,0,0:0:0:0:
209,296,104274,1,0,0:0:0:0:
218,334,104345,2,0,L|233:381,3,50,0|0|0|0,1:0|0:0|0:0|0:0,0:0:0:0:
364,268,104631,5,2,1:2:0:0:
378,232,104702,1,0,0:0:0:0:
372,193,104773,1,0,0:0:0:0:
346,162,104845,1,0,0:0:0:0:
309,150,104917,2,0,L|259:140,4,50,2|0|0|0|2,1:2|0:0|0:0|0:0|0:2,0:0:0:0:
309,150,105774,2,0,L|259:140,8,50,2|0|2|0|2|0|2|0|4,1:2|0:0|0:2|0:0|0:2|0:0|0:2|0:0|0:0,0:0:0:0:
199,64,106630,6,0,P|165:111|165:170,1,120,2|0,0:2|2:0,0:0:0:0:
180,208,106916,2,0,L|68:164,1,120,2|0,0:2|2:0,0:0:0:0:
28,152,107202,1,0,0:0:0:0:
57,195,107297,1,0,0:0:0:0:
57,248,107392,1,0,0:0:0:0:
27,292,107487,2,0,L|126:330,1,106.666666666667,2|2,0:2|0:2,0:0:0:0:
279,246,107868,2,0,L|180:208,1,106.666666666667,2|2,0:2|0:2,0:0:0:0:
340,324,108345,70,0,P|374:276|374:217,1,120,2|0,0:2|2:0,0:0:0:0:
359,180,108630,2,0,L|470:223,1,120,2|0,0:2|2:0,0:0:0:0:
511,235,108916,1,0,0:0:0:0:
482,192,109011,1,0,0:0:0:0:
482,139,109106,1,0,0:0:0:0:
512,96,109202,2,0,L|412:57,1,106.666666666667,2|2,0:2|0:2,0:0:0:0:
260,141,109583,2,0,L|359:180,1,106.666666666667,2|2,0:2|0:2,0:0:0:0:
199,64,110059,6,0,P|165:111|165:170,1,120,2|0,0:2|2:0,0:0:0:0:
180,208,110345,2,0,L|68:164,1,120,2|0,0:2|2:0,0:0:0:0:
28,152,110630,1,0,0:0:0:0:
57,195,110725,1,0,0:0:0:0:
57,248,110821,1,0,0:0:0:0:
27,292,110916,2,0,L|126:330,1,106.666666666667,2|2,0:2|0:2,0:0:0:0:
279,246,111297,2,0,L|180:208,1,106.666666666667,2|2,0:2|0:2,0:0:0:0:
340,324,111773,6,0,P|374:276|374:217,1,120,2|0,0:2|2:0,0:0:0:0:
359,180,112059,2,0,L|470:223,1,120,2|0,0:2|2:0,0:0:0:0:
511,235,112345,1,0,0:0:0:0:
482,192,112440,1,0,0:0:0:0:
482,139,112535,1,0,0:0:0:0:
512,96,112630,2,0,L|412:57,1,106.666666666667,2|2,0:2|0:2,0:0:0:0:
260,141,113011,2,0,L|359:180,1,106.666666666667,2|6,0:2|1:2,0:0:0:0:
199,64,113523,5,2,0:2:0:0:
168,106,113618,1,2,0:2:0:0:
164,158,113714,1,2,0:2:0:0:
188,205,113809,2,0,L|235:270,1,80,2|2,0:2|0:0,0:0:0:0:
244,352,114095,2,0,L|308:305,1,80,2|2,0:2|0:0,0:0:0:0:
392,300,114380,2,0,L|345:235,1,80,2|2,0:2|0:0,0:0:0:0:
336,152,114667,2,0,L|271:198,1,80,2|2,0:2|0:0,0:0:0:0:
188,205,114917,1,6,1:2:0:0:
188,205,115238,69,2,0:0:0:0:
164,171,115310,1,2,0:0:0:0:
158,131,115381,1,2,0:0:0:0:
170,93,115453,1,2,0:0:0:0:
199,64,115524,2,0,L|250:1,1,80,2|2,0:2|0:0,0:0:0:0:
252,243,115810,2,0,L|201:305,1,80,2|2,0:2|0:0,0:0:0:0:
260,141,116095,2,0,L|310:78,1,80,2|2,0:2|0:0,0:0:0:0:
313,320,116381,2,0,L|262:383,1,80,2|2,0:2|0:0,0:0:0:0:
199,64,116631,1,6,1:2:0:0:
199,64,116952,5,2,0:2:0:0:
170,93,117024,1,2,0:0:0:0:
158,131,117095,1,2,0:0:0:0:
164,171,117167,1,2,0:0:0:0:
188,205,117238,2,0,P|207:239|206:278,1,80,2|2,0:0|0:0,0:0:0:0:
323,178,117524,2,0,P|304:144|305:105,1,80,2|2,0:0|0:0,0:0:0:0:
128,260,117809,2,0,P|126:299|146:333,1,80,2|2,0:0|0:0,0:0:0:0:
384,124,118095,2,0,P|385:84|365:50,1,80,2|2,0:0|0:0,0:0:0:0:
188,205,118345,69,2,0:3:0:0:
206,279,118487,1,2,0:3:0:0:
324,179,118630,1,2,0:3:0:0:
306,105,118773,1,2,0:3:0:0:
128,260,118917,1,6,0:3:0:0:
256,192,118988,12,0,123488,0:0:0:0:
