osu file format v14

[General]
AudioFilename: HAVOX [NOFX].mp3
AudioLeadIn: 0
PreviewTime: 69060
Countdown: 0
SampleSet: Soft
StackLeniency: 0.3
Mode: 0
LetterboxInBreaks: 1
WidescreenStoryboard: 1

[Editor]
Bookmarks: 1210,8067,10352,18352,27488,36638,45781,54924,69781,83060,83345,88067,91631,106352,113210,118924,123488
DistanceSpacing: 1
BeatDivisor: 3
GridSize: 4
TimelineZoom: 1.2

[Metadata]
Title:HAVOX
TitleUnicode:HAVOX
Artist:BlackY vs. Yooh
ArtistUnicode:BlackY vs. Yooh
Creator:Timorisu
Version:ADVANCED
Source:SOUND VOLTEX III GRAVITY WARS
Tags:sdvx 3 havoc dubstep ktgster leader
BeatmapID:776900
BeatmapSetID:352555

[Difficulty]
HPDrainRate:6
CircleSize:4
OverallDifficulty:7
ApproachRate:8.5
SliderMultiplier:1.5
SliderTickRate:1

[Events]
//Background and Video events
0,0,"bg.jpg",0,0
//Break Periods
//Storyboard Layer 0 (Background)
//Storyboard Layer 1 (Fail)
//Storyboard Layer 2 (Pass)
//Storyboard Layer 3 (Foreground)
//Storyboard Sound Samples

[TimingPoints]
1203,285.714285714286,4,2,0,10,1,0
9345,-100,4,2,0,20,0,0
9488,-100,4,2,0,30,0,0
9631,-100,4,2,0,40,0,0
9774,-100,4,2,0,50,0,0
10345,-100,4,1,0,75,0,0
27488,-133.333333333333,4,1,0,75,0,0
36631,-100,4,1,0,75,0,0
48060,-100,4,2,0,75,0,0
53631,-100,4,1,0,75,0,0
69203,-100,4,2,0,75,0,0
69774,-80,4,1,0,75,0,1
78345,-80,4,1,0,75,0,0
78917,-80,4,1,0,75,0,1
86917,-80,4,1,0,75,0,0
88060,-80,4,1,0,75,0,1
97203,-80,4,1,0,75,0,0
97488,-80,4,1,0,75,0,1
103488,-80,4,1,0,75,0,1
103774,-80,4,1,0,65,0,1
104060,-100,4,1,0,55,0,1
104345,-100,4,1,0,45,0,1
104631,-133.333333333333,4,1,0,35,0,1
104917,-133.333333333333,4,1,0,25,0,1
106345,285.714285714286,6,1,0,75,1,0
113238,285.714285714286,6,2,0,75,1,0
113523,-100,4,2,0,75,0,0
114917,285.714285714286,6,2,0,75,1,0
114953,285.714285714286,6,2,0,75,1,0
116631,285.714285714286,6,2,0,75,1,0
116667,285.714285714286,6,2,0,75,1,0
118345,285.714285714286,4,2,0,75,1,0
118917,285.714285714286,4,2,0,75,1,0

[Colours]
Combo1 : 145,0,0
Combo2 : 211,211,211
Combo3 : 244,217,19
Combo4 : 0,121,255
Combo5 : 202,0,0
Combo6 : 124,124,124
Combo7 : 179,157,9
Combo8 : 0,75,159

[HitObjects]
256,256,9203,6,0,L|256:293,8,37.5,0|0|0|0|0|0|0|0|0,3:0|3:0|3:0|3:0|3:0|3:0|3:0|3:0|3:0,0:0:0:0:
195,211,9917,1,0,0:0:0:0:
218,140,10060,1,0,0:0:0:0:
293,140,10203,1,0,0:0:0:0:
316,211,10345,6,0,L|340:282,1,75,4|0,0:0|2:0,0:0:0:0:
412,264,10631,2,0,L|387:192,1,75,0|0,0:0|2:0,0:0:0:0:
367,119,10917,1,0,0:0:0:0:
364,41,11060,1,0,2:0:0:0:
294,18,11203,1,0,0:0:0:0:
250,80,11345,1,0,2:0:0:0:
293,140,11488,1,0,0:0:0:0:
188,248,11774,5,0,0:0:0:0:
232,186,11916,1,0,2:0:0:0:
189,126,12060,2,0,L|144:65,1,75,0|0,0:0|2:0,0:0:0:0:
96,4,12345,1,0,0:0:0:0:
52,66,12487,1,0,0:0:0:0:
95,126,12631,6,0,L|139:186,1,75,0|0,0:0|2:0,0:0:0:0:
188,248,12917,2,0,L|248:203,1,75,0|0,0:0|2:0,0:0:0:0:
308,156,13203,2,0,L|263:95,1,75,0|0,0:0|2:0,0:0:0:0:
215,34,13489,2,0,L|154:78,1,75,0|0,0:0|2:0,0:0:0:0:
95,126,13774,70,0,P|126:193|95:259,1,150,0|0,0:0|0:0,0:0:0:0:
76,332,14203,1,0,2:0:0:0:
148,311,14345,2,0,P|214:280|280:311,1,150,0|0,0:0|0:0,0:0:0:0:
352,332,14774,1,0,0:0:0:0:
334,258,14917,6,0,P|303:192|334:126,2,150,0|0|0,0:0|0:0|0:0,0:0:0:0:
384,192,15631,1,0,2:0:0:0:
416,116,15774,2,0,L|447:47,2,75,0|0|0,0:0|2:0|0:0,0:0:0:0:
334,258,16345,2,0,L|365:326,2,75,0|0|0,0:0|2:0|0:0,0:0:0:0:
252,116,16917,2,0,L|221:47,2,75,0|0|0,0:0|0:0|0:0,0:0:0:0:
319,156,17345,5,0,0:0:0:0:
319,156,17417,1,0,0:0:0:0:
319,156,17488,2,0,P|294:182|258:192,1,75,0|0,0:0|0:0,0:0:0:0:
276,268,17774,2,0,P|238:269|206:250,1,75,0|0,0:0|0:0,0:0:0:0:
168,316,18060,1,0,0:0:0:0:
152,305,18131,1,0,0:0:0:0:
141,290,18203,1,0,0:0:0:0:
133,273,18274,1,0,0:0:0:0:
131,254,18345,6,0,P|105:185|36:161,2,150,4|0|0,0:0|0:0|0:0,0:0:0:0:
48,248,19060,1,0,2:0:0:0:
84,320,19203,1,0,0:0:0:0:
164,328,19345,1,0,2:0:0:0:
212,260,19488,70,0,L|297:136,1,150,0|0,0:0|0:0,0:0:0:0:
364,176,19917,1,0,2:0:0:0:
428,220,20060,2,0,L|342:343,1,150,0|0,0:0|0:0,0:0:0:0:
278,301,20488,1,0,0:0:0:0:
212,260,20631,5,0,0:0:0:0:
216,184,20774,1,0,0:0:0:0:
282,225,20917,1,0,0:0:0:0:
138,281,21203,1,0,0:0:0:0:
96,218,21345,1,0,2:0:0:0:
143,160,21488,1,0,0:0:0:0:
216,184,21631,1,0,2:0:0:0:
212,260,21774,1,0,0:0:0:0:
200,108,22060,5,0,0:0:0:0:
143,160,22203,1,0,2:0:0:0:
96,218,22345,1,0,0:0:0:0:
138,281,22488,2,0,L|157:312,2,37.5,0|0|0,0:0|0:0|0:0,0:0:0:0:
212,260,22774,2,0,L|248:250,2,37.5,0|0|0,0:0|0:0|0:0,0:0:0:0:
216,184,23060,2,0,L|218:146,2,37.5,0|0|0,0:0|0:0|0:0,0:0:0:0:
374,281,23488,5,0,0:0:0:0:
416,218,23630,1,0,2:0:0:0:
369,160,23773,1,0,0:0:0:0:
296,184,23916,1,0,2:0:0:0:
300,260,24059,1,0,0:0:0:0:
448,288,24345,1,0,0:0:0:0:
416,218,24488,1,0,2:0:0:0:
374,281,24630,1,0,0:0:0:0:
312,108,24917,1,0,0:0:0:0:
296,184,25060,1,0,0:0:0:0:
369,160,25203,70,0,P|388:127|388:90,1,75,0|0,0:0|0:0,0:0:0:0:
312,108,25488,2,0,P|279:89|242:89,1,75,0|0,0:0|0:0,0:0:0:0:
172,112,25774,2,0,P|134:112|102:93,1,75,0|0,0:0|0:0,0:0:0:0:
45,41,26060,2,0,P|26:73|27:111,1,75
68,176,26345,6,0,L|108:238,1,75,2|2,0:2|2:2,0:0:0:0:
176,200,26631,2,0,L|216:262,1,75,2|2,0:2|2:2,0:0:0:0:
295,262,26917,2,0,L|336:200,1,75,2|2,0:2|2:2,0:0:0:0:
403,238,27203,2,0,L|444:176,1,75,2|2,0:2|2:2,0:0:0:0:
484,100,27488,69,4,0:0:0:0:
484,100,27631,1,0,0:0:0:0:
484,100,27774,2,2,P|429:92|381:120,2,112.500004291535,2|10|2,0:0|0:0|0:0,0:0:0:0:
444,175,28488,2,2,P|444:230|410:273,1,112.500004291535
364,200,28917,2,2,P|315:172|295:121,1,112.500004291535,2|10,0:0|0:0,0:0:0:0:
319,47,29345,1,2,0:3:0:0:
256,0,29488,1,2,0:3:0:0:
192,47,29631,1,2,0:3:0:0:
216,122,29774,5,0,0:0:0:0:
216,122,29917,2,0,P|195:173|147:200,1,112.500004291535
104,272,30346,2,0,P|69:228|69:173,1,112.500004291535,8|0,0:0|0:0,0:0:0:0:
28,100,30774,2,0,P|82:91|130:119,1,112.500004291535,0|0,0:0|0:0,0:0:0:0:
216,122,31203,2,0,P|194:173|146:200,1,112.500004291535,0|8,0:0|0:0,0:0:0:0:
84,256,31631,1,2,0:3:0:0:
68,173,31774,1,2,0:3:0:0:
129,118,31917,1,2,0:3:0:0:
216,122,32060,69,0,0:0:0:0:
216,122,32203,2,2,L|328:124,1,112.500004291535
408,100,32631,2,2,B|421:130|411:157|404:150|394:177|408:208,1,112.500004291535,10|2,0:0|0:0,0:0:0:0:
436,288,33060,2,2,L|323:285,1,112.500004291535
244,310,33488,2,2,B|230:279|240:252|247:259|257:232|244:201,1,112.500004291535,2|10,0:0|0:0,0:0:0:0:
216,122,33917,1,2,0:3:0:0:
281,72,34060,1,2,0:3:0:0:
351,120,34202,1,2,0:3:0:0:
326,200,34345,5,0,0:0:0:0:
326,200,34488,2,0,P|381:198|423:162,1,112.500004291535
504,188,34917,2,0,P|502:132|466:90,1,112.500004291535,8|0,0:0|0:0,0:0:0:0:
491,10,35345,2,0,P|435:11|393:47,1,112.500004291535,0|0,0:0|0:0,0:0:0:0:
314,23,35774,2,0,P|315:78|351:120,1,112.500004291535,0|2,0:0|0:0,0:0:0:0:
504,188,36345,5,2,0:0:0:0:
368,288,36631,70,0,L|307:332,2,75,4|0|0,0:0|0:0|0:0,0:0:0:0:
324,228,37060,1,0,0:0:0:0:
324,228,37131,1,0,0:0:0:0:
324,228,37203,2,0,L|263:272,2,75,0|0|0,0:0|0:0|0:0,0:0:0:0:
399,218,37631,2,0,P|359:158|287:160,1,150,0|0,0:0|0:0,0:0:0:0:
283,163,37988,1,0,0:0:0:0:
279,167,38060,2,0,L|218:211,1,75,0|0,0:0|0:0,0:0:0:0:
140,96,38345,2,0,L|208:126,1,75,2|2,0:3|0:3,0:0:0:0:
152,248,38631,2,0,L|144:173,1,75,2|2,0:3|0:3,0:0:0:0:
221,50,38917,69,0,0:0:0:0:
332,112,39060,1,0,0:0:0:0:
298,41,39203,1,0,0:0:0:0:
279,167,39345,1,0,0:0:0:0:
279,167,39417,1,0,0:0:0:0:
279,167,39488,2,0,L|218:211,2,75,0|0|0,0:0|0:0|0:0,0:0:0:0:
324,236,39917,1,0,0:0:0:0:
324,236,39988,1,0,0:0:0:0:
324,236,40060,2,0,L|263:280,2,75,0|0|0,0:0|0:0|0:0,0:0:0:0:
384,184,40488,1,0,0:0:0:0:
444,132,40631,2,0,B|456:104|447:80|441:87|432:63|444:35,2,100,2|2|2,0:3|0:3|0:3,0:0:0:0:
444,232,41203,6,0,P|452:268|443:304,1,75,0|0,0:0|2:0,0:0:0:0:
253,303,41488,2,0,P|244:267|253:231,1,75,0|0,0:0|2:0,0:0:0:0:
387,355,41774,2,0,P|351:346|315:355,1,75,0|0,0:0|2:0,0:0:0:0:
311,180,42060,2,0,P|347:188|383:179,1,75,0|0,0:0|2:0,0:0:0:0:
383,48,42345,2,0,P|358:74|347:110,1,75,0|0,0:0|2:0,0:0:0:0:
459,175,42631,2,0,P|448:140|423:113,1,75,0|0,0:0|2:0,0:0:0:0:
311,180,42917,2,0,B|348:189|348:189|383:179,1,75,2|2,0:3|0:3,0:0:0:0:
384,256,43203,2,0,B|347:264|347:264|311:256,1,75,2|2,0:3|0:3,0:0:0:0:
240,220,43488,6,0,L|204:204,7,37.5,0|0|0|0|0|0|0|0,0:0|0:0|0:0|0:0|0:0|0:0|0:0|0:0,0:0:0:0:
208,296,44060,2,0,L|172:280,7,37.5,2|2|2|2|2|2|2|2,0:3|0:3|0:3|0:3|0:0|0:3|0:3|0:3,0:0:0:0:
176,372,44631,2,0,L|140:356,7,37.5,0|0|0|0|0|0|0|0,0:0|0:0|0:0|0:0|0:0|0:0|0:0|0:0,0:0:0:0:
220,66,45774,5,4,0:0:0:0:
220,66,46060,1,0,0:0:0:0:
220,66,46345,2,0,P|256:323|291:66,1,750,0|0,0:0|0:0,0:0:0:0:
296,208,48060,70,0,L|269:234,3,37.5,2|0|2|0,1:2|0:0|0:2|0:0,0:0:0:0:
242,149,48345,2,0,L|216:176,3,37.5,2|0|2|0,1:2|0:0|0:2|0:0,0:0:0:0:
188,90,48631,2,0,L|161:116,3,37.5,2|0|2|0,1:2|0:0|0:2|0:0,0:0:0:0:
134,31,48916,2,0,L|107:57,3,37.5,2|0|2|0,1:2|0:0|0:2|0:0,0:0:0:0:
83,134,49203,6,0,L|56:160,3,37.5,2|0|2|0,1:2|0:0|0:2|0:0,0:0:0:0:
136,192,49488,2,0,L|110:219,3,37.5,2|0|2|0,1:2|0:0|0:2|0:0,0:0:0:0:
191,252,49774,2,0,L|164:278,3,37.5,2|0|2|0,1:2|0:0|0:2|0:0,0:0:0:0:
245,311,50059,2,0,L|218:337,3,37.5,2|0|2|0,1:2|0:0|0:2|0:0,0:0:0:0:
323,293,50345,5,2,1:2:0:0:
374,216,50488,1,2,0:2:0:0:
357,124,50631,2,0,L|336:51,1,75,2|2,1:2|0:2,0:0:0:0:
189,91,50917,1,2,1:2:0:0:
138,168,51060,1,2,0:2:0:0:
155,260,51203,2,0,L|175:332,1,75,2|2,1:2|0:2,0:0:0:0:
323,293,51488,6,0,L|373:278,2,50,2|0|0,1:2|0:0|0:0,0:0:0:0:
308,219,51774,2,0,L|358:204,2,50,2|0|0,1:2|0:0|0:0,0:0:0:0:
294,146,52060,2,0,L|257:156,2,37.5,2|0|2,1:2|0:0|0:2,0:0:0:0:
280,73,52345,2,0,L|243:83,2,37.5,2|0|2,1:2|0:0|0:2,0:0:0:0:
352,56,52631,70,0,L|423:34,2,75,2|2|2,1:2|1:2|1:2,0:0:0:0:
380,196,53203,2,0,L|451:174,2,75,2|2|2,1:2|0:2|1:2,0:0:0:0:
308,219,53631,1,2,0:2:0:0:
308,219,53703,1,2,0:2:0:0:
308,219,53774,6,0,L|236:240,1,75,2|0,0:2|0:0,0:0:0:0:
128,112,54060,2,0,L|199:90,1,75,0|0,0:0|0:0,0:0:0:0:
164,256,54345,2,0,L|142:184,1,75,2|2,0:2|0:2,0:0:0:0:
272,75,54631,2,0,L|293:146,1,75,2|2,0:2|0:2,0:0:0:0:
308,219,54917,6,0,P|338:285|409:297,1,150,6|0,0:2|0:0,0:0:0:0:
384,224,55345,1,0,0:0:0:0:
360,151,55488,2,0,P|430:164|459:230,1,150,2|0,0:2|0:0,0:0:0:0:
384,224,55917,1,0,0:0:0:0:
308,219,56060,2,0,L|159:208,2,150,2|0|2,0:2|0:0|0:2,0:0:0:0:
460,228,56917,1,0,0:0:0:0:
392,96,57203,6,0,L|338:-3,2,112.5,2|0|0,1:2|3:0|3:0,0:0:0:0:
324,128,57774,2,0,L|270:29,2,112.5,2|0|0,1:2|3:0|3:0,0:0:0:0:
256,160,58345,2,0,L|202:61,2,112.5,2|0|2,1:2|3:0|3:2,0:0:0:0:
328,292,59060,69,0,0:0:0:0:
396,260,59203,1,2,0:2:0:0:
388,336,59345,1,0,0:0:0:0:
320,368,59488,2,0,B|274:398|197:383|228:352|152:337|106:368,1,225,2|0,0:2|2:0,0:0:0:0:
64,304,60060,2,0,L|45:271,8,37.5,2|0|2|0|2|0|2|0|2,1:2|2:0|2:2|2:0|1:2|2:0|2:2|2:0|1:2,0:0:0:0:
148,192,60917,5,0,0:0:0:0:
256,84,61203,1,2,0:2:0:0:
363,192,61488,1,2,0:2:0:0:
222,294,61774,5,4,0:2:0:0:
153,158,62060,1,2,0:2:0:0:
289,89,62346,1,2,0:2:0:0:
358,225,62631,1,2,0:2:0:0:
192,278,62917,5,4,0:2:0:0:
169,128,63203,1,2,0:2:0:0:
319,105,63489,1,2,0:2:0:0:
342,255,63774,1,2,0:2:0:0:
169,255,64060,70,0,L|180:180,1,75,4|0,0:2|0:0,0:0:0:0:
124,129,64345,2,0,P|155:108|191:104,1,75,2|0,0:2|0:0,0:0:0:0:
342,128,64631,2,0,L|331:203,1,75,6|0,0:2|0:0,0:0:0:0:
387,254,64917,2,0,P|356:275|320:279,1,75,2|0,0:2|0:0,0:0:0:0:
169,255,65203,6,0,L|180:180,1,75,4|0,0:2|0:0,0:0:0:0:
342,128,65488,2,0,L|331:203,1,75,2|0,0:2|0:0,0:0:0:0:
124,129,65774,2,0,P|155:108|191:104,1,75,6|0,0:2|0:0,0:0:0:0:
387,254,66060,2,0,P|356:275|320:279,1,75,2|0,0:2|0:0,0:0:0:0:
169,255,66345,6,0,L|131:249,3,37.5,6|0|2|0,0:2|2:0|0:2|2:0,0:0:0:0:
149,175,66631,2,0,L|127:143,3,37.5,6|0|2|0,0:2|2:0|0:2|2:0,0:0:0:0:
193,105,66917,2,0,L|199:67,3,37.5,6|0|2|0,0:2|2:0|0:2|2:0,0:0:0:0:
272,85,67203,2,0,L|304:63,3,37.5,6|0|2|0,0:2|2:0|0:2|2:0,0:0:0:0:
343,129,67488,6,0,L|381:135,3,37.5,6|0|2|0,0:2|2:0|0:2|2:0,0:0:0:0:
362,208,67774,2,0,L|384:240,3,37.5,6|0|2|0,0:2|2:0|0:2|2:0,0:0:0:0:
319,279,68060,2,0,L|313:313,12,18.75,6|0|0|0|2|0|0|0|6|0|0|0|2,0:2|2:2|2:2|2:0|0:2|2:0|2:0|2:0|0:2|2:0|2:0|2:0|0:2,0:0:0:0:
256,192,68631,69,4,2:3:0:0:
256,192,69203,6,0,L|256:164,16,18.75,0|0|0|0|0|0|0|0|2|0|2|0|2|0|2|0|4,0:0|0:0|0:0|0:0|0:0|0:0|0:0|0:0|0:2|0:0|0:2|0:0|0:2|0:0|0:2|0:0|0:0,0:0:0:0:
256,284,69917,1,0,0:0:0:0:
255,375,70060,2,0,P|300:364|333:331,1,93.75,2|0,0:2|2:0,0:0:0:0:
412,284,70345,2,0,P|379:251|334:240,1,93.75,2|0,0:2|2:0,0:0:0:0:
255,194,70631,2,0,P|243:239|255:284,1,93.75,2|0,0:2|2:0,0:0:0:0:
334,240,70917,6,0,P|347:195|334:150,1,93.75,2|0,0:2|2:0,0:0:0:0:
335,59,71202,2,0,P|290:70|257:103,1,93.75,2|0,0:2|2:0,0:0:0:0:
178,150,71488,2,0,P|210:183|255:194,1,93.75,2|0,0:2|2:0,0:0:0:0:
334,150,71774,1,2,0:2:0:0:
257,103,71917,1,2,0:2:0:0:
255,194,72060,6,0,L|253:287,1,93.75,2|0,0:2|2:0,0:0:0:0:
252,380,72345,2,0,L|345:381,1,93.75,2|0,0:2|2:0,0:0:0:0:
438,382,72631,2,0,L|439:288,1,93.75,2|0,0:2|2:0,0:0:0:0:
440,196,72917,2,0,L|346:194,1,93.75,2|0,0:2|2:0,0:0:0:0:
255,194,73203,70,0,P|209:199|176:232,1,93.75,2|0,0:2|2:0,0:0:0:0:
124,308,73488,2,0,P|90:340|45:346,1,93.75,2|0,0:2|2:0,0:0:0:0:
52,256,73774,2,0,L|61:131,2,125,2|0|0,0:2|0:0|0:0,0:0:0:0:
44,345,74345,6,0,P|90:339|124:307,1,93.75,4|0,0:0|2:0,0:0:0:0:
192,376,74631,2,0,P|219:339|221:293,1,93.75,2|0,0:2|2:0,0:0:0:0:
316,292,74917,2,0,P|309:246|278:212,1,93.75,2|0,0:2|2:0,0:0:0:0:
348,152,75203,2,0,P|311:124|265:122,1,93.75,2|0,0:2|2:0,0:0:0:0:
176,96,75488,6,0,P|170:141|192:182,1,93.75,2|0,0:2|2:0,0:0:0:0:
212,270,75774,2,0,P|254:251|278:212,1,93.75,2|0,0:2|2:0,0:0:0:0:
348,152,76060,2,0,P|311:124|265:122,1,93.75,2|0,0:2|2:0,0:0:0:0:
176,96,76345,5,2,0:2:0:0:
176,96,76488,1,2,0:2:0:0:
176,96,76631,2,0,P|170:141|192:182,1,93.75,2|0,0:2|2:0,0:0:0:0:
212,270,76917,69,2,0:2:0:0:
212,270,77060,1,2,0:2:0:0:
212,270,77203,2,0,P|254:251|278:212,1,93.75,2|0,0:2|2:0,0:0:0:0:
348,152,77488,5,2,0:2:0:0:
348,152,77631,1,2,0:2:0:0:
348,152,77774,2,0,P|311:124|265:122,1,93.75,2|0,0:2|2:0,0:0:0:0:
192,182,78060,2,0,P|145:180|109:152,1,93.75,0|0,0:0|2:0,0:0:0:0:
176,96,78345,2,0,L|270:13,2,125,2|2|2,0:2|0:2|0:2,0:0:0:0:
109,152,78917,6,0,P|95:196|109:240,1,93.75,4|0,0:0|2:0,0:0:0:0:
64,324,79203,2,0,P|108:337|151:323,1,93.75,2|0,0:2|2:0,0:0:0:0:
236,368,79488,2,0,P|249:323|235:280,1,93.75,2|0,0:2|2:0,0:0:0:0:
281,196,79774,2,0,P|236:182|193:196,1,93.75,2|0,0:2|2:0,0:0:0:0:
109,152,80060,6,0,P|95:196|109:240,1,93.75,2|0,0:2|2:0,0:0:0:0:
116,332,80345,2,0,P|161:321|191:287,1,93.75,2|0,0:2|2:0,0:0:0:0:
269,240,80631,2,0,P|237:206|192:196,1,93.75,2|0,0:2|2:0,0:0:0:0:
109,240,80917,1,2,0:2:0:0:
191,287,81060,1,2,0:2:0:0:
192,196,81203,70,0,L|192:102,1,93.75,2|0,0:2|2:0,0:0:0:0:
168,12,81488,2,0,B|192:3|217:7|209:16|234:20|258:12,1,93.75,2|0,0:2|2:0,0:0:0:0:
340,56,81774,2,0,L|340:149,1,93.75,2|0,0:2|2:0,0:0:0:0:
360,239,82060,2,0,B|336:247|311:243|319:234|294:230|269:240,1,93.75,2|0,0:2|2:0,0:0:0:0:
191,287,82345,6,0,P|145:277|114:243,1,93.75,2|0,0:2|2:0,0:0:0:0:
20,240,82631,2,0,P|29:194|63:163,1,93.75,2|0,0:2|2:0,0:0:0:0:
68,68,82917,2,0,P|113:77|144:111,1,93.75,2|0,0:2|2:0,0:0:0:0:
240,116,83203,2,0,P|230:161|196:192,1,93.75,2|0,0:2|2:0,0:0:0:0:
114,243,83488,6,0,P|145:277|191:287,1,93.75,2|0,0:2|2:0,0:0:0:0:
240,368,83774,2,0,P|273:336|283:291,1,93.75,2|0,0:2|2:0,0:0:0:0:
366,241,84060,2,0,P|334:207|289:197,1,93.75,2|0,0:2|2:0,0:0:0:0:
240,116,84346,2,0,P|206:147|196:192,1,93.75,2|0,0:2|2:0,0:0:0:0:
191,287,84631,6,0,L|188:349,2,62.5,2|0|0,0:2|2:0|2:0,0:0:0:0:
114,243,84917,2,0,L|111:305,2,62.5,2|0|0,0:2|2:0|1:0,0:0:0:0:
37,199,85203,2,0,L|43:74,2,125,2|0|0,0:2|0:0|0:0,0:0:0:0:
114,243,85774,70,0,P|145:277|191:287,1,93.75,2|0,0:2|2:0,0:0:0:0:
240,368,86060,2,0,P|273:336|283:291,1,93.75,2|0,0:2|2:0,0:0:0:0:
373,271,86345,2,0,P|347:216|289:196,2,125,2|0|0,1:2|1:0|1:0,0:0:0:0:
282,290,86917,6,0,L|221:303,2,62.5,2|0|0,1:2|2:0|1:0,0:0:0:0:
289,196,87203,2,0,L|227:209,2,62.5,2|0|0,1:2|2:0|1:0,0:0:0:0:
295,101,87488,1,2,1:2:0:0:
295,101,87583,2,0,L|356:114,1,62.5,2|2,2:2|1:2,0:0:0:0:
301,6,87774,1,2,2:2:0:0:
301,6,87869,2,0,L|362:19,1,62.5,2|2,1:2|2:2,0:0:0:0:
216,48,88060,6,0,L|124:67,1,93.75,4|0,0:0|2:0,0:0:0:0:
32,84,88345,2,0,B|23:108|27:133|37:125|40:150|31:175,1,93.75,2|0,0:2|2:0,0:0:0:0:
110,228,88631,2,0,L|201:208,1,93.75,2|0,0:2|2:0,0:0:0:0:
294,192,88917,2,0,B|302:168|298:143|289:151|285:126|295:101,1,93.75,2|0,0:2|2:0,0:0:0:0:
384,128,89203,6,0,B|400:146|424:155|422:144|445:153|463:174,1,93.75,2|0,0:2|2:0,0:0:0:0:
396,240,89488,2,0,B|371:245|351:261|362:264|343:280|316:285,1,93.75,2|0,0:2|2:0,0:0:0:0:
294,192,89774,2,0,B|302:168|298:143|289:151|285:126|295:101,1,93.75,2|0,0:2|2:0,0:0:0:0:
384,128,90060,1,2,0:2:0:0:
396,240,90203,1,2,0:2:0:0:
294,192,90345,70,0,L|209:152,1,93.75,2|0,0:2|2:0,0:0:0:0:
140,216,90631,2,0,L|224:256,1,93.75,2|0,0:2|2:0,0:0:0:0:
315,285,90917,2,0,P|371:245|387:178,1,140.625,2|2,0:2|0:2,0:0:0:0:
370,134,91203,2,0,P|311:97|243:109,1,140.625,2|2,0:2|0:2,0:0:0:0:
209,152,91488,6,0,L|294:192,1,93.75,2|0,0:2|2:0,0:0:0:0:
225,256,91774,2,0,L|141:216,1,93.75,2|0,0:2|2:0,0:0:0:0:
70,279,92060,2,0,L|154:319,1,93.75,2|0,0:2|2:0,0:0:0:0:
88,384,92345,2,0,L|4:344,1,93.75,2|0,0:2|2:0,0:0:0:0:
70,279,92631,6,0,P|83:234|69:190,1,93.75,4|0,0:0|2:0,0:0:0:0:
148,136,92917,2,0,P|188:114|210:73,1,93.75,2|0,0:2|2:0,0:0:0:0:
301,73,93203,2,0,P|323:114|364:136,1,93.75,2|0,0:2|2:0,0:0:0:0:
442,190,93488,2,0,P|428:234|442:279,1,93.75,2|0,0:2|2:0,0:0:0:0:
484,364,93774,6,0,B|439:377|439:377|395:363,1,93.75,2|0,0:2|2:0,0:0:0:0:
300,360,94060,2,0,B|310:314|310:314|344:283,1,93.75,2|0,0:2|2:0,0:0:0:0:
396,201,94345,2,0,B|430:232|430:232|441:278,1,93.75,2|0,0:2|2:0,0:0:0:0:
344,282,94631,2,0,L|281:284,2,62.5,2|0|0,0:2|0:0|0:0,0:0:0:0:
442,278,94917,70,0,P|431:233|397:202,1,93.75,2|0,0:2|2:0,0:0:0:0:
460,132,95203,2,0,P|420:107|374:110,1,93.75,2|2,0:2|2:2,0:0:0:0:
369,15,95488,2,0,P|323:25|292:60,3,62.5,2|2|2|2,0:2|2:2|2:2|0:2,0:0:0:0:
374,110,95917,5,2,0:2:0:0:
397,202,96060,1,2,0:2:0:0:
343,283,96203,1,0,0:0:0:0:
252,302,96345,1,2,0:2:0:0:
252,302,96631,2,0,P|258:241|301:198,1,125,2|2,0:2|0:2,0:0:0:0:
431,263,97012,2,0,P|425:324|382:368,1,125,2|4,0:2|0:0,0:0:0:0:
184,364,97488,6,0,P|163:322|165:276,1,93.75,2|0,0:2|2:0,0:0:0:0:
72,268,97774,2,0,P|86:223|120:192,1,93.75,2|0,0:2|2:0,0:0:0:0:
60,120,98060,2,0,P|101:99|147:101,1,93.75,2|0,0:2|2:0,0:0:0:0:
215,39,98345,6,0,P|236:81|234:127,1,93.75,2|0,0:2|2:0,0:0:0:0:
327,135,98631,2,0,P|313:180|279:211,1,93.75,2|0,0:2|2:0,0:0:0:0:
339,283,98917,2,0,P|298:304|252:302,1,93.75,2|0,0:2|2:0,0:0:0:0:
164,276,99203,1,2,0:2:0:0:
119,192,99345,1,2,0:2:0:0:
147,101,99488,69,2,0:2:0:0:
147,101,99774,1,0,0:0:0:0:
147,101,100060,2,0,P|101:98|60:120,1,93.75,2|0,0:2|2:0,0:0:0:0:
119,192,100346,2,0,P|85:223|72:268,1,93.75,2|0,0:2|2:0,0:0:0:0:
164,276,100632,2,0,P|163:322|184:364,1,93.75,2|0,0:2|2:0,0:0:0:0:
251,301,100917,2,0,P|282:335|326:349,1,93.75,0|0,0:0|2:0,0:0:0:0:
331,255,101203,2,0,P|376:257|417:235,2,62.5,2|2|2,1:2|2:2|2:2,0:0:0:0:
356,168,101488,2,0,P|390:136|403:93,2,62.5,2|2|2,1:2|2:2|2:2,0:0:0:0:
308,88,101774,6,0,P|309:41|288:0,1,93.75,0|0,0:2|2:0,0:0:0:0:
220,64,102060,2,0,P|173:62|132:83,1,93.75,2|0,0:2|2:0,0:0:0:0:
196,152,102345,2,0,P|194:198|215:239,1,93.75,2|0,0:2|2:0,0:0:0:0:
284,176,102631,2,0,P|330:177|371:156,1,93.75,2|0,0:2|2:0,0:0:0:0:
308,88,102917,1,2,0:2:0:0:
220,64,103060,1,2,0:2:0:0:
196,152,103203,1,0,0:0:0:0:
284,176,103345,1,0,0:0:0:0:
308,88,103488,5,2,1:2:0:0:
310,83,103559,1,0,0:0:0:0:
312,78,103630,1,0,0:0:0:0:
314,73,103702,1,2,0:2:0:0:
316,68,103774,2,0,L|329:23,2,46.875,0|0|2,1:0|0:0|0:2,0:0:0:0:
284,176,104060,6,0,L|320:187,6,37.5,6|0|0|0|0|0|0,1:2|0:0|0:0|0:0|0:0|0:0|0:0,0:0:0:0:
196,152,104631,70,0,L|187:179,6,28.1250010728836,2|0|0|0|2|0|0,1:2|0:0|0:0|0:0|1:2|0:0|0:0,0:0:0:0:
220,64,105203,5,2,1:2:0:0:
220,64,105774,2,0,L|217:35,8,28.1250010728836,2|0|2|0|2|0|2|0|4,1:2|0:0|0:2|0:0|0:2|0:0|0:2|0:0|0:0,0:0:0:0:
256,236,106630,6,0,P|273:288|255:340,1,100,2|0,0:2|2:0,0:0:0:0:
232,372,106916,2,0,L|320:368,1,75,2|0,0:2|2:0,0:0:0:0:
356,312,107202,2,0,L|444:316,1,75,0|0,0:0|2:0,0:0:0:0:
488,364,107487,2,0,P|504:317|489:270,1,100,2|2,0:2|0:2,0:0:0:0:
444,180,107868,2,0,P|429:132|445:86,1,100,2|2,0:2|0:2,0:0:0:0:
300,125,108345,6,0,P|247:142|195:124,1,100,2|0,0:2|2:0,0:0:0:0:
164,100,108631,2,0,L|168:188,1,75,2|0,0:2|2:0,0:0:0:0:
224,224,108916,2,0,L|220:312,1,75,0|0,0:0|2:0,0:0:0:0:
173,357,109202,2,0,P|219:373|266:358,1,100,2|2,0:2|0:2,0:0:0:0:
356,312,109583,2,0,P|403:297|449:313,1,100,2|2,0:2|0:2,0:0:0:0:
444,180,110059,70,0,P|426:127|444:75,1,100,2|0,0:2|2:0,0:0:0:0:
468,44,110345,2,0,L|380:48,1,75,2|0,0:2|2:0,0:0:0:0:
344,104,110630,2,0,L|256:100,1,75,0|0,0:0|2:0,0:0:0:0:
212,52,110916,2,0,P|195:98|210:145,1,100,2|2,0:2|0:2,0:0:0:0:
256,236,111297,2,0,P|270:283|254:329,1,100,2|2,0:2|0:2,0:0:0:0:
343,208,111773,6,0,P|325:156|344:104,1,100,2|0,0:2|2:0,0:0:0:0:
367,72,112059,2,0,L|278:76,1,75,2|0,0:2|2:0,0:0:0:0:
242,132,112345,2,0,L|154:128,1,75,0|0,0:0|2:0,0:0:0:0:
110,80,112630,2,0,P|93:126|108:173,1,100,2|2,0:2|0:2,0:0:0:0:
154,264,113011,2,0,P|168:311|152:357,1,100,2|6,0:2|1:2,0:0:0:0:
4,348,113523,6,0,L|-25:384,2,50,2|2|2,0:2|0:2|0:2,0:0:0:0:
32,315,113809,2,0,P|39:279|31:243,1,75,2|0,0:2|0:0,0:0:0:0:
64,176,114095,2,0,P|95:155|115:124,1,75,2|0,0:2|0:0,0:0:0:0:
192,124,114380,2,0,P|212:155|243:175,1,75,2|0,0:2|0:0,0:0:0:0:
275,242,114666,2,0,P|266:278|274:314,1,75,2|0,0:2|0:0,0:0:0:0:
340,278,114917,1,6,1:2:0:0:
467,190,115238,6,0,L|514:174,3,37.5,2|2|2|2,0:2|0:2|0:2|0:0,0:0:0:0:
434,197,115524,2,0,P|426:160|434:124,1,75,2|0,0:2|0:0,0:0:0:0:
440,48,115810,2,0,P|403:55|367:47,1,75,2|0,0:2|0:0,0:0:0:0:
292,40,116095,2,0,P|299:76|291:112,1,75,2|0,0:2|0:0,0:0:0:0:
286,189,116381,2,0,P|322:181|358:189,1,75,2|0,0:2|0:0,0:0:0:0:
434,197,116631,1,6,1:2:0:0:
324,300,116952,70,0,L|287:334,3,37.5,2|2|2|2,0:2|0:2|0:2|0:0,0:0:0:0:
358,262,117238,2,0,P|350:225|358:189,1,75,2|0,0:2|0:0,0:0:0:0:
326,90,117524,2,0,P|289:97|253:89,1,75,2|0,0:2|0:0,0:0:0:0:
154,122,117809,2,0,P|161:158|153:194,1,75,2|0,0:2|0:0,0:0:0:0:
186,294,118095,2,0,P|222:286|258:294,1,75,2|0,0:2|0:0,0:0:0:0:
320,340,118345,69,2,0:3:0:0:
380,295,118487,1,2,0:3:0:0:
357,224,118630,1,2,0:3:0:0:
282,224,118773,1,2,0:3:0:0:
259,294,118917,1,2,1:3:0:0:
256,192,118988,12,0,123488,0:0:0:0:
