osu file format v14

[General]
AudioFilename: HAVOX [NOFX].mp3
AudioLeadIn: 0
PreviewTime: 69060
Countdown: 0
SampleSet: Normal
StackLeniency: 0.2
Mode: 0
LetterboxInBreaks: 1
WidescreenStoryboard: 1

[Editor]
Bookmarks: 1210,8067,10352,18352,27488,32345,32417,32488,32560,32631,36345,36417,36488,36560,36638,45781,54924,60060,60131,60203,60274,60345,66345,66417,66488,66560,66631,69781,88067,106352,113210,118924,123488
DistanceSpacing: 1
BeatDivisor: 4
GridSize: 4
TimelineZoom: 1.500001

[Metadata]
Title:HAVOX
TitleUnicode:HAVOX
Artist:BlackY vs. Yooh
ArtistUnicode:BlackY vs. Yooh
Creator:Timorisu
Version:HAVOC
Source:SOUND VOLTEX III GRAVITY WARS
Tags:sdvx 3 havoc dubstep ktgster leader
BeatmapID:1294882
BeatmapSetID:352555

[Difficulty]
HPDrainRate:6
CircleSize:4.5
OverallDifficulty:9.5
ApproachRate:9.6
SliderMultiplier:1.6
SliderTickRate:1

[Events]
//Background and Video events
0,0,"bg.jpg",0,0
//Break Periods
//Storyboard Layer 0 (Background)
//Storyboard Layer 1 (Fail)
//Storyboard Layer 2 (Pass)
//Storyboard Layer 3 (Foreground)
//Storyboard Sound Samples

[TimingPoints]
1203,285.714285714286,4,2,0,10,1,0
9345,-100,4,2,0,20,0,0
9488,-100,4,2,0,30,0,0
9631,-100,4,2,0,40,0,0
9774,-100,4,2,0,50,0,0
10345,-100,4,1,0,75,0,0
27488,-133.333333333333,4,1,0,75,0,0
36631,-100,4,1,0,75,0,0
48060,-100,4,2,0,75,0,0
53631,-100,4,1,0,75,0,0
69203,-50,4,2,0,75,0,0
69774,-80,4,1,0,75,0,1
76345,-90.9090909090909,4,1,0,75,0,1
78345,-100,4,1,0,75,0,0
78917,-80,4,1,0,75,0,1
86917,-80,4,1,0,75,0,0
88060,-80,4,1,0,75,0,1
94917,-80.6451612903226,4,1,0,75,0,1
95203,-80,4,1,0,75,0,1
96774,-117.233294255569,4,1,0,75,0,1
97203,-80,4,1,0,75,0,0
97488,-80,4,1,0,75,0,1
103488,-100,4,1,0,75,0,1
103774,-100,4,1,0,65,0,1
104060,-133.333333333333,4,1,0,55,0,1
104345,-133.333333333333,4,1,0,45,0,1
104631,-200,4,1,0,35,0,1
104917,-200,4,1,0,25,0,1
106345,285.714285714286,6,1,0,75,1,0
106630,-89.2857142857143,6,1,0,75,0,0
107487,-100,6,1,0,75,0,0
108345,-89.2857142857143,6,1,0,75,0,0
109202,-100,6,1,0,75,0,0
110059,-89.2857142857143,6,1,0,75,0,0
110916,-100,6,1,0,75,0,0
111773,-89.2857142857143,6,1,0,75,0,0
112630,-100,6,1,0,75,0,0
113238,285.714285714286,6,2,0,75,1,0
114917,285.714285714286,6,2,0,75,1,0
114953,285.714285714286,6,2,0,75,1,0
116631,285.714285714286,6,2,0,75,1,0
116667,285.714285714286,6,2,0,75,1,0
118345,285.714285714286,4,2,0,75,1,0
118917,285.714285714286,4,2,0,75,1,0
124631,-80,4,2,0,75,0,0

[Colours]
Combo1 : 145,0,0
Combo2 : 211,211,211
Combo3 : 244,217,19
Combo4 : 0,121,255
Combo5 : 202,0,0
Combo6 : 124,124,124
Combo7 : 179,157,9
Combo8 : 0,75,159

[HitObjects]
353,160,9203,5,0,3:0:0:0:
353,160,9274,1,0,3:0:0:0:
353,160,9346,1,0,3:0:0:0:
353,160,9417,1,0,3:0:0:0:
353,160,9488,1,0,3:0:0:0:
353,160,9559,1,0,3:0:0:0:
353,160,9631,1,0,3:0:0:0:
353,160,9702,1,0,3:0:0:0:
353,160,9774,6,0,L|391:148,1,40,2|0,0:3|0:0,0:0:0:0:
316,274,9917,2,0,L|339:306,1,40,2|0,0:3|0:0,0:0:0:0:
196,274,10060,2,0,L|172:306,1,40,2|0,0:3|0:0,0:0:0:0:
158,160,10203,2,0,L|120:148,1,40,2|0,0:3|0:0,0:0:0:0:
256,89,10345,5,4,0:0:0:0:
256,108,10631,1,0,0:0:0:0:
256,123,10917,1,0,0:0:0:0:
216,247,11060,1,0,2:0:0:0:
320,170,11203,1,0,0:0:0:0:
191,170,11345,1,0,2:0:0:0:
296,247,11488,5,0,0:0:0:0:
296,247,11774,1,0,0:0:0:0:
416,132,11917,1,0,2:0:0:0:
256,89,12060,1,0,0:0:0:0:
256,89,12345,1,0,0:0:0:0:
456,292,12488,1,0,0:0:0:0:
256,89,12631,69,0,0:0:0:0:
256,108,12917,1,0,0:0:0:0:
256,123,13203,1,0,0:0:0:0:
216,247,13345,1,0,2:0:0:0:
352,212,13488,1,0,0:0:0:0:
312,336,13630,1,0,2:0:0:0:
256,123,13774,5,0,0:0:0:0:
256,123,14060,1,0,0:0:0:0:
100,280,14203,1,0,2:0:0:0:
312,336,14345,1,0,0:0:0:0:
222,246,14488,1,0,0:0:0:0:
222,246,14560,1,0,0:0:0:0:
222,246,14631,1,0,0:0:0:0:
100,280,14774,1,0,0:0:0:0:
256,123,14917,5,4,0:0:0:0:
256,97,15203,1,0,0:0:0:0:
256,72,15489,1,0,0:0:0:0:
384,208,15631,1,0,2:0:0:0:
256,344,15774,1,0,0:0:0:0:
128,208,15916,1,0,2:0:0:0:
256,72,16060,5,0,0:0:0:0:
256,72,16345,1,0,0:0:0:0:
128,208,16487,1,0,2:0:0:0:
384,208,16630,1,0,0:0:0:0:
384,208,16917,1,0,0:0:0:0:
256,72,17060,1,0,0:0:0:0:
128,208,17203,69,0,0:0:0:0:
96,185,17274,1,0,2:0:0:0:
77,151,17345,1,0,0:0:0:0:
77,111,17417,1,0,0:0:0:0:
96,76,17488,1,0,0:0:0:0:
360,132,17631,1,0,0:0:0:0:
256,312,17774,1,0,0:0:0:0:
152,132,17917,1,0,0:0:0:0:
417,76,18060,1,0,0:0:0:0:
436,111,18131,1,0,0:0:0:0:
436,151,18203,1,0,0:0:0:0:
417,185,18274,1,0,0:0:0:0:
385,207,18345,5,4,0:0:0:0:
152,132,18488,1,0,0:0:0:0:
256,312,18631,1,0,0:0:0:0:
256,312,18917,1,0,0:0:0:0:
417,76,19060,1,0,2:0:0:0:
128,208,19203,1,0,0:0:0:0:
385,207,19345,1,0,2:0:0:0:
96,76,19488,5,0,0:0:0:0:
96,76,19774,1,0,0:0:0:0:
132,384,19917,1,0,2:0:0:0:
385,207,20060,1,0,0:0:0:0:
385,207,20345,1,0,0:0:0:0:
132,384,20488,1,0,0:0:0:0:
96,76,20631,5,0,0:0:0:0:
385,207,20774,1,0,0:0:0:0:
116,232,20917,1,0,0:0:0:0:
116,232,21203,1,0,0:0:0:0:
385,207,21345,1,0,2:0:0:0:
96,76,21488,1,0,0:0:0:0:
132,384,21631,1,0,2:0:0:0:
240,136,21774,69,0,0:0:0:0:
240,136,22060,1,0,0:0:0:0:
132,384,22203,1,0,2:0:0:0:
385,207,22346,1,0,0:0:0:0:
116,232,22489,1,0,0:0:0:0:
116,232,22560,1,0,0:0:0:0:
116,232,22631,1,0,0:0:0:0:
396,364,22774,1,0,0:0:0:0:
396,364,22845,1,0,0:0:0:0:
396,364,22917,1,0,0:0:0:0:
240,136,23060,1,0,0:0:0:0:
240,136,23131,1,0,0:0:0:0:
240,136,23203,1,0,0:0:0:0:
240,136,23488,5,0,0:0:0:0:
116,232,23631,1,0,2:0:0:0:
320,376,23774,1,0,0:0:0:0:
368,228,23917,1,0,2:0:0:0:
168,380,24059,1,0,0:0:0:0:
168,380,24345,1,0,0:0:0:0:
320,376,24488,1,0,2:0:0:0:
240,136,24631,1,0,0:0:0:0:
240,136,24917,1,0,0:0:0:0:
116,232,25060,1,0,0:0:0:0:
368,228,25203,5,0,0:0:0:0:
236,132,25345,1,0,0:0:0:0:
240,136,25417,1,0,0:0:0:0:
244,140,25488,1,0,0:0:0:0:
112,228,25631,1,0,0:0:0:0:
116,232,25703,1,0,0:0:0:0:
120,236,25774,1,0,0:0:0:0:
164,376,25917,1,0,0:0:0:0:
168,380,25988,1,0,0:0:0:0:
172,384,26060,1,0,0:0:0:0:
316,372,26203,1,0,0:0:0:0:
320,376,26274,1,0,0:0:0:0:
324,380,26345,5,2,0:2:0:0:
432,192,26488,1,2,2:2:0:0:
256,52,26631,1,2,0:2:0:0:
144,240,26774,1,2,2:2:0:0:
368,240,26917,69,2,0:2:0:0:
256,52,27060,1,2,2:2:0:0:
80,192,27203,1,2,0:2:0:0:
190,377,27346,1,2,2:2:0:0:
432,192,27488,69,4,0:0:0:0:
432,192,27631,1,0,0:0:0:0:
432,192,27774,2,2,P|382:162|325:174,2,120.000004577637,2|10|2,0:0|0:0|0:0,0:0:0:0:
273,250,28488,2,2,P|234:206|236:148,1,120.000004577637,2|2,0:0|0:0,0:0:0:0:
365,255,28917,2,2,P|346:310|294:339,1,120.000004577637,2|10,0:0|0:0,0:0:0:0:
236,148,29345,1,2,0:3:0:0:
432,192,29488,1,2,0:3:0:0:
295,339,29631,1,2,0:3:0:0:
236,148,29774,5,0,0:0:0:0:
372,0,29917,1,0,0:0:0:0:
500,136,30060,2,0,P|515:167|500:248,2,120.000004577637,0|8|0,0:0|0:0|0:0,0:0:0:0:
339,268,30774,2,0,L|432:192,1,120.000004577637,0|0,0:0|0:0,0:0:0:0:
268,324,31203,2,0,P|249:268|268:212,1,120.000004577637,0|8,0:0|0:0,0:0:0:0:
328,26,31631,1,2,0:3:0:0:
170,140,31774,1,2,0:3:0:0:
364,140,31917,1,2,0:3:0:0:
208,26,32060,5,0,0:0:0:0:
444,52,32203,1,2,0:0:0:0:
268,211,32345,2,2,P|286:267|267:323,2,120.000004577637,0|10|2,0:0|0:0|0:0,0:0:0:0:
96,84,33060,2,2,P|77:140|96:196,1,120.000004577637,2|2,0:0|0:0,0:0:0:0:
416,196,33488,2,2,P|434:139|416:83,1,120.000004577637,2|10,0:0|0:0,0:0:0:0:
164,140,33917,1,2,0:3:0:0:
176,320,34060,1,2,0:3:0:0:
256,116,34203,1,2,0:3:0:0:
336,320,34345,69,0,0:0:0:0:
348,140,34488,1,0,0:0:0:0:
348,140,34560,1,0,0:0:0:0:
348,140,34631,1,0,0:0:0:0:
188,220,34774,1,0,0:0:0:0:
336,320,34917,2,0,P|390:342|447:327,1,120.000004577637,8|0,0:0|0:0,0:0:0:0:
296,232,35345,2,0,P|249:268|233:325,1,120.000004577637,0|0,0:0|0:0,0:0:0:0:
392,241,35774,2,0,P|383:182|342:140,1,120.000004577637,0|2,0:0|0:0,0:0:0:0:
152,172,36345,5,2,0:0:0:0:
296,232,36560,69,2,2:1:0:0:
296,232,36631,2,0,L|352:304,2,80,4|0|0,0:0|0:0|0:0,0:0:0:0:
132,24,37060,1,0,0:0:0:0:
132,24,37131,1,0,0:0:0:0:
132,24,37203,1,0,0:0:0:0:
152,172,37345,1,0,0:0:0:0:
32,268,37488,1,0,0:0:0:0:
296,232,37631,2,0,L|375:223,1,80,0|0,0:0|2:0,0:0:0:0:
152,172,37917,5,0,0:0:0:0:
152,172,37988,1,0,0:0:0:0:
152,172,38060,1,0,0:0:0:0:
176,323,38203,1,0,0:0:0:0:
275,77,38345,1,2,0:3:0:0:
13,112,38488,1,2,0:3:0:0:
295,232,38631,1,2,0:3:0:0:
308,269,38702,1,0,0:0:0:0:
338,296,38773,1,2,0:3:0:0:
376,305,38845,1,0,0:0:0:0:
414,295,38917,70,0,L|490:268,1,80,0|0,0:0|0:0,0:0:0:0:
488,148,39203,1,0,0:0:0:0:
295,232,39345,1,0,0:0:0:0:
295,232,39417,1,0,0:0:0:0:
295,232,39488,2,0,L|370:205,1,80,0|0,0:0|0:0,0:0:0:0:
368,84,39774,1,0,0:0:0:0:
175,168,39917,1,0,0:0:0:0:
175,168,39989,1,0,0:0:0:0:
175,168,40060,6,0,L|250:141,1,80,0|0,0:0|0:0,0:0:0:0:
248,20,40346,1,0,0:0:0:0:
368,84,40488,1,0,0:0:0:0:
488,148,40631,2,0,L|442:176,1,53.3333333333333,2|0,3:3|3:0,0:0:0:0:
256,296,40822,2,0,L|254:242,1,53.3333333333333,2|0,3:3|3:0,0:0:0:0:
248,20,41012,2,0,L|295:45,1,53.3333333333333,2|0,3:3|3:0,0:0:0:0:
293,360,41203,6,0,P|256:370|217:360,1,80,0|0,0:0|2:0,0:0:0:0:
424,153,41488,2,0,P|434:191|424:229,1,80,0|0,0:0|2:0,0:0:0:0:
218,23,41774,2,0,P|256:13|294:23,1,80,0|0,0:0|2:0,0:0:0:0:
87,230,42060,2,0,P|77:192|87:154,1,80,0|0,0:0|2:0,0:0:0:0:
256,103,42345,5,0,0:0:0:0:
344,192,42488,1,0,2:0:0:0:
168,192,42631,1,0,0:0:0:0:
256,280,42774,1,0,2:0:0:0:
256,103,42917,2,0,L|284:74,1,40,2|0,0:3|2:0,0:0:0:0:
344,192,43060,2,0,L|372:220,1,40,2|0,0:3|2:0,0:0:0:0:
256,280,43203,2,0,L|227:308,1,40,2|0,0:3|2:0,0:0:0:0:
168,192,43345,2,0,L|139:163,1,40,2|0,0:3|2:0,0:0:0:0:
256,103,43488,69,0,0:0:0:0:
271,91,43560,1,0,0:0:0:0:
288,80,43631,1,0,0:0:0:0:
307,73,43703,1,0,0:0:0:0:
326,69,43774,1,0,0:0:0:0:
346,67,43845,1,0,0:0:0:0:
366,69,43917,1,0,0:0:0:0:
385,75,43988,1,0,0:0:0:0:
404,84,44060,5,2,0:3:0:0:
414,122,44131,1,2,0:3:0:0:
425,161,44202,1,2,0:3:0:0:
435,199,44274,1,2,0:3:0:0:
476,224,44345,1,2,0:0:0:0:
465,262,44416,1,2,0:3:0:0:
454,301,44487,1,2,0:3:0:0:
444,339,44559,1,2,0:3:0:0:
404,364,44631,5,0,0:0:0:0:
385,355,44703,1,0,0:0:0:0:
366,349,44774,1,0,0:0:0:0:
346,347,44846,1,0,0:0:0:0:
326,349,44917,1,0,0:0:0:0:
307,353,44988,1,0,0:0:0:0:
288,360,45060,1,0,0:0:0:0:
271,371,45131,1,0,0:0:0:0:
256,383,45203,6,0,P|285:311|255:239,2,160,2|2|4,2:2|2:2|0:0,0:0:0:0:
0,312,46060,1,0,0:0:0:0:
304,104,46345,2,0,P|256:382|208:104,1,800,0|0,0:0|0:0,0:0:0:0:
207,104,48060,69,2,1:2:0:0:
171,123,48131,1,0,0:0:0:0:
142,151,48202,1,2,0:2:0:0:
123,185,48274,1,0,0:0:0:0:
113,224,48345,1,2,1:2:0:0:
115,264,48417,1,0,0:0:0:0:
127,302,48488,1,2,0:2:0:0:
150,335,48560,1,0,0:0:0:0:
180,360,48631,5,2,1:2:0:0:
184,340,48703,1,0,0:0:0:0:
192,322,48774,1,2,0:2:0:0:
204,306,48845,1,0,0:0:0:0:
219,293,48917,1,2,1:2:0:0:
237,284,48988,1,0,0:0:0:0:
256,280,49060,5,2,0:2:0:0:
303,279,49131,1,0,0:0:0:0:
339,249,49202,1,2,1:2:0:0:
350,203,49274,1,0,0:0:0:0:
329,161,49345,1,2,0:2:0:0:
287,140,49417,1,0,0:0:0:0:
244,119,49488,1,2,1:2:0:0:
224,76,49559,1,0,0:0:0:0:
234,30,49631,1,2,0:2:0:0:
271,0,49702,1,0,0:0:0:0:
318,0,49774,5,2,1:2:0:0:
327,38,49845,1,0,0:0:0:0:
354,67,49916,1,2,0:2:0:0:
392,79,49988,1,0,0:0:0:0:
431,72,50060,1,2,1:2:0:0:
451,72,50131,1,0,0:0:0:0:
470,76,50203,1,2,0:2:0:0:
488,86,50274,1,0,0:0:0:0:
504,100,50345,70,0,L|534:126,1,40,2|0,1:2|0:0,0:0:0:0:
428,284,50488,2,0,L|430:323,1,40,2|0,0:2|0:0,0:0:0:0:
256,352,50631,2,0,L|229:382,1,40,2|0,1:2|0:0,0:0:0:0:
84,284,50774,2,0,L|44:286,1,40,2|0,0:2|0:0,0:0:0:0:
8,99,50917,1,2,1:2:0:0:
39,75,50988,1,0,0:0:0:0:
78,66,51059,1,2,0:2:0:0:
117,74,51131,1,0,0:0:0:0:
149,97,51202,1,2,1:2:0:0:
181,119,51273,1,0,0:0:0:0:
220,127,51345,1,2,0:2:0:0:
259,118,51416,1,0,0:0:0:0:
290,94,51488,6,0,L|329:58,2,53.3333333333333,2|0|0,1:2|0:0|0:0,0:0:0:0:
80,176,51774,2,0,L|40:211,2,53.3333333333333,2|0|0,1:2|0:0|0:0,0:0:0:0:
344,152,52060,1,2,1:2:0:0:
358,138,52131,1,0,0:0:0:0:
373,124,52202,1,2,0:2:0:0:
388,111,52274,1,0,0:0:0:0:
402,97,52345,1,2,1:2:0:0:
417,84,52417,1,0,0:0:0:0:
432,70,52488,1,2,0:2:0:0:
446,57,52560,1,0,0:0:0:0:
461,43,52631,5,2,1:2:0:0:
496,200,52774,1,2,1:2:0:0:
344,152,52917,1,2,1:2:0:0:
344,152,52988,1,0,0:0:0:0:
344,152,53060,1,0,0:0:0:0:
378,309,53203,5,2,1:2:0:0:
339,313,53274,1,0,0:0:0:0:
299,306,53345,1,2,0:2:0:0:
263,290,53417,1,0,0:0:0:0:
232,266,53488,1,2,1:2:0:0:
198,110,53631,1,2,0:2:0:0:
237,105,53702,1,2,0:2:0:0:
277,112,53773,1,2,0:2:0:0:
313,128,53845,1,2,0:2:0:0:
344,152,53916,69,0,0:0:0:0:
232,266,54060,1,0,0:0:0:0:
80,216,54203,1,0,0:0:0:0:
144,12,54345,1,2,0:2:0:0:
183,4,54416,1,0,0:0:0:0:
223,2,54487,1,2,0:2:0:0:
263,5,54559,1,0,0:0:0:0:
302,14,54630,1,2,0:2:0:0:
339,27,54702,1,2,0:2:0:0:
375,46,54773,1,2,0:2:0:0:
407,69,54845,1,2,0:2:0:0:
437,96,54917,6,0,P|466:168|435:240,1,160,6|0,0:2|0:0,0:0:0:0:
256,352,55345,1,0,0:0:0:0:
76,240,55488,2,0,P|45:168|74:96,1,160,2|0,0:2|0:0,0:0:0:0:
256,28,55917,1,0,0:0:0:0:
172,264,56060,6,0,P|126:326|48:338,1,160,2|0,0:2|0:0,0:0:0:0:
463,338,56631,2,0,P|386:326|340:264,1,160,2|0,0:2|0:0,0:0:0:0:
256,28,57203,5,2,1:2:0:0:
132,240,57417,1,0,3:0:0:0:
380,240,57631,1,0,3:0:0:0:
132,97,57774,69,2,1:2:0:0:
256,312,57988,1,0,3:0:0:0:
378,98,58203,1,0,3:0:0:0:
132,240,58345,5,2,1:2:0:0:
380,240,58559,1,0,3:0:0:0:
256,28,58774,1,2,3:2:0:0:
256,28,59060,5,0,0:0:0:0:
380,240,59203,1,2,0:2:0:0:
132,97,59345,1,0,0:0:0:0:
256,312,59488,2,0,P|351:380|464:355,1,240,2|0,0:2|2:0,0:0:0:0:
376,192,60060,1,2,1:2:0:0:
348,172,60131,1,0,2:0:0:0:
316,192,60203,1,2,2:2:0:0:
288,172,60274,1,0,2:0:0:0:
256,192,60345,1,2,1:2:0:0:
228,172,60416,1,0,2:0:0:0:
196,192,60488,1,2,2:2:0:0:
168,172,60559,1,0,2:0:0:0:
136,192,60631,6,0,P|146:230|135:268,1,80,2|0,1:2|2:0,0:0:0:0:
256,312,60917,2,0,P|294:301|332:312,1,80,0|0,0:0|2:0,0:0:0:0:
376,192,61203,2,0,P|365:153|376:115,1,80,2|0,0:2|2:0,0:0:0:0:
256,72,61489,2,0,P|217:82|179:71,1,80,2|0,0:2|0:0,0:0:0:0:
72,228,61703,1,0,0:0:0:0:
72,228,61774,70,0,P|61:266|72:304,1,80,4|0,0:2|2:0,0:0:0:0:
292,376,62060,2,0,P|330:386|368:375,1,80,2|0,0:2|2:0,0:0:0:0:
440,156,62345,2,0,P|450:117|439:79,1,80,2|0,0:2|2:0,0:0:0:0:
220,8,62631,2,0,P|181:-2|143:8,1,80,2|0,0:2|0:0,0:0:0:0:
72,228,62845,1,0,0:0:0:0:
72,228,62917,6,0,P|61:266|72:304,1,80,4|0,0:2|2:0,0:0:0:0:
440,156,63203,2,0,P|450:117|439:79,1,80,2|0,0:2|2:0,0:0:0:0:
292,376,63488,2,0,P|330:386|368:375,1,80,2|0,0:2|2:0,0:0:0:0:
220,8,63774,2,0,P|181:-2|143:8,1,80,2|0,0:2|0:0,0:0:0:0:
72,228,63988,1,0,0:0:0:0:
72,228,64060,5,4,0:2:0:0:
292,376,64203,1,0,0:0:0:0:
80,204,64345,1,2,0:2:0:0:
356,264,64488,1,0,0:0:0:0:
80,180,64631,1,6,0:2:0:0:
356,120,64774,1,0,0:0:0:0:
72,156,64917,1,2,0:2:0:0:
292,8,65060,1,0,0:0:0:0:
72,156,65203,5,4,0:2:0:0:
372,0,65346,1,0,0:0:0:0:
80,180,65489,1,2,0:2:0:0:
436,116,65632,1,0,0:0:0:0:
80,204,65775,1,6,0:2:0:0:
436,268,65917,1,0,0:0:0:0:
72,228,66060,1,2,0:2:0:0:
372,384,66203,1,0,0:0:0:0:
72,228,66345,69,4,1:2:0:0:
43,176,66416,1,0,2:0:0:0:
46,116,66488,1,0,0:0:0:0:
80,68,66559,1,0,2:0:0:0:
135,45,66630,1,4,1:2:0:0:
193,54,66702,1,0,2:0:0:0:
238,93,66774,1,0,0:0:0:0:
255,150,66844,1,0,2:0:0:0:
240,206,66917,5,4,1:2:0:0:
224,264,66988,1,0,2:0:0:0:
241,320,67060,1,0,0:0:0:0:
286,359,67131,1,0,2:0:0:0:
345,369,67202,1,4,1:2:0:0:
399,345,67274,1,0,2:0:0:0:
433,296,67346,1,0,0:0:0:0:
436,237,67416,1,0,2:0:0:0:
407,188,67488,5,4,1:2:0:0:
366,146,67559,1,0,2:0:0:0:
366,89,67631,1,0,0:0:0:0:
407,46,67702,1,0,2:0:0:0:
466,46,67773,1,4,1:2:0:0:
507,88,67845,1,0,2:0:0:0:
508,146,67917,1,0,0:0:0:0:
467,188,67987,1,0,2:0:0:0:
407,188,68060,5,4,1:2:0:0:
366,146,68131,1,0,2:0:0:0:
313,122,68203,1,0,0:0:0:0:
254,116,68274,1,0,2:0:0:0:
195,129,68345,1,4,1:2:0:0:
145,162,68417,1,0,2:0:0:0:
109,209,68488,1,0,0:0:0:0:
90,266,68559,1,0,2:0:0:0:
91,325,68631,1,4,2:3:0:0:
91,325,69203,70,0,L|95:367,14,40,0|0|0|0|0|0|0|0|2|2|2|2|2|0|0,0:0|0:0|0:0|0:0|0:0|0:0|0:0|0:0|0:0|0:0|0:0|0:0|0:0|0:0|0:0,0:0:0:0:
91,325,69774,5,4,1:0:0:0:
68,88,69917,1,0,0:0:0:0:
288,184,70060,2,0,L|379:224,1,100,2|0,0:2|2:0,0:0:0:0:
132,240,70345,1,2,0:2:0:0:
108,2,70488,1,0,2:0:0:0:
328,98,70631,2,0,L|419:138,1,100,2|0,0:2|2:0,0:0:0:0:
60,288,70917,6,0,P|47:239|60:191,1,100,2|0,0:2|2:0,0:0:0:0:
304,240,71203,2,0,P|255:252|207:239,1,100,2|0,0:2|2:0,0:0:0:0:
451,191,71488,2,0,P|464:239|452:288,1,100,2|0,0:2|2:0,0:0:0:0:
60,288,71774,1,2,0:2:0:0:
140,52,71917,1,2,0:2:0:0:
304,240,72060,6,0,P|316:288|304:336,1,100,2|0,0:2|2:0,0:0:0:0:
68,100,72345,2,0,P|55:51|67:3,1,100,2|0,0:2|2:0,0:0:0:0:
116,288,72631,2,0,P|67:300|19:288,1,100,2|0,0:2|2:0,0:0:0:0:
256,51,72917,2,0,P|304:39|352:51,1,100,2|0,0:2|2:0,0:0:0:0:
180,226,73203,69,2,0:2:0:0:
256,51,73345,1,0,2:0:0:0:
304,240,73488,1,2,0:2:0:0:
157,110,73631,1,0,2:0:0:0:
342,129,73774,2,0,P|395:169|418:230,2,133.333333333333,2|0|0,0:2|0:0|0:0,0:0:0:0:
92,136,74345,5,4,0:0:0:0:
104,372,74488,1,0,2:0:0:0:
304,240,74631,2,0,L|383:179,1,100,2|0,0:2|2:0,0:0:0:0:
32,56,74917,1,2,0:2:0:0:
44,292,75060,1,0,2:0:0:0:
244,160,75203,2,0,L|323:99,1,100,2|0,0:2|2:0,0:0:0:0:
447,255,75488,6,0,P|459:303|447:351,1,100,2|0,0:2|2:0,0:0:0:0:
207,303,75774,2,0,B|255:291|255:291|304:304,1,100,2|0,0:2|2:0,0:0:0:0:
64,351,76060,2,0,P|52:303|64:255,1,100,2|0,0:2|2:0,0:0:0:0:
156,76,76345,5,2,0:2:0:0:
356,76,76488,1,2,0:2:0:0:
256,248,76631,2,0,L|210:322,1,88.000002685547,2|0,0:2|2:0,0:0:0:0:
256,18,76917,69,2,0:2:0:0:
355,191,77060,1,2,0:2:0:0:
157,190,77203,2,0,L|69:188,1,88.000002685547,2|0,0:2|2:0,0:0:0:0:
356,76,77488,5,2,0:2:0:0:
255,248,77631,1,2,0:2:0:0:
157,76,77774,2,0,L|114:0,1,88.000002685547,2|0,0:2|2:0,0:0:0:0:
69,188,78060,6,0,L|112:264,1,88.000002685547,0|0,0:2|2:0,0:0:0:0:
256,248,78274,1,0,0:0:0:0:
256,248,78345,6,0,L|282:201,1,53.3333333333333,2|0,0:2|0:0,0:0:0:0:
356,76,78536,2,0,L|302:75,1,53.3333333333333,2|0,0:2|0:0,0:0:0:0:
156,76,78726,2,0,L|182:122,1,53.3333333333333,2|0,0:2|0:0,0:0:0:0:
356,190,78917,69,4,0:0:0:0:
256,18,79060,1,0,2:0:0:0:
156,190,79203,2,0,L|107:277,1,100,2|0,0:2|2:0,0:0:0:0:
456,249,79488,1,2,0:2:0:0:
356,76,79631,1,0,2:0:0:0:
256,248,79774,2,0,L|207:335,1,100,2|0,0:2|2:0,0:0:0:0:
40,232,80060,6,0,P|28:280|41:327,1,100,2|0,0:2|2:0,0:0:0:0:
304,180,80346,2,0,P|255:168|207:181,1,100,2|0,0:2|2:0,0:0:0:0:
470,327,80631,2,0,P|483:280|472:232,1,100,2|0,0:2|2:0,0:0:0:0:
156,76,80917,1,2,0:2:0:0:
168,101,80988,1,0,0:0:0:0:
181,127,81059,1,2,0:2:0:0:
194,153,81131,1,0,0:0:0:0:
208,180,81203,6,0,P|219:228|206:275,1,100,2|0,0:2|2:0,0:0:0:0:
25,270,81488,2,0,P|60:235|108:223,1,100,2|0,0:2|2:0,0:0:0:0:
196,384,81774,2,0,P|148:369|113:334,1,100,2|0,0:2|2:0,0:0:0:0:
224,40,82060,6,0,P|272:50|309:83,1,100,2|0,0:2|2:0,0:0:0:0:
206,275,82345,2,0,P|194:226|207:179,1,100,2|0,0:2|2:0,0:0:0:0:
420,176,82631,2,0,P|384:210|336:222,1,100,2|0,0:2|2:0,0:0:0:0:
96,40,82917,69,2,0:2:0:0:
160,0,83012,1,0,0:0:0:0:
224,40,83107,1,0,0:0:0:0:
160,80,83203,1,2,0:2:0:0:
96,120,83298,1,0,0:0:0:0:
32,80,83393,1,0,0:0:0:0:
96,40,83488,5,2,0:2:0:0:
96,40,83583,1,0,2:0:0:0:
160,240,83774,1,2,0:2:0:0:
160,240,83869,1,0,2:0:0:0:
302,85,84060,1,2,0:2:0:0:
302,85,84155,1,0,2:0:0:0:
96,40,84345,1,2,0:2:0:0:
96,40,84440,1,0,2:0:0:0:
366,285,84631,5,2,0:2:0:0:
302,325,84726,1,0,2:0:0:0:
238,365,84821,1,0,2:0:0:0:
174,325,84917,1,2,0:2:0:0:
238,285,85012,1,0,2:0:0:0:
302,245,85107,1,0,1:0:0:0:
365,285,85203,6,0,P|372:220|328:174,2,133.333333333333,2|0|0,0:2|0:0|0:0,0:0:0:0:
318,99,85703,1,2,2:2:0:0:
318,99,85774,2,0,P|253:165|301:244,1,200,2|2,0:2|0:2,0:0:0:0:
388,128,86274,1,0,0:0:0:0:
328,174,86345,2,0,L|195:159,2,133.333333333333,2|0|0,1:2|1:0|1:0,0:0:0:0:
168,92,86917,6,0,P|125:150|152:216,1,150,2|0,1:2|0:0,0:0:0:0:
182,285,87203,2,0,P|223:225|196:159,1,150,2|0,1:2|0:0,0:0:0:0:
125,149,87488,53,2,1:2:0:0:
72,204,87583,1,2,2:2:0:0:
20,260,87679,1,2,1:2:0:0:
0,188,87774,53,2,2:2:0:0:
52,132,87870,1,2,1:2:0:0:
104,76,87965,1,2,2:2:0:0:
125,149,88060,69,4,0:0:0:0:
248,384,88203,1,0,2:0:0:0:
396,168,88345,2,0,L|450:84,1,100,2|0,0:2|2:0,0:0:0:0:
52,132,88631,1,2,0:2:0:0:
175,367,88774,1,0,2:0:0:0:
323,151,88917,2,0,L|377:67,1,100,2|0,0:2|2:0,0:0:0:0:
31,212,89203,6,0,P|19:259|30:307,1,100,2|0,0:2|2:0,0:0:0:0:
304,260,89489,2,0,B|256:248|256:248|207:261,1,100,2|0,0:2|2:0,0:0:0:0:
481,307,89774,2,0,P|492:259|480:212,1,100,2|0,0:2|2:0,0:0:0:0:
30,307,90060,1,2,0:2:0:0:
128,48,90203,1,2,0:2:0:0:
304,260,90345,6,0,P|316:308|304:356,1,100,2|0,0:2|2:0,0:0:0:0:
56,96,90631,2,0,P|44:48|56:0,1,100,2|0,0:2|2:0,0:0:0:0:
98,302,90917,2,0,P|50:314|2:302,1,100,2|0,0:2|2:0,0:0:0:0:
144,220,91131,1,2,2:2:0:0:
144,220,91203,2,0,P|178:255|191:303,1,100,2|0,0:2|2:0,0:0:0:0:
49,221,91417,1,2,2:2:0:0:
49,221,91488,70,0,P|62:173|97:137,1,100,2|0,0:2|2:0,0:0:0:0:
463,162,91774,2,0,P|449:210|414:246,1,100,2|0,0:2|2:0,0:0:0:0:
98,302,92060,1,2,0:2:0:0:
109,281,92131,1,0,3:0:0:0:
120,260,92202,1,0,3:0:0:0:
132,240,92274,1,0,3:0:0:0:
143,219,92345,1,2,3:2:0:0:
154,199,92417,1,0,3:0:0:0:
166,178,92488,1,0,3:0:0:0:
177,158,92559,1,0,3:0:0:0:
188,137,92631,5,4,0:0:0:0:
392,0,92774,1,0,2:0:0:0:
415,245,92917,2,0,L|424:344,1,100,2|0,0:2|2:0,0:0:0:0:
88,148,93203,1,2,0:2:0:0:
292,11,93346,1,0,2:0:0:0:
316,255,93489,2,0,L|325:354,1,100,2|0,0:2|2:0,0:0:0:0:
88,148,93774,6,0,P|70:101|33:68,1,100,2|0,0:2|2:0,0:0:0:0:
181,253,94060,2,0,P|229:261|276:245,1,100,2|0,0:2|2:0,0:0:0:0:
44,280,94345,2,0,P|12:318|2:366,1,100,2|0,0:2|2:0,0:0:0:0:
53,370,94559,1,0,0:0:0:0:
103,375,94631,2,0,B|171:381,2,66.6666666666667,2|0|0,0:2|0:0|0:0,0:0:0:0:
2,366,94917,6,0,B|11:318|11:318|44:280,1,99.1999960644533,2|0,0:2|2:0,0:0:0:0:
277,245,95203,2,0,B|229:263|229:263|182:253,1,100,2|2,0:2|2:2,0:0:0:0:
33,68,95488,2,0,L|-21:-10,2,66.6666666666667,2|2|2,0:2|2:2|2:2,0:0:0:0:
87,147,95773,1,2,0:2:0:0:
2,366,95917,1,2,0:2:0:0:
277,245,96060,69,2,0:2:0:0:
33,68,96203,1,0,2:0:0:0:
33,68,96274,1,0,2:0:0:0:
33,68,96345,1,2,0:2:0:0:
277,245,96488,1,0,2:0:0:0:
2,366,96631,1,2,0:2:0:0:
33,68,96774,1,0,2:0:0:0:
66,73,96845,1,0,2:0:0:0:
100,78,96916,1,0,0:0:0:0:
134,84,96988,1,0,2:0:0:0:
167,89,97059,1,0,2:0:0:0:
201,95,97131,1,0,2:0:0:0:
235,100,97203,1,4,0:0:0:0:
217,335,97488,6,0,B|205:286|205:286|218:239,1,100,2|0,0:2|2:0,0:0:0:0:
431,236,97774,2,0,B|395:270|395:270|346:281,1,100,2|0,0:2|2:0,0:0:0:0:
235,100,98060,2,0,B|283:110|283:110|321:143,1,100,2|0,0:2|2:0,0:0:0:0:
148,384,98345,6,0,P|136:335|149:288,1,100,2|0,0:2|2:0,0:0:0:0:
507,271,98631,2,0,P|470:305|423:318,1,100,2|0,0:2|2:0,0:0:0:0:
227,15,98917,2,0,P|275:29|309:63,1,100,2|0,0:2|2:0,0:0:0:0:
423,318,99203,1,2,0:2:0:0:
149,288,99345,1,2,0:2:0:0:
310,64,99488,5,2,0:2:0:0:
310,64,99774,1,0,0:0:0:0:
310,64,100060,2,0,P|275:29|228:16,1,100,2|0,0:2|2:0,0:0:0:0:
148,288,100345,2,0,P|135:336|148:384,1,100,2|0,0:2|2:0,0:0:0:0:
423,318,100631,2,0,P|471:305|507:271,1,100,2|0,0:2|2:0,0:0:0:0:
310,64,100917,2,0,P|275:29|228:16,1,100,0|0,0:0|2:0,0:0:0:0:
148,288,101203,69,2,0:2:0:0:
204,292,101298,1,2,2:0:0:0:
260,296,101393,1,2,0:2:0:0:
304,332,101488,1,2,0:2:0:0:
360,328,101583,1,0,2:0:0:0:
416,324,101678,1,2,0:2:0:0:
459,287,101774,6,0,P|471:238|458:191,1,100,0|0,0:2|2:0,0:0:0:0:
52,97,102060,2,0,P|40:144|53:192,1,100,2|0,0:2|2:0,0:0:0:0:
352,8,102345,2,0,P|305:-4|257:8,1,100,2|0,0:2|2:0,0:0:0:0:
160,376,102631,2,0,P|209:388|256:375,1,100,2|0,0:2|2:0,0:0:0:0:
459,287,102917,1,2,0:2:0:0:
54,193,103060,1,0,0:0:0:0:
458,191,103203,1,2,0:2:0:0:
52,97,103345,1,0,0:0:0:0:
458,191,103488,5,2,1:2:0:0:
438,225,103559,1,0,0:0:0:0:
409,253,103630,1,0,0:0:0:0:
373,269,103702,1,2,0:2:0:0:
334,274,103773,1,0,1:0:0:0:
294,267,103845,1,0,0:0:0:0:
260,247,103916,1,2,0:2:0:0:
233,218,103987,1,0,0:0:0:0:
216,182,104059,5,6,1:2:0:0:
206,154,104131,1,0,0:0:0:0:
186,131,104202,1,0,0:0:0:0:
160,117,104274,1,0,0:0:0:0:
130,114,104345,1,0,1:0:0:0:
101,121,104417,1,0,0:0:0:0:
77,138,104488,1,0,0:0:0:0:
60,163,104559,1,0,0:0:0:0:
54,192,104631,69,2,1:2:0:0:
58,212,104702,1,0,0:0:0:0:
63,231,104773,1,0,0:0:0:0:
68,250,104845,1,0,0:0:0:0:
92,272,104917,1,2,1:2:0:0:
87,291,104988,1,0,0:0:0:0:
82,310,105059,1,0,0:0:0:0:
77,330,105131,1,0,0:0:0:0:
54,351,105203,1,2,0:2:0:0:
54,351,105774,5,2,1:2:0:0:
77,330,105846,1,0,0:0:0:0:
82,310,105918,1,2,0:2:0:0:
87,291,105989,1,0,0:0:0:0:
92,272,106060,1,2,0:2:0:0:
68,250,106132,1,0,0:0:0:0:
63,231,106204,1,2,0:2:0:0:
58,212,106275,1,0,0:0:0:0:
54,192,106346,1,4,0:0:0:0:
0,127,106630,6,0,P|55:108|109:129,1,120,2|0,0:2|2:0,0:0:0:0:
128,164,106916,2,0,L|172:52,1,120,2|0,0:2|2:0,0:0:0:0:
193,90,107202,1,0,0:0:0:0:
226,118,107297,1,0,0:0:0:0:
268,133,107392,1,0,0:0:0:0:
312,132,107487,2,0,L|274:231,1,106.666666666667,2|2,0:2|0:2,0:0:0:0:
458,199,107868,2,0,L|496:100,1,106.666666666667,2|2,0:2|0:2,0:0:0:0:
511,256,108345,6,0,P|456:275|402:254,1,120,2|0,0:2|2:0,0:0:0:0:
384,220,108630,2,0,L|340:332,1,120,2|0,0:2|2:0,0:0:0:0:
319,294,108916,1,0,0:0:0:0:
286,266,109011,1,0,0:0:0:0:
244,251,109106,1,0,0:0:0:0:
200,252,109202,2,0,L|238:153,1,106.666666666667,2|2,0:2|0:2,0:0:0:0:
54,185,109583,2,0,L|16:284,1,106.666666666667,2|2,0:2|0:2,0:0:0:0:
0,127,110059,70,0,P|55:108|109:129,1,120,2|0,0:2|2:0,0:0:0:0:
128,164,110345,2,0,L|172:52,1,120,2|0,0:2|2:0,0:0:0:0:
193,90,110630,1,0,0:0:0:0:
226,118,110725,1,0,0:0:0:0:
268,133,110821,1,0,0:0:0:0:
312,132,110916,2,0,L|274:231,1,106.666666666667,2|2,0:2|0:2,0:0:0:0:
458,199,111297,2,0,L|496:100,1,106.666666666667,2|2,0:2|0:2,0:0:0:0:
511,256,111773,6,0,P|456:275|402:254,1,120,2|0,0:2|2:0,0:0:0:0:
384,220,112059,2,0,L|340:332,1,120,2|0,0:2|2:0,0:0:0:0:
319,294,112345,1,0,0:0:0:0:
286,266,112440,1,0,0:0:0:0:
244,251,112535,1,0,0:0:0:0:
200,252,112630,2,0,L|238:153,1,106.666666666667,2|2,0:2|0:2,0:0:0:0:
54,185,113011,2,0,L|16:284,1,106.666666666667,2|6,0:2|0:2,0:0:0:0:
15,284,113523,5,2,0:0:0:0:
28,251,113618,1,2,0:0:0:0:
41,218,113714,1,2,0:0:0:0:
54,184,113809,2,0,P|64:146|54:108,1,80,2|2,0:0|0:0,0:0:0:0:
368,240,114095,2,0,P|357:278|367:316,1,80,2|2,0:0|0:0,0:0:0:0:
144,144,114380,2,0,P|154:105|144:67,1,80,2|2,0:0|0:0,0:0:0:0:
457,199,114666,2,0,P|447:237|457:275,1,80,2|2,0:0|0:0,0:0:0:0:
234,104,114917,1,6,1:2:0:0:
234,104,115238,5,2,0:0:0:0:
241,122,115310,1,2,0:0:0:0:
244,142,115381,1,2,0:0:0:0:
241,162,115453,1,2,0:0:0:0:
234,180,115524,2,0,P|213:213|179:233,1,80,2|2,0:0|0:0,0:0:0:0:
54,108,115810,2,0,P|74:74|108:54,1,80,2|2,0:0|0:0,0:0:0:0:
324,216,116095,2,0,P|303:249|269:269,1,80,2|2,0:0|0:0,0:0:0:0:
144,144,116381,2,0,P|164:110|198:90,1,80,2|2,0:0|0:0,0:0:0:0:
414,252,116631,1,6,1:2:0:0:
414,251,116952,69,2,0:0:0:0:
419,222,117024,1,2,0:0:0:0:
416,192,117095,1,2,0:0:0:0:
404,165,117167,1,2,0:0:0:0:
385,142,117238,2,0,P|368:106|366:66,1,80,2|2,0:0|0:0,0:0:0:0:
126,241,117524,2,0,P|143:277|145:317,1,80,2|2,0:0|0:0,0:0:0:0:
206,62,117809,2,0,P|170:79|130:81,1,80,2|2,0:0|0:0,0:0:0:0:
305,321,118095,2,0,P|341:304|381:302,1,80,2|2,0:0|0:0,0:0:0:0:
256,117,118345,5,2,0:3:0:0:
212,252,118487,1,2,0:3:0:0:
327,168,118630,1,2,0:3:0:0:
184,168,118773,1,2,0:3:0:0:
300,252,118917,1,14,0:3:0:0:
256,192,118988,12,0,123488,0:0:0:0:
