osu file format v14

[General]
AudioFilename: HAVOX [NOFX].mp3
AudioLeadIn: 0
PreviewTime: 69060
Countdown: 0
SampleSet: Normal
StackLeniency: 0.3
Mode: 0
LetterboxInBreaks: 1
WidescreenStoryboard: 1

[Editor]
Bookmarks: 1210,8067,10352,18352,27488,36638,45781,54924,69781,88067,106352,113210,118924,123488
DistanceSpacing: 1
BeatDivisor: 4
GridSize: 4
TimelineZoom: 1.2

[Metadata]
Title:HAVOX
TitleUnicode:HAVOX
Artist:BlackY vs. Yooh
ArtistUnicode:BlackY vs. Yooh
Creator:Timorisu
Version:BEGINNER
Source:SOUND VOLTEX III GRAVITY WARS
Tags:sdvx 3 havoc dubstep ktgster leader
BeatmapID:776902
BeatmapSetID:352555

[Difficulty]
HPDrainRate:3
CircleSize:3
OverallDifficulty:3
ApproachRate:3
SliderMultiplier:0.6
SliderTickRate:1

[Events]
//Background and Video events
0,0,"bg.jpg",0,0
//Break Periods
//Storyboard Layer 0 (Background)
//Storyboard Layer 1 (Fail)
//Storyboard Layer 2 (Pass)
//Storyboard Layer 3 (Foreground)
//Storyboard Sound Samples

[TimingPoints]
1203,285.714285714286,4,2,0,10,1,0
9774,-100,4,2,0,50,0,0
10345,-100,4,1,0,75,0,0
48060,-100,4,2,0,75,0,0
53631,-100,4,1,0,75,0,0
69774,-100,4,1,0,75,0,1
78345,-100,4,1,0,75,0,0
78917,-100,4,1,0,75,0,1
86917,-100,4,1,0,75,0,0
88060,-100,4,1,0,75,0,1
97203,-100,4,1,0,75,0,0
97488,-100,4,1,0,75,0,1
103488,-100,4,1,0,75,0,1
103774,-100,4,1,0,65,0,1
104060,-100,4,1,0,55,0,1
104345,-100,4,1,0,45,0,1
104631,-100,4,1,0,35,0,1
104917,-100,4,1,0,25,0,1
106345,285.714285714286,6,2,0,75,1,0
113238,285.714285714286,6,2,0,75,1,0
114917,285.714285714286,6,2,0,75,1,0
114953,285.714285714286,6,2,0,75,1,0
116631,285.714285714286,6,2,0,75,1,0
116667,285.714285714286,6,2,0,75,1,0
118345,285.714285714286,4,2,0,75,1,0
118917,285.714285714286,4,2,0,75,1,0

[Colours]
Combo1 : 145,0,0
Combo2 : 211,211,211
Combo3 : 244,217,19
Combo4 : 0,121,255
Combo5 : 202,0,0
Combo6 : 124,124,124
Combo7 : 179,157,9
Combo8 : 0,75,159

[HitObjects]
308,144,10345,6,0,P|325:200|307:256,1,120.000001192093,4|0,0:0|0:0,0:0:0:0:
204,200,11488,2,0,P|186:143|204:87,1,120.000001192093,2|2,0:2|0:2,0:0:0:0:
308,28,12631,1,0,0:0:0:0:
484,192,13774,1,0,0:0:0:0:
308,356,14917,6,0,P|251:373|195:355,1,120.000001192093,0|0,0:0|0:0,0:0:0:0:
252,252,16060,2,0,P|308:234|364:252,1,120.000001192093
428,351,17203,2,0,P|482:250|424:151,1,240.000002384186,2|4,0:2|0:0,0:0:0:0:
304,148,18917,5,0,0:0:0:0:
364,251,19488,2,0,P|308:269|250:256,1,120.000001192093,2|2,0:2|0:2,0:0:0:0:
189,152,20631,2,0,P|246:134|304:148,1,120.000001192093,0|0,0:0|0:0,0:0:0:0:
424,148,21774,1,0,0:0:0:0:
256,320,22917,5,0,0:0:0:0:
16,320,24060,1,2,0:2:0:0:
184,148,25203,2,0,L|268:62,1,120.000001192093,2|2,0:2|0:2,0:0:0:0:
388,64,26345,2,0,L|303:149,1,120.000001192093,2|0,0:2|0:0,0:0:0:0:
244,252,27488,5,4,0:0:0:0:
183,148,28060,2,2,P|124:246|175:350,1,240.000002384186,10|10,0:0|0:0,0:0:0:0:
244,252,29774,1,0,0:0:0:0:
304,148,30345,2,0,P|363:246|312:350,1,240.000002384186,8|8,0:0|0:0,0:0:0:0:
244,252,32060,5,0,0:0:0:0:
136,308,32631,2,2,B|99:251|119:178|152:211|172:138|136:82,1,240.000002384186,10|10,0:0|0:0,0:0:0:0:
256,68,34345,1,0,0:0:0:0:
376,82,34917,2,0,B|339:138|359:211|392:178|412:251|376:308,1,240.000002384186,8|2,0:0|0:0,0:0:0:0:
256,300,36631,70,0,P|199:315|141:299,1,120.000001192093,4|0,0:0|0:0,0:0:0:0:
148,192,37774,2,0,P|132:135|148:77,1,120.000001192093,0|2,0:0|0:3,0:0:0:0:
256,83,38917,2,0,B|313:68|313:68|370:84,1,120.000001192093,0|0,0:0|0:0,0:0:0:0:
364,192,40060,2,0,B|379:249|379:249|363:306,1,120.000001192093,0|0,0:0|0:0,0:0:0:0:
256,300,41203,5,0,0:0:0:0:
149,77,42345,1,0,0:0:0:0:
364,192,43488,2,0,B|384:214|384:214|394:242|394:242|391:272|391:272|376:298|376:298|352:315|352:315|323:321|323:321|293:315|293:315|270:297|270:297|256:271|256:271|252:241|252:241|263:214|263:214|285:191,1,360,0|2,0:0|0:2,0:0:0:0:
208,92,45774,69,4,0:0:0:0:
140,192,46345,2,0,P|99:321|59:191,1,360,0|2,0:0|1:2,0:0:0:0:
144,108,48631,1,2,1:2:0:0:
256,64,49203,1,2,1:2:0:0:
368,108,49774,1,2,1:2:0:0:
460,192,50345,6,0,P|474:249|458:306,1,120.000001192093,2|2,1:2|1:2,0:0:0:0:
356,248,51488,2,0,P|299:233|241:249,1,120.000001192093,2|2,1:2|1:2,0:0:0:0:
140,308,52631,2,0,P|123:250|138:193,1,120.000001192093,2|2,1:2|1:2,0:0:0:0:
241,249,53774,2,0,P|298:264|356:248,1,120.000001192093,2|2,0:2|0:2,0:0:0:0:
448,172,54917,5,6,0:2:0:0:
256,28,56060,1,2,0:2:0:0:
64,172,57203,2,0,P|49:228|65:286,1,120.000001192093,2|2,0:2|0:2,0:0:0:0:
172,344,58345,6,0,P|187:288|171:230,1,120.000001192093,2|0,0:2|0:0,0:0:0:0:
256,144,59488,1,2,0:2:0:0:
341,229,60060,2,0,P|325:286|340:344,1,120.000001192093,2|2,1:2|1:2,0:0:0:0:
448,288,61203,1,2,0:2:0:0:
256,192,61774,12,0,68631,0:0:0:0:
256,312,69774,70,0,P|199:327|141:311,1,120.000001192093,4|2,0:0|0:2,0:0:0:0:
136,192,70917,2,0,P|121:135|137:77,1,120.000001192093,2|2,0:2|0:2,0:0:0:0:
256,72,72060,2,0,P|313:57|371:73,1,120.000001192093,2|2,0:2|0:2,0:0:0:0:
376,191,73203,2,0,P|391:248|375:306,1,120.000001192093,2|2,0:2|0:2,0:0:0:0:
276,244,74345,6,0,P|219:228|176:185,1,120.000001192093,4|2,0:0|0:2,0:0:0:0:
280,120,75488,2,0,P|324:81|384:71,1,120.000001192093,2|2,0:2|0:2,0:0:0:0:
376,192,76631,2,0,P|390:249|375:306,2,120.000001192093,2|2|2,0:2|0:2|0:2,0:0:0:0:
256,192,78345,1,0,0:0:0:0:
135,192,78917,6,0,P|121:249|136:306,1,120.000001192093,4|2,0:0|0:2,0:0:0:0:
256,312,80060,2,0,P|313:326|370:311,1,120.000001192093,2|2,0:2|0:2,0:0:0:0:
376,191,81203,2,0,P|390:134|375:77,1,120.000001192093,2|2,0:2|0:2,0:0:0:0:
255,71,82346,2,0,P|198:57|141:72,1,120.000001192093,2|0,0:2|0:0,0:0:0:0:
80,172,83488,5,2,0:2:0:0:
140,276,84060,1,0,0:0:0:0:
200,172,84631,2,0,P|257:156|314:171,1,120.000001192093,2|0,0:2|0:0,0:0:0:0:
436,176,85774,2,0,P|421:233|379:275,1,120.000001192093,2|0,0:2|0:0,0:0:0:0:
316,380,86917,2,0,B|273:338|273:338|258:281,1,120.000001192093,2|2,1:2|1:2,0:0:0:0:
128,192,88060,70,0,P|113:135|129:77,1,120.000001192093,4|2,0:0|0:2,0:0:0:0:
232,136,89203,2,0,P|289:121|347:137,1,120.000001192093,2|2,0:2|0:2,0:0:0:0:
452,80,90345,2,0,P|467:137|451:195,1,120.000001192093,2|2,0:2|0:2,0:0:0:0:
508,304,91489,2,0,P|451:319|393:303,1,120.000001192093,2|2,0:2|0:2,0:0:0:0:
328,200,92631,6,0,P|270:184|213:199,1,120.000001192093,4|2,0:0|0:2,0:0:0:0:
180,88,93774,2,0,P|128:117|98:168,1,120.000001192093,2|2,0:2|0:2,0:0:0:0:
0,108,94917,2,0,P|-15:165|0:222,1,120.000001192093,2|2,0:2|0:2,0:0:0:0:
97,282,96060,2,0,P|113:225|98:168,2,120.000001192093,2|2|4,0:2|0:2|0:0,0:0:0:0:
0,222,97774,5,2,0:2:0:0:
0,108,98345,2,0,P|43:67|100:53,1,120.000001192093,2|2,0:2|0:2,0:0:0:0:
204,112,99488,2,0,P|217:169|200:225,1,120.000001192093,2|2,0:2|0:2,0:0:0:0:
100,292,100631,2,0,P|43:275|3:232,1,120.000001192093,2|2,0:2|0:2,0:0:0:0:
256,192,101774,12,2,105203,0:2:0:0:
256,100,106345,6,0,L|256:40,2,60.0000005960464,4|2|2,0:0|0:2|0:2,0:0:0:0:
380,304,108059,2,0,L|422:346,2,60.0000005960464,2|2|2,0:2|0:2|0:2,0:0:0:0:
132,304,109773,2,0,L|89:346,2,60.0000005960464,2|2|2,0:2|0:2|0:2,0:0:0:0:
256,100,111487,2,0,L|256:40,2,60.0000005960464,2|2|2,0:2|0:2|0:2,0:0:0:0:
363,316,113202,70,0,P|255:360|147:315,1,240,6|0,1:2|0:0,0:0:0:0:
148,196,114917,2,0,P|256:151|364:196,1,240.000002384186,6|0,1:2|0:0,0:0:0:0:
363,316,116631,2,0,P|255:360|147:315,1,240.000002384186,6|0,1:2|0:0,0:0:0:0:
148,196,118345,69,2,0:3:0:0:
44,256,118917,1,2,1:3:0:0:
256,192,119488,12,0,123488,0:0:0:0:
