osu file format v14

[General]
AudioFilename: HAVOX [NOFX].mp3
AudioLeadIn: 0
PreviewTime: 69060
Countdown: 0
SampleSet: Normal
StackLeniency: 0.3
Mode: 0
LetterboxInBreaks: 1
WidescreenStoryboard: 1

[Editor]
Bookmarks: 1210,8067,10352,18352,27488,36638,45781,54924,69781,88067,106352,113210,118924,123488
DistanceSpacing: 1
BeatDivisor: 4
GridSize: 4
TimelineZoom: 1.2

[Metadata]
Title:HAVOX
TitleUnicode:HAVOX
Artist:BlackY vs. Yooh
ArtistUnicode:BlackY vs. Yooh
Creator:Timorisu
Version:BASIC
Source:SOUND VOLTEX III GRAVITY WARS
Tags:sdvx 3 havoc dubstep ktgster leader
BeatmapID:776901
BeatmapSetID:352555

[Difficulty]
HPDrainRate:4
CircleSize:3.5
OverallDifficulty:4
ApproachRate:5
SliderMultiplier:0.8
SliderTickRate:1

[Events]
//Background and Video events
0,0,"bg.jpg",0,0
//Break Periods
//Storyboard Layer 0 (Background)
//Storyboard Layer 1 (Fail)
//Storyboard Layer 2 (Pass)
//Storyboard Layer 3 (Foreground)
//Storyboard Sound Samples

[TimingPoints]
1203,285.714285714286,4,2,0,10,1,0
9774,-100,4,2,0,50,0,0
10345,-100,4,1,0,75,0,0
48060,-100,4,2,0,75,0,0
53631,-100,4,1,0,75,0,0
69774,-100,4,1,0,75,0,1
78345,-100,4,1,0,75,0,0
78917,-100,4,1,0,75,0,1
86917,-100,4,1,0,75,0,0
88060,-100,4,1,0,75,0,1
97203,-100,4,1,0,75,0,0
97488,-100,4,1,0,75,0,1
103488,-100,4,1,0,75,0,1
103774,-100,4,1,0,65,0,1
104060,-100,4,1,0,55,0,1
104345,-100,4,1,0,45,0,1
104631,-100,4,1,0,35,0,1
104917,-100,4,1,0,25,0,1
106345,285.714285714286,6,2,0,75,1,0
113202,-133.333333333333,4,2,0,75,0,0
113238,285.714285714286,6,2,0,75,1,0
114917,285.714285714286,6,2,0,75,1,0
114917,-133.333333333333,4,2,0,75,0,0
114953,285.714285714286,6,2,0,75,1,0
116631,285.714285714286,6,2,0,75,1,0
116631,-133.333333333333,4,2,0,75,0,0
116667,285.714285714286,6,2,0,75,1,0
118345,285.714285714286,4,2,0,75,1,0
118345,-133.333333333333,4,2,0,75,0,0
118917,285.714285714286,4,2,0,75,1,0

[Colours]
Combo1 : 145,0,0
Combo2 : 211,211,211
Combo3 : 244,217,19
Combo4 : 0,121,255
Combo5 : 202,0,0
Combo6 : 124,124,124
Combo7 : 179,157,9
Combo8 : 0,75,159

[HitObjects]
256,192,9774,6,0,L|296:192,2,40,0|0|0,3:0|0:0|0:0,0:0:0:0:
183,231,10345,6,0,P|172:193|182:155,1,80,4|0,0:0|0:0,0:0:0:0:
248,112,10917,2,0,P|257:73|246:35,1,80
176,76,11488,2,0,L|17:81,2,160,2|2|0,0:2|0:2|0:0,0:0:0:0:
246,35,12917,5,0,0:0:0:0:
248,112,13203,2,0,L|252:200,1,80,0|0,0:0|0:0,0:0:0:0:
332,200,13774,2,0,L|328:120,1,80,0|0,0:0|0:0,0:0:0:0:
408,128,14345,2,0,L|411:207,1,80,2|2,0:2|0:2,0:0:0:0:
415,288,14917,6,0,P|376:354|300:356,2,160,0|0|2,0:0|0:0|0:2,0:0:0:0:
412,208,16345,1,0,0:0:0:0:
408,128,16631,1,2,0:2:0:0:
340,172,16917,1,0,0:0:0:0:
272,216,17203,70,0,L|205:260,1,80,2|2,0:2|0:2,0:0:0:0:
159,194,17774,2,0,L|225:149,1,80,2|2,0:2|0:2,0:0:0:0:
304,136,18345,6,0,P|336:159|354:194,1,80,4|0,0:0|0:0,0:0:0:0:
324,268,18917,2,0,P|292:245|274:210,1,80
226,146,19488,2,0,P|252:74|327:59,1,160,2|2,0:2|0:2,0:0:0:0:
304,136,20345,1,0,0:0:0:0:
384,120,20631,5,0,0:0:0:0:
462,111,20917,2,0,P|433:182|357:196,1,160
304,136,21774,1,0,0:0:0:0:
249,78,22060,2,0,P|173:93|144:164,1,160,0|2,0:0|0:2,0:0:0:0:
148,244,22917,6,0,L|150:323,1,80,0|0,0:0|0:0,0:0:0:0:
232,332,23488,2,0,L|229:252,1,80,0|0,0:0|0:0,0:0:0:0:
225,172,24060,2,0,P|251:100|326:82,1,160,2|2,0:2|0:2,0:0:0:0:
404,92,24917,1,0,0:0:0:0:
356,156,25203,70,0,L|308:220,1,80,2|2,0:2|0:2,0:0:0:0:
256,160,25774,2,0,L|208:224,1,80,2|2,0:2|0:2,0:0:0:0:
256,288,26345,2,0,B|207:329|136:295|151:280|80:246|31:288,1,240,2|2,0:2|0:2,0:0:0:0:
0,210,27488,70,2,P|-4:134|56:88,1,160,4|10,0:0|0:0,0:0:0:0:
68,168,28345,2,2,L|214:231,1,160
228,310,29203,2,0,P|288:264|281:187,2,160,10|0|8,0:0|0:0|0:0,0:0:0:0:
214,231,30631,2,0,P|207:154|266:104,2,160,0|0|2,0:0|0:0|0:3,0:0:0:0:
288,188,32060,6,2,L|427:109,1,160,0|10,0:0|0:0,0:0:0:0:
506,123,32917,2,2,P|483:50|408:29,1,160
340,68,33774,2,0,L|200:146,2,160,10|0|8,0:0|0:0|0:0,0:0:0:0:
408,28,35203,2,2,P|483:50|506:123,1,160,0|0,0:0|0:0,0:0:0:0:
500,204,36060,1,2,0:0:0:0:
490,283,36345,1,2,0:0:0:0:
412,276,36631,70,0,L|420:196,1,80,4|0,0:0|0:0,0:0:0:0:
428,116,37203,1,0,0:0:0:0:
356,148,37488,2,0,B|319:168|274:152|284:142|236:127|202:148,1,160,0|0,0:0|0:0,0:0:0:0:
128,184,38345,2,0,L|55:218,1,80,2|2,0:3|0:3,0:0:0:0:
8,284,38917,70,0,L|42:356,1,80
120,380,39488,2,0,L|192:345,1,80,0|0,0:0|0:0,0:0:0:0:
240,279,40060,2,0,L|205:206,1,80
252,140,40631,1,2,0:3:0:0:
428,120,41203,6,0,L|462:192,1,80
496,264,41774,2,0,L|423:298,1,80,0|0,0:0|0:0,0:0:0:0:
352,332,42345,2,0,L|317:259,1,80,0|0,0:0|0:0,0:0:0:0:
284,188,42917,2,0,L|356:153,1,80,2|2,0:3|0:3,0:0:0:0:
396,84,43488,6,0,B|359:63|314:79|324:89|276:104|242:84,1,160,0|2,0:0|0:3,0:0:0:0:
120,12,44631,2,0,B|154:32|201:17|191:8|236:-8|273:12,1,160,0|2,0:0|0:2,0:0:0:0:
216,160,45774,5,4,0:0:0:0:
255,228,46060,1,0,0:0:0:0:
175,228,46345,2,0,P|256:372|336:228,1,400
300,156,48060,70,0,L|260:86,1,80,2|2,1:2|1:2,0:0:0:0:
203,143,48631,2,0,L|163:73,1,80,2|2,1:2|1:2,0:0:0:0:
93,112,49203,2,0,L|132:181,1,80,2|2,1:2|1:2,0:0:0:0:
57,204,49774,2,0,L|96:273,1,80,2|2,1:2|1:2,0:0:0:0:
57,344,50345,6,0,P|133:343|176:279,1,160,2|2,1:2|1:2,0:0:0:0:
256,268,51203,1,2,1:2:0:0:
335,279,51488,2,0,P|378:343|455:344,1,160,2|2,1:2|1:2,0:0:0:0:
464,184,52631,6,0,L|466:104,1,80,2|2,1:2|1:2,0:0:0:0:
386,100,53203,2,0,L|384:180,1,80,2|2,1:2|1:2,0:0:0:0:
304,176,53774,2,0,L|306:96,1,80,2|0,0:2|0:0,0:0:0:0:
229,121,54345,2,0,P|163:158|94:125,1,160,2|6,0:2|0:2,0:0:0:0:
161,79,55203,1,0,0:0:0:0:
230,41,55488,5,2,0:2:0:0:
228,204,56060,2,0,L|228:284,1,80,2|0,0:2|0:0,0:0:0:0:
304,312,56631,2,0,L|304:232,1,80,2|0,0:2|0:0,0:0:0:0:
303,151,57203,70,0,P|237:111|164:136,1,160,2|2,0:2|0:2,0:0:0:0:
120,204,58060,1,0,0:0:0:0:
80,272,58345,2,0,P|146:312|219:287,1,160,2|0,0:2|0:0,0:0:0:0:
263,220,59203,2,0,L|303:151,2,80,2|2|0,0:2|0:2|0:0,0:0:0:0:
340,252,60060,6,0,L|418:112,1,160,2|2,1:2|1:2,0:0:0:0:
456,40,60917,1,0,0:0:0:0:
386,4,61203,1,2,0:2:0:0:
348,75,61489,1,2,0:2:0:0:
278,39,61774,1,0,0:0:0:0:
256,192,62060,12,0,68631,0:0:0:0:
255,192,69774,6,0,L|295:192,2,40,4|0|2,0:0|0:0|0:2,0:0:0:0:
185,231,70345,2,0,P|174:193|184:155,1,80,2|2,0:2|0:2,0:0:0:0:
212,80,70917,2,0,P|222:41|211:3,1,80,2|2,0:2|0:2,0:0:0:0:
142,43,71488,2,0,L|71:81,1,80,2|2,0:2|0:2,0:0:0:0:
112,152,72060,6,0,L|41:190,1,80,2|2,0:2|0:2,0:0:0:0:
80,260,72631,2,0,L|118:330,1,80,2|2,0:2|0:2,0:0:0:0:
192,300,73203,2,0,L|262:261,1,80,2|2,0:2|0:2,0:0:0:0:
223,191,73774,2,0,L|184:120,1,80,2|0,0:2|0:0,0:0:0:0:
146,50,74345,70,0,P|183:37|220:50,1,80,4|2,0:0|0:2,0:0:0:0:
291,88,74917,2,0,P|328:100|365:88,1,80,2|2,0:2|0:2,0:0:0:0:
435,48,75488,2,0,L|500:1,2,80,2|2|2,0:2|0:2|0:2,0:0:0:0:
436,128,76345,6,0,L|436:168,2,40,2|2|2,0:2|0:2|0:2,0:0:0:0:
356,140,76917,2,0,L|356:180,2,40,2|2|2,0:2|0:2|0:2,0:0:0:0:
276,152,77488,2,0,L|276:192,2,40,2|2|2,0:2|0:2|0:2,0:0:0:0:
196,164,78060,2,0,L|196:244,1,80,0|2,0:0|0:2,0:0:0:0:
156,88,78917,6,0,P|194:77|232:86,1,80,4|2,0:0|0:2,0:0:0:0:
276,152,79488,2,0,P|314:161|352:150,1,80,2|2,0:2|0:2,0:0:0:0:
408,208,80060,2,0,P|398:246|409:284,1,80,2|2,0:2|0:2,0:0:0:0:
479,245,80631,2,0,P|488:206|477:168,1,80,2|2,0:2|0:2,0:0:0:0:
408,128,81203,6,0,L|338:88,1,80,2|2,0:2|0:2,0:0:0:0:
264,56,81774,2,0,L|224:125,1,80,2|2,0:2|0:2,0:0:0:0:
184,196,82345,2,0,L|253:235,1,80,2|2,0:2|0:2,0:0:0:0:
328,268,82917,2,0,L|367:198,1,80,2|2,0:2|0:2,0:0:0:0:
408,128,83488,69,2,0:2:0:0:
448,56,83774,2,0,P|488:121|458:192,1,160,2|2,0:2|0:2,0:0:0:0:
408,257,84631,1,2,0:2:0:0:
326,269,84917,2,0,P|255:299|184:269,1,160,2|0,0:2|0:0,0:0:0:0:
104,257,85774,1,2,0:2:0:0:
53,192,86060,2,0,P|23:121|63:56,1,160,2|0,0:2|0:0,0:0:0:0:
104,128,86917,6,0,L|173:88,1,80,2|2,1:2|1:2,0:0:0:0:
248,56,87488,2,0,L|287:125,1,80,2|2,1:2|2:2,0:0:0:0:
328,192,88060,6,0,P|338:230|329:268,1,80,4|2,0:0|0:2,0:0:0:0:
368,339,88631,2,0,P|329:349|291:340,1,80,2|2,0:2|0:2,0:0:0:0:
220,302,89203,2,0,P|211:340|222:379,2,80,2|2|2,0:2|0:2|0:2,0:0:0:0:
252,231,90060,2,0,L|268:194,2,40,2|2|2,0:2|0:2|0:2,0:0:0:0:
172,236,90631,1,2,0:2:0:0:
92,239,90917,6,0,L|12:244,1,80,2|2,0:2|0:2,0:0:0:0:
8,164,91488,2,0,L|87:158,1,80,2|2,0:2|0:2,0:0:0:0:
168,152,92060,1,2,0:2:0:0:
248,148,92345,1,2,0:2:0:0:
317,107,92631,70,0,P|328:145|319:184,1,80,4|2,0:0|0:2,0:0:0:0:
249,224,93203,2,0,P|238:186|248:148,1,80,2|2,0:2|0:2,0:0:0:0:
244,68,93774,2,0,L|196:4,1,80,2|2,0:2|0:2,0:0:0:0:
128,44,94345,2,0,L|176:108,1,80,2|2,0:2|0:2,0:0:0:0:
164,188,94917,5,2,0:2:0:0:
128,260,95203,2,0,B|165:280|210:264|200:254|248:239|282:260,1,160,2|2,0:2|0:2,0:0:0:0:
356,232,96060,1,2,0:2:0:0:
356,152,96345,1,2,0:2:0:0:
284,116,96631,2,0,B|247:136|202:120|212:110|164:95|130:116,1,160,2|4,0:2|0:0,0:0:0:0:
60,160,97488,6,0,L|-8:204,2,80,2|2|2,0:2|0:2|0:2,0:0:0:0:
104,228,98345,2,0,L|36:272,2,80,2|2|2,0:2|0:2|0:2,0:0:0:0:
148,296,99203,2,0,L|114:318,2,40,2|2|2,0:2|0:2|0:2,0:0:0:0:
256,176,100060,5,2,0:2:0:0:
296,108,100345,1,2,0:2:0:0:
216,108,100631,2,0,B|179:128|134:112|144:102|96:87|62:108,2,160,2|2|0,0:2|0:2|0:2,0:0:0:0:
263,43,102060,69,2,0:2:0:0:
339,68,102346,1,2,0:2:0:0:
339,148,102632,1,2,0:2:0:0:
263,172,102918,1,2,0:2:0:0:
256,192,103203,12,2,105203,0:2:0:0:
372,148,106345,5,4,0:0:0:0:
412,80,106630,1,2,0:2:0:0:
332,80,106916,2,0,B|295:60|250:76|260:86|212:101|178:80,1,160,2|0,0:2|0:0,0:0:0:0:
140,236,108059,5,2,0:2:0:0:
100,304,108345,1,2,0:2:0:0:
180,304,108630,2,0,B|217:324|262:308|252:298|300:283|334:304,1,160,2|0,0:2|0:0,0:0:0:0:
372,148,109773,5,2,0:2:0:0:
412,80,110059,1,2,0:2:0:0:
332,80,110345,2,0,B|295:60|250:76|260:86|212:101|178:80,1,160,2|0,0:2|0:0,0:0:0:0:
140,236,111487,69,2,0:2:0:0:
100,304,111773,1,2,0:2:0:0:
180,304,112059,2,0,B|217:324|262:308|252:298|300:283|334:304,1,160,2|0,0:2|0:0,0:0:0:0:
372,147,113202,6,0,P|255:68|139:149,1,300.000011444092,6|2,1:2|0:2,0:0:0:0:
139,234,114917,6,0,P|255:315|372:236,1,300.000011444092,6|2,1:2|0:2,0:0:0:0:
372,147,116631,6,0,P|255:68|139:149,1,300.000011444092,6|2,1:2|0:2,0:0:0:0:
139,234,118345,6,0,L|139:264,2,30.0000011444092,2|2|2,0:3|0:3|0:3,0:0:0:0:
212,192,118917,1,2,1:3:0:0:
256,192,119203,12,0,123488,0:0:0:0:
