osu file format v14

[General]
AudioFilename: audio.mp3
AudioLeadIn: 0
PreviewTime: 808
Countdown: 1
SampleSet: Normal
StackLeniency: 0.7
Mode: 0
LetterboxInBreaks: 0
WidescreenStoryboard: 1

[Editor]
Bookmarks: 45768,59482
DistanceSpacing: 1
BeatDivisor: 4
GridSize: 8
TimelineZoom: 1.05

[Metadata]
Title:HAVOX
TitleUnicode:HAVOX
Artist:BlackY vs. Yooh
ArtistUnicode:BlackY vs. Yooh
Creator:SaNoyOsu
Version:Normal
Source:
Tags:
BeatmapID:1753900
BeatmapSetID:837702

[Difficulty]
HPDrainRate:5
CircleSize:4
OverallDifficulty:3
ApproachRate:4
SliderMultiplier:1.4
SliderTickRate:2

[Events]
//Background and Video events
0,0,"index2.jpg",0,0
//Break Periods
2,27682,39877
2,55111,60448
2,68254,77590
2,88253,95876
//Storyboard Layer 0 (Background)
//Storyboard Layer 1 (Fail)
//Storyboard Layer 2 (Pass)
//Storyboard Layer 3 (Foreground)
//Storyboard Sound Samples

[TimingPoints]
1225,571.428571428571,4,1,0,100,1,0
1225,-100,4,1,0,100,0,0
8082,-100,4,1,0,50,0,0
10367,-100,4,1,0,100,0,0
17228,571.428571428571,4,1,0,100,1,0
19482,571.428571428571,4,1,0,100,1,0
69768,571.428571428571,4,1,0,100,1,0
106370,571.428571428571,3,1,0,100,1,0

[HitObjects]
118,318,1225,5,0,0:0:0:0:
209,212,1796,2,0,P|261:169|340:179,1,140
412,237,2939,2,0,B|432:251|432:251|434:275,2,46.6666666666667
369,237,3510,5,0,0:0:0:0:
236,282,4082,2,0,P|167:287|114:244,1,140
121,132,5224,2,0,B|122:109|122:109|142:95,2,46.6666666666667,0|8|0,0:0|0:0|0:0,0:0:0:0:
150,155,5796,5,0,0:0:0:0:
362,229,6939,1,0,0:0:0:0:
239,215,8082,2,0,P|231:177|255:220,2,140,4|4|4,0:0|0:0|0:0,0:0:0:0:
256,192,9796,1,2,0:0:0:0:
130,244,10367,5,0,0:0:0:0:
130,175,10653,1,8,0:0:0:0:
201,172,10939,1,0,0:0:0:0:
203,242,11224,1,8,0:0:0:0:
256,208,11510,2,0,L|325:201,1,70,0|8,0:0|0:0,0:0:0:0:
242,214,12082,2,0,B|241:191|241:191|221:177,2,46.6666666666667,0|8|0,0:0|0:0|0:0,0:0:0:0:
144,220,12653,6,0,P|109:222|83:201,1,70,0|8,0:0|0:0,0:0:0:0:
92,160,13224,2,8,P|118:138|152:141,1,70,0|8,0:0|0:0,0:0:0:0:
229,148,13796,2,0,L|300:154,2,70,0|8|0,0:0|0:0|0:0,0:0:0:0:
144,126,14939,6,0,L|74:132,2,70,0|8|0,0:0|0:0|0:0,0:0:0:0:
120,197,15796,1,8,0:0:0:0:
174,251,16082,1,0,0:0:0:0:
120,310,16367,1,8,0:0:0:0:
68,257,16653,2,0,B|39:277|39:277|37:310,2,46.6666666666667,0|8|0,0:0|0:0|0:0,0:0:0:0:
180,185,17224,1,0,0:0:0:0:
251,186,17513,1,8,0:0:0:0:
180,256,17799,1,0,0:0:0:0:
249,254,18085,1,8,0:0:0:0:
251,186,18370,6,0,L|181:180,2,70,0|8|0,0:0|0:0|0:0,0:0:0:0:
355,165,19482,2,0,L|425:171,2,70,0|8|0,0:0|0:0|0:0,0:0:0:0:
243,177,20625,6,0,P|200:229|210:308,1,140,4|0,0:0|0:0,0:0:0:0:
260,340,21482,1,8,0:0:0:0:
305,286,21768,2,0,P|357:243|436:253,1,140,4|0,0:0|0:0,0:0:0:0:
297,191,22911,5,0,0:0:0:0:
406,158,23197,1,8,0:0:0:0:
337,249,23482,1,0,0:0:0:0:
339,135,23768,1,8,0:0:0:0:
253,62,24054,2,0,P|184:57|131:100,1,140
195,192,25197,1,0,0:0:0:0:
250,191,25482,1,8,0:0:0:0:
179,192,25768,1,0,0:0:0:0:
270,191,26054,1,8,0:0:0:0:
356,219,26339,2,0,L|391:222,2,35,0|0|8,0:0|0:0|0:0,0:0:0:0:
277,265,26911,2,0,B|297:279|297:279|298:302,2,46.6666666666667,0|8|0,0:0|0:0|0:0,0:0:0:0:
256,192,27482,1,4,0:0:0:0:
256,192,41197,12,0,45769,0:0:0:0:
307,211,48054,6,0,L|377:217,2,70,0|8|0,0:0|0:0|0:0,0:0:0:0:
225,170,48911,1,8,0:0:0:0:
156,230,49197,1,0,0:0:0:0:
210,230,49483,1,8,0:0:0:0:
212,286,49768,1,0,0:0:0:0:
156,288,50054,1,8,0:0:0:0:
138,220,50339,6,0,P|139:151|187:102,1,140,0|4,0:0|0:0,0:0:0:0:
219,185,51482,2,0,P|288:189|341:147,1,140,0|4,0:0|0:0,0:0:0:0:
147,206,52625,1,0,0:0:0:0:
233,206,53197,1,0,0:0:0:0:
236,295,53768,1,0,0:0:0:0:
152,300,54339,2,0,B|132:314|132:314|131:337,2,46.6666666666667,0|8|0,0:0|0:0|0:0,0:0:0:0:
176,286,54911,1,0,0:0:0:0:
153,102,61768,5,0,0:0:0:0:
367,282,62911,1,0,0:0:0:0:
148,100,64054,6,0,L|256:192,1,140
367,282,65197,2,0,L|256:192,1,140
198,147,66339,6,0,B|199:124|199:124|219:110,2,46.6666666666667,0|8|0,0:0|0:0|0:0,0:0:0:0:
226,184,66911,1,0,0:0:0:0:
270,237,67482,6,0,B|290:251|290:251|291:274,2,46.6666666666667,0|8|0,0:0|0:0|0:0,0:0:0:0:
273,190,68054,1,0,0:0:0:0:
255,193,78910,5,0,0:0:0:0:
271,101,79482,2,0,P|323:58|402:68,1,140
382,146,80625,2,0,B|362:160|362:160|361:183,2,46.6666666666667,0|8|0,0:0|0:0|0:0,0:0:0:0:
407,158,81196,5,0,0:0:0:0:
399,241,81767,2,0,L|469:247,2,70,0|8|0,0:0|0:0|0:0,0:0:0:0:
314,227,82910,2,0,B|291:226|291:226|277:206,2,46.6666666666667,0|8|0,0:0|0:0|0:0,0:0:0:0:
345,199,83482,5,0,0:0:0:0:
298,168,83767,1,8,0:0:0:0:
358,132,84053,1,0,0:0:0:0:
272,101,84339,1,8,0:0:0:0:
348,51,84625,2,0,P|415:55|466:116,1,140
367,123,85767,5,0,0:0:0:0:
333,176,86052,1,8,0:0:0:0:
276,123,86338,1,0,0:0:0:0:
214,190,86624,1,8,0:0:0:0:
295,230,86910,2,0,B|318:229|318:229|332:209,2,46.6666666666667,0|8|0,0:0|0:0|0:0,0:0:0:0:
250,271,87482,2,0,B|227:270|227:270|213:250,2,46.6666666666667,0|8|0,0:0|0:0|0:0,0:0:0:0:
295,311,88053,1,0,0:0:0:0:
257,191,97196,5,0,0:0:0:0:
196,174,97482,1,0,0:0:0:0:
314,170,97767,1,0,0:0:0:0:
221,243,98053,1,0,0:0:0:0:
253,129,98339,1,0,0:0:0:0:
294,240,98625,1,0,0:0:0:0:
360,285,98910,2,0,B|383:284|383:284|397:264,2,46.6666666666667,0|8|0,0:0|0:0|0:0,0:0:0:0:
296,284,99482,5,0,0:0:0:0:
210,190,100053,1,0,0:0:0:0:
334,162,100625,1,0,0:0:0:0:
256,68,101196,2,0,B|233:67|233:67|219:47,2,46.6666666666667,0|8|0,0:0|0:0|0:0,0:0:0:0:
291,98,101767,1,0,0:0:0:0:
358,54,102339,2,0,P|421:75|455:147,1,140
435,224,103482,1,0,0:0:0:0:
385,170,104053,6,0,P|369:139|337:127,1,70
268,122,104625,1,0,0:0:0:0:
240,57,104911,1,0,0:0:0:0:
308,65,105196,1,0,0:0:0:0:
169,244,106370,5,0,0:0:0:0:
245,193,106941,1,0,0:0:0:0:
251,284,107512,2,0,B|274:283|274:283|288:263,2,46.6666666666667,0|8|0,0:0|0:0|0:0,0:0:0:0:
230,276,108084,5,0,0:0:0:0:
186,191,108655,2,0,P|195:159|231:141,1,70
303,146,109227,2,0,B|313:166|313:166|303:188,2,46.6666666666667,0|8|0,0:0|0:0|0:0,0:0:0:0:
261,84,109798,5,0,0:0:0:0:
336,83,110084,1,0,0:0:0:0:
392,145,110370,2,0,P|416:166|456:162,1,70
451,258,110941,2,0,B|474:259|474:259|488:279,2,46.6666666666667,0|8|0,0:0|0:0|0:0,0:0:0:0:
379,233,111512,5,0,0:0:0:0:
306,233,111798,1,0,0:0:0:0:
379,162,112084,1,0,0:0:0:0:
306,162,112370,1,0,0:0:0:0:
243,196,112655,2,0,B|220:195|220:195|206:175,2,46.6666666666667,0|8|0,0:0|0:0|0:0,0:0:0:0:
256,168,113227,5,0,0:0:0:0:
256,104,114941,5,0,0:0:0:0:
256,16,116655,5,0,0:0:0:0:
256,192,118941,12,0,123512,0:0:0:0:
