osu file format v14

[General]
AudioFilename: audio.mp3
AudioLeadIn: 0
PreviewTime: 69187
Countdown: 0
SampleSet: Soft
StackLeniency: 0.7
Mode: 0
LetterboxInBreaks: 0
WidescreenStoryboard: 1

[Editor]
Bookmarks: 1187,10329,18329,27472,36615,45758,57758,69758,78901,88044,97187,106329,113186,118901,124615
DistanceSpacing: 1.2
BeatDivisor: 4
GridSize: 16
TimelineZoom: 2.2

[Metadata]
Title:HAVOX
TitleUnicode:HAVOX
Artist:BlackY vs. Yooh
ArtistUnicode:BlackY vs. Yooh
Creator:Realazy
Version:Xenon's ADVANCED
Source:SOUND VOLTEX III GRAVITY WARS
Tags:LASS LowAccuracySS eiri- Ayyri Xenon- ScubDomino jungkyuyoung Sulfur Su1fu7 SDVX3 SDVX 3 POLICY BREAK HAVOC Steel Chronicle VICTROOPERS
BeatmapID:1876634
BeatmapSetID:823616

[Difficulty]
HPDrainRate:5
CircleSize:3.8
OverallDifficulty:6
ApproachRate:8
SliderMultiplier:1.4
SliderTickRate:1

[Events]
//Background and Video events
0,0,"havox.jpg",0,0
//Break Periods
//Storyboard Layer 0 (Background)
//Storyboard Layer 1 (Fail)
//Storyboard Layer 2 (Pass)
//Storyboard Layer 3 (Foreground)
//Storyboard Sound Samples

[TimingPoints]
1187,285.714285714286,4,2,1,50,1,0
1187,-111.111111111111,4,2,1,50,0,0
9187,-111.111111111111,4,2,1,20,0,0
9258,-111.111111111111,4,2,1,25,0,0
9329,-111.111111111111,4,2,1,30,0,0
9401,-111.111111111111,4,2,1,35,0,0
9472,-111.111111111111,4,2,1,40,0,0
9544,-111.111111111111,4,2,1,45,0,0
9615,-111.111111111111,4,2,1,50,0,0
9687,-111.111111111111,4,2,1,55,0,0
9758,-111.111111111111,4,2,1,40,0,0
10329,-111.111111111111,4,2,1,50,0,0
14329,-111.111111111111,4,2,1,55,0,0
14901,-111.111111111111,4,2,1,50,0,0
18329,-111.111111111111,4,2,1,60,0,0
22329,-111.111111111111,4,2,1,65,0,0
22901,-111.111111111111,4,2,1,60,0,0
25187,-111.111111111111,4,2,1,65,0,0
25472,-111.111111111111,4,2,1,70,0,0
25758,-111.111111111111,4,2,1,75,0,0
26044,-111.111111111111,4,2,1,80,0,0
26329,-111.111111111111,4,2,1,60,0,0
26615,-111.111111111111,4,2,1,50,0,0
26901,-111.111111111111,4,2,1,60,0,0
27115,-111.111111111111,4,2,1,45,0,0
27187,-111.111111111111,4,2,1,50,0,0
27258,-111.111111111111,4,2,1,55,0,0
27329,-111.111111111111,4,2,1,60,0,0
27401,-111.111111111111,4,2,1,65,0,0
27472,-111.111111111111,4,2,1,70,0,0
31472,-111.111111111111,4,2,1,71,0,0
31544,-111.111111111111,4,2,1,72,0,0
31615,-111.111111111111,4,2,1,73,0,0
31687,-111.111111111111,4,2,1,74,0,0
31758,-111.111111111111,4,2,1,75,0,0
31829,-111.111111111111,4,2,1,76,0,0
31901,-111.111111111111,4,2,1,77,0,0
31972,-111.111111111111,4,2,1,78,0,0
32044,-111.111111111111,4,2,1,70,0,0
36044,-111.111111111111,4,2,1,80,0,0
36329,-111.111111111111,4,2,1,90,0,0
36615,-111.111111111111,4,2,1,80,0,0
40615,-111.111111111111,4,2,1,90,0,0
41187,-111.111111111111,4,2,1,80,0,0
44615,-111.111111111111,4,2,1,90,0,0
45187,-111.111111111111,4,2,2,50,0,0
45758,-111.111111111111,4,2,1,70,0,0
54901,-111.111111111111,4,2,1,80,0,0
62901,-111.111111111111,4,2,1,85,0,0
64044,-111.111111111111,4,2,1,90,0,0
66329,-111.111111111111,4,2,1,95,0,0
68615,-111.111111111111,4,2,1,60,0,0
69758,-95.2380952380952,4,2,1,80,0,1
78329,-95.2380952380952,4,2,1,60,0,1
78520,-95.2380952380952,4,2,1,70,0,1
78710,-95.2380952380952,4,2,1,80,0,1
78901,-95.2380952380952,4,2,1,85,0,1
80901,-95.2380952380952,4,2,1,76,0,1
80996,-95.2380952380952,4,2,1,79,0,1
81091,-95.2380952380952,4,2,1,82,0,1
81187,-95.2380952380952,4,2,1,85,0,1
82901,-95.2380952380952,4,2,1,70,0,1
83091,-95.2380952380952,4,2,1,75,0,1
83282,-95.2380952380952,4,2,1,80,0,1
83472,-95.2380952380952,4,2,1,85,0,1
83758,-95.2380952380952,4,2,1,88,0,1
84044,-95.2380952380952,4,2,1,91,0,1
84329,-95.2380952380952,4,2,1,94,0,1
84615,-95.2380952380952,4,2,1,90,0,1
84901,-95.2380952380952,4,2,1,86,0,1
85187,-95.2380952380952,4,2,1,82,0,1
85758,-95.2380952380952,4,2,1,90,0,1
102901,-95.2380952380952,4,2,1,85,0,1
103472,-95.2380952380952,4,2,1,80,0,1
104044,-95.2380952380952,4,2,1,75,0,1
104329,-95.2380952380952,4,2,1,70,0,1
105187,-95.2380952380952,4,2,1,65,0,1
105758,-95.2380952380952,4,2,1,60,0,1
105901,-95.2380952380952,4,2,1,65,0,1
106044,-95.2380952380952,4,2,1,70,0,1
106187,-95.2380952380952,4,2,1,75,0,1
106329,285.714285714286,6,2,1,70,1,0
106329,-95.2380952380952,6,2,1,70,0,0
109757,-95.2380952380952,6,2,1,75,0,0
111471,-95.2380952380952,6,2,1,80,0,0
113186,-133.333333333333,6,2,1,50,0,0
113471,-133.333333333333,6,2,1,35,0,0
114900,-133.333333333333,6,2,1,55,0,0
115186,-133.333333333333,6,2,1,40,0,0
116614,-133.333333333333,6,2,1,60,0,0
116900,-133.333333333333,6,2,1,45,0,0
118329,-133.333333333333,6,2,1,40,0,0
118614,-133.333333333333,6,2,1,30,0,0
118900,285.714285714286,4,2,1,60,1,0
118900,-125,4,2,1,60,0,0
120042,-125,4,2,1,50,0,0
121185,-125,4,2,1,40,0,0
122328,-125,4,2,1,30,0,0
123471,-125,4,2,1,20,0,0

[Colours]
Combo1 : 142,193,187
Combo2 : 226,18,7
Combo3 : 156,164,184
Combo4 : 240,125,146

[HitObjects]
237,325,1187,6,0,B|222:302|222:302|231:221,1,83.9999974365235,2|0,1:2|0:0,0:0:0:0:
254,217,1472,2,0,L|150:229,1,94.499997116089,0|0,1:0|0:0,0:0:0:0:
140,204,1758,1,2,1:2:0:0:
226,103,2044,2,0,L|330:115,1,83.9999974365235,0|0,1:0|1:0,0:0:0:0:
316,150,2329,6,0,L|399:140,1,83.9999974365235,2|0,1:2|0:0,0:0:0:0:
421,108,2615,1,0,1:0:0:0:
405,214,2806,1,0,1:0:0:0:
430,241,2901,2,0,P|431:283|439:324,2,83.9999974365235,2|2|2,1:2|1:2|1:2,0:0:0:0:
333,256,3472,6,0,B|310:270|310:270|229:261,1,83.9999974365235,2|0,1:2|0:0,0:0:0:0:
225,239,3758,2,0,L|238:342,1,83.9999974365235,0|0,1:0|0:0,0:0:0:0:
209,349,4044,1,2,1:2:0:0:
124,233,4329,2,0,L|111:337,1,83.9999974365235,0|0,1:0|1:0,0:0:0:0:
105,353,4615,6,0,L|63:357,2,41.9999987182618,2|0|0,1:2|1:0|1:0,0:0:0:0:
129,383,4901,1,2,1:2:0:0:
244,384,5091,1,0,1:0:0:0:
268,355,5187,2,0,P|310:352|352:344,2,83.9999974365235,2|2|2,1:2|1:2|1:2,0:0:0:0:
198,289,5758,6,0,B|183:267|183:267|193:185,1,83.9999974365235,2|0,1:2|0:0,0:0:0:0:
216,182,6044,2,0,L|112:194,1,83.9999974365235,0|0,1:0|1:0,0:0:0:0:
102,169,6329,1,2,1:2:0:0:
86,56,6520,1,0,0:0:0:0:
74,92,6615,2,0,L|178:104,1,83.9999974365235,0|0,1:0|1:0,0:0:0:0:
191,83,6901,6,0,L|186:40,2,41.9999987182618,2|2|2,1:2|1:2|1:2,0:0:0:0:
224,101,7187,2,0,L|219:143,2,41.9999987182618,2|2|2,1:2|1:2|1:2,0:0:0:0:
256,83,7472,6,0,L|298:78,1,41.9999987182618,2|0,1:2|0:0,0:0:0:0:
323,108,7663,2,0,L|365:112,1,41.9999987182618,2|0,1:2|0:0,0:0:0:0:
389,83,7853,2,0,L|431:78,1,41.9999987182618,2|0,1:2|0:0,0:0:0:0:
455,108,8044,5,4,0:0:0:0:
238,359,9187,6,0,P|202:340|222:264,1,125.999996154785,0|0,1:0|1:0,0:0:0:0:
338,203,9758,2,0,L|263:193,3,62.9999980773926,0|0|0|0,0:0|0:0|0:0|0:0,0:0:0:0:
229,135,10329,5,4,1:0:0:0:
84,179,10615,1,2,1:2:0:0:
216,252,10901,2,0,L|224:314,1,62.9999980773926,2|2,1:2|0:2,0:0:0:0:
309,342,11187,2,0,L|300:279,1,62.9999980773926,2|0,1:2|0:0,0:0:0:0:
345,211,11472,6,0,B|363:179|363:179|350:68,1,125.999996154785,2|2,1:2|1:2,0:0:0:0:
288,56,11901,1,2,0:0:0:0:
288,56,12044,2,0,P|226:67|163:71,1,125.999996154785,0|2,1:2|1:2,0:0:0:0:
93,41,12472,1,0,1:0:0:0:
103,117,12615,5,0,1:0:0:0:
18,242,12901,1,2,1:2:0:0:
157,182,13187,2,0,L|219:190,1,62.9999980773926,2|2,1:2|0:2,0:0:0:0:
247,275,13472,2,0,L|184:266,1,62.9999980773926,2|0,1:2|0:0,0:0:0:0:
139,342,13758,6,0,L|265:358,1,125.999996154785,2|2,1:2|1:2,0:0:0:0:
329,312,14187,1,2,0:0:0:0:
329,312,14329,2,0,P|318:250|314:187,1,125.999996154785,2|2,1:2|1:2,0:0:0:0:
344,117,14758,1,2,1:2:0:0:
268,127,14901,5,0,1:0:0:0:
394,209,15187,1,2,1:2:0:0:
236,201,15472,2,0,L|227:263,1,62.9999980773926,2|2,1:2|0:0,0:0:0:0:
143,291,15758,2,0,L|151:228,1,62.9999980773926,0|0,1:0|0:0,0:0:0:0:
76,183,16044,6,0,B|57:151|57:151|70:40,1,125.999996154785,2|2,1:2|1:2,0:0:0:0:
138,28,16472,1,2,0:0:0:0:
138,28,16615,2,0,P|200:39|263:43,1,125.999996154785,0|2,1:0|1:2,0:0:0:0:
333,13,17044,1,0,1:0:0:0:
323,89,17187,6,0,L|331:151,1,62.9999980773926,2|0,1:2|1:0,0:0:0:0:
395,191,17472,2,0,L|386:253,1,62.9999980773926,10|0,0:0|1:0,0:0:0:0:
333,307,17758,1,10,0:0:0:0:
333,307,17901,1,2,1:2:0:0:
276,247,18044,2,0,L|213:238,1,62.9999980773926,10|10,0:0|0:0,0:0:0:0:
163,177,18329,6,0,P|126:172|88:188,1,62.9999980773926,4|0,1:0|1:0,0:0:0:0:
135,252,18615,1,10,0:0:0:0:
191,102,18901,2,0,L|182:39,1,62.9999980773926,2|2,1:2|0:2,0:0:0:0:
266,69,19187,2,0,L|257:6,1,62.9999980773926,10|0,0:0|0:0,0:0:0:0:
341,36,19472,6,0,P|367:97|426:88,1,125.999996154785,2|10,1:2|0:0,0:0:0:0:
447,23,19901,1,2,0:0:0:0:
447,23,20044,2,0,P|450:85|461:147,1,125.999996154785,0|10,1:0|0:0,0:0:0:0:
493,222,20472,1,0,1:0:0:0:
445,288,20615,6,0,P|408:283|370:299,1,62.9999980773926,0|0,1:0|1:0,0:0:0:0:
417,363,20901,1,10,0:0:0:0:
351,217,21187,2,0,L|360:154,1,62.9999980773926,2|2,1:2|0:0,0:0:0:0:
276,184,21472,2,0,L|285:121,1,62.9999980773926,10|0,0:0|0:0,0:0:0:0:
201,151,21758,6,0,P|161:168|207:236,1,125.999996154785,2|10,1:2|0:0,0:0:0:0:
220,310,22187,1,2,0:0:0:0:
220,310,22329,2,0,P|282:306|344:295,1,125.999996154785,2|8,1:2|0:0,0:0:0:0:
419,264,22758,1,0,1:0:0:0:
429,184,22901,6,0,P|424:147|440:109,1,62.9999980773926,0|0,1:0|1:0,0:0:0:0:
504,156,23187,1,10,0:0:0:0:
358,95,23472,2,0,L|367:32,1,62.9999980773926,2|2,1:2|0:0,0:0:0:0:
283,62,23758,2,0,L|292:-1,1,62.9999980773926,10|0,0:0|0:0,0:0:0:0:
208,29,24044,6,0,P|182:90|123:81,1,125.999996154785,2|10,1:2|0:0,0:0:0:0:
102,16,24472,1,2,0:0:0:0:
102,16,24615,2,0,P|98:78|87:140,1,125.999996154785,0|10,1:0|0:0,0:0:0:0:
56,215,25044,1,0,1:0:0:0:
104,281,25187,6,0,L|113:344,1,62.9999980773926,2|0,1:2|1:0,0:0:0:0:
199,309,25472,2,0,L|208:246,1,62.9999980773926,10|0,0:0|1:0,0:0:0:0:
291,205,25758,2,0,L|300:268,1,62.9999980773926,10|0,0:0|1:0,0:0:0:0:
386,233,26044,2,0,L|395:170,1,62.9999980773926,10|0,0:0|1:0,0:0:0:0:
347,109,26329,5,10,0:0:0:0:
347,109,26472,1,2,1:2:0:0:
272,136,26615,2,0,L|209:127,1,62.9999980773926,10|2,0:0|1:2,0:0:0:0:
158,192,26901,2,0,P|160:225|166:255,2,62.9999980773926,2|0|8,1:2|1:0|0:0,0:0:0:0:
80,162,27329,1,8,0:0:0:0:
55,242,27472,6,0,P|53:275|47:305,1,62.9999980773926,0|0,1:0|1:0,0:0:0:0:
105,354,27758,2,0,B|135:342|166:354|166:354|197:365|227:354,1,125.999996154785,0|10,0:0|0:1,0:0:0:0:
370,302,28329,2,0,P|337:300|307:294,1,62.9999980773926,0|0,1:0|1:0,0:0:0:0:
165,242,28758,6,0,P|198:240|228:234,1,62.9999980773926,2|0,0:1|1:0,0:0:0:0:
280,177,29044,1,0,1:0:0:0:
280,177,29187,2,0,P|267:115|264:52,1,125.999996154785,10|2,0:1|0:1,0:0:0:0:
188,30,29615,1,2,0:1:0:0:
188,30,29758,6,0,P|186:61|180:92,1,62.9999980773926,0|2,1:0|1:2,0:0:0:0:
102,92,30044,2,0,P|95:61|94:29,2,62.9999980773926,2|2|10,0:0|0:0|0:1,0:0:0:0:
217,191,30615,2,0,P|186:184|154:183,1,62.9999980773926,2|2,1:2|1:2,0:0:0:0:
20,254,31044,6,0,P|50:247|82:246,1,62.9999980773926,2|0,1:0|1:0,0:0:0:0:
147,299,31329,1,0,0:0:0:0:
147,299,31472,2,0,P|209:302|271:314,1,125.999996154785,10|2,0:1|0:0,0:0:0:0:
358,181,32044,6,0,P|360:148|366:118,1,62.9999980773926,0|0,1:0|1:0,0:0:0:0:
308,69,32329,2,0,B|278:81|247:69|247:69|216:58|186:69,1,125.999996154785,0|10,0:0|0:1,0:0:0:0:
40,112,32901,2,0,P|73:114|103:120,1,62.9999980773926,0|0,1:0|1:0,0:0:0:0:
245,172,33329,6,0,P|212:174|182:180,1,62.9999980773926,2|0,1:0|1:0,0:0:0:0:
130,237,33615,1,0,0:0:0:0:
130,237,33758,2,0,P|143:299|146:362,1,125.999996154785,10|2,0:1|0:1,0:0:0:0:
222,384,34187,1,2,0:1:0:0:
222,384,34329,6,0,P|223:352|229:321,1,62.9999980773926,0|2,1:0|1:2,0:0:0:0:
308,322,34615,2,0,P|315:353|316:385,2,62.9999980773926,2|2|10,0:0|0:0|0:1,0:0:0:0:
198,218,35187,2,0,P|228:224|260:225,1,62.9999980773926,2|2,1:2|1:2,0:0:0:0:
395,155,35615,6,0,P|364:161|332:162,1,62.9999980773926,2|10,1:0|0:0,0:0:0:0:
268,110,35901,1,0,0:0:0:0:
268,110,36044,1,6,1:2:0:0:
341,246,36329,1,6,1:2:0:0:
198,218,36615,6,0,P|165:216|135:210,1,62.9999980773926,4|0,1:0|1:0,0:0:0:0:
62,232,36901,1,10,0:1:0:0:
62,232,37044,2,0,L|65:263,2,31.4999990386963,0|0|2,1:0|1:0|1:2,0:0:0:0:
81,155,37329,2,0,P|74:124|73:92,2,62.9999980773926,2|10|2,1:2|0:0|1:0,0:0:0:0:
253,159,37901,6,0,L|256:127,2,31.4999990386963,2|0|8,1:0|1:0|0:0,0:0:0:0:
276,240,38187,1,0,1:0:0:0:
276,240,38329,2,0,P|269:270|268:302,1,62.9999980773926,2|2,1:0|0:1,0:0:0:0:
190,332,38615,2,0,P|188:300|182:269,1,62.9999980773926,10|2,0:1|1:0,0:0:0:0:
118,221,38901,6,0,P|87:227|55:228,2,62.9999980773926,4|2|10,1:0|1:0|0:0,0:0:0:0:
182,172,39329,1,2,1:2:0:0:
182,172,39472,2,0,L|178:140,2,31.4999990386963,2|0|0,1:1|0:0|1:0,0:0:0:0:
246,221,39758,2,0,L|242:252,2,31.4999990386963,10|0|2,0:0|1:0|1:0,0:0:0:0:
310,172,40044,6,0,P|363:197|381:139,1,125.999996154785,2|10,1:2|0:0,0:0:0:0:
327,95,40472,1,0,1:0:0:0:
327,95,40615,2,0,L|339:9,2,83.9999974365235,2|2|2,1:0|1:0|1:0,0:0:0:0:
235,150,41187,6,0,P|203:152|172:158,2,62.9999980773926,14|0|8,0:0|1:0|0:0,0:0:0:0:
314,175,41615,1,0,1:0:0:0:
314,175,41758,2,0,P|312:207|306:238,1,62.9999980773926,10|0,0:0|1:0,0:0:0:0:
230,290,42044,2,0,P|224:259|222:227,1,62.9999980773926,8|2,0:0|1:0,0:0:0:0:
172,157,42329,6,0,P|140:155|109:149,2,62.9999980773926,8|2|8,0:0|1:0|0:0,0:0:0:0:
224,96,42758,1,0,1:0:0:0:
224,96,42901,2,0,P|254:90|286:88,1,62.9999980773926,10|2,0:1|1:0,0:0:0:0:
352,140,43187,1,2,1:0:0:0:
352,140,43329,1,2,1:0:0:0:
286,185,43472,6,0,L|289:216,7,31.4999990386963,4|0|0|0|2|0|2|0,1:0|1:0|1:0|1:0|1:2|1:0|1:2|1:0,0:0:0:0:
275,231,44044,2,0,L|278:262,7,31.4999990386963,6|0|0|0|2|0|2|0,1:2|1:0|1:0|1:0|1:2|1:0|1:2|1:0,0:0:0:0:
264,277,44615,2,0,L|267:308,7,31.4999990386963,4|0|0|0|0|0|0|0,1:0|1:0|1:0|1:0|1:0|1:0|1:0|1:0,0:0:0:0:
253,323,45187,6,0,P|187:315|174:370,1,125.999996154785,10|2,0:0|0:0,0:0:0:0:
351,348,45758,6,0,P|355:286|366:224,1,125.999996154785,6|8,1:2|0:0,0:0:0:0:
252,122,46329,2,0,L|259:185,1,62.9999980773926,0|0,1:0|0:0,0:0:0:0:
338,147,46615,2,0,L|345:83,1,62.9999980773926,10|0,0:0|0:0,0:0:0:0:
273,42,46901,6,0,P|211:38|149:27,1,125.999996154785,0|8,1:0|0:0,0:0:0:0:
60,149,47472,2,0,L|67:212,1,62.9999980773926,2|0,1:2|0:0,0:0:0:0:
146,174,47758,2,0,L|153:110,1,62.9999980773926,2|0,1:2|0:0,0:0:0:0:
227,78,48044,6,0,L|258:81,3,31.4999990386963,6|0|0|2,1:2|0:0|0:0|0:0,0:0:0:0:
279,105,48329,2,0,P|312:98|361:112,1,62.9999980773926,10|2,0:0|0:0,0:0:0:0:
313,180,48615,2,0,L|310:211,3,31.4999990386963,2|0|2|2,1:2|0:0|0:0|0:0,0:0:0:0:
286,232,48901,2,0,P|293:265|279:314,1,62.9999980773926,10|2,0:0|0:0,0:0:0:0:
211,265,49187,6,0,L|180:262,3,31.4999990386963,2|0|2|0,1:2|0:0|0:0|0:0,0:0:0:0:
159,238,49472,2,0,P|126:245|77:231,1,62.9999980773926,10|2,0:0|0:0,0:0:0:0:
125,163,49758,2,0,L|128:132,3,31.4999990386963,10|0|0|0,0:0|0:0|1:0|1:0,0:0:0:0:
152,111,50044,2,0,L|155:80,3,31.4999990386963,10|0|0|0,0:0|0:0|1:0|1:0,0:0:0:0:
177,57,50329,6,0,P|238:69|301:73,1,125.999996154785,6|10,1:2|0:0,0:0:0:0:
380,114,50758,1,2,0:0:0:0:
380,114,50901,2,0,L|387:177,1,62.9999980773926,2|2,1:2|0:0,0:0:0:0:
445,234,51187,2,0,L|438:298,1,62.9999980773926,10|2,0:0|0:0,0:0:0:0:
366,338,51472,6,0,L|296:331,5,41.9999987182618,2|2|0|10|2|0,1:2|0:0|0:0|0:0|0:0|0:0,0:0:0:0:
300,354,52044,2,0,L|237:361,1,62.9999980773926,2|2,1:2|0:0,0:0:0:0:
201,272,52329,2,0,L|263:278,1,62.9999980773926,10|2,0:0|0:0,0:0:0:0:
321,223,52615,6,0,P|316:186|332:148,1,62.9999980773926,6|0,1:2|1:0,0:0:0:0:
396,195,52901,1,10,0:0:0:0:
248,133,53187,2,0,P|186:145|123:148,1,125.999996154785,2|10,1:2|0:0,0:0:0:0:
70,90,53615,2,0,L|38:87,2,31.4999990386963,0|0|2,1:0|1:0|1:2,0:0:0:0:
123,31,53901,5,2,1:2:0:0:
123,31,54044,2,0,L|185:25,1,62.9999980773926,8|0,0:0|1:0,0:0:0:0:
262,48,54329,2,0,L|293:51,3,31.4999990386963,0|0|0|0,1:0|1:0|1:0|1:0,0:0:0:0:
308,37,54615,2,0,L|339:40,3,31.4999990386963,2|2|2|2,1:2|1:2|1:2|1:2,0:0:0:0:
354,26,54901,6,0,P|341:87|338:150,1,125.999996154785,6|10,1:0|0:0,0:0:0:0:
386,219,55329,5,0,0:0:0:0:
386,219,55472,2,0,L|392:281,1,62.9999980773926,10|0,0:0|0:0,0:0:0:0:
305,321,55758,2,0,L|311:259,1,62.9999980773926,10|2,0:0|0:0,0:0:0:0:
236,219,56044,5,10,1:2:0:0:
317,86,56329,1,10,1:2:0:0:
184,5,56615,1,10,1:2:0:0:
103,138,56901,1,10,1:2:0:0:
236,219,57187,6,0,L|226:314,2,94.499997116089,2|2|2,1:2|0:0|0:0,0:0:0:0:
298,165,57758,2,0,L|288:70,2,94.499997116089,2|2|2,1:2|0:0|0:0,0:0:0:0:
360,219,58329,6,0,L|350:314,2,94.499997116089,2|2|0,1:2|0:0|0:0,0:0:0:0:
428,74,59044,1,2,0:0:0:0:
394,147,59187,2,0,P|424:154|455:149,1,62.9999980773926,8|2,0:0|0:0,0:0:0:0:
507,94,59472,6,0,P|494:155|491:218,1,125.999996154785,14|8,0:2|0:0,0:0:0:0:
448,288,59901,1,0,1:0:0:0:
448,288,60044,2,0,L|385:295,1,62.9999980773926,10|2,0:0|1:2,0:0:0:0:
349,206,60329,2,0,L|411:212,1,62.9999980773926,10|2,0:0|1:2,0:0:0:0:
491,218,60615,6,0,P|493:155|507:94,1,125.999996154785,14|10,0:2|0:0,0:0:0:0:
449,40,61044,1,0,1:0:0:0:
449,40,61187,2,0,L|386:47,1,62.9999980773926,10|0,0:0|1:0,0:0:0:0:
347,118,61472,2,0,L|284:111,1,62.9999980773926,2|0,1:2|1:0,0:0:0:0:
242,43,61758,5,14,0:0:0:0:
156,141,62044,1,10,0:0:0:0:
166,271,62329,1,10,0:0:0:0:
265,355,62615,1,10,0:0:0:0:
394,346,62901,5,14,0:0:0:0:
479,245,63187,1,10,0:0:0:0:
470,116,63472,1,10,0:0:0:0:
370,31,63758,1,2,1:2:0:0:
233,25,64044,5,14,0:0:0:0:
137,135,64329,1,10,0:0:0:0:
148,279,64615,1,10,0:0:0:0:
258,373,64901,1,10,0:0:0:0:
402,363,65187,5,10,0:0:0:0:
497,250,65472,1,10,0:0:0:0:
487,107,65758,1,10,0:0:0:0:
375,12,66044,1,10,0:0:0:0:
224,7,66329,6,0,L|231:70,1,62.9999980773926,2|0,1:2|1:2,0:0:0:0:
306,91,66615,2,0,L|299:154,1,62.9999980773926,2|0,1:2|1:2,0:0:0:0:
224,175,66901,2,0,L|231:238,1,62.9999980773926,2|0,1:2|1:2,0:0:0:0:
306,259,67187,2,0,L|299:322,1,62.9999980773926,2|0,1:2|1:2,0:0:0:0:
380,329,67472,6,0,L|387:266,1,62.9999980773926,2|0,1:2|0:0,0:0:0:0:
462,245,67758,2,0,L|455:182,1,62.9999980773926,2|0,1:2|0:0,0:0:0:0:
380,161,68044,2,0,L|387:98,1,62.9999980773926,2|0,1:2|0:0,0:0:0:0:
462,77,68329,2,0,L|455:14,1,62.9999980773926,2|0,1:2|0:0,0:0:0:0:
246,152,69187,6,0,L|253:222,5,41.9999987182618,2|0|0|0|0|0,0:0|0:0|0:0|0:0|0:0|0:0,0:0:0:0:
230,218,69758,5,6,1:2:0:0:
240,302,69901,1,0,1:0:0:0:
317,335,70044,1,2,1:2:0:0:
163,269,70329,1,2,1:2:0:0:
298,169,70615,1,2,1:2:0:0:
144,103,70901,6,0,P|192:100|240:90,1,97.9999970092774,2|0,1:2|0:0,0:0:0:0:
263,60,71187,1,2,1:2:0:0:
333,242,71472,2,0,P|284:239|236:229,1,97.9999970092774,2|0,1:2|0:0,0:0:0:0:
214,199,71758,2,0,P|165:201|117:211,1,97.9999970092774,2|0,1:2|0:0,0:0:0:0:
95,242,72044,5,2,1:2:0:0:
215,124,72329,1,2,1:2:0:0:
333,242,72615,1,2,1:2:0:0:
213,360,72901,1,2,1:2:0:0:
95,242,73187,6,0,P|92:193|82:145,1,97.9999970092774,2|0,1:2|0:0,0:0:0:0:
52,123,73472,1,2,1:2:0:0:
206,114,73758,2,0,B|191:136|191:136|201:218,2,97.9999970092774,0|0|0,1:0|1:0|1:0,0:0:0:0:
303,70,74329,5,2,1:2:0:0:
470,57,74615,1,2,1:2:0:0:
338,165,74901,1,2,1:2:0:0:
382,1,75187,1,2,1:2:0:0:
443,160,75472,6,0,P|446:208|456:256,1,97.9999970092774,2|0,1:2|0:0,0:0:0:0:
486,279,75758,1,2,1:2:0:0:
304,349,76044,2,0,P|307:300|317:252,1,97.9999970092774,2|0,1:2|0:0,0:0:0:0:
347,230,76329,2,0,P|345:181|335:133,1,97.9999970092774,2|0,1:2|0:0,0:0:0:0:
304,111,76615,5,2,1:2:0:0:
186,231,76901,2,0,L|190:182,2,48.9999985046387,2|2|2,1:2|0:0|0:0,0:0:0:0:
206,262,77187,1,2,1:2:0:0:
170,92,77472,2,0,P|217:101|266:103,1,97.9999970092774,2|2,1:2|0:0,0:0:0:0:
306,99,77758,5,2,1:2:0:0:
449,0,78044,1,2,1:2:0:0:
391,148,78329,6,0,L|396:198,1,48.9999985046387,2|0,1:2|0:0,0:0:0:0:
421,215,78520,2,0,L|425:264,1,48.9999985046387,2|0,1:2|0:0,0:0:0:0:
451,282,78710,2,0,L|455:331,1,48.9999985046387,2|0,1:2|0:0,0:0:0:0:
481,349,78901,5,6,1:2:0:0:
310,381,79187,1,2,1:2:0:0:
359,216,79472,1,2,1:2:0:0:
202,285,79758,1,2,1:2:0:0:
221,115,80044,6,0,P|173:118|125:128,1,97.9999970092774,2|0,1:2|0:0,0:0:0:0:
102,158,80329,1,2,1:2:0:0:
262,202,80615,2,0,P|310:205|358:215,1,97.9999970092774,2|0,1:2|0:0,0:0:0:0:
393,231,80901,2,0,L|397:280,2,48.9999985046387,2|0|0,1:2|1:0|1:0,0:0:0:0:
434,215,81187,5,2,1:2:0:0:
333,71,81472,1,2,1:2:0:0:
190,172,81758,1,2,1:2:0:0:
290,314,82044,1,2,1:2:0:0:
434,215,82329,6,0,P|437:167|447:119,1,97.9999970092774,2|0,1:2|0:0,0:0:0:0:
477,96,82615,1,2,1:2:0:0:
310,102,82901,6,0,L|315:153,2,48.9999985046387,2|0|0,1:2|0:0|1:0,0:0:0:0:
279,82,83187,2,0,L|284:32,2,48.9999985046387,2|0|0,0:0|1:0|0:0,0:0:0:0:
248,102,83472,6,0,P|200:105|152:115,1,97.9999970092774,2|2,1:2|0:0,0:0:0:0:
117,102,83758,2,0,P|120:150|130:198,1,97.9999970092774,2|2,1:2|0:0,0:0:0:0:
117,233,84044,2,0,P|165:230|213:220,1,97.9999970092774,2|2,1:2|0:0,0:0:0:0:
248,233,84329,1,2,1:2:0:0:
374,348,84615,6,0,P|337:289|291:315,1,110.249996635437,2|0,1:2|0:0,0:0:0:0:
289,317,84901,1,2,1:2:0:0:
404,228,85187,6,0,L|399:177,1,48.9999985046387,2|0,1:2|0:0,0:0:0:0:
370,160,85377,2,0,L|375:109,1,48.9999985046387,0|0,1:0|0:0,0:0:0:0:
404,92,85567,2,0,L|399:41,1,48.9999985046387,0|0,1:0|0:0,0:0:0:0:
420,14,85758,5,2,1:2:0:0:
233,101,86044,2,0,P|185:90|136:87,1,97.9999970092774,2|0,1:2|1:0,0:0:0:0:
105,109,86329,2,0,B|83:124|83:124|1:114,2,97.9999970092774,2|0|0,1:2|1:0|1:0,0:0:0:0:
114,243,86901,6,0,L|119:294,2,48.9999985046387,2|2|2,1:2|0:0|0:0,0:0:0:0:
155,220,87187,2,0,L|160:169,2,48.9999985046387,2|2|2,1:2|0:0|0:0,0:0:0:0:
188,253,87472,6,0,L|239:258,1,48.9999985046387,10|10,0:0|0:0,0:0:0:0:
258,221,87663,2,0,L|306:216,1,48.9999985046387,10|10,0:0|0:0,0:0:0:0:
327,179,87853,2,0,L|376:184,1,48.9999985046387,10|10,0:0|0:0,0:0:0:0:
397,147,88044,5,6,1:2:0:0:
260,35,88329,2,0,L|148:48,1,97.9999970092774,10|0,0:0|0:0,0:0:0:0:
143,85,88615,2,0,L|45:96,1,97.9999970092774,2|0,1:2|0:0,0:0:0:0:
26,135,88901,1,10,0:0:0:0:
195,196,89187,6,0,L|184:294,1,97.9999970092774,2|0,1:2|1:0,0:0:0:0:
196,334,89472,1,10,0:0:0:0:
288,196,89758,2,0,L|299:294,1,97.9999970092774,2|0,1:2|0:0,0:0:0:0:
287,334,90044,2,0,P|321:325|357:331,1,73.4999977569581,10|0,0:0|1:0,0:0:0:0:
429,279,90329,6,0,L|440:181,1,97.9999970092774,2|0,1:2|1:0,0:0:0:0:
428,141,90615,1,10,0:0:0:0:
288,196,90901,2,0,L|277:98,1,97.9999970092774,2|2,1:2|1:2,0:0:0:0:
289,58,91187,1,10,0:0:0:0:
189,152,91377,1,2,0:0:0:0:
204,177,91472,6,0,L|106:166,1,97.9999970092774,2|0,1:2|0:0,0:0:0:0:
69,187,91758,2,0,L|58:285,1,97.9999970092774,10|0,0:0|0:0,0:0:0:0:
79,322,92044,2,0,L|177:333,1,97.9999970092774,2|0,1:2|0:0,0:0:0:0:
214,312,92329,2,0,L|208:263,2,48.9999985046387,10|0|0,0:0|0:0|0:0,0:0:0:0:
251,333,92615,5,2,1:2:0:0:
359,210,92901,2,0,L|247:197,1,97.9999970092774,10|0,0:0|0:0,0:0:0:0:
242,160,93187,2,0,L|144:149,1,97.9999970092774,2|0,1:2|0:0,0:0:0:0:
125,110,93472,1,10,0:0:0:0:
272,25,93758,6,0,L|174:36,1,97.9999970092774,2|0,1:2|1:0,0:0:0:0:
134,24,94044,1,10,0:0:0:0:
242,160,94329,2,0,L|340:171,1,97.9999970092774,2|0,1:2|1:0,0:0:0:0:
377,150,94615,2,0,L|371:101,2,48.9999985046387,10|0|0,0:0|1:0|1:0,0:0:0:0:
414,171,94901,6,0,L|403:269,1,97.9999970092774,2|0,1:2|0:0,0:0:0:0:
424,306,95187,1,10,0:0:0:0:
245,343,95472,5,2,1:2:0:0:
240,308,95567,1,2,0:0:0:0:
236,274,95663,1,2,0:0:0:0:
232,240,95758,2,0,L|181:235,2,48.9999985046387,10|2|2,0:0|0:0|0:0,0:0:0:0:
257,204,96044,6,0,P|291:213|327:207,1,73.4999977569581,2|0,1:2|1:0,0:0:0:0:
332,120,96329,2,0,P|298:111|262:117,1,73.4999977569581,10|0,0:0|1:0,0:0:0:0:
174,104,96615,6,0,L|179:155,1,48.9999985046387,2|0,0:0|0:0,0:0:0:0:
142,174,96806,2,0,L|137:222,1,48.9999985046387,2|0,0:0|0:0,0:0:0:0:
100,243,96996,2,0,L|105:292,1,48.9999985046387,2|0,0:0|0:0,0:0:0:0:
68,313,97187,5,6,1:2:0:0:
238,359,97472,2,0,L|251:247,1,97.9999970092774,10|0,0:0|0:0,0:0:0:0:
282,233,97758,2,0,L|271:135,1,97.9999970092774,2|0,1:2|0:0,0:0:0:0:
295,105,98044,1,10,0:0:0:0:
175,201,98329,6,0,L|77:212,1,97.9999970092774,2|0,1:2|1:0,0:0:0:0:
37,200,98615,1,10,0:0:0:0:
197,94,98901,2,0,L|295:105,1,97.9999970092774,2|0,1:2|0:0,0:0:0:0:
336,82,99187,2,0,P|327:116|333:152,1,73.4999977569581,10|0,0:0|1:0,0:0:0:0:
386,225,99472,6,0,L|397:323,1,97.9999970092774,2|0,1:2|1:0,0:0:0:0:
376,360,99758,2,0,L|278:371,1,97.9999970092774,10|0,0:0|0:0,0:0:0:0:
241,350,100044,2,0,L|230:252,1,97.9999970092774,2|0,1:2|0:0,0:0:0:0:
251,215,100329,1,10,0:0:0:0:
87,278,100615,6,0,L|98:180,1,97.9999970092774,2|0,1:2|1:0,0:0:0:0:
77,143,100901,1,10,0:0:0:0:
251,215,101187,5,2,1:2:0:0:
246,180,101282,1,2,0:0:0:0:
242,146,101377,1,2,1:2:0:0:
238,112,101472,2,0,L|187:107,2,48.9999985046387,10|0|0,0:0|0:0|0:0,0:0:0:0:
258,74,101758,6,0,L|356:63,1,97.9999970092774,6|2,1:2|0:0,0:0:0:0:
393,84,102044,2,0,L|404:182,1,97.9999970092774,6|2,1:2|0:0,0:0:0:0:
383,219,102329,2,0,L|285:230,1,97.9999970092774,6|2,1:2|0:0,0:0:0:0:
248,209,102615,1,6,1:2:0:0:
91,290,102901,6,0,P|126:283|162:292,1,73.4999977569581,10|0,0:0|1:0,0:0:0:0:
233,345,103187,2,0,P|268:354|304:347,1,73.4999977569581,10|0,0:0|1:0,0:0:0:0:
374,295,103472,6,0,L|379:244,1,48.9999985046387,0|0,1:0|0:0,0:0:0:0:
342,225,103663,2,0,L|337:177,1,48.9999985046387,0|8,0:0|0:0,0:0:0:0:
300,156,103853,2,0,L|305:107,1,48.9999985046387,0|0,0:0|0:0,0:0:0:0:
268,86,104044,6,0,L|230:89,7,36.749998878479,4|0|0|0|8|0|0|0,1:2|0:0|1:0|1:0|0:0|1:0|1:0|1:0,0:0:0:0:
217,111,104615,2,0,L|179:114,7,36.749998878479,0|0|0|0|8|0|0|0,1:0|1:0|1:0|1:0|0:0|1:0|1:0|1:0,0:0:0:0:
166,136,105187,5,6,1:2:0:0:
91,218,105377,1,0,0:0:0:0:
86,191,105472,1,10,0:0:0:0:
181,251,105663,1,0,0:0:0:0:
186,224,105758,2,0,L|222:220,7,36.749998878479,8|0|0|0|0|0|0|0,0:0|1:0|1:0|1:0|1:0|1:0|1:0|1:0,0:0:0:0:
237,199,106329,6,0,L|341:211,1,97.9999970092774,6|0,1:2|1:0,0:0:0:0:
345,233,106614,2,0,L|443:221,1,97.9999970092774,10|0,0:0|1:0,0:0:0:0:
453,199,106900,1,10,0:0:0:0:
379,97,107090,1,0,1:0:0:0:
353,87,107186,2,0,L|359:30,2,48.9999985046387,10|0|0,0:0|1:0|1:0,0:0:0:0:
325,107,107471,5,10,0:2:0:0:
219,115,107662,5,0,1:0:0:0:
114,124,107852,5,0,1:0:0:0:
175,211,108043,6,0,L|279:199,1,97.9999970092774,2|0,1:2|1:0,0:0:0:0:
283,177,108329,2,0,L|382:187,1,97.9999970092774,10|0,0:0|1:0,0:0:0:0:
391,211,108614,1,10,0:0:0:0:
317,314,108805,1,0,1:0:0:0:
291,323,108900,2,0,L|297:379,2,48.9999985046387,10|0|0,0:0|1:0|1:0,0:0:0:0:
263,303,109186,5,10,0:0:0:0:
157,295,109376,5,0,1:0:0:0:
52,286,109567,5,0,1:0:0:0:
113,199,109757,6,0,L|123:101,1,97.9999970092774,10|0,0:0|1:0,0:0:0:0:
147,91,110043,1,10,0:0:0:0:
224,179,110233,1,0,1:0:0:0:
259,174,110329,1,10,0:0:0:0:
367,109,110519,1,0,1:0:0:0:
340,104,110614,2,0,L|334:48,2,48.9999985046387,10|0|0,0:0|1:0|1:0,0:0:0:0:
305,119,110900,5,10,0:0:0:0:
297,236,111090,5,2,1:2:0:0:
287,352,111281,5,2,1:2:0:0:
192,286,111471,6,0,L|94:296,1,97.9999970092774,10|0,0:0|1:0,0:0:0:0:
64,279,111757,2,0,L|54:181,1,97.9999970092774,10|0,0:0|1:0,0:0:0:0:
71,151,112043,2,0,L|169:141,1,97.9999970092774,10|0,0:0|1:0,0:0:0:0:
204,159,112329,2,0,L|209:207,2,48.9999985046387,10|2|2,0:0|0:0|0:0,0:0:0:0:
239,141,112614,5,10,0:0:0:0:
356,149,112805,5,10,0:0:0:0:
472,159,112995,5,10,0:0:0:0:
406,254,113186,6,0,L|345:260,1,52.5000020027161,6|0,1:2|0:0,0:0:0:0:
406,254,114900,6,0,L|345:260,1,52.5000020027161,6|0,1:2|0:0,0:0:0:0:
406,254,116614,6,0,L|345:260,1,52.5000020027161,6|0,1:2|0:0,0:0:0:0:
243,195,118329,6,0,P|270:193|303:201,1,52.5000020027161,0|0,0:0|0:0,0:0:0:0:
353,259,118614,2,0,L|350:291,3,26.2500010013581,0|0|0|0,0:0|0:0|0:0|0:0,0:0:0:0:
332,305,118900,5,6,1:2:0:0:
256,192,118971,12,0,123471,0:0:0:0:
