osu file format v14

[General]
AudioFilename: audio.mp3
AudioLeadIn: 0
PreviewTime: 69187
Countdown: 0
SampleSet: Soft
StackLeniency: 0.7
Mode: 0
LetterboxInBreaks: 0
WidescreenStoryboard: 0

[Editor]
Bookmarks: 1187,10329,18329,27472,36615,45758,54901,64615,69758,87472,88044,106329,113186,118900,123471,124615
DistanceSpacing: 1.1
BeatDivisor: 3
GridSize: 32
TimelineZoom: 3.899998

[Metadata]
Title:HAVOX
TitleUnicode:HAVOX
Artist:BlackY vs. Yooh
ArtistUnicode:BlackY vs. Yooh
Creator:Realazy
Version:Ayyri's EXHAUST
Source:SOUND VOLTEX III GRAVITY WARS
Tags:LASS LowAccuracySS eiri- Ayyri Xenon- ScubDomino jungkyuyoung Sulfur Su1fu7 SDVX3 SDVX 3 POLICY BREAK HAVOC Steel Chronicle VICTROOPERS
BeatmapID:1876631
BeatmapSetID:823616

[Difficulty]
HPDrainRate:5
CircleSize:3.5
OverallDifficulty:8
ApproachRate:9
SliderMultiplier:1.4
SliderTickRate:1

[Events]
//Background and Video events
0,0,"havox.jpg",0,0
//Break Periods
//Storyboard Layer 0 (Background)
//Storyboard Layer 1 (Fail)
//Storyboard Layer 2 (Pass)
//Storyboard Layer 3 (Foreground)
//Storyboard Sound Samples

[TimingPoints]
1187,285.714285714286,4,2,1,50,1,0
9187,-100,4,2,1,20,0,0
9258,-100,4,2,1,25,0,0
9329,-100,4,2,1,30,0,0
9401,-100,4,2,1,35,0,0
9472,-100,4,2,1,40,0,0
9544,-100,4,2,1,45,0,0
9615,-100,4,2,1,50,0,0
9687,-100,4,2,1,55,0,0
9758,-100,4,2,1,40,0,0
10329,-100,4,2,1,50,0,0
14329,-100,4,2,1,55,0,0
14901,-100,4,2,1,50,0,0
18329,-100,4,2,1,60,0,0
22329,-100,4,2,1,65,0,0
22901,-100,4,2,1,60,0,0
25187,-100,4,2,1,65,0,0
25472,-100,4,2,1,70,0,0
25758,-100,4,2,1,75,0,0
26044,-100,4,2,1,80,0,0
26329,-100,4,2,1,60,0,0
26615,-100,4,2,1,50,0,0
26901,-100,4,2,1,40,0,0
27115,-100,4,2,1,45,0,0
27187,-100,4,2,1,50,0,0
27258,-100,4,2,1,55,0,0
27329,-100,4,2,1,60,0,0
27401,-100,4,2,1,65,0,0
27472,-100,4,2,1,70,0,0
31472,-100,4,2,1,71,0,0
31544,-100,4,2,1,72,0,0
31615,-100,4,2,1,73,0,0
31687,-100,4,2,1,74,0,0
31758,-100,4,2,1,75,0,0
31829,-100,4,2,1,76,0,0
31901,-100,4,2,1,77,0,0
31972,-100,4,2,1,78,0,0
32044,-100,4,2,1,70,0,0
36044,-100,4,2,1,80,0,0
36329,-100,4,2,1,90,0,0
36615,-100,4,2,1,80,0,0
40615,-100,4,2,1,90,0,0
41187,-100,4,2,1,80,0,0
44615,-100,4,2,1,90,0,0
45187,-100,4,2,2,50,0,0
45758,-100,4,2,1,70,0,0
54901,-100,4,2,1,80,0,0
62901,-100,4,2,1,85,0,0
64044,-100,4,2,1,90,0,0
66329,-100,4,2,1,95,0,0
68615,-100,4,2,1,60,0,0
69758,-80,4,2,1,80,0,1
78329,-80,4,2,1,60,0,1
78520,-80,4,2,1,70,0,1
78710,-80,4,2,1,80,0,1
78901,-80,4,2,1,85,0,1
80901,-80,4,2,1,76,0,1
80996,-80,4,2,1,79,0,1
81091,-80,4,2,1,82,0,1
81187,-80,4,2,1,85,0,1
82901,-80,4,2,1,70,0,1
83091,-80,4,2,1,75,0,1
83282,-80,4,2,1,80,0,1
83472,-80,4,2,1,85,0,1
83758,-80,4,2,1,88,0,1
84044,-80,4,2,1,91,0,1
84329,-80,4,2,1,94,0,1
84615,-80,4,2,1,90,0,1
84901,-80,4,2,1,86,0,1
85187,-80,4,2,1,82,0,1
85758,-80,4,2,1,90,0,1
87472,-80,4,2,1,90,0,0
88044,-80,4,2,1,90,0,1
102901,-80,4,2,1,85,0,1
103472,-80,4,2,1,80,0,1
104044,-80,4,2,1,75,0,1
104329,-80,4,2,1,70,0,1
105187,-80,4,2,1,65,0,1
105758,-80,4,2,1,60,0,1
105901,-80,4,2,1,65,0,1
106044,-80,4,2,1,70,0,1
106187,-80,4,2,1,75,0,1
106329,285.714285714286,6,2,1,70,1,0
109757,-100,6,2,1,75,0,0
111471,-100,6,2,1,80,0,0
113186,-100,6,2,1,50,0,0
113471,-100,6,2,1,35,0,0
114900,-100,6,2,1,55,0,0
115186,-100,6,2,1,40,0,0
116614,-100,6,2,1,60,0,0
116900,-100,6,2,1,45,0,0
118329,-100,6,2,1,40,0,0
118614,-100,6,2,1,30,0,0
118900,285.714285714286,4,2,1,60,1,0
120042,-100,4,2,1,50,0,0
121185,-100,4,2,1,40,0,0
122328,-100,4,2,1,30,0,0
123471,-100,4,2,1,20,0,0

[Colours]
Combo1 : 142,193,187
Combo2 : 226,18,7
Combo3 : 156,164,184
Combo4 : 240,125,146

[HitObjects]
415,303,1187,5,2,1:2:0:0:
364,155,1472,2,0,L|368:100,2,46.6666666666667,0|0|0,1:0|0:0|0:0,0:0:0:0:
336,202,1758,2,0,P|276:173|214:182,1,93.3333333333333,2|0,1:2|0:0,0:0:0:0:
148,202,2044,1,0,1:0:0:0:
34,104,2234,5,0,1:0:0:0:
34,104,2329,2,0,L|160:93,1,93.3333333333333,2|0,1:2|0:0,0:0:0:0:
230,82,2615,1,0,1:0:0:0:
388,176,2806,1,0,1:0:0:0:
388,176,2901,2,0,P|381:240|362:296,2,93.3333333333333,2|2|2,1:2|1:2|1:2,0:0:0:0:
364,27,3472,5,2,1:2:0:0:
278,220,3758,2,0,L|282:275,2,46.6666666666667,0|0|0,1:0|0:0|0:0,0:0:0:0:
250,173,4044,2,0,P|190:202|128:193,1,93.3333333333333,2|0,1:2|0:0,0:0:0:0:
62,178,4329,1,0,1:0:0:0:
165,45,4520,5,0,1:0:0:0:
165,45,4615,2,0,L|172:128,2,46.6666666666667,2|0|0,1:2|1:0|1:0,0:0:0:0:
262,2,4901,1,2,1:2:0:0:
410,166,5091,1,0,1:0:0:0:
410,166,5187,2,0,P|403:230|384:286,2,93.3333333333333,2|2|2,1:2|1:2|1:2,0:0:0:0:
372,65,5758,5,2,1:2:0:0:
262,116,5948,1,0,0:0:0:0:
262,116,6044,2,0,L|181:112,2,46.6666666666667,0|0|0,1:0|0:0|1:0,0:0:0:0:
289,163,6329,1,2,1:2:0:0:
204,276,6520,1,0,0:0:0:0:
204,276,6615,2,0,L|182:221,2,46.6666666666667,0|0|0,1:0|1:0|1:0,0:0:0:0:
191,314,6901,6,0,P|113:302|94:283,1,93.3333333333333,2|2,1:2|1:2,0:0:0:0:
55,305,7187,2,0,P|8:241|8:214,1,93.3333333333333,2|2,1:2|1:2,0:0:0:0:
20,177,7472,5,2,1:2:0:0:
121,94,7663,1,2,1:2:0:0:
290,122,7853,1,2,1:2:0:0:
492,45,8044,5,4,0:0:0:0:
492,45,9187,6,0,L|495:101,7,35,0|0|0|0|0|0|0|0,1:0|1:0|1:0|1:0|1:0|1:0|1:0|1:0,0:0:0:0:
471,122,9758,2,0,P|416:125|372:113,1,70,0|0,0:0|0:0,0:0:0:0:
314,82,10044,2,0,P|259:79|215:91,1,70,0|0,0:0|0:0,0:0:0:0:
121,139,10329,5,4,1:0:0:0:
121,139,10615,2,0,P|136:193|143:262,1,105,2|0,1:2|0:0,0:0:0:0:
140,301,10901,1,2,1:2:0:0:
140,301,11044,1,2,0:2:0:0:
253,259,11187,1,2,1:2:0:0:
253,259,11329,1,0,0:0:0:0:
368,326,11472,6,0,L|355:238,1,70,2|0,1:2|0:0,0:0:0:0:
344,156,11758,1,2,1:2:0:0:
445,177,11901,1,2,0:0:0:0:
471,50,12044,2,0,L|378:55,1,70,0|0,1:2|0:0,0:0:0:0:
293,61,12329,1,2,1:2:0:0:
208,143,12472,1,0,1:0:0:0:
94,79,12615,5,0,1:0:0:0:
94,79,12901,2,0,P|103:129|99:207,1,105,2|0,1:2|0:0,0:0:0:0:
86,226,13187,1,2,1:2:0:0:
86,226,13329,1,2,0:2:0:0:
134,317,13472,1,2,1:2:0:0:
134,317,13615,1,0,0:0:0:0:
203,237,13758,6,0,L|301:231,1,70,2|0,1:2|0:0,0:0:0:0:
393,224,14044,1,2,1:2:0:0:
329,122,14187,1,2,0:0:0:0:
206,145,14329,2,0,P|197:111|197:76,1,70,2|0,1:2|1:0,0:0:0:0:
197,76,14544,1,0,1:0:0:0:
197,76,14615,1,2,1:2:0:0:
320,154,14758,1,2,1:2:0:0:
425,60,14901,5,0,1:0:0:0:
425,60,15187,2,0,P|437:131|418:193,1,105,2|0,1:2|0:0,0:0:0:0:
410,210,15472,1,2,1:2:0:0:
410,210,15615,1,2,0:0:0:0:
300,179,15758,1,0,1:0:0:0:
300,179,15901,1,0,0:0:0:0:
174,254,16044,6,0,L|177:170,1,70,2|0,1:2|0:0,0:0:0:0:
181,75,16329,1,2,1:2:0:0:
278,139,16472,1,2,0:0:0:0:
411,60,16615,2,0,L|414:144,1,70,0|0,1:0|0:0,0:0:0:0:
418,246,16901,1,2,1:2:0:0:
349,337,17044,1,0,1:0:0:0:
226,280,17187,5,2,1:2:0:0:
226,280,17329,2,0,L|222:343,2,35,0|0|10,1:0|1:0|0:0,0:0:0:0:
170,163,17615,1,0,1:0:0:0:
98,266,17758,1,10,0:0:0:0:
43,122,17901,1,2,1:2:0:0:
43,122,17972,1,0,1:0:0:0:
43,122,18044,2,0,L|105:117,3,35,10|8|10|8,0:0|0:0|0:0|0:0,0:0:0:0:
136,116,18329,5,4,1:0:0:0:
136,116,18472,1,0,1:0:0:0:
136,116,18615,2,0,P|171:144|200:210,1,105,10|0,0:0|0:0,0:0:0:0:
200,254,18901,1,2,1:2:0:0:
200,254,19044,1,2,0:2:0:0:
300,186,19187,1,10,0:0:0:0:
300,186,19329,1,0,0:0:0:0:
329,303,19472,6,0,L|235:312,1,70,2|0,1:2|0:0,0:0:0:0:
156,324,19758,1,10,0:0:0:0:
138,201,19901,1,2,0:0:0:0:
284,217,20044,2,0,L|277:123,1,70,0|0,1:0|0:0,0:0:0:0:
267,33,20329,1,10,0:0:0:0:
374,62,20472,1,0,1:0:0:0:
507,17,20615,5,0,1:0:0:0:
507,17,20758,1,0,1:0:0:0:
507,17,20901,2,0,P|507:70|485:140,1,105,10|0,0:0|0:0,0:0:0:0:
465,156,21187,1,2,1:2:0:0:
465,156,21329,1,2,0:0:0:0:
348,138,21472,1,10,0:0:0:0:
348,138,21615,1,0,0:0:0:0:
263,217,21758,6,0,L|174:212,1,70,2|0,1:2|0:0,0:0:0:0:
87,205,22044,1,10,0:0:0:0:
128,105,22187,1,2,0:0:0:0:
254,157,22329,2,0,P|268:113|261:72,1,70,2|0,1:2|1:0,0:0:0:0:
283,56,22544,1,0,1:0:0:0:
283,56,22615,2,0,P|261:14|227:-9,1,70,8|0,0:0|1:0,0:0:0:0:
112,73,22901,5,0,1:0:0:0:
10,32,23044,1,0,1:0:0:0:
10,32,23115,1,0,1:0:0:0:
10,32,23187,2,0,L|18:168,1,105,10|0,0:0|0:0,0:0:0:0:
48,179,23472,1,2,1:2:0:0:
48,179,23615,1,2,0:0:0:0:
13,284,23758,1,10,0:0:0:0:
13,284,23901,1,0,0:0:0:0:
102,360,24044,6,0,L|195:354,1,70,2|0,1:2|0:0,0:0:0:0:
278,349,24329,1,10,0:0:0:0:
239,243,24472,1,2,0:0:0:0:
372,257,24615,2,0,L|378:164,1,70,0|0,1:0|0:0,0:0:0:0:
386,80,24901,1,10,0:0:0:0:
302,26,25044,1,0,1:0:0:0:
215,125,25187,6,0,P|173:135|95:129,1,105,2|0,1:2|1:0,0:0:0:0:
70,109,25472,2,0,L|58:23,1,70,10|0,0:0|1:0,0:0:0:0:
9,234,25758,2,0,L|-3:148,1,70,10|0,0:0|1:0,0:0:0:0:
141,317,26044,2,0,L|129:231,1,70,10|0,0:0|1:0,0:0:0:0:
111,132,26329,5,10,0:0:0:0:
157,28,26472,1,2,1:2:0:0:
205,114,26615,1,10,0:0:0:0:
249,43,26758,1,2,1:2:0:0:
296,85,26901,1,2,1:2:0:0:
336,65,27044,1,0,1:0:0:0:
336,65,27115,1,0,1:0:0:0:
336,65,27187,2,0,L|387:61,3,35,8|8|8|8,0:0|0:0|0:0|0:0,0:0:0:0:
408,25,27472,5,0,1:0:0:0:
408,25,27615,1,0,1:0:0:0:
408,25,27758,2,0,L|395:122,1,70,0|0,0:0|0:0,0:0:0:0:
382,199,28044,2,0,B|332:207|332:207|246:191,1,105,10|0,0:1|0:0,0:0:0:0:
232,183,28329,1,0,1:0:0:0:
232,183,28472,1,0,1:0:0:0:
286,71,28615,5,0,0:0:0:0:
183,14,28758,1,2,0:1:0:0:
183,14,28829,1,0,0:1:0:0:
183,14,28901,2,0,L|105:5,1,70,0|0,1:0|1:0,0:0:0:0:
55,128,29187,2,0,L|133:137,1,70,10|2,0:1|0:1,0:0:0:0:
18,23,29472,2,0,L|96:32,1,70,2|2,0:1|0:1,0:0:0:0:
143,167,29758,5,0,1:0:0:0:
260,98,29901,1,2,1:2:0:0:
260,98,29972,1,2,0:0:0:0:
260,98,30044,2,0,P|266:55|258:22,1,70,2|2,0:0|0:0,0:0:0:0:
229,189,30329,6,0,P|275:190|358:218,1,105,10|0,0:1|0:0,0:0:0:0:
368,245,30615,1,2,1:2:0:0:
368,245,30758,1,2,1:2:0:0:
302,334,30901,2,0,L|207:326,1,70,2|2,0:1|1:0,0:0:0:0:
198,341,31115,1,0,0:0:0:0:
198,341,31187,2,0,L|103:333,1,70,0|0,1:0|0:0,0:0:0:0:
40,264,31472,2,0,P|102:177|241:199,1,245,10|2,0:1|0:0,0:0:0:0:
262,227,32044,5,0,1:0:0:0:
262,227,32187,1,0,1:0:0:0:
341,279,32329,2,0,L|435:275,1,70,0|0,0:0|0:0,0:0:0:0:
473,183,32615,2,0,B|434:152|434:152|377:139,1,105,10|0,0:1|0:0,0:0:0:0:
331,149,32901,1,0,1:0:0:0:
331,149,33044,1,0,1:0:0:0:
253,58,33187,5,0,0:0:0:0:
169,162,33329,1,2,1:0:0:0:
169,162,33401,1,0,0:0:0:0:
169,162,33472,2,0,L|94:157,1,70,0|0,1:0|0:0,0:0:0:0:
46,288,33758,2,0,L|121:293,1,70,10|2,0:1|0:1,0:0:0:0:
4,184,34044,2,0,L|79:189,1,70,2|2,0:1|0:1,0:0:0:0:
209,203,34329,5,0,1:0:0:0:
306,141,34472,1,2,1:2:0:0:
306,141,34544,1,2,0:0:0:0:
306,141,34615,2,0,P|312:98|304:65,1,70,2|2,0:0|0:0,0:0:0:0:
391,182,34901,6,0,P|392:228|420:311,1,105,10|0,0:1|0:0,0:0:0:0:
447,321,35187,1,2,1:2:0:0:
447,321,35329,1,2,1:2:0:0:
336,379,35472,2,0,L|238:364,1,70,2|2,0:1|1:0,0:0:0:0:
221,343,35687,1,0,0:0:0:0:
221,343,35758,2,0,L|125:323,1,70,10|0,0:0|0:0,0:0:0:0:
31,299,36044,5,6,1:2:0:0:
11,136,36329,1,6,1:2:0:0:
42,329,36615,5,4,1:0:0:0:
42,329,36758,1,0,1:0:0:0:
122,238,36901,1,10,0:1:0:0:
53,153,37044,2,0,L|-3:149,1,35,0|0,1:0|1:0,0:0:0:0:
39,180,37187,1,2,1:2:0:0:
39,180,37329,1,2,1:2:0:0:
119,259,37472,1,10,0:0:0:0:
237,191,37615,6,0,P|238:258|217:351,1,140,2|2,1:0|1:0,0:0:0:0:
216,360,37972,1,0,1:0:0:0:
216,360,38044,2,0,L|304:350,1,70,8|0,0:0|1:0,0:0:0:0:
395,292,38329,2,0,B|402:252|402:252|398:202,1,70,2|2,1:0|0:1,0:0:0:0:
285,352,38615,2,0,B|278:312|278:312|282:262,1,70,10|2,0:1|1:0,0:0:0:0:
367,169,38901,6,0,P|418:184|506:171,1,140,4|10,1:0|0:0,0:0:0:0:
439,80,39329,1,2,1:2:0:0:
439,80,39401,1,0,1:0:0:0:
439,80,39472,2,0,L|427:-8,1,70,2|0,1:1|1:0,0:0:0:0:
319,64,39758,2,0,L|257:55,3,35,10|0|2|0,0:0|1:0|1:0|1:0,0:0:0:0:
242,86,40044,5,2,1:2:0:0:
211,180,40187,1,2,1:0:0:0:
116,109,40329,1,10,0:0:0:0:
85,203,40472,1,0,1:0:0:0:
121,328,40615,6,0,P|65:321|14:324,2,93.3333333333333,2|2|2,1:0|1:0|1:0,0:0:0:0:
243,380,41187,5,14,0:0:0:0:
333,315,41329,2,0,L|326:263,1,35,0|0,1:0|0:0,0:0:0:0:
348,296,41472,1,8,0:0:0:0:
226,261,41615,1,0,1:0:0:0:
295,167,41758,5,10,0:0:0:0:
164,71,41901,2,0,L|171:123,1,35,0|0,1:0|0:0,0:0:0:0:
149,90,42044,1,8,0:0:0:0:
60,186,42187,2,0,L|68:101,1,70,2|8,1:0|0:0,0:0:0:0:
48,0,42472,1,2,1:0:0:0:
164,71,42615,6,0,P|213:69|240:65,1,70,8|0,0:0|1:0,0:0:0:0:
363,5,42901,2,0,L|283:-1,1,70,10|2,0:1|1:0,0:0:0:0:
392,109,43187,2,0,L|312:103,1,70,2|2,1:0|1:0,0:0:0:0:
245,181,43472,6,0,L|251:233,3,35,4|0|0|0,1:0|1:0|1:0|1:0,0:0:0:0:
257,263,43758,1,2,1:2:0:0:
257,263,43901,1,2,1:2:0:0:
368,318,44044,6,0,L|374:266,3,35,6|0|0|0,1:2|1:0|1:0|1:0,0:0:0:0:
380,236,44329,1,2,1:2:0:0:
380,236,44472,1,2,1:2:0:0:
476,166,44615,6,0,L|470:114,3,35,4|0|0|0,1:0|1:0|1:0|1:0,0:0:0:0:
433,95,44901,2,0,L|427:43,3,35,0|0|0|0,1:0|1:0|1:0|1:0,0:0:0:0:
455,9,45187,1,10,0:0:0:0:
455,9,45758,6,0,B|339:-17|392:62|237:32,1,210,6|2,1:2|0:0,0:0:0:0:
122,0,46329,2,0,P|109:47|110:87,1,70,0|0,1:0|0:0,0:0:0:0:
245,60,46615,2,0,P|258:107|257:147,1,70,10|0,0:0|0:0,0:0:0:0:
230,235,46901,1,0,1:0:0:0:
306,332,47044,2,0,L|458:313,1,140,2|0,0:0|0:0,0:0:0:0:
483,213,47472,2,0,P|446:208|401:211,1,70,2|0,1:2|0:0,0:0:0:0:
326,248,47758,2,0,P|289:252|244:249,1,70,2|0,1:2|0:0,0:0:0:0:
149,190,48044,6,0,L|140:300,1,105,6|2,1:2|0:0,0:0:0:0:
123,343,48329,2,0,L|29:331,1,70,10|2,0:0|0:0,0:0:0:0:
0,253,48615,2,0,P|16:214|38:183,1,70,2|2,1:2|0:0,0:0:0:0:
138,120,48901,2,0,L|149:192,1,70,10|2,0:0|0:0,0:0:0:0:
170,317,49187,6,0,P|230:336|288:313,1,105,2|0,1:2|0:0,0:0:0:0:
313,301,49472,2,0,P|363:291|412:309,1,105,10|2,0:0|0:0,0:0:0:0:
444,353,49758,5,10,0:0:0:0:
512,267,49901,1,0,1:0:0:0:
512,267,49972,1,0,1:0:0:0:
512,267,50044,2,0,L|504:173,1,70,10|0,0:0|1:0,0:0:0:0:
500,143,50258,1,0,1:0:0:0:
500,143,50329,6,0,L|416:131,1,70,6|2,1:2|0:0,0:0:0:0:
361,48,50615,2,0,L|277:36,1,70,10|2,0:0|0:0,0:0:0:0:
208,108,50901,2,0,L|124:96,1,70,2|2,1:2|0:0,0:0:0:0:
69,13,51187,2,0,L|-15:1,1,70,10|2,0:0|0:0,0:0:0:0:
31,108,51472,6,0,P|32:154|16:198,1,93.3333333333333,2|0,1:2|0:0,0:0:0:0:
0,250,51758,2,0,P|53:252|107:229,1,93.3333333333333,10|0,0:0|0:0,0:0:0:0:
139,210,52044,2,0,L|159:362,1,140,2|10,1:2|0:0,0:0:0:0:
261,383,52472,1,2,0:0:0:0:
261,383,52544,1,2,0:0:0:0:
261,383,52615,6,0,L|337:364,1,70,6|0,1:2|1:0,0:0:0:0:
437,336,52901,2,0,P|460:291|472:260,1,70,10|2,0:0|0:0,0:0:0:0:
445,152,53187,2,0,P|389:166|315:157,1,105,2|0,1:2|0:0,0:0:0:0:
299,131,53472,1,10,0:0:0:0:
216,223,53615,1,0,1:0:0:0:
216,223,53687,1,0,1:0:0:0:
216,223,53758,2,0,L|220:272,2,35,2|2|2,1:2|0:0|1:2,0:0:0:0:
190,109,54044,5,8,0:0:0:0:
121,253,54187,1,0,1:0:0:0:
20,210,54329,2,0,L|13:163,3,35,0|0|0|0,1:0|1:0|1:0|1:0,0:0:0:0:
41,126,54615,2,0,L|48:79,3,35,2|2|2|2,1:2|1:2|1:2|1:2,0:0:0:0:
16,40,54901,6,0,P|57:15|130:-1,1,105,6|0,1:0|0:0,0:0:0:0:
164,10,55187,1,10,0:0:0:0:
242,105,55329,1,0,0:0:0:0:
242,105,55401,1,0,0:0:0:0:
242,105,55472,2,0,L|235:151,3,35,10|0|0|0,0:0|0:0|0:0|0:0,0:0:0:0:
228,196,55758,1,10,0:0:0:0:
343,169,55901,1,2,0:0:0:0:
459,259,56044,6,0,P|469:215|479:141,1,105,10|0,1:2|0:0,0:0:0:0:
478,106,56329,2,0,P|428:121|377:132,1,105,10|0,1:2|0:0,0:0:0:0:
343,169,56615,2,0,P|394:184|445:195,1,105,10|0,1:2|0:0,0:0:0:0:
492,209,56901,1,10,1:2:0:0:
434,332,57044,1,0,0:0:0:0:
434,332,57115,1,0,0:0:0:0:
434,332,57187,6,0,L|324:320,2,105,2|2|2,1:2|0:0|0:0,0:0:0:0:
417,232,57758,2,0,L|322:174,2,105,2|2|2,1:2|0:0|0:0,0:0:0:0:
512,175,58329,2,0,P|516:114|498:54,1,105,2|2,1:2|0:0,0:0:0:0:
477,28,58615,1,8,0:0:0:0:
375,74,58758,2,0,L|285:60,1,70,0|0,0:0|0:0,0:0:0:0:
214,159,59044,2,0,L|304:173,2,70,2|8|2,0:0|0:0|0:0,0:0:0:0:
90,142,59472,6,0,B|101:211|101:211|140:269,1,140,14|8,0:2|0:0,0:0:0:0:
211,354,59901,1,0,1:0:0:0:
293,253,60044,2,0,L|288:202,7,35,10|0|2|0|10|0|2|0,0:0|0:0|1:2|0:0|0:0|0:0|1:2|1:0,0:0:0:0:
283,169,60615,6,0,P|334:153|411:166,1,105,14|0,0:2|0:0,0:0:0:0:
439,172,60901,2,0,B|448:137|448:137|438:78,1,70,10|0,0:0|1:0,0:0:0:0:
363,44,61187,2,0,B|328:53|328:53|269:43,1,70,10|0,0:0|1:0,0:0:0:0:
171,19,61472,1,2,1:2:0:0:
171,19,61544,1,0,1:0:0:0:
171,19,61615,1,0,1:0:0:0:
171,19,61687,1,0,1:0:0:0:
171,19,61758,6,0,L|177:88,1,70,14|0,0:0|1:0,0:0:0:0:
172,208,62044,2,0,L|178:138,1,70,10|0,0:0|1:0,0:0:0:0:
171,19,62329,2,0,L|177:88,1,70,10|0,0:0|1:0,0:0:0:0:
172,208,62615,1,10,0:0:0:0:
101,27,62758,1,0,1:0:0:0:
101,27,62829,1,0,1:0:0:0:
101,27,62901,6,0,P|144:24|181:16,1,70,14|0,0:0|1:0,0:0:0:0:
108,130,63187,2,0,P|151:133|188:141,1,70,10|0,0:0|1:0,0:0:0:0:
101,27,63472,2,0,P|144:24|181:16,1,70,10|0,0:0|1:0,0:0:0:0:
108,130,63758,1,2,1:2:0:0:
276,125,63901,1,0,1:0:0:0:
276,125,63972,1,0,1:0:0:0:
276,125,64044,6,0,B|270:84|270:84|281:36,1,70,14|0,0:0|1:0,0:0:0:0:
398,147,64329,2,0,B|404:106|404:106|393:58,1,70,10|0,0:0|1:0,0:0:0:0:
276,125,64615,2,0,B|270:84|270:84|281:36,1,70,10|0,0:0|1:0,0:0:0:0:
398,147,64901,1,10,0:0:0:0:
306,137,65044,1,2,1:2:0:0:
306,137,65115,1,0,1:0:0:0:
306,137,65187,6,0,P|268:126|226:124,1,70,10|0,0:0|1:0,0:0:0:0:
402,199,65472,2,0,P|440:188|482:186,1,70,10|0,0:0|1:0,0:0:0:0:
306,137,65758,2,0,P|268:126|226:124,1,70,10|0,0:0|1:0,0:0:0:0:
402,199,66044,2,0,L|399:133,2,35,10|0|0,0:0|1:0|1:0,0:0:0:0:
313,299,66329,6,0,P|262:311|192:279,1,105,2|0,1:2|1:0,0:0:0:0:
166,300,66615,2,0,P|137:256|143:179,1,105,2|0,1:2|1:0,0:0:0:0:
114,162,66901,2,0,P|145:120|219:99,1,105,2|0,1:2|1:0,0:0:0:0:
225,65,67187,2,0,P|275:80|319:142,1,105,2|0,1:2|1:0,0:0:0:0:
354,136,67472,6,0,L|472:124,1,105,2|0,1:2|0:0,0:0:0:0:
488,166,67758,2,0,L|370:178,1,105,2|0,1:2|0:0,0:0:0:0:
370,225,68044,2,0,L|488:213,1,105,2|0,1:2|0:0,0:0:0:0:
504,255,68329,2,0,L|386:267,1,105,2|0,1:2|0:0,0:0:0:0:
386,314,68615,5,0,0:0:0:0:
386,314,69187,6,0,B|263:290|301:399|131:365,1,245,2|0,0:0|0:0,0:0:0:0:
108,343,69758,5,6,1:2:0:0:
108,343,69901,1,0,1:0:0:0:
26,231,70044,6,0,P|112:215|159:220,1,116.666666666667,2|0,1:2|0:0,0:0:0:0:
178,233,70329,2,0,P|162:147|167:100,1,116.666666666667,2|0,1:2|0:0,0:0:0:0:
269,66,70615,2,0,P|285:152|280:199,1,116.666666666667,2|0,1:2|0:0,0:0:0:0:
271,222,70901,6,0,L|417:212,1,116.666666666667,2|0,1:2|0:0,0:0:0:0:
470,286,71187,2,0,P|410:338|337:331,1,116.666666666667,2|0,1:2|0:0,0:0:0:0:
329,328,71472,2,0,P|269:276|196:283,1,116.666666666667,2|0,1:2|0:0,0:0:0:0:
152,326,71758,2,0,P|181:249|146:173,1,116.666666666667,2|0,1:2|0:0,0:0:0:0:
136,178,72044,6,0,L|296:156,1,116.666666666667,2|0,1:2|0:0,0:0:0:0:
194,92,72329,2,0,L|354:114,1,116.666666666667,2|0,1:2|0:0,0:0:0:0:
404,129,72615,2,0,P|394:197|369:269,1,116.666666666667,2|0,1:2|0:0,0:0:0:0:
326,272,72901,2,0,P|400:316|445:295,1,116.666666666667,2|0,1:2|0:0,0:0:0:0:
499,250,73187,6,0,L|480:98,1,116.666666666667,2|0,1:2|0:0,0:0:0:0:
380,82,73472,2,0,L|399:234,1,116.666666666667,2|0,1:2|0:0,0:0:0:0:
326,272,73758,2,0,B|255:258|255:258|200:193,2,116.666666666667,0|0|0,1:0|1:0|1:0,0:0:0:0:
62,16,74329,6,0,P|34:61|98:125,1,116.666666666667,2|0,1:2|0:0,0:0:0:0:
87,148,74615,2,0,L|72:299,1,116.666666666667,2|0,1:2|0:0,0:0:0:0:
160,211,74901,2,0,L|175:362,1,116.666666666667,2|0,1:2|0:0,0:0:0:0:
183,376,75187,2,0,P|255:348|332:357,1,116.666666666667,2|0,1:2|0:0,0:0:0:0:
376,296,75472,6,0,P|318:292|265:267,1,116.666666666667,2|0,1:2|0:0,0:0:0:0:
217,272,75758,2,0,P|187:222|176:165,1,116.666666666667,2|0,1:2|0:0,0:0:0:0:
209,74,76044,2,0,L|361:69,1,116.666666666667,2|0,1:2|0:0,0:0:0:0:
382,70,76329,2,0,P|376:135|338:206,1,116.666666666667,2|0,1:2|0:0,0:0:0:0:
289,252,76615,6,0,P|341:286|388:336,1,116.666666666667,2|0,1:2|0:0,0:0:0:0:
396,372,76901,2,0,L|494:363,2,58.3333333333333,2|2|2,1:2|0:0|0:0,0:0:0:0:
299,384,77187,2,0,L|171:374,1,116.666666666667,2|0,1:2|0:0,0:0:0:0:
125,366,77472,2,0,P|93:298|113:216,1,116.666666666667,2|2,1:2|0:0,0:0:0:0:
129,165,77758,5,2,1:2:0:0:
266,253,77948,1,2,1:2:0:0:
266,253,78044,2,0,L|254:155,2,58.3333333333333,2|0|2,1:2|0:0|1:2,0:0:0:0:
347,223,78329,2,0,L|356:135,1,58.3333333333333,2|0,1:2|0:0,0:0:0:0:
379,183,78520,2,0,L|388:95,1,58.3333333333333,2|0,1:2|0:0,0:0:0:0:
411,143,78710,2,0,L|420:55,1,58.3333333333333,2|0,1:2|0:0,0:0:0:0:
443,103,78901,6,0,P|350:90|306:56,1,116.666666666667,6|0,1:2|0:0,0:0:0:0:
240,17,79187,2,0,P|227:110|193:154,1,116.666666666667,2|0,1:2|0:0,0:0:0:0:
191,177,79472,2,0,L|321:172,1,116.666666666667,2|0,1:2|0:0,0:0:0:0:
353,173,79758,2,0,L|358:303,1,116.666666666667,2|0,1:2|0:0,0:0:0:0:
417,368,80044,6,0,P|477:300|465:227,1,116.666666666667,2|0,1:2|0:0,0:0:0:0:
459,231,80329,2,0,P|378:239|317:192,1,116.666666666667,2|0,1:2|0:0,0:0:0:0:
355,126,80615,2,0,P|436:118|497:165,1,116.666666666667,2|0,1:2|0:0,0:0:0:0:
485,146,80901,2,0,L|473:56,2,58.3333333333333,2|0|0,1:2|1:0|1:0,0:0:0:0:
498,257,81187,6,0,P|412:284|354:260,1,116.666666666667,2|0,1:2|0:0,0:0:0:0:
343,252,81472,2,0,P|257:225|199:249,1,116.666666666667,2|0,1:2|0:0,0:0:0:0:
187,251,81758,2,0,L|202:114,1,116.666666666667,2|0,1:2|0:0,0:0:0:0:
208,84,82044,2,0,P|272:40|355:38,1,116.666666666667,2|0,1:2|0:0,0:0:0:0:
397,101,82329,6,0,L|382:238,1,116.666666666667,2|0,1:2|0:0,0:0:0:0:
376,268,82615,2,0,P|312:312|229:314,1,116.666666666667,2|0,1:2|0:0,0:0:0:0:
227,293,82901,2,0,L|216:207,2,58.3333333333333,2|0|0,1:2|0:0|1:0,0:0:0:0:
124,325,83187,2,0,L|135:239,2,58.3333333333333,2|0|0,0:0|1:0|0:0,0:0:0:0:
59,379,83472,6,0,P|17:311|29:256,1,116.666666666667,2|2,1:2|0:0,0:0:0:0:
4,231,83758,2,0,P|53:168|109:160,1,116.666666666667,2|2,1:2|0:0,0:0:0:0:
123,127,84044,2,0,P|198:152|225:201,1,116.666666666667,2|2,1:2|0:0,0:0:0:0:
261,203,84329,2,0,P|263:282|225:324,1,116.666666666667,2|2,1:2|0:0,0:0:0:0:
207,348,84615,6,0,L|125:334,2,58.3333333333333,2|0|0,1:2|0:0|0:0,0:0:0:0:
167,250,84901,2,0,L|85:236,2,58.3333333333333,2|0|0,1:2|0:0|1:0,0:0:0:0:
274,278,85187,5,2,1:2:0:0:
422,139,85377,1,0,1:0:0:0:
511,308,85567,1,0,1:0:0:0:
324,178,85758,6,0,B|353:247|283:217|314:285,1,116.666666666667,2|0,1:2|0:0,0:0:0:0:
323,337,86044,2,0,P|256:303|199:314,1,116.666666666667,2|0,1:2|1:0,0:0:0:0:
174,333,86329,2,0,P|208:266|197:209,1,116.666666666667,2|0,1:2|1:0,0:0:0:0:
175,182,86615,2,0,L|51:172,1,116.666666666667,2|0,0:0|0:0,0:0:0:0:
16,143,86901,6,0,L|2:53,2,58.3333333333333,2|2|2,1:2|0:0|0:0,0:0:0:0:
101,82,87187,2,0,L|126:-5,2,58.3333333333333,2|2|2,1:2|0:0|0:0,0:0:0:0:
203,62,87472,2,0,B|250:87|250:87|494:61,1,291.666666666667,10|10,0:0|0:0,0:0:0:0:
512,31,88044,6,0,P|488:84|480:141,1,116.666666666667,6|0,1:2|1:0,0:0:0:0:
500,245,88329,2,0,P|446:221|389:213,1,116.666666666667,10|0,0:0|0:0,0:0:0:0:
290,245,88615,1,2,1:2:0:0:
167,104,88806,1,0,0:0:0:0:
167,104,88901,2,0,P|188:172|186:233,1,116.666666666667,10|0,0:0|0:0,0:0:0:0:
127,302,89187,6,0,P|63:276|-5:296,1,116.666666666667,2|0,1:2|1:0,0:0:0:0:
56,381,89472,2,0,P|71:306|54:243,1,116.666666666667,10|0,0:0|0:0,0:0:0:0:
37,128,89758,2,0,P|22:203|39:266,1,116.666666666667,2|0,1:2|0:0,0:0:0:0:
127,302,90044,2,0,P|191:276|259:296,1,116.666666666667,10|0,0:0|0:0,0:0:0:0:
329,367,90329,6,0,L|310:224,1,116.666666666667,2|0,1:2|1:0,0:0:0:0:
251,167,90615,2,0,L|236:283,1,116.666666666667,10|0,0:0|0:0,0:0:0:0:
216,384,90901,1,2,1:2:0:0:
101,286,91091,1,2,1:2:0:0:
101,286,91187,2,0,P|116:208|103:147,1,116.666666666667,10|2,0:0|0:0,0:0:0:0:
87,120,91472,6,0,L|225:125,1,116.666666666667,2|0,1:2|0:0,0:0:0:0:
165,24,91758,2,0,L|303:19,1,116.666666666667,10|0,0:0|0:0,0:0:0:0:
404,16,92044,2,0,L|390:101,2,58.3333333333333,2|0|0,1:2|0:0|0:0,0:0:0:0:
511,109,92329,2,0,L|497:24,2,58.3333333333333,10|0|0,0:0|0:0|0:0,0:0:0:0:
459,222,92615,1,2,1:2:0:0:
459,222,92901,6,0,B|382:202|418:253|308:223,1,116.666666666667,10|0,0:0|0:0,0:0:0:0:
297,219,93187,2,0,P|329:280|319:354,1,116.666666666667,2|0,1:2|0:0,0:0:0:0:
226,299,93472,1,10,0:0:0:0:
340,143,93663,1,0,0:0:0:0:
340,143,93758,6,0,L|201:133,1,116.666666666667,2|0,1:2|1:0,0:0:0:0:
174,125,94044,2,0,P|190:59|250:27,1,116.666666666667,10|0,0:0|0:0,0:0:0:0:
334,28,94329,2,0,P|377:64|387:121,1,116.666666666667,2|0,1:2|1:0,0:0:0:0:
363,226,94615,2,0,L|451:220,2,58.3333333333333,10|0|0,0:0|1:0|1:0,0:0:0:0:
291,305,94901,6,0,L|165:298,1,116.666666666667,2|0,1:2|0:0,0:0:0:0:
71,287,95187,2,0,P|49:233|59:176,1,116.666666666667,10|2,0:0|0:0,0:0:0:0:
101,78,95472,1,2,1:2:0:0:
115,37,95567,2,0,L|125:95,1,58.3333333333333,2|2,0:0|0:0,0:0:0:0:
165,174,95758,1,10,0:0:0:0:
179,214,95853,2,0,L|189:157,1,58.3333333333333,2|2,0:0|0:0,0:0:0:0:
280,100,96044,6,0,P|317:168|278:233,1,116.666666666667,2|0,1:2|0:0,0:0:0:0:
284,246,96329,2,0,L|419:233,1,116.666666666667,10|0,0:0|0:0,0:0:0:0:
508,223,96615,1,2,0:0:0:0:
424,75,96806,1,2,0:0:0:0:
348,238,96996,1,2,0:0:0:0:
440,54,97187,6,0,P|462:133|449:174,1,116.666666666667,6|0,1:2|1:0,0:0:0:0:
400,234,97472,2,0,L|284:221,1,116.666666666667,10|0,0:0|0:0,0:0:0:0:
168,258,97758,2,0,L|283:245,1,116.666666666667,2|0,1:2|0:0,0:0:0:0:
400,234,98044,2,0,L|327:113,1,116.666666666667,10|0,0:0|0:0,0:0:0:0:
278,48,98329,5,2,1:2:0:0:
147,163,98520,1,0,1:0:0:0:
147,163,98615,2,0,P|164:104|143:38,1,116.666666666667,10|0,0:0|0:0,0:0:0:0:
59,102,98901,2,0,L|71:223,1,116.666666666667,2|0,1:2|0:0,0:0:0:0:
80,322,99187,2,0,L|2:316,2,58.3333333333333,10|0|0,0:0|0:0|0:0,0:0:0:0:
196,371,99472,6,0,P|255:335|259:268,1,116.666666666667,2|0,1:2|1:0,0:0:0:0:
249,197,99758,2,0,P|317:217|395:178,1,116.666666666667,10|0,0:0|0:0,0:0:0:0:
459,105,100044,2,0,P|407:129|389:183,1,116.666666666667,2|0,1:2|0:0,0:0:0:0:
405,278,100329,2,0,P|337:258|259:297,1,116.666666666667,10|0,0:0|0:0,0:0:0:0:
342,364,100615,6,0,L|487:351,1,116.666666666667,2|0,1:2|1:0,0:0:0:0:
512,264,100901,2,0,L|499:119,1,116.666666666667,10|0,0:0|0:0,0:0:0:0:
464,15,101187,1,2,1:2:0:0:
487,41,101282,2,0,L|428:36,1,58.3333333333333,2|2,0:0|1:2,0:0:0:0:
367,144,101472,1,10,0:0:0:0:
331,122,101567,2,0,L|390:118,1,58.3333333333333,0|0,0:0|0:0,0:0:0:0:
257,50,101758,6,0,P|235:123|201:140,1,116.666666666667,6|2,1:2|0:0,0:0:0:0:
235,161,102044,2,0,P|167:197|131:185,1,116.666666666667,6|2,1:2|0:0,0:0:0:0:
140,223,102329,2,0,P|66:200|49:166,1,116.666666666667,6|2,1:2|0:0,0:0:0:0:
28,199,102615,2,0,P|-8:131|3:95,1,116.666666666667,6|2,1:2|0:0,0:0:0:0:
65,12,102901,6,0,L|-5:2,2,58.3333333333333,10|0|0,0:0|0:0|0:0,0:0:0:0:
153,72,103187,2,0,L|223:62,2,58.3333333333333,10|0|0,0:0|0:0|0:0,0:0:0:0:
108,169,103472,6,0,B|121:239,1,58.3333333333333,0|0,1:0|0:0,0:0:0:0:
204,253,103663,2,0,B|191:183,1,58.3333333333333,0|8,0:0|0:0,0:0:0:0:
262,138,103853,2,0,B|275:208,1,58.3333333333333,0|0,0:0|0:0,0:0:0:0:
358,222,104044,6,0,B|369:162|369:162|416:104,1,116.666666666667,4|0,1:2|0:0,0:0:0:0:
462,204,104329,2,0,P|449:274|404:322,1,116.666666666667,8|0,0:0|0:0,0:0:0:0:
254,240,104615,6,0,B|265:180|265:180|312:122,1,116.666666666667,0|0,1:0|0:0,0:0:0:0:
358,222,104901,2,0,P|345:292|300:340,1,116.666666666667,8|0,0:0|0:0,0:0:0:0:
150,258,105187,5,6,1:2:0:0:
376,218,105472,1,10,0:0:0:0:
122,265,105758,2,0,L|105:166,2,58.3333333333333,8|0|0,0:0|0:0|0:0,0:0:0:0:
196,327,106044,2,0,L|179:426,2,58.3333333333333,0|0|0,1:0|0:0|0:0,0:0:0:0:
216,216,106329,6,0,P|262:173|325:171,1,93.3333333333333,6|0,1:2|1:0,0:0:0:0:
324,175,106614,2,0,P|281:129|279:66,1,93.3333333333333,10|0,0:0|1:0,0:0:0:0:
287,47,106900,2,0,L|445:33,2,140,10|10|10,0:0|0:0|0:2,0:0:0:0:
143,66,107662,1,0,1:0:0:0:
191,194,107852,1,0,1:0:0:0:
113,339,108043,6,0,P|164:311|239:318,1,93.3333333333333,2|0,1:2|1:0,0:0:0:0:
233,289,108329,2,0,P|182:261|107:268,1,93.3333333333333,10|0,0:0|1:0,0:0:0:0:
102,240,108614,2,0,L|81:109,1,93.3333333333333,10|0,0:0|1:0,0:0:0:0:
65,60,108900,2,0,P|16:52|-18:55,2,46.6666666666667,10|0|0,0:0|1:0|1:0,0:0:0:0:
173,119,109186,5,10,0:0:0:0:
310,34,109376,1,0,1:0:0:0:
424,159,109567,1,0,1:0:0:0:
290,22,109757,6,0,P|304:88|298:145,1,93.3333333333333,10|0,0:0|1:0,0:0:0:0:
274,155,110043,2,0,P|260:221|266:278,1,93.3333333333333,10|0,0:0|1:0,0:0:0:0:
314,319,110329,2,0,P|405:303|442:313,1,93.3333333333333,10|0,0:0|1:0,0:0:0:0:
500,351,110614,2,0,L|510:275,2,46.6666666666667,10|0|0,0:0|1:0|1:0,0:0:0:0:
391,311,110900,5,10,0:0:0:0:
449,194,111090,1,2,1:2:0:0:
391,77,111281,1,2,1:2:0:0:
478,248,111471,6,0,P|503:164|497:122,1,93.3333333333333,10|0,0:0|1:0,0:0:0:0:
478,71,111757,2,0,P|503:155|497:197,1,93.3333333333333,10|0,0:0|1:0,0:0:0:0:
480,265,112043,6,0,P|512:183|509:141,1,93.3333333333333,10|0,0:0|1:0,0:0:0:0:
480,54,112329,2,0,P|512:135|509:177,1,93.3333333333333,10|2,0:0|0:0,0:0:0:0:
480,283,112614,6,0,L|389:274,1,46.6666666666667,10|0,0:0|0:0,0:0:0:0:
358,202,112805,2,0,L|404:206,1,46.6666666666667,10|0,0:0|0:0,0:0:0:0:
316,290,112995,2,0,L|225:281,1,46.6666666666667,10|0,0:0|0:0,0:0:0:0:
118,266,113186,5,6,1:2:0:0:
118,266,114900,5,6,1:2:0:0:
118,266,116614,5,6,1:2:0:0:
118,266,118329,6,0,P|173:269|217:257,1,70,0|0,0:0|0:0,0:0:0:0:
275,226,118614,2,0,P|330:223|374:235,1,70,0|0,0:0|0:0,0:0:0:0:
468,283,118900,5,6,1:2:0:0:
256,192,118971,12,0,123471,0:0:0:0:
