osu file format v14

[General]
AudioFilename: audio.mp3
AudioLeadIn: 0
PreviewTime: 69812
Countdown: 0
SampleSet: Normal
StackLeniency: 0.7
Mode: 1
LetterboxInBreaks: 0
WidescreenStoryboard: 0

[Editor]
Bookmarks: 36098,61812,88098
DistanceSpacing: 1
BeatDivisor: 4
GridSize: 32
TimelineZoom: 2.499999

[Metadata]
Title:HAVOX
TitleUnicode:HAVOX
Artist:BlackY vs. Yooh
ArtistUnicode:BlackY vs. Yooh
Creator:Arrival
Version:Unmei's Oni
Source:SOUND VOLTEX III GRAVITY WARS
Tags:unmei muma gezo sdvx iii _gezo_
BeatmapID:1172533
BeatmapSetID:553741

[Difficulty]
HPDrainRate:5
CircleSize:2
OverallDifficulty:6.5
ApproachRate:10
SliderMultiplier:1.4
SliderTickRate:1

[Events]
//Background and Video events
0,0,"HAVOXBG.jpg",0,40
//Break Periods
//Storyboard Layer 0 (Background)
//Storyboard Layer 1 (Fail)
//Storyboard Layer 2 (Pass)
//Storyboard Layer 3 (Foreground)
//Storyboard Sound Samples

[TimingPoints]
1241,285.714285714286,4,1,0,100,1,0
36669,-100,4,1,0,100,0,1
45812,-100,4,1,0,100,0,0
69812,-100,4,1,0,100,0,1
106383,285.714285714286,6,1,0,100,1,0
116668,285.714285714286,4,1,0,100,1,0
118882,-50,4,1,0,100,0,0

[HitObjects]
256,192,1241,5,4,0:0:0:0:
256,192,1526,1,0,0:0:0:0:
256,192,1621,1,0,0:0:0:0:
256,192,1717,1,0,0:0:0:0:
256,192,1812,1,8,0:0:0:0:
256,192,2098,1,8,0:0:0:0:
256,192,2193,1,0,0:0:0:0:
256,192,2288,1,0,0:0:0:0:
256,192,2383,1,8,0:0:0:0:
256,192,2669,1,0,0:0:0:0:
256,192,2860,1,8,0:0:0:0:
256,192,2955,1,0,0:0:0:0:
256,192,3145,1,0,0:0:0:0:
256,192,3336,1,0,0:0:0:0:
256,192,3526,1,4,0:0:0:0:
256,192,3812,1,0,0:0:0:0:
256,192,3907,1,0,0:0:0:0:
256,192,4002,1,0,0:0:0:0:
256,192,4098,1,8,0:0:0:0:
256,192,4383,1,8,0:0:0:0:
256,192,4479,1,0,0:0:0:0:
256,192,4574,1,0,0:0:0:0:
256,192,4669,1,8,0:0:0:0:
256,192,4955,1,0,0:0:0:0:
256,192,5145,1,8,0:0:0:0:
256,192,5241,1,0,0:0:0:0:
256,192,5431,1,8,0:0:0:0:
256,192,5621,1,8,0:0:0:0:
256,192,5812,1,4,0:0:0:0:
256,192,6002,1,0,0:0:0:0:
256,192,6098,1,0,0:0:0:0:
256,192,6288,1,0,0:0:0:0:
256,192,6383,1,0,0:0:0:0:
256,192,6574,1,0,0:0:0:0:
256,192,6669,1,0,0:0:0:0:
256,192,6860,1,0,0:0:0:0:
256,192,6955,1,8,0:0:0:0:
256,192,7145,1,0,0:0:0:0:
256,192,7241,1,8,0:0:0:0:
256,192,7431,1,0,0:0:0:0:
256,192,7526,1,8,0:0:0:0:
256,192,7717,1,0,0:0:0:0:
256,192,7812,1,8,0:0:0:0:
256,192,7907,1,8,0:0:0:0:
256,192,8002,1,8,0:0:0:0:
256,192,8098,1,0,0:0:0:0:
256,192,9241,2,0,L|32:192,1,210
256,192,9812,1,8,0:0:0:0:
256,192,9955,1,8,0:0:0:0:
256,192,10098,1,8,0:0:0:0:
256,192,10241,1,8,0:0:0:0:
256,192,10383,1,4,0:0:0:0:
256,192,10669,1,8,0:0:0:0:
256,192,10955,1,0,0:0:0:0:
256,192,11098,1,0,0:0:0:0:
256,192,11169,1,0,0:0:0:0:
256,192,11241,1,0,0:0:0:0:
256,192,11383,1,0,0:0:0:0:
256,192,11526,1,8,0:0:0:0:
256,192,11812,1,0,0:0:0:0:
256,192,11955,1,0,0:0:0:0:
256,192,12098,1,8,0:0:0:0:
256,192,12383,1,0,0:0:0:0:
256,192,12526,1,0,0:0:0:0:
256,192,12669,1,0,0:0:0:0:
256,192,12955,1,8,0:0:0:0:
256,192,13241,1,0,0:0:0:0:
256,192,13383,1,0,0:0:0:0:
256,192,13455,1,0,0:0:0:0:
256,192,13526,1,0,0:0:0:0:
256,192,13669,1,0,0:0:0:0:
256,192,13812,1,8,0:0:0:0:
256,192,14098,1,0,0:0:0:0:
256,192,14241,1,0,0:0:0:0:
256,192,14312,1,0,0:0:0:0:
256,192,14383,1,8,0:0:0:0:
256,192,14526,1,0,0:0:0:0:
256,192,14598,1,0,0:0:0:0:
256,192,14669,1,8,0:0:0:0:
256,192,14812,1,8,0:0:0:0:
256,192,14955,1,0,0:0:0:0:
256,192,15241,1,8,0:0:0:0:
256,192,15526,1,0,0:0:0:0:
256,192,15669,1,0,0:0:0:0:
256,192,15741,1,0,0:0:0:0:
256,192,15812,1,0,0:0:0:0:
256,192,15955,1,0,0:0:0:0:
256,192,16098,1,8,0:0:0:0:
256,192,16383,1,0,0:0:0:0:
256,192,16526,1,0,0:0:0:0:
256,192,16669,1,8,0:0:0:0:
256,192,16955,1,0,0:0:0:0:
256,192,17098,1,0,0:0:0:0:
256,192,17241,1,8,0:0:0:0:
256,192,17383,1,0,0:0:0:0:
256,192,17455,1,0,0:0:0:0:
256,192,17526,1,8,0:0:0:0:
256,192,17669,1,0,0:0:0:0:
256,192,17812,1,8,0:0:0:0:
256,192,17955,1,0,0:0:0:0:
256,192,18026,1,0,0:0:0:0:
256,192,18098,1,8,0:0:0:0:
256,192,18241,1,8,0:0:0:0:
256,192,18312,1,0,0:0:0:0:
256,192,18383,1,8,0:0:0:0:
256,192,18526,1,0,0:0:0:0:
256,192,18669,1,8,0:0:0:0:
256,192,18955,1,0,0:0:0:0:
256,192,19098,1,0,0:0:0:0:
256,192,19169,1,0,0:0:0:0:
256,192,19241,1,8,0:0:0:0:
256,192,19383,1,8,0:0:0:0:
256,192,19526,1,0,0:0:0:0:
256,192,19812,1,8,0:0:0:0:
256,192,19955,1,8,0:0:0:0:
256,192,20026,1,8,0:0:0:0:
256,192,20098,1,0,0:0:0:0:
256,192,20241,1,0,0:0:0:0:
256,192,20383,1,8,0:0:0:0:
256,192,20526,1,8,0:0:0:0:
256,192,20669,1,0,0:0:0:0:
256,192,20812,1,0,0:0:0:0:
256,192,20955,1,8,0:0:0:0:
256,192,21241,1,0,0:0:0:0:
256,192,21383,1,0,0:0:0:0:
256,192,21455,1,0,0:0:0:0:
256,192,21526,1,8,0:0:0:0:
256,192,21669,1,8,0:0:0:0:
256,192,21812,1,0,0:0:0:0:
256,192,22098,1,8,0:0:0:0:
256,192,22241,1,8,0:0:0:0:
256,192,22312,1,8,0:0:0:0:
256,192,22383,1,0,0:0:0:0:
256,192,22526,1,0,0:0:0:0:
256,192,22598,1,0,0:0:0:0:
256,192,22669,1,8,0:0:0:0:
256,192,22812,1,8,0:0:0:0:
256,192,22955,1,0,0:0:0:0:
256,192,23098,1,0,0:0:0:0:
256,192,23169,1,0,0:0:0:0:
256,192,23241,1,8,0:0:0:0:
256,192,23526,1,0,0:0:0:0:
256,192,23669,1,0,0:0:0:0:
256,192,23741,1,0,0:0:0:0:
256,192,23812,1,8,0:0:0:0:
256,192,23955,1,8,0:0:0:0:
256,192,24098,1,0,0:0:0:0:
256,192,24383,1,8,0:0:0:0:
256,192,24526,1,8,0:0:0:0:
256,192,24669,1,0,0:0:0:0:
256,192,24955,1,8,0:0:0:0:
256,192,25098,1,8,0:0:0:0:
256,192,25169,1,8,0:0:0:0:
256,192,25241,1,0,0:0:0:0:
256,192,25383,1,0,0:0:0:0:
256,192,25455,1,0,0:0:0:0:
256,192,25526,1,8,0:0:0:0:
256,192,25669,1,0,0:0:0:0:
256,192,25741,1,0,0:0:0:0:
256,192,25812,1,8,0:0:0:0:
256,192,25955,1,0,0:0:0:0:
256,192,26026,1,0,0:0:0:0:
256,192,26098,1,8,0:0:0:0:
256,192,26241,1,0,0:0:0:0:
256,192,26312,1,0,0:0:0:0:
256,192,26383,1,8,0:0:0:0:
256,192,26526,1,8,0:0:0:0:
256,192,26669,1,8,0:0:0:0:
256,192,26812,1,8,0:0:0:0:
256,192,26955,1,0,0:0:0:0:
256,192,27098,1,0,0:0:0:0:
256,192,27169,1,0,0:0:0:0:
256,192,27241,1,0,0:0:0:0:
256,192,27383,1,0,0:0:0:0:
256,192,27455,1,0,0:0:0:0:
256,192,27526,1,0,0:0:0:0:
256,192,27669,1,0,0:0:0:0:
256,192,28098,1,4,0:0:0:0:
256,192,28383,1,0,0:0:0:0:
256,192,28526,1,0,0:0:0:0:
256,192,28812,1,0,0:0:0:0:
256,192,28955,1,0,0:0:0:0:
256,192,29241,1,4,0:0:0:0:
256,192,29383,1,8,0:0:0:0:
256,192,29455,1,8,0:0:0:0:
256,192,29526,1,8,0:0:0:0:
256,192,29669,1,8,0:0:0:0:
256,192,29812,1,0,0:0:0:0:
256,192,29955,1,8,0:0:0:0:
256,192,30026,1,8,0:0:0:0:
256,192,30098,1,8,0:0:0:0:
256,192,30241,1,8,0:0:0:0:
256,192,30383,1,4,0:0:0:0:
256,192,30669,1,0,0:0:0:0:
256,192,30812,1,0,0:0:0:0:
256,192,31098,1,0,0:0:0:0:
256,192,31241,1,0,0:0:0:0:
256,192,31526,1,4,0:0:0:0:
256,192,31669,1,8,0:0:0:0:
256,192,31812,1,8,0:0:0:0:
256,192,31955,1,8,0:0:0:0:
256,192,32098,1,0,0:0:0:0:
256,192,32241,1,0,0:0:0:0:
256,192,32669,1,4,0:0:0:0:
256,192,32955,1,0,0:0:0:0:
256,192,33098,1,0,0:0:0:0:
256,192,33383,1,0,0:0:0:0:
256,192,33526,1,0,0:0:0:0:
256,192,33812,1,4,0:0:0:0:
256,192,33955,1,8,0:0:0:0:
256,192,34026,1,8,0:0:0:0:
256,192,34098,1,8,0:0:0:0:
256,192,34241,1,8,0:0:0:0:
256,192,34383,1,0,0:0:0:0:
256,192,34526,1,8,0:0:0:0:
256,192,34598,1,8,0:0:0:0:
256,192,34669,1,8,0:0:0:0:
256,192,34812,1,8,0:0:0:0:
256,192,34955,1,4,0:0:0:0:
256,192,35241,1,0,0:0:0:0:
256,192,35383,1,0,0:0:0:0:
256,192,35669,1,0,0:0:0:0:
256,192,35812,1,0,0:0:0:0:
256,192,36098,1,4,0:0:0:0:
256,192,36383,1,12,0:0:0:0:
256,192,36669,1,4,0:0:0:0:
256,192,36812,1,0,0:0:0:0:
256,192,36883,1,0,0:0:0:0:
256,192,36955,1,8,0:0:0:0:
256,192,37098,1,8,0:0:0:0:
256,192,37169,1,8,0:0:0:0:
256,192,37241,1,0,0:0:0:0:
256,192,37383,1,0,0:0:0:0:
256,192,37526,1,8,0:0:0:0:
256,192,37669,1,0,0:0:0:0:
256,192,37955,1,0,0:0:0:0:
256,192,38026,1,0,0:0:0:0:
256,192,38098,1,8,0:0:0:0:
256,192,38241,1,0,0:0:0:0:
256,192,38383,1,8,0:0:0:0:
256,192,38455,1,8,0:0:0:0:
256,192,38526,1,8,0:0:0:0:
256,192,38669,1,8,0:0:0:0:
256,192,38741,1,8,0:0:0:0:
256,192,38812,1,8,0:0:0:0:
256,192,38955,1,0,0:0:0:0:
256,192,39098,1,0,0:0:0:0:
256,192,39169,1,0,0:0:0:0:
256,192,39241,1,8,0:0:0:0:
256,192,39383,1,8,0:0:0:0:
256,192,39526,1,0,0:0:0:0:
256,192,39669,1,0,0:0:0:0:
256,192,39741,1,0,0:0:0:0:
256,192,39812,1,8,0:0:0:0:
256,192,39955,1,0,0:0:0:0:
256,192,40026,1,0,0:0:0:0:
256,192,40098,1,0,0:0:0:0:
256,192,40241,1,0,0:0:0:0:
256,192,40383,1,8,0:0:0:0:
256,192,40526,1,0,0:0:0:0:
256,192,40669,1,8,0:0:0:0:
256,192,40860,1,8,0:0:0:0:
256,192,41050,1,8,0:0:0:0:
256,192,41241,1,4,0:0:0:0:
256,192,41383,1,0,0:0:0:0:
256,192,41455,1,0,0:0:0:0:
256,192,41526,1,8,0:0:0:0:
256,192,41669,1,8,0:0:0:0:
256,192,41741,1,8,0:0:0:0:
256,192,41812,1,0,0:0:0:0:
256,192,41955,1,0,0:0:0:0:
256,192,42098,1,8,0:0:0:0:
256,192,42241,1,8,0:0:0:0:
256,192,42383,1,0,0:0:0:0:
256,192,42526,1,0,0:0:0:0:
256,192,42598,1,0,0:0:0:0:
256,192,42669,1,8,0:0:0:0:
256,192,42812,1,0,0:0:0:0:
256,192,42955,1,8,0:0:0:0:
256,192,43026,1,8,0:0:0:0:
256,192,43098,1,8,0:0:0:0:
256,192,43241,1,8,0:0:0:0:
256,192,43383,1,8,0:0:0:0:
256,192,43526,1,0,0:0:0:0:
256,192,43598,1,0,0:0:0:0:
256,192,43669,1,8,0:0:0:0:
256,192,43741,1,8,0:0:0:0:
256,192,43812,1,0,0:0:0:0:
256,192,43955,1,0,0:0:0:0:
256,192,44098,1,8,0:0:0:0:
256,192,44169,1,8,0:0:0:0:
256,192,44241,1,0,0:0:0:0:
256,192,44312,1,0,0:0:0:0:
256,192,44383,1,8,0:0:0:0:
256,192,44526,1,8,0:0:0:0:
256,192,44669,1,0,0:0:0:0:
256,192,44741,1,0,0:0:0:0:
256,192,44812,1,0,0:0:0:0:
256,192,44883,1,0,0:0:0:0:
256,192,44955,1,0,0:0:0:0:
256,192,45026,1,0,0:0:0:0:
256,192,45098,1,0,0:0:0:0:
256,192,45169,1,0,0:0:0:0:
256,192,45241,1,8,0:0:0:0:
256,192,45312,1,8,0:0:0:0:
256,192,45383,1,0,0:0:0:0:
256,192,45455,1,0,0:0:0:0:
256,192,45526,1,8,0:0:0:0:
256,192,45812,1,4,0:0:0:0:
256,192,46098,1,8,0:0:0:0:
256,192,46383,1,0,0:0:0:0:
256,192,46669,1,8,0:0:0:0:
256,192,46955,1,0,0:0:0:0:
256,192,47241,1,8,0:0:0:0:
256,192,47526,1,0,0:0:0:0:
256,192,47669,1,0,0:0:0:0:
256,192,47812,1,8,0:0:0:0:
256,192,48098,1,0,0:0:0:0:
256,192,48241,1,0,0:0:0:0:
256,192,48312,1,0,0:0:0:0:
256,192,48383,1,8,0:0:0:0:
256,192,48455,1,8,0:0:0:0:
256,192,48526,1,0,0:0:0:0:
256,192,48669,1,0,0:0:0:0:
256,192,48812,1,0,0:0:0:0:
256,192,48955,1,8,0:0:0:0:
256,192,49026,1,8,0:0:0:0:
256,192,49098,1,0,0:0:0:0:
256,192,49241,1,8,0:0:0:0:
256,192,49383,1,0,0:0:0:0:
256,192,49526,1,8,0:0:0:0:
256,192,49598,1,8,0:0:0:0:
256,192,49669,1,8,0:0:0:0:
256,192,49741,1,8,0:0:0:0:
256,192,49812,1,0,0:0:0:0:
256,192,49955,1,0,0:0:0:0:
256,192,50026,1,0,0:0:0:0:
256,192,50098,1,8,0:0:0:0:
256,192,50241,1,8,0:0:0:0:
256,192,50383,1,0,0:0:0:0:
256,192,50455,1,8,0:0:0:0:
256,192,50526,1,0,0:0:0:0:
256,192,50598,1,8,0:0:0:0:
256,192,50669,1,0,0:0:0:0:
256,192,50741,1,8,0:0:0:0:
256,192,50812,1,0,0:0:0:0:
256,192,50955,1,8,0:0:0:0:
256,192,51026,1,8,0:0:0:0:
256,192,51098,1,0,0:0:0:0:
256,192,51169,1,8,0:0:0:0:
256,192,51241,1,0,0:0:0:0:
256,192,51312,1,8,0:0:0:0:
256,192,51383,1,0,0:0:0:0:
256,192,51526,1,0,0:0:0:0:
256,192,51621,1,8,0:0:0:0:
256,192,51717,1,0,0:0:0:0:
256,192,51812,1,0,0:0:0:0:
256,192,51907,1,8,0:0:0:0:
256,192,52002,1,8,0:0:0:0:
256,192,52098,1,0,0:0:0:0:
256,192,52383,1,8,0:0:0:0:
256,192,52669,1,0,0:0:0:0:
256,192,52812,1,0,0:0:0:0:
256,192,52955,1,8,0:0:0:0:
256,192,53098,1,0,0:0:0:0:
256,192,53169,1,0,0:0:0:0:
256,192,53241,1,0,0:0:0:0:
256,192,53383,1,0,0:0:0:0:
256,192,53526,1,8,0:0:0:0:
256,192,53669,1,0,0:0:0:0:
256,192,53741,1,0,0:0:0:0:
256,192,53812,1,8,0:0:0:0:
256,192,53955,1,0,0:0:0:0:
256,192,54098,1,8,0:0:0:0:
256,192,54241,1,0,0:0:0:0:
256,192,54383,1,8,0:0:0:0:
256,192,54455,1,8,0:0:0:0:
256,192,54526,1,8,0:0:0:0:
256,192,54598,1,8,0:0:0:0:
256,192,54669,1,0,0:0:0:0:
256,192,54812,1,8,0:0:0:0:
256,192,54955,1,4,0:0:0:0:
256,192,55098,1,0,0:0:0:0:
256,192,55169,1,0,0:0:0:0:
256,192,55241,1,8,0:0:0:0:
256,192,55383,1,0,0:0:0:0:
256,192,55526,1,8,0:0:0:0:
256,192,55669,1,0,0:0:0:0:
256,192,55741,1,8,0:0:0:0:
256,192,55812,1,8,0:0:0:0:
256,192,55955,1,8,0:0:0:0:
256,192,56098,1,0,0:0:0:0:
256,192,56383,1,8,0:0:0:0:
256,192,56669,1,8,0:0:0:0:
256,192,56955,1,0,0:0:0:0:
256,192,57241,1,8,0:0:0:0:
256,192,57455,1,0,0:0:0:0:
256,192,57669,1,0,0:0:0:0:
256,192,57812,1,8,0:0:0:0:
256,192,58026,1,0,0:0:0:0:
256,192,58241,1,0,0:0:0:0:
256,192,58383,1,8,0:0:0:0:
256,192,58598,1,8,0:0:0:0:
256,192,58812,1,8,0:0:0:0:
256,192,58955,1,0,0:0:0:0:
256,192,59098,1,0,0:0:0:0:
256,192,59241,1,8,0:0:0:0:
256,192,59383,1,8,0:0:0:0:
256,192,59526,1,0,0:0:0:0:
256,192,59812,1,8,0:0:0:0:
256,192,60098,1,8,0:0:0:0:
256,192,60169,1,8,0:0:0:0:
256,192,60241,1,8,0:0:0:0:
256,192,60312,1,8,0:0:0:0:
256,192,60383,1,8,0:0:0:0:
256,192,60455,1,8,0:0:0:0:
256,192,60526,1,8,0:0:0:0:
256,192,60598,1,8,0:0:0:0:
256,192,60669,1,0,0:0:0:0:
256,192,60955,1,0,0:0:0:0:
256,192,61241,1,8,0:0:0:0:
256,192,61526,1,8,0:0:0:0:
256,192,61812,1,4,0:0:0:0:
256,192,62098,1,0,0:0:0:0:
256,192,62383,1,0,0:0:0:0:
256,192,62669,1,8,0:0:0:0:
256,192,62955,1,0,0:0:0:0:
256,192,63241,1,0,0:0:0:0:
256,192,63526,1,0,0:0:0:0:
256,192,63812,1,8,0:0:0:0:
256,192,64098,1,0,0:0:0:0:
256,192,64241,1,0,0:0:0:0:
256,192,64383,1,8,0:0:0:0:
256,192,64526,1,0,0:0:0:0:
256,192,64669,1,8,0:0:0:0:
256,192,64812,1,0,0:0:0:0:
256,192,64955,1,8,0:0:0:0:
256,192,65098,1,0,0:0:0:0:
256,192,65169,1,0,0:0:0:0:
256,192,65241,1,0,0:0:0:0:
256,192,65383,1,0,0:0:0:0:
256,192,65526,1,8,0:0:0:0:
256,192,65669,1,0,0:0:0:0:
256,192,65812,1,8,0:0:0:0:
256,192,65955,1,0,0:0:0:0:
256,192,66098,1,8,0:0:0:0:
256,192,66241,1,8,0:0:0:0:
256,192,66383,1,0,0:0:0:0:
256,192,66526,1,0,0:0:0:0:
256,192,66598,1,0,0:0:0:0:
256,192,66669,1,8,0:0:0:0:
256,192,66812,1,0,0:0:0:0:
256,192,66955,1,8,0:0:0:0:
256,192,67098,1,0,0:0:0:0:
256,192,67169,1,0,0:0:0:0:
256,192,67241,1,8,0:0:0:0:
256,192,67383,1,0,0:0:0:0:
256,192,67526,1,8,0:0:0:0:
256,192,67598,1,8,0:0:0:0:
256,192,67669,1,0,0:0:0:0:
256,192,67812,1,8,0:0:0:0:
256,192,67883,1,8,0:0:0:0:
256,192,67955,1,0,0:0:0:0:
256,192,68098,1,8,0:0:0:0:
256,192,68169,1,8,0:0:0:0:
256,192,68241,1,0,0:0:0:0:
256,192,68383,1,8,0:0:0:0:
256,192,68669,1,0,0:0:0:0:
256,192,69241,2,0,L|32:192,1,210
64,192,69812,1,4,0:0:0:0:
256,192,69955,1,0,0:0:0:0:
256,192,70098,1,8,0:0:0:0:
256,192,70312,1,0,0:0:0:0:
256,192,70383,1,8,0:0:0:0:
256,192,70526,1,0,0:0:0:0:
256,192,70669,1,8,0:0:0:0:
256,192,70741,1,8,0:0:0:0:
256,192,70812,1,0,0:0:0:0:
256,192,70883,1,0,0:0:0:0:
256,192,70955,1,8,0:0:0:0:
256,192,71098,1,0,0:0:0:0:
256,192,71241,1,8,0:0:0:0:
256,192,71383,1,0,0:0:0:0:
256,192,71526,1,8,0:0:0:0:
256,192,71669,1,8,0:0:0:0:
256,192,71741,1,8,0:0:0:0:
256,192,71812,1,8,0:0:0:0:
256,192,71955,1,8,0:0:0:0:
256,192,72098,1,0,0:0:0:0:
256,192,72241,1,8,0:0:0:0:
256,192,72383,1,8,0:0:0:0:
256,192,72455,1,8,0:0:0:0:
256,192,72526,1,0,0:0:0:0:
256,192,72598,1,0,0:0:0:0:
256,192,72669,1,8,0:0:0:0:
256,192,72812,1,8,0:0:0:0:
256,192,72955,1,0,0:0:0:0:
256,192,73026,1,0,0:0:0:0:
256,192,73098,1,8,0:0:0:0:
256,192,73169,1,8,0:0:0:0:
256,192,73241,1,0,0:0:0:0:
256,192,73455,1,0,0:0:0:0:
256,192,73526,1,8,0:0:0:0:
256,192,73669,1,8,0:0:0:0:
256,192,73812,1,0,0:0:0:0:
256,192,74002,1,8,0:0:0:0:
256,192,74193,1,8,0:0:0:0:
256,192,74383,1,0,0:0:0:0:
256,192,74598,1,0,0:0:0:0:
256,192,74669,1,8,0:0:0:0:
256,192,74812,1,0,0:0:0:0:
256,192,74883,1,0,0:0:0:0:
256,192,74955,1,8,0:0:0:0:
256,192,75026,1,8,0:0:0:0:
256,192,75098,1,0,0:0:0:0:
256,192,75241,1,8,0:0:0:0:
256,192,75383,1,0,0:0:0:0:
256,192,75455,1,0,0:0:0:0:
256,192,75526,1,8,0:0:0:0:
256,192,75669,1,0,0:0:0:0:
256,192,75741,1,0,0:0:0:0:
256,192,75812,1,8,0:0:0:0:
256,192,75955,1,8,0:0:0:0:
256,192,76098,1,0,0:0:0:0:
256,192,76241,1,0,0:0:0:0:
256,192,76383,1,8,0:0:0:0:
256,192,76526,1,8,0:0:0:0:
256,192,76598,1,8,0:0:0:0:
256,192,76669,1,0,0:0:0:0:
256,192,76860,1,0,0:0:0:0:
256,192,76955,1,8,0:0:0:0:
256,192,77050,1,8,0:0:0:0:
256,192,77145,1,8,0:0:0:0:
256,192,77241,1,0,0:0:0:0:
256,192,77431,1,0,0:0:0:0:
256,192,77526,1,8,0:0:0:0:
256,192,77621,1,0,0:0:0:0:
256,192,77717,1,0,0:0:0:0:
256,192,77812,1,8,0:0:0:0:
256,192,78002,1,0,0:0:0:0:
256,192,78098,1,8,0:0:0:0:
256,192,78288,1,8,0:0:0:0:
256,192,78383,1,0,0:0:0:0:
256,192,78574,1,0,0:0:0:0:
256,192,78764,1,0,0:0:0:0:
256,192,78955,1,0,0:0:0:0:
256,192,79169,1,0,0:0:0:0:
256,192,79241,1,8,0:0:0:0:
256,192,79383,1,0,0:0:0:0:
256,192,79455,1,0,0:0:0:0:
256,192,79526,1,8,0:0:0:0:
256,192,79669,1,0,0:0:0:0:
256,192,79812,1,8,0:0:0:0:
256,192,79883,1,8,0:0:0:0:
256,192,79955,1,8,0:0:0:0:
256,192,80098,1,0,0:0:0:0:
256,192,80241,1,0,0:0:0:0:
256,192,80312,1,0,0:0:0:0:
256,192,80383,1,8,0:0:0:0:
256,192,80526,1,0,0:0:0:0:
256,192,80669,1,8,0:0:0:0:
256,192,80812,1,0,0:0:0:0:
256,192,80883,1,8,0:0:0:0:
256,192,80955,1,0,0:0:0:0:
256,192,81098,1,8,0:0:0:0:
256,192,81241,1,0,0:0:0:0:
256,192,81455,1,0,0:0:0:0:
256,192,81526,1,8,0:0:0:0:
256,192,81669,1,0,0:0:0:0:
256,192,81741,1,0,0:0:0:0:
256,192,81812,1,8,0:0:0:0:
256,192,81955,1,0,0:0:0:0:
256,192,82098,1,8,0:0:0:0:
256,192,82169,1,8,0:0:0:0:
256,192,82241,1,8,0:0:0:0:
256,192,82383,1,0,0:0:0:0:
256,192,82526,1,0,0:0:0:0:
256,192,82669,1,8,0:0:0:0:
256,192,82812,1,0,0:0:0:0:
256,192,82955,1,8,0:0:0:0:
256,192,83050,1,0,0:0:0:0:
256,192,83145,1,0,0:0:0:0:
256,192,83241,1,8,0:0:0:0:
256,192,83336,1,8,0:0:0:0:
256,192,83431,1,8,0:0:0:0:
256,192,83526,1,0,0:0:0:0:
256,192,83812,1,8,0:0:0:0:
256,192,84098,1,0,0:0:0:0:
256,192,84383,1,8,0:0:0:0:
256,192,84669,1,8,0:0:0:0:
256,192,84764,1,0,0:0:0:0:
256,192,84860,1,0,0:0:0:0:
256,192,84955,1,8,0:0:0:0:
256,192,85050,1,8,0:0:0:0:
256,192,85145,1,8,0:0:0:0:
256,192,85241,1,0,0:0:0:0:
256,192,85431,1,0,0:0:0:0:
256,192,85621,1,0,0:0:0:0:
256,192,85812,1,0,0:0:0:0:
256,192,85955,1,0,0:0:0:0:
256,192,86026,1,0,0:0:0:0:
256,192,86098,1,8,0:0:0:0:
256,192,86241,1,8,0:0:0:0:
256,192,86312,1,8,0:0:0:0:
256,192,86383,1,0,0:0:0:0:
256,192,86574,1,0,0:0:0:0:
256,192,86764,1,0,0:0:0:0:
256,192,86955,1,8,0:0:0:0:
256,192,87050,1,0,0:0:0:0:
256,192,87145,1,0,0:0:0:0:
256,192,87241,1,8,0:0:0:0:
256,192,87336,1,0,0:0:0:0:
256,192,87431,1,0,0:0:0:0:
256,192,87526,1,8,0:0:0:0:
256,192,87621,1,8,0:0:0:0:
256,192,87717,1,8,0:0:0:0:
256,192,87812,1,8,0:0:0:0:
256,192,87907,1,8,0:0:0:0:
256,192,88002,1,8,0:0:0:0:
256,192,88098,1,0,0:0:0:0:
256,192,88383,1,8,0:0:0:0:
256,192,88526,1,0,0:0:0:0:
256,192,88669,1,0,0:0:0:0:
256,192,88741,1,8,0:0:0:0:
256,192,88812,1,0,0:0:0:0:
256,192,88955,1,8,0:0:0:0:
256,192,89098,1,0,0:0:0:0:
256,192,89169,1,0,0:0:0:0:
256,192,89241,1,0,0:0:0:0:
256,192,89383,1,0,0:0:0:0:
256,192,89526,1,8,0:0:0:0:
256,192,89669,1,0,0:0:0:0:
256,192,89812,1,8,0:0:0:0:
256,192,89883,1,8,0:0:0:0:
256,192,89955,1,0,0:0:0:0:
256,192,90026,1,0,0:0:0:0:
256,192,90098,1,8,0:0:0:0:
256,192,90241,1,8,0:0:0:0:
256,192,90383,1,0,0:0:0:0:
262,189,90526,1,0,0:0:0:0:
265,187,90598,1,0,0:0:0:0:
256,192,90669,1,8,0:0:0:0:
262,189,90812,1,8,0:0:0:0:
256,192,90955,1,0,0:0:0:0:
268,186,91145,1,8,0:0:0:0:
256,192,91241,1,0,0:0:0:0:
274,182,91336,1,8,0:0:0:0:
262,189,91526,1,8,0:0:0:0:
262,189,91598,1,8,0:0:0:0:
256,192,91669,1,0,0:0:0:0:
262,189,91812,1,8,0:0:0:0:
262,189,91883,1,8,0:0:0:0:
262,189,91955,1,0,0:0:0:0:
256,192,92098,1,0,0:0:0:0:
256,192,92193,1,0,0:0:0:0:
256,192,92288,1,0,0:0:0:0:
256,192,92383,1,8,0:0:0:0:
256,192,92479,1,8,0:0:0:0:
256,192,92574,1,8,0:0:0:0:
256,192,92669,1,0,0:0:0:0:
256,192,92883,1,0,0:0:0:0:
256,192,92955,1,8,0:0:0:0:
256,192,93098,1,0,0:0:0:0:
256,192,93241,1,8,0:0:0:0:
256,192,93312,1,8,0:0:0:0:
256,192,93383,1,0,0:0:0:0:
256,192,93526,1,8,0:0:0:0:
256,192,93669,1,0,0:0:0:0:
256,192,93741,1,0,0:0:0:0:
256,192,93812,1,0,0:0:0:0:
256,192,93955,1,0,0:0:0:0:
256,192,94098,1,8,0:0:0:0:
256,192,94241,1,8,0:0:0:0:
256,192,94383,1,0,0:0:0:0:
256,192,94574,1,0,0:0:0:0:
256,192,94669,1,8,0:0:0:0:
256,192,94764,1,8,0:0:0:0:
256,192,94860,1,8,0:0:0:0:
256,192,94955,1,0,0:0:0:0:
256,192,95145,1,0,0:0:0:0:
256,192,95241,1,8,0:0:0:0:
256,192,95336,1,0,0:0:0:0:
256,192,95431,1,0,0:0:0:0:
256,192,95526,1,8,0:0:0:0:
256,192,95669,1,0,0:0:0:0:
256,192,95741,1,0,0:0:0:0:
256,192,95812,1,8,0:0:0:0:
256,192,95955,1,8,0:0:0:0:
256,192,96098,1,0,0:0:0:0:
256,192,96241,1,0,0:0:0:0:
256,192,96312,1,0,0:0:0:0:
256,192,96383,1,8,0:0:0:0:
256,192,96526,1,0,0:0:0:0:
256,192,96598,1,0,0:0:0:0:
256,192,96669,1,8,0:0:0:0:
256,192,96860,1,8,0:0:0:0:
256,192,97050,1,8,0:0:0:0:
256,192,97241,1,0,0:0:0:0:
256,192,97431,1,0,0:0:0:0:
256,192,97526,1,8,0:0:0:0:
256,192,97621,1,0,0:0:0:0:
256,192,97717,1,0,0:0:0:0:
256,192,97812,1,8,0:0:0:0:
256,192,97955,1,0,0:0:0:0:
256,192,98026,1,0,0:0:0:0:
256,192,98098,1,8,0:0:0:0:
256,192,98241,1,8,0:0:0:0:
256,192,98383,1,0,0:0:0:0:
256,192,98526,1,0,0:0:0:0:
256,192,98598,1,0,0:0:0:0:
256,192,98669,1,8,0:0:0:0:
256,192,98812,1,8,0:0:0:0:
256,192,98955,1,0,0:0:0:0:
256,192,99098,1,0,0:0:0:0:
256,192,99241,1,8,0:0:0:0:
256,192,99383,1,0,0:0:0:0:
256,192,99455,1,0,0:0:0:0:
256,192,99526,1,8,0:0:0:0:
256,192,99669,1,0,0:0:0:0:
256,192,99812,1,8,0:0:0:0:
256,192,99955,1,8,0:0:0:0:
256,192,100098,1,0,0:0:0:0:
256,192,100241,1,0,0:0:0:0:
256,192,100312,1,0,0:0:0:0:
256,192,100383,1,8,0:0:0:0:
256,192,100526,1,8,0:0:0:0:
256,192,100669,1,0,0:0:0:0:
256,192,100812,1,0,0:0:0:0:
256,192,100955,1,8,0:0:0:0:
256,192,101098,1,0,0:0:0:0:
256,192,101241,1,8,0:0:0:0:
256,192,101336,1,0,0:0:0:0:
256,192,101431,1,0,0:0:0:0:
256,192,101526,1,8,0:0:0:0:
256,192,101621,1,8,0:0:0:0:
256,192,101717,1,8,0:0:0:0:
256,192,101812,1,0,0:0:0:0:
256,192,102026,1,0,0:0:0:0:
256,192,102098,1,8,0:0:0:0:
256,192,102241,1,8,0:0:0:0:
256,192,102383,1,8,0:0:0:0:
256,192,102669,1,8,0:0:0:0:
256,192,102955,1,0,0:0:0:0:
256,192,103098,1,0,0:0:0:0:
256,192,103241,1,8,0:0:0:0:
256,192,103383,1,0,0:0:0:0:
256,192,103526,1,8,0:0:0:0:
256,192,103598,1,8,0:0:0:0:
256,192,103669,1,0,0:0:0:0:
256,192,103741,1,0,0:0:0:0:
256,192,103812,1,8,0:0:0:0:
256,192,103955,1,8,0:0:0:0:
256,192,104098,1,0,0:0:0:0:
256,192,104241,1,0,0:0:0:0:
256,192,104312,1,0,0:0:0:0:
256,192,104383,1,8,0:0:0:0:
256,192,104526,1,0,0:0:0:0:
256,192,104598,1,0,0:0:0:0:
256,192,104669,1,8,0:0:0:0:
256,192,104812,1,0,0:0:0:0:
256,192,104883,1,0,0:0:0:0:
256,192,104955,1,8,0:0:0:0:
256,192,105098,1,0,0:0:0:0:
256,192,105241,1,8,0:0:0:0:
256,192,105526,1,8,0:0:0:0:
256,192,105812,1,8,0:0:0:0:
256,192,106098,1,8,0:0:0:0:
256,192,106383,1,0,0:0:0:0:
256,192,106573,1,0,0:0:0:0:
256,192,106668,1,8,0:0:0:0:
256,192,106859,1,0,0:0:0:0:
256,192,106954,1,8,0:0:0:0:
256,192,107144,1,0,0:0:0:0:
256,192,107240,1,8,0:0:0:0:
256,192,107335,1,0,0:0:0:0:
256,192,107430,1,0,0:0:0:0:
256,192,107525,1,8,0:0:0:0:
256,192,107716,1,8,0:0:0:0:
256,192,107906,1,8,0:0:0:0:
256,192,108097,1,0,0:0:0:0:
256,192,108287,1,0,0:0:0:0:
256,192,108383,1,8,0:0:0:0:
256,192,108573,1,0,0:0:0:0:
256,192,108668,1,8,0:0:0:0:
256,192,108859,1,0,0:0:0:0:
256,192,108954,1,8,0:0:0:0:
256,192,109049,1,8,0:0:0:0:
256,192,109144,1,8,0:0:0:0:
256,192,109240,1,0,0:0:0:0:
256,192,109430,1,8,0:0:0:0:
256,192,109621,1,8,0:0:0:0:
256,192,109811,1,0,0:0:0:0:
256,192,110002,1,0,0:0:0:0:
256,192,110097,1,8,0:0:0:0:
256,192,110287,1,0,0:0:0:0:
256,192,110383,1,8,0:0:0:0:
256,192,110573,1,0,0:0:0:0:
256,192,110668,1,8,0:0:0:0:
256,192,110763,1,0,0:0:0:0:
256,192,110859,1,0,0:0:0:0:
256,192,110954,1,8,0:0:0:0:
256,192,111144,1,8,0:0:0:0:
256,192,111335,1,8,0:0:0:0:
256,192,111525,1,0,0:0:0:0:
256,192,111716,1,0,0:0:0:0:
256,192,111811,1,8,0:0:0:0:
256,192,112002,1,0,0:0:0:0:
256,192,112097,1,8,0:0:0:0:
256,192,112287,1,0,0:0:0:0:
256,192,112383,1,8,0:0:0:0:
256,192,112478,1,8,0:0:0:0:
256,192,112573,1,8,0:0:0:0:
256,192,112668,1,0,0:0:0:0:
256,192,112859,1,8,0:0:0:0:
256,192,113049,1,8,0:0:0:0:
256,192,113240,1,4,0:0:0:0:
256,192,114954,1,4,0:0:0:0:
256,192,116668,1,4,0:0:0:0:
256,192,118954,1,4,0:0:0:0:
