osu file format v14

[General]
AudioFilename: audio.mp3
AudioLeadIn: 0
PreviewTime: 69812
Countdown: 0
SampleSet: Normal
StackLeniency: 0.7
Mode: 1
LetterboxInBreaks: 0
WidescreenStoryboard: 0

[Editor]
Bookmarks: 36098,61812
DistanceSpacing: 1
BeatDivisor: 4
GridSize: 32
TimelineZoom: 1.899999

[Metadata]
Title:HAVOX
TitleUnicode:HAVOX
Artist:BlackY vs. Yooh
ArtistUnicode:BlackY vs. Yooh
Creator:Arrival
Version:Muzukashii
Source:SOUND VOLTEX III GRAVITY WARS
Tags:unmei muma gezo sdvx iii _gezo_
BeatmapID:1172633
BeatmapSetID:553741

[Difficulty]
HPDrainRate:5
CircleSize:3
OverallDifficulty:5
ApproachRate:5
SliderMultiplier:1.4
SliderTickRate:1

[Events]
//Background and Video events
0,0,"HAVOXBG.jpg",0,40
//Break Periods
//Storyboard Layer 0 (Background)
//Storyboard Layer 1 (Fail)
//Storyboard Layer 2 (Pass)
//Storyboard Layer 3 (Foreground)
//Storyboard Sound Samples

[TimingPoints]
1241,285.714285714286,4,1,0,100,1,0
36669,-100,4,1,0,100,0,1
45812,-100,4,1,0,100,0,0
69812,-100,4,1,0,100,0,1
106383,285.714285714286,6,1,0,100,1,0
116668,285.714285714286,4,1,0,100,1,0

[HitObjects]
256,128,1241,5,4,0:0:0:0:
256,128,1812,1,0,0:0:0:0:
256,128,2383,1,4,0:0:0:0:
256,128,2955,1,8,0:0:0:0:
256,128,3145,1,0,0:0:0:0:
256,128,3336,1,0,0:0:0:0:
256,128,3526,1,12,0:0:0:0:
256,128,4098,1,0,0:0:0:0:
256,128,4669,1,12,0:0:0:0:
256,128,5241,1,8,0:0:0:0:
256,128,5431,1,0,0:0:0:0:
256,128,5621,1,0,0:0:0:0:
256,128,5812,1,12,0:0:0:0:
256,128,6383,1,0,0:0:0:0:
256,128,6955,1,12,0:0:0:0:
256,128,7526,1,8,0:0:0:0:
256,128,7717,1,8,0:0:0:0:
256,128,7907,1,8,0:0:0:0:
256,128,8098,1,0,0:0:0:0:
256,128,9812,1,0,0:0:0:0:
256,128,10098,1,0,0:0:0:0:
256,128,10383,1,4,0:0:0:0:
256,128,10955,1,0,0:0:0:0:
256,128,11241,1,0,0:0:0:0:
256,128,11526,1,8,0:0:0:0:
256,128,11812,1,8,0:0:0:0:
256,128,11955,1,8,0:0:0:0:
256,128,12098,1,0,0:0:0:0:
256,128,12383,1,8,0:0:0:0:
256,128,12526,1,0,0:0:0:0:
256,128,12669,1,0,0:0:0:0:
256,128,13241,1,0,0:0:0:0:
256,128,13526,1,0,0:0:0:0:
256,128,13812,1,0,0:0:0:0:
256,128,14098,1,8,0:0:0:0:
256,128,14241,1,0,0:0:0:0:
256,128,14383,1,8,0:0:0:0:
256,128,14669,1,8,0:0:0:0:
256,128,14812,1,8,0:0:0:0:
256,128,14955,1,0,0:0:0:0:
256,128,15526,1,0,0:0:0:0:
256,128,15812,1,0,0:0:0:0:
256,128,16098,1,8,0:0:0:0:
256,128,16383,1,8,0:0:0:0:
256,128,16526,1,8,0:0:0:0:
256,128,16669,1,0,0:0:0:0:
256,128,16955,1,8,0:0:0:0:
256,128,17098,1,0,0:0:0:0:
256,128,17241,1,8,0:0:0:0:
256,128,17526,1,8,0:0:0:0:
256,128,17812,1,8,0:0:0:0:
256,128,17955,1,0,0:0:0:0:
256,128,18098,1,8,0:0:0:0:
256,128,18241,1,8,0:0:0:0:
256,128,18383,1,4,0:0:0:0:
256,128,18669,1,8,0:0:0:0:
256,128,18955,1,0,0:0:0:0:
256,128,19241,1,0,0:0:0:0:
256,128,19526,1,8,0:0:0:0:
256,128,19812,1,8,0:0:0:0:
256,128,19955,1,8,0:0:0:0:
256,128,20098,1,0,0:0:0:0:
256,128,20241,1,0,0:0:0:0:
256,128,20383,1,8,0:0:0:0:
256,128,20526,1,0,0:0:0:0:
256,128,20669,1,0,0:0:0:0:
256,128,20955,1,8,0:0:0:0:
256,128,21241,1,0,0:0:0:0:
256,128,21526,1,0,0:0:0:0:
256,128,21812,1,0,0:0:0:0:
256,128,22098,1,8,0:0:0:0:
256,128,22241,1,0,0:0:0:0:
256,128,22383,1,8,0:0:0:0:
256,128,22526,1,0,0:0:0:0:
256,128,22669,1,8,0:0:0:0:
256,128,22812,1,8,0:0:0:0:
256,128,22955,1,0,0:0:0:0:
256,128,23241,1,8,0:0:0:0:
256,128,23526,1,0,0:0:0:0:
256,128,23812,1,0,0:0:0:0:
256,128,24098,1,8,0:0:0:0:
256,128,24383,1,8,0:0:0:0:
256,128,24526,1,8,0:0:0:0:
256,128,24669,1,0,0:0:0:0:
256,128,24812,1,0,0:0:0:0:
256,128,24955,1,8,0:0:0:0:
256,128,25098,1,0,0:0:0:0:
256,128,25241,1,0,0:0:0:0:
256,128,25526,1,8,0:0:0:0:
256,128,25812,1,8,0:0:0:0:
256,128,26098,1,8,0:0:0:0:
256,128,26383,1,4,0:0:0:0:
256,128,26669,1,8,0:0:0:0:
256,128,26955,1,8,0:0:0:0:
256,128,27098,1,8,0:0:0:0:
256,128,27241,1,0,0:0:0:0:
256,128,27526,1,4,0:0:0:0:
256,128,27669,1,0,0:0:0:0:
256,128,27955,1,0,0:0:0:0:
256,128,28098,1,8,0:0:0:0:
256,128,28383,1,0,0:0:0:0:
256,128,28526,1,0,0:0:0:0:
256,128,28812,1,8,0:0:0:0:
256,128,28955,1,0,0:0:0:0:
256,128,29241,1,8,0:0:0:0:
256,128,29812,1,0,0:0:0:0:
256,128,29955,1,0,0:0:0:0:
256,128,30241,1,0,0:0:0:0:
256,128,30383,1,8,0:0:0:0:
256,128,30669,1,0,0:0:0:0:
256,128,30812,1,0,0:0:0:0:
256,128,31098,1,8,0:0:0:0:
256,128,31241,1,0,0:0:0:0:
256,128,31383,1,0,0:0:0:0:
256,128,31526,1,8,0:0:0:0:
256,128,31812,1,8,0:0:0:0:
256,128,32098,1,0,0:0:0:0:
256,128,32241,1,0,0:0:0:0:
256,128,32526,1,0,0:0:0:0:
256,128,32669,1,8,0:0:0:0:
256,128,32955,1,0,0:0:0:0:
256,128,33098,1,0,0:0:0:0:
256,128,33383,1,8,0:0:0:0:
256,128,33526,1,0,0:0:0:0:
256,128,33812,1,8,0:0:0:0:
256,128,34383,1,0,0:0:0:0:
256,128,34526,1,0,0:0:0:0:
256,128,34812,1,0,0:0:0:0:
256,128,34955,1,8,0:0:0:0:
256,128,35241,1,0,0:0:0:0:
256,128,35383,1,0,0:0:0:0:
256,128,35669,1,8,0:0:0:0:
256,128,35812,1,0,0:0:0:0:
256,128,35955,1,0,0:0:0:0:
256,128,36098,1,12,0:0:0:0:
256,128,36383,1,12,0:0:0:0:
256,128,36669,1,4,0:0:0:0:
256,128,36812,1,0,0:0:0:0:
256,128,36955,1,8,0:0:0:0:
256,128,37241,1,0,0:0:0:0:
256,128,37383,1,0,0:0:0:0:
256,128,37526,1,8,0:0:0:0:
256,128,37669,1,8,0:0:0:0:
256,128,37812,1,0,0:0:0:0:
256,128,37955,1,0,0:0:0:0:
256,128,38098,1,8,0:0:0:0:
256,128,38383,1,0,0:0:0:0:
256,128,38455,1,0,0:0:0:0:
256,128,38526,1,0,0:0:0:0:
256,128,38669,1,8,0:0:0:0:
256,128,38812,1,8,0:0:0:0:
256,128,38955,1,0,0:0:0:0:
256,128,39241,1,8,0:0:0:0:
256,128,39383,1,8,0:0:0:0:
256,128,39526,1,0,0:0:0:0:
256,128,39669,1,0,0:0:0:0:
256,128,39812,1,8,0:0:0:0:
256,128,39955,1,8,0:0:0:0:
256,128,40098,1,0,0:0:0:0:
256,128,40383,1,8,0:0:0:0:
256,128,40526,1,8,0:0:0:0:
416,288,40669,1,0,0:0:0:0:
256,128,40860,1,8,0:0:0:0:
256,128,41050,1,8,0:0:0:0:
256,128,41241,1,4,0:0:0:0:
256,128,41383,1,0,0:0:0:0:
256,128,41526,1,8,0:0:0:0:
256,128,41812,1,0,0:0:0:0:
256,128,41955,1,0,0:0:0:0:
256,128,42098,1,8,0:0:0:0:
256,128,42241,1,8,0:0:0:0:
256,128,42383,1,0,0:0:0:0:
256,128,42526,1,0,0:0:0:0:
256,128,42669,1,8,0:0:0:0:
256,128,42955,1,8,0:0:0:0:
256,128,43026,1,8,0:0:0:0:
256,128,43098,1,8,0:0:0:0:
256,128,43241,1,0,0:0:0:0:
256,128,43383,1,0,0:0:0:0:
256,128,43526,1,8,0:0:0:0:
256,128,43669,1,8,0:0:0:0:
256,128,43812,1,0,0:0:0:0:
256,128,44098,1,8,0:0:0:0:
256,128,44241,1,0,0:0:0:0:
256,128,44383,1,8,0:0:0:0:
256,128,44526,1,8,0:0:0:0:
256,128,44669,1,0,0:0:0:0:
256,128,44955,1,0,0:0:0:0:
256,128,45241,1,12,0:0:0:0:
256,128,45812,1,4,0:0:0:0:
256,128,46098,1,0,0:0:0:0:
256,128,46383,1,8,0:0:0:0:
256,128,46669,1,0,0:0:0:0:
256,128,46955,1,0,0:0:0:0:
256,128,47098,1,0,0:0:0:0:
256,128,47241,1,0,0:0:0:0:
256,128,47526,1,8,0:0:0:0:
256,128,47669,1,8,0:0:0:0:
256,128,47812,1,0,0:0:0:0:
256,128,48098,1,0,0:0:0:0:
256,128,48241,1,0,0:0:0:0:
256,128,48383,1,8,0:0:0:0:
256,128,48455,1,8,0:0:0:0:
256,128,48526,1,8,0:0:0:0:
256,128,48669,1,0,0:0:0:0:
256,128,48955,1,8,0:0:0:0:
256,128,49098,1,8,0:0:0:0:
256,128,49241,1,0,0:0:0:0:
256,128,49312,1,0,0:0:0:0:
256,128,49383,1,0,0:0:0:0:
256,128,49526,1,8,0:0:0:0:
256,128,49812,1,0,0:0:0:0:
256,128,50098,1,8,0:0:0:0:
256,128,50383,2,0,L|352:128,6,70
256,128,51526,1,0,0:0:0:0:
256,128,51669,1,0,0:0:0:0:
256,128,51812,1,8,0:0:0:0:
256,128,52098,1,0,0:0:0:0:
256,128,52383,1,8,0:0:0:0:
256,128,52669,1,0,0:0:0:0:
256,128,52812,1,0,0:0:0:0:
256,128,52955,1,8,0:0:0:0:
256,128,53026,1,8,0:0:0:0:
256,128,53098,1,8,0:0:0:0:
256,128,53241,1,0,0:0:0:0:
256,128,53526,1,8,0:0:0:0:
256,128,53669,1,8,0:0:0:0:
256,128,53812,1,0,0:0:0:0:
256,128,53883,1,0,0:0:0:0:
256,128,53955,1,0,0:0:0:0:
256,128,54098,1,8,0:0:0:0:
256,128,54383,1,0,0:0:0:0:
256,128,54527,1,0,0:0:0:0:
256,128,54669,1,8,0:0:0:0:
256,128,54955,1,4,0:0:0:0:
256,128,55241,1,0,0:0:0:0:
256,128,55526,1,8,0:0:0:0:
256,128,55669,1,8,0:0:0:0:
256,128,55812,1,0,0:0:0:0:
256,128,55955,1,8,0:0:0:0:
256,128,56098,1,0,0:0:0:0:
256,128,56383,1,8,0:0:0:0:
256,128,56669,1,8,0:0:0:0:
256,128,56955,1,0,0:0:0:0:
256,128,57241,1,0,0:0:0:0:
256,128,57455,1,0,0:0:0:0:
256,128,57669,1,0,0:0:0:0:
256,128,57812,1,8,0:0:0:0:
256,128,58098,1,0,0:0:0:0:
256,128,58241,1,8,0:0:0:0:
256,128,58383,1,0,0:0:0:0:
256,128,58669,1,0,0:0:0:0:
256,128,58812,1,0,0:0:0:0:
256,128,58955,1,8,0:0:0:0:
256,128,59098,1,0,0:0:0:0:
256,128,59241,1,8,0:0:0:0:
256,128,59526,1,4,0:0:0:0:
256,128,59812,1,8,0:0:0:0:
256,128,60098,1,0,0:0:0:0:
256,128,60669,1,4,0:0:0:0:
256,128,60955,1,0,0:0:0:0:
256,128,61241,1,8,0:0:0:0:
256,128,61383,1,8,0:0:0:0:
256,128,61526,1,8,0:0:0:0:
256,128,61812,1,4,0:0:0:0:
256,128,62098,1,0,0:0:0:0:
256,128,62241,1,0,0:0:0:0:
256,128,62383,1,0,0:0:0:0:
256,128,62669,1,8,0:0:0:0:
256,128,62955,1,4,0:0:0:0:
256,128,63241,1,8,0:0:0:0:
256,128,63383,1,0,0:0:0:0:
256,128,63526,1,0,0:0:0:0:
256,128,63812,1,8,0:0:0:0:
256,128,64098,1,4,0:0:0:0:
256,128,64383,1,8,0:0:0:0:
256,128,64526,1,8,0:0:0:0:
256,128,64669,1,0,0:0:0:0:
256,128,64955,1,8,0:0:0:0:
256,128,65241,1,4,0:0:0:0:
256,128,65526,1,0,0:0:0:0:
256,128,65669,1,0,0:0:0:0:
256,128,65812,1,0,0:0:0:0:
256,128,65955,1,0,0:0:0:0:
256,128,66098,1,8,0:0:0:0:
256,128,66383,1,4,0:0:0:0:
256,128,66669,1,0,0:0:0:0:
256,128,66812,1,0,0:0:0:0:
256,128,66955,1,8,0:0:0:0:
256,128,67098,1,0,0:0:0:0:
256,128,67241,1,8,0:0:0:0:
256,128,67526,1,4,0:0:0:0:
256,128,67812,1,0,0:0:0:0:
256,128,67955,1,8,0:0:0:0:
256,128,68098,1,8,0:0:0:0:
256,128,68241,1,0,0:0:0:0:
256,128,68383,1,8,0:0:0:0:
256,128,68669,1,0,0:0:0:0:
256,128,69241,2,0,L|320:128,6,35
256,128,69812,1,4,0:0:0:0:
256,128,69955,1,0,0:0:0:0:
256,128,70098,1,8,0:0:0:0:
256,128,70383,1,8,0:0:0:0:
256,128,70526,1,0,0:0:0:0:
256,128,70669,1,8,0:0:0:0:
256,128,70812,1,8,0:0:0:0:
256,128,70955,1,0,0:0:0:0:
256,128,71241,1,8,0:0:0:0:
256,128,71526,1,0,0:0:0:0:
256,128,71669,1,0,0:0:0:0:
256,128,71812,1,8,0:0:0:0:
256,128,71955,1,8,0:0:0:0:
256,128,72098,1,0,0:0:0:0:
256,128,72383,1,8,0:0:0:0:
256,128,72669,1,8,0:0:0:0:
256,128,72812,1,0,0:0:0:0:
256,128,72955,1,8,0:0:0:0:
256,128,73098,1,8,0:0:0:0:
256,128,73241,1,0,0:0:0:0:
256,128,73526,1,0,0:0:0:0:
256,128,73812,1,8,0:0:0:0:
256,128,74002,1,8,0:0:0:0:
256,128,74193,1,8,0:0:0:0:
256,128,74383,1,0,0:0:0:0:
256,128,74669,1,0,0:0:0:0:
256,128,74812,1,0,0:0:0:0:
256,128,74955,1,8,0:0:0:0:
256,128,75241,1,8,0:0:0:0:
256,128,75526,1,0,0:0:0:0:
256,128,75669,1,0,0:0:0:0:
256,128,75812,1,8,0:0:0:0:
256,128,75955,1,8,0:0:0:0:
256,128,76098,1,0,0:0:0:0:
256,128,76241,1,0,0:0:0:0:
256,128,76383,1,8,0:0:0:0:
256,128,76526,1,8,0:0:0:0:
256,128,76669,1,0,0:0:0:0:
256,128,76955,1,8,0:0:0:0:
256,128,77098,1,0,0:0:0:0:
256,128,77241,1,8,0:0:0:0:
256,128,77383,1,8,0:0:0:0:
256,128,77526,1,0,0:0:0:0:
256,128,77812,1,8,0:0:0:0:
256,128,78098,1,0,0:0:0:0:
256,128,78241,1,0,0:0:0:0:
256,128,78383,1,8,0:0:0:0:
256,128,78574,1,8,0:0:0:0:
256,128,78764,1,8,0:0:0:0:
256,128,78955,1,0,0:0:0:0:
256,128,79241,1,0,0:0:0:0:
256,128,79383,1,0,0:0:0:0:
256,128,79526,1,8,0:0:0:0:
256,128,79812,1,8,0:0:0:0:
256,128,79955,1,8,0:0:0:0:
256,128,80098,1,0,0:0:0:0:
256,128,80383,1,8,0:0:0:0:
256,128,80526,1,8,0:0:0:0:
256,128,80669,1,0,0:0:0:0:
256,128,80812,1,0,0:0:0:0:
256,128,80955,1,8,0:0:0:0:
256,128,81098,1,8,0:0:0:0:
256,128,81241,1,0,0:0:0:0:
256,128,81526,1,0,0:0:0:0:
256,128,81669,1,0,0:0:0:0:
256,128,81812,1,8,0:0:0:0:
256,128,81955,1,0,0:0:0:0:
256,128,82098,1,8,0:0:0:0:
256,128,82383,1,0,0:0:0:0:
256,128,82669,1,0,0:0:0:0:
256,128,82812,1,0,0:0:0:0:
256,128,82955,1,8,0:0:0:0:
256,128,83145,1,8,0:0:0:0:
256,128,83336,1,8,0:0:0:0:
256,128,83526,1,0,0:0:0:0:
256,128,83812,1,0,0:0:0:0:
256,128,83955,1,0,0:0:0:0:
256,128,84098,1,8,0:0:0:0:
256,128,84241,1,0,0:0:0:0:
256,128,84383,1,8,0:0:0:0:
256,128,84669,1,8,0:0:0:0:
256,128,84955,1,8,0:0:0:0:
256,128,85241,1,0,0:0:0:0:
256,128,85431,1,0,0:0:0:0:
256,128,85621,1,0,0:0:0:0:
256,128,85812,1,8,0:0:0:0:
256,128,86098,1,8,0:0:0:0:
256,128,86241,1,8,0:0:0:0:
256,128,86383,1,0,0:0:0:0:
256,128,86526,1,8,0:0:0:0:
256,128,86669,1,0,0:0:0:0:
256,128,86812,1,0,0:0:0:0:
256,128,86955,1,8,0:0:0:0:
256,128,87241,1,8,0:0:0:0:
256,128,87312,1,8,0:0:0:0:
256,128,87383,1,8,0:0:0:0:
256,128,87526,1,12,0:0:0:0:
256,128,88098,1,4,0:0:0:0:
256,128,88383,1,8,0:0:0:0:
256,128,88526,1,0,0:0:0:0:
256,128,88669,1,8,0:0:0:0:
256,128,88955,1,8,0:0:0:0:
256,128,89098,1,8,0:0:0:0:
256,128,89241,1,0,0:0:0:0:
256,128,89383,1,0,0:0:0:0:
256,128,89526,1,8,0:0:0:0:
256,128,89812,1,0,0:0:0:0:
256,128,89955,1,0,0:0:0:0:
256,128,90098,1,8,0:0:0:0:
256,128,90241,1,8,0:0:0:0:
256,128,90383,1,0,0:0:0:0:
256,128,90526,1,0,0:0:0:0:
256,128,90669,1,8,0:0:0:0:
256,128,90955,1,8,0:0:0:0:
256,128,91098,1,0,0:0:0:0:
256,128,91241,1,8,0:0:0:0:
256,128,91383,1,8,0:0:0:0:
256,128,91526,1,0,0:0:0:0:
256,128,91669,1,8,0:0:0:0:
256,128,91812,1,0,0:0:0:0:
256,128,92098,1,8,0:0:0:0:
256,128,92288,1,8,0:0:0:0:
256,128,92479,1,8,0:0:0:0:
256,128,92669,1,0,0:0:0:0:
256,128,92955,1,0,0:0:0:0:
256,128,93098,1,0,0:0:0:0:
256,128,93241,1,8,0:0:0:0:
256,128,93383,1,0,0:0:0:0:
256,128,93526,1,8,0:0:0:0:
256,128,93669,1,8,0:0:0:0:
256,128,93812,1,0,0:0:0:0:
256,128,94098,1,8,0:0:0:0:
256,128,94241,1,8,0:0:0:0:
256,128,94383,1,0,0:0:0:0:
256,128,94526,1,0,0:0:0:0:
256,128,94669,1,8,0:0:0:0:
256,128,94812,1,8,0:0:0:0:
256,128,94955,1,0,0:0:0:0:
256,128,95241,1,8,0:0:0:0:
256,128,95526,1,8,0:0:0:0:
256,128,95669,1,0,0:0:0:0:
256,128,95812,1,8,0:0:0:0:
256,128,95955,1,8,0:0:0:0:
256,128,96098,1,0,0:0:0:0:
256,128,96241,1,8,0:0:0:0:
256,128,96383,1,0,0:0:0:0:
256,128,96669,1,8,0:0:0:0:
256,128,96860,1,8,0:0:0:0:
256,128,97050,1,8,0:0:0:0:
256,128,97241,1,0,0:0:0:0:
256,128,97526,1,0,0:0:0:0:
256,128,97669,1,0,0:0:0:0:
256,128,97812,1,8,0:0:0:0:
256,128,98098,1,8,0:0:0:0:
256,128,98241,1,8,0:0:0:0:
256,128,98383,1,0,0:0:0:0:
256,128,98526,1,0,0:0:0:0:
256,128,98669,1,8,0:0:0:0:
256,128,98812,1,8,0:0:0:0:
256,128,98955,1,0,0:0:0:0:
256,128,99241,1,8,0:0:0:0:
256,128,99383,1,0,0:0:0:0:
256,128,99526,1,0,0:0:0:0:
256,128,99812,1,8,0:0:0:0:
256,128,100098,1,0,0:0:0:0:
256,128,100241,1,0,0:0:0:0:
256,128,100383,1,8,0:0:0:0:
256,128,100526,1,8,0:0:0:0:
256,128,100669,1,0,0:0:0:0:
256,128,100812,1,0,0:0:0:0:
256,128,100955,1,8,0:0:0:0:
256,128,101241,1,8,0:0:0:0:
256,128,101383,1,0,0:0:0:0:
256,128,101526,1,8,0:0:0:0:
256,128,101669,1,8,0:0:0:0:
256,128,101812,1,0,0:0:0:0:
256,128,102098,1,0,0:0:0:0:
256,128,102241,1,0,0:0:0:0:
256,128,102383,1,8,0:0:0:0:
256,128,102526,1,8,0:0:0:0:
256,128,102669,1,0,0:0:0:0:
256,128,102812,1,0,0:0:0:0:
256,128,102955,1,8,0:0:0:0:
256,128,103241,1,0,0:0:0:0:
256,128,103526,1,8,0:0:0:0:
256,128,103717,1,8,0:0:0:0:
256,128,103907,1,8,0:0:0:0:
256,128,104098,1,0,0:0:0:0:
256,128,104383,1,8,0:0:0:0:
256,128,104526,1,0,0:0:0:0:
256,128,104669,1,8,0:0:0:0:
256,128,104812,1,8,0:0:0:0:
256,128,104955,1,0,0:0:0:0:
256,128,105098,1,0,0:0:0:0:
256,128,105241,1,8,0:0:0:0:
256,128,105526,1,0,0:0:0:0:
256,128,105669,1,0,0:0:0:0:
256,128,105812,1,12,0:0:0:0:
256,128,106383,1,4,0:0:0:0:
256,128,106954,1,8,0:0:0:0:
256,128,107240,1,0,0:0:0:0:
256,128,107525,1,8,0:0:0:0:
256,128,107716,1,8,0:0:0:0:
256,128,107906,1,8,0:0:0:0:
256,128,108097,1,4,0:0:0:0:
256,128,108668,1,8,0:0:0:0:
256,128,108954,1,0,0:0:0:0:
256,128,109240,1,8,0:0:0:0:
256,128,109430,1,8,0:0:0:0:
256,128,109621,1,8,0:0:0:0:
256,128,109811,1,4,0:0:0:0:
256,128,110097,1,8,0:0:0:0:
256,128,110383,1,0,0:0:0:0:
256,128,110668,1,0,0:0:0:0:
256,128,110954,1,8,0:0:0:0:
256,128,111144,1,8,0:0:0:0:
256,128,111335,1,8,0:0:0:0:
256,128,111525,1,4,0:0:0:0:
256,128,111811,1,8,0:0:0:0:
256,128,112097,1,8,0:0:0:0:
256,128,112383,1,8,0:0:0:0:
256,128,112668,1,8,0:0:0:0:
256,128,112859,1,8,0:0:0:0:
256,128,113049,1,8,0:0:0:0:
256,128,113240,1,4,0:0:0:0:
256,128,114954,1,12,0:0:0:0:
256,128,116668,1,12,0:0:0:0:
256,128,118953,1,4,0:0:0:0:
