osu file format v14

[General]
AudioFilename: audio.mp3
AudioLeadIn: 0
PreviewTime: 69812
Countdown: 0
SampleSet: Normal
StackLeniency: 0.7
Mode: 1
LetterboxInBreaks: 0
WidescreenStoryboard: 0

[Editor]
Bookmarks: 36098,61812
DistanceSpacing: 1
BeatDivisor: 4
GridSize: 32
TimelineZoom: 1.499999

[Metadata]
Title:HAVOX
TitleUnicode:HAVOX
Artist:BlackY vs. Yooh
ArtistUnicode:BlackY vs. Yooh
Creator:Arrival
Version:Kantan
Source:SOUND VOLTEX III GRAVITY WARS
Tags:unmei muma gezo sdvx iii _gezo_
BeatmapID:1172632
BeatmapSetID:553741

[Difficulty]
HPDrainRate:7
CircleSize:3
OverallDifficulty:4
ApproachRate:5
SliderMultiplier:1.4
SliderTickRate:1

[Events]
//Background and Video events
0,0,"HAVOXBG.jpg",0,40
//Break Periods
//Storyboard Layer 0 (Background)
//Storyboard Layer 1 (Fail)
//Storyboard Layer 2 (Pass)
//Storyboard Layer 3 (Foreground)
//Storyboard Sound Samples

[TimingPoints]
1241,285.714285714286,4,1,0,100,1,0
36669,-100,4,1,0,100,0,1
45812,-100,4,1,0,100,0,0
69812,-100,4,1,0,100,0,1
106383,285.714285714286,6,1,0,100,1,0
116668,285.714285714286,4,1,0,100,1,0

[HitObjects]
256,128,1241,5,4,0:0:0:0:
256,128,2383,1,0,0:0:0:0:
256,128,2955,1,8,0:0:0:0:
256,128,3526,1,4,0:0:0:0:
256,128,4669,1,8,0:0:0:0:
256,128,5241,1,0,0:0:0:0:
256,128,5812,1,12,0:0:0:0:
256,128,6955,1,8,0:0:0:0:
256,128,7526,1,8,0:0:0:0:
256,128,8098,1,0,0:0:0:0:
256,128,9241,2,0,L|352:128,6,70
256,128,10383,1,4,0:0:0:0:
256,128,11526,1,0,0:0:0:0:
256,128,12098,1,8,0:0:0:0:
256,128,12669,1,0,0:0:0:0:
256,128,13812,1,0,0:0:0:0:
256,128,14383,1,8,0:0:0:0:
256,128,14669,1,8,0:0:0:0:
256,128,14955,1,0,0:0:0:0:
256,128,16098,1,0,0:0:0:0:
256,128,16669,1,8,0:0:0:0:
256,128,17241,1,0,0:0:0:0:
256,128,18098,1,8,0:0:0:0:
256,128,18383,1,4,0:0:0:0:
256,128,19526,1,8,0:0:0:0:
256,128,20098,1,8,0:0:0:0:
256,128,20669,1,0,0:0:0:0:
256,128,21812,1,8,0:0:0:0:
256,128,22383,1,8,0:0:0:0:
256,128,22669,1,8,0:0:0:0:
256,128,22955,1,0,0:0:0:0:
256,128,24098,1,8,0:0:0:0:
256,128,24669,1,8,0:0:0:0:
256,128,25241,1,0,0:0:0:0:
256,128,26383,2,0,L|352:128,6,70
256,128,27526,1,4,0:0:0:0:
256,128,28098,1,8,0:0:0:0:
256,128,29241,1,8,0:0:0:0:
256,128,29812,1,0,0:0:0:0:
256,128,30383,1,8,0:0:0:0:
256,128,31526,1,8,0:0:0:0:
256,128,32098,1,0,0:0:0:0:
256,128,32669,1,8,0:0:0:0:
256,128,33812,1,8,0:0:0:0:
256,128,34383,1,0,0:0:0:0:
256,128,34955,1,8,0:0:0:0:
256,128,36098,1,8,0:0:0:0:
256,128,36383,1,8,0:0:0:0:
256,128,36669,1,4,0:0:0:0:
256,128,37241,1,0,0:0:0:0:
256,128,37812,1,8,0:0:0:0:
256,128,38383,1,8,0:0:0:0:
256,128,38955,1,0,0:0:0:0:
256,128,39526,1,8,0:0:0:0:
256,128,40098,1,0,0:0:0:0:
256,128,41241,1,4,0:0:0:0:
256,128,41812,1,0,0:0:0:0:
256,128,42383,1,8,0:0:0:0:
256,128,42955,1,8,0:0:0:0:
256,128,43526,1,0,0:0:0:0:
256,128,43812,1,0,0:0:0:0:
256,128,44098,1,8,0:0:0:0:
256,128,44669,1,8,0:0:0:0:
256,128,44955,1,8,0:0:0:0:
256,128,45241,1,0,0:0:0:0:
256,128,45812,1,4,0:0:0:0:
256,128,46955,1,0,0:0:0:0:
256,128,47526,1,8,0:0:0:0:
256,128,48098,1,0,0:0:0:0:
256,128,49241,1,8,0:0:0:0:
256,128,49812,1,8,0:0:0:0:
256,128,50383,2,0,L|416:128,3,140
256,128,51526,1,0,0:0:0:0:
256,128,52669,1,0,0:0:0:0:
256,128,53241,1,8,0:0:0:0:
256,128,53812,1,0,0:0:0:0:
256,128,54383,1,8,0:0:0:0:
256,128,54955,1,4,0:0:0:0:
256,128,56098,1,0,0:0:0:0:
256,128,56669,1,8,0:0:0:0:
256,128,57241,1,0,0:0:0:0:
256,128,58383,1,8,0:0:0:0:
256,128,58955,1,8,0:0:0:0:
256,128,59526,1,4,0:0:0:0:
256,128,60669,1,4,0:0:0:0:
256,128,61241,1,8,0:0:0:0:
256,128,61812,1,4,0:0:0:0:
256,128,62955,1,4,0:0:0:0:
256,128,64098,1,4,0:0:0:0:
256,128,64669,1,0,0:0:0:0:
256,128,65241,1,4,0:0:0:0:
256,128,66383,1,4,0:0:0:0:
256,128,66955,1,4,0:0:0:0:
256,128,67526,1,4,0:0:0:0:
256,128,68098,1,12,0:0:0:0:
256,128,68383,1,12,0:0:0:0:
256,128,69241,1,12,0:0:0:0:
256,128,69812,1,4,0:0:0:0:
256,128,70383,1,8,0:0:0:0:
256,128,70955,1,0,0:0:0:0:
256,128,71526,1,8,0:0:0:0:
256,128,72098,1,0,0:0:0:0:
256,128,72669,1,0,0:0:0:0:
256,128,73241,1,8,0:0:0:0:
256,128,73812,1,8,0:0:0:0:
256,128,74098,1,8,0:0:0:0:
256,128,74383,1,0,0:0:0:0:
256,128,75526,1,0,0:0:0:0:
256,128,76098,1,8,0:0:0:0:
256,128,76669,1,0,0:0:0:0:
256,128,77241,1,8,0:0:0:0:
256,128,77812,1,0,0:0:0:0:
256,128,78383,1,8,0:0:0:0:
256,128,78669,1,8,0:0:0:0:
256,128,78955,1,0,0:0:0:0:
256,128,80098,1,0,0:0:0:0:
256,128,80669,1,8,0:0:0:0:
256,128,81241,1,0,0:0:0:0:
256,128,81812,1,0,0:0:0:0:
256,128,82383,1,8,0:0:0:0:
256,128,82955,1,8,0:0:0:0:
256,128,83241,1,8,0:0:0:0:
256,128,83526,1,0,0:0:0:0:
256,128,84098,1,0,0:0:0:0:
256,128,84669,1,8,0:0:0:0:
256,128,85812,1,0,0:0:0:0:
256,128,86383,1,0,0:0:0:0:
256,128,86955,1,8,0:0:0:0:
256,128,87526,1,8,0:0:0:0:
256,128,87812,1,8,0:0:0:0:
256,128,88098,1,4,0:0:0:0:
256,128,88669,1,8,0:0:0:0:
256,128,89241,1,0,0:0:0:0:
256,128,90098,1,8,0:0:0:0:
256,128,90383,1,0,0:0:0:0:
256,128,90955,1,8,0:0:0:0:
256,128,91526,1,0,0:0:0:0:
256,128,92098,1,8,0:0:0:0:
256,128,92383,1,8,0:0:0:0:
256,128,92669,1,0,0:0:0:0:
256,128,93241,1,8,0:0:0:0:
256,128,93812,1,0,0:0:0:0:
256,128,94669,1,8,0:0:0:0:
256,128,94955,1,0,0:0:0:0:
256,128,95526,1,8,0:0:0:0:
256,128,96098,1,0,0:0:0:0:
256,128,96669,1,8,0:0:0:0:
256,128,96955,1,8,0:0:0:0:
256,128,97241,1,0,0:0:0:0:
256,128,97812,1,8,0:0:0:0:
256,128,98383,1,0,0:0:0:0:
256,128,99241,1,8,0:0:0:0:
256,128,99526,1,0,0:0:0:0:
256,128,100098,1,8,0:0:0:0:
256,128,100669,1,0,0:0:0:0:
256,128,101812,1,0,0:0:0:0:
256,128,102383,1,0,0:0:0:0:
256,128,102955,1,8,0:0:0:0:
256,128,103526,1,8,0:0:0:0:
256,128,103812,1,8,0:0:0:0:
256,128,104098,1,0,0:0:0:0:
256,128,104669,1,0,0:0:0:0:
256,128,105241,1,8,0:0:0:0:
256,128,105812,1,12,0:0:0:0:
256,128,106383,1,4,0:0:0:0:
256,128,107240,1,8,0:0:0:0:
256,128,108097,1,4,0:0:0:0:
256,128,108954,1,8,0:0:0:0:
256,128,109811,1,4,0:0:0:0:
256,128,110668,1,8,0:0:0:0:
256,128,111525,1,4,0:0:0:0:
256,128,112383,1,8,0:0:0:0:
256,128,113240,1,4,0:0:0:0:
256,128,114954,1,12,0:0:0:0:
256,128,116668,1,12,0:0:0:0:
256,128,118953,1,4,0:0:0:0:
