osu file format v14

[General]
AudioFilename: audio.mp3
AudioLeadIn: 0
PreviewTime: 237331
Countdown: 0
SampleSet: Soft
StackLeniency: 0.3
Mode: 0
LetterboxInBreaks: 0
WidescreenStoryboard: 1

[Editor]
Bookmarks: 46220,135109,181331,254220
DistanceSpacing: 0.4
BeatDivisor: 4
GridSize: 32
TimelineZoom: 3.599998

[Metadata]
Title:TEL TEL pause (album ver.)
TitleUnicode:TEL TEL pause (album ver.)
Artist:BlackY feat. Risa Yuzuki
ArtistUnicode:BlackY feat. Risa Yuzuki
Creator:My Angel Jeremy
Version:Passing Rainbow feat. Arushii09
Source:
Tags:Japanese electronic featured artist fa mappers' guild celestial sight Collab Arushii09 ゆずりさ 柚木梨沙 yuzurisa mpg
BeatmapID:3824110
BeatmapSetID:1860204

[Difficulty]
HPDrainRate:5.2
CircleSize:4.2
OverallDifficulty:9.2
ApproachRate:9.6
SliderMultiplier:2.22
SliderTickRate:1

[Events]
//Background and Video events
0,0,"ANIME-PICTURES.NET_-_713824-2894x4093-gridmanuniverse-ssss.dynazenon-studiotrigger-minamiyume-hokorisakuni-single.jpg",0,0
//Break Periods
//Storyboard Layer 0 (Background)
//Storyboard Layer 1 (Fail)
//Storyboard Layer 2 (Pass)
//Storyboard Layer 3 (Foreground)
//Storyboard Layer 4 (Overlay)
//Storyboard Sound Samples

[TimingPoints]
2665,444.444444444444,4,2,2,50,1,0
2665,-142.857142857143,4,2,2,50,0,0
3554,444.444444444444,4,2,2,50,1,0
3554,-142.857142857143,4,2,2,50,0,0
5887,-142.857142857143,4,2,2,5,0,0
5998,-142.857142857143,4,2,2,50,0,0
6331,-142.857142857143,4,2,2,5,0,0
6442,-142.857142857143,4,2,2,50,0,0
8109,-142.857142857143,4,2,2,5,0,0
8220,-142.857142857143,4,2,2,50,0,0
8553,-142.857142857143,4,2,2,5,0,0
8665,-142.857142857143,4,2,2,50,0,0
10665,-125,4,2,2,60,0,0
16887,-50,4,2,2,60,0,0
17331,-100,4,2,2,60,0,0
17776,-66.6666666666667,4,2,2,75,0,1
44442,-40,4,2,2,75,0,0
44887,-100,4,2,2,75,0,0
45776,-65.0628355540299,4,2,2,75,0,0
46220,-333.333333333333,4,2,2,55,0,0
46665,-66.6666666666667,4,2,2,55,0,0
47109,-100,4,2,2,55,0,0
60442,-200,4,2,2,65,0,0
60887,-57.1428571428571,4,2,2,65,0,0
61331,-83.3333333333333,4,2,2,65,0,0
67553,-200,4,2,2,65,0,0
67998,-57.1428571428571,4,2,2,65,0,0
68442,-83.3333333333333,4,2,2,65,0,0
71109,-76.9230769230769,4,2,2,65,0,0
74665,-71.4285714285714,4,2,2,75,0,0
76442,-66.6666666666667,4,2,2,75,0,0
77776,-133.333333333333,4,2,2,75,0,0
78220,-100,4,2,2,75,0,0
78442,-66.6666666666667,4,2,2,75,0,0
78665,-50,4,2,2,75,0,0
78887,-71.4285714285714,4,2,2,75,0,0
79053,-71.4285714285714,4,2,2,5,0,0
79109,-71.4285714285714,4,2,2,75,0,0
79942,-71.4285714285714,4,2,2,5,0,0
79998,-71.4285714285714,4,2,2,75,0,0
81776,-100,4,2,2,75,0,0
81998,-66.6666666666667,4,2,2,75,0,0
82220,-50,4,2,2,75,0,0
82442,-40,4,2,2,75,0,0
82887,-57.1428571428571,4,2,2,75,0,0
83331,-71.4285714285714,4,2,2,75,0,0
83497,-71.4285714285714,4,2,2,5,0,0
83553,-71.4285714285714,4,2,2,75,0,0
85053,-71.4285714285714,4,2,2,5,0,0
85109,-71.4285714285714,4,2,2,75,0,0
85553,-200,4,2,2,75,0,0
85719,-200,4,2,2,5,0,0
85776,-50,4,2,2,75,0,0
85942,-50,4,2,2,5,0,0
85998,-71.4285714285714,4,2,2,75,0,0
87275,-71.4285714285714,4,2,2,5,0,0
87331,-71.4285714285714,4,2,2,75,0,0
92442,-100,4,2,2,75,0,0
92664,-66.6666666666667,4,2,2,75,0,0
92887,-50,4,2,2,75,0,0
93109,-71.4285714285714,4,2,2,75,0,0
93275,-71.4285714285714,4,2,2,5,0,0
93331,-71.4285714285714,4,2,2,75,0,0
94164,-71.4285714285714,4,2,2,5,0,0
94220,-71.4285714285714,4,2,2,75,0,0
95998,-100,4,2,2,75,0,0
96220,-66.6666666666667,4,2,2,75,0,0
96442,-50,4,2,2,75,0,0
96664,-40,4,2,2,75,0,0
97109,-57.1428571428571,4,2,2,75,0,0
97553,-71.4285714285714,4,2,2,75,0,0
97719,-71.4285714285714,4,2,2,5,0,0
97775,-71.4285714285714,4,2,2,75,0,0
99275,-71.4285714285714,4,2,2,5,0,0
99331,-71.4285714285714,4,2,2,75,0,0
99775,-200,4,2,2,75,0,0
99942,-200,4,2,2,5,0,0
99998,-50,4,2,2,75,0,0
100164,-50,4,2,2,5,0,0
100220,-71.4285714285714,4,2,2,75,0,0
101497,-71.4285714285714,4,2,2,5,0,0
101553,-71.4285714285714,4,2,2,75,0,0
106665,-66.6666666666667,4,2,2,75,0,1
119109,-133.333333333333,4,2,2,60,0,0
119887,-100,4,2,2,60,0,0
120442,-64.9350649350649,4,2,2,60,0,0
120887,-166.666666666667,4,2,2,50,0,0
121331,-100,4,2,2,50,0,0
121665,-100,4,2,2,5,0,0
121776,-166.666666666667,4,2,2,50,0,0
133998,-125,4,2,2,50,0,0
134665,-100,4,2,2,50,0,0
135109,-100,4,2,2,65,0,0
149331,-250,4,2,2,55,0,0
149776,-166.666666666667,4,2,2,60,0,0
150220,-125,4,2,2,65,0,0
150665,-100,4,2,2,70,0,0
152442,-76.9230769230769,4,2,2,65,0,0
152887,-100,4,2,2,75,0,0
153109,-66.6666666666667,4,2,2,75,0,0
153331,-50,4,2,2,75,0,0
153553,-71.4285714285714,4,2,2,75,0,0
153719,-71.4285714285714,4,2,2,5,0,0
153775,-71.4285714285714,4,2,2,75,0,0
154608,-71.4285714285714,4,2,2,5,0,0
154664,-71.4285714285714,4,2,2,75,0,0
156442,-100,4,2,2,75,0,0
156664,-66.6666666666667,4,2,2,75,0,0
156887,-50,4,2,2,75,0,0
157108,-40,4,2,2,75,0,0
157553,-57.1428571428571,4,2,2,75,0,0
157997,-71.4285714285714,4,2,2,75,0,0
158163,-71.4285714285714,4,2,2,5,0,0
158219,-71.4285714285714,4,2,2,75,0,0
159719,-71.4285714285714,4,2,2,5,0,0
159775,-71.4285714285714,4,2,2,75,0,0
160219,-200,4,2,2,75,0,0
160385,-200,4,2,2,5,0,0
160442,-50,4,2,2,75,0,0
160608,-50,4,2,2,5,0,0
160664,-71.4285714285714,4,2,2,75,0,0
161941,-71.4285714285714,4,2,2,5,0,0
161997,-71.4285714285714,4,2,2,75,0,0
167108,-100,4,2,2,75,0,0
167330,-66.6666666666667,4,2,2,75,0,0
167553,-50,4,2,2,75,0,0
167775,-71.4285714285714,4,2,2,75,0,0
167941,-71.4285714285714,4,2,2,5,0,0
167997,-71.4285714285714,4,2,2,75,0,0
168830,-71.4285714285714,4,2,2,5,0,0
168886,-71.4285714285714,4,2,2,75,0,0
170664,-100,4,2,2,75,0,0
170886,-66.6666666666667,4,2,2,75,0,0
171108,-50,4,2,2,75,0,0
171330,-40,4,2,2,75,0,0
171775,-57.1428571428571,4,2,2,75,0,0
172219,-71.4285714285714,4,2,2,75,0,0
172386,-71.4285714285714,4,2,2,5,0,0
172441,-71.4285714285714,4,2,2,75,0,0
173941,-71.4285714285714,4,2,2,5,0,0
173997,-71.4285714285714,4,2,2,75,0,0
174441,-200,4,2,2,75,0,0
174608,-200,4,2,2,5,0,0
174664,-50,4,2,2,75,0,0
174831,-50,4,2,2,5,0,0
174886,-71.4285714285714,4,2,2,75,0,0
176163,-71.4285714285714,4,2,2,5,0,0
176219,-71.4285714285714,4,2,2,75,0,0
179553,-90.9090909090909,4,2,2,60,0,0
180831,-90.9090909090909,4,2,2,5,0,0
180887,-90.9090909090909,4,2,2,60,0,0
181331,-133.333333333333,4,2,2,60,0,0
181776,-66.6666666666667,4,2,2,60,0,0
182109,-100,4,2,2,60,0,0
188442,-133.333333333333,4,2,2,60,0,0
188887,-50,4,2,2,60,0,0
189442,-100,4,2,2,60,0,0
194887,-133.333333333333,4,2,2,60,0,0
195109,-100,4,2,2,60,0,0
195331,-80,4,2,2,60,0,0
195553,-80,4,2,2,70,0,0
195998,-50,4,2,2,70,0,0
196442,-80,4,2,2,70,0,0
209776,-66.6666666666667,4,2,2,80,0,1
209942,-66.6666666666667,4,2,2,5,0,1
209998,-66.6666666666667,4,2,2,80,0,1
210497,-66.6666666666667,4,2,2,5,0,1
210553,-66.6666666666667,4,2,2,80,0,1
211275,-66.6666666666667,4,2,2,5,0,1
211331,-66.6666666666667,4,2,2,80,0,1
211719,-66.6666666666667,4,2,2,5,0,1
211776,-66.6666666666667,4,2,2,80,0,1
213942,-66.6666666666667,4,2,2,5,0,1
213998,-66.6666666666667,4,2,2,80,0,1
214831,-66.6666666666667,4,2,2,5,0,1
214887,-66.6666666666667,4,2,2,80,0,1
216942,-66.6666666666667,4,2,2,5,0,1
216998,-66.6666666666667,4,2,2,80,0,1
217831,-66.6666666666667,4,2,2,5,0,1
217887,-66.6666666666667,4,2,2,80,0,1
218386,-66.6666666666667,4,2,2,5,0,1
218442,-66.6666666666667,4,2,2,80,0,1
222386,-66.6666666666667,4,2,2,5,0,1
222442,-66.6666666666667,4,2,2,80,0,1
224442,-40,4,2,2,80,0,1
224887,-66.6666666666667,4,2,2,80,0,1
225719,-66.6666666666667,4,2,2,5,0,1
225776,-66.6666666666667,4,2,2,80,0,1
227719,-66.6666666666667,4,2,2,5,0,1
227776,-66.6666666666667,4,2,2,80,0,1
228164,-66.6666666666667,4,2,2,5,0,1
228220,-66.6666666666667,4,2,2,80,0,1
229275,-66.6666666666667,4,2,2,5,0,1
229331,-66.6666666666667,4,2,2,80,0,1
229942,-66.6666666666667,4,2,2,5,0,1
229998,-66.6666666666667,4,2,2,80,0,1
230831,-66.6666666666667,4,2,2,5,0,1
230887,-66.6666666666667,4,2,2,80,0,1
233498,-66.6666666666667,4,2,2,5,0,1
233553,-66.6666666666667,4,2,2,80,0,1
233609,-66.6666666666667,4,2,2,5,0,1
233665,-66.6666666666667,4,2,2,80,0,1
233720,-66.6666666666667,4,2,2,5,0,1
233776,-66.6666666666667,4,2,2,80,0,1
238220,-250,4,2,2,50,0,0
254220,-66.6666666666667,4,2,2,80,0,0
254442,-50,4,2,2,80,0,0
254665,-40,4,2,2,80,0,0
254887,-62.5,4,2,2,80,0,0
255053,-62.5,4,2,2,5,0,0
255109,-62.5,4,2,2,80,0,0
255942,-62.5,4,2,2,5,0,0
255998,-62.5,4,2,2,80,0,0
257776,-66.6666666666667,4,2,2,80,0,0
257998,-50,4,2,2,80,0,0
258220,-40,4,2,2,80,0,0
258442,-36.3636363636364,4,2,2,80,0,0
258887,-44.4444444444445,4,2,2,80,0,0
259331,-62.5,4,2,2,80,0,0
259497,-62.5,4,2,2,5,0,0
259553,-62.5,4,2,2,80,0,0
260830,-62.5,4,2,2,5,0,0
260887,-62.5,4,2,2,80,0,0
261053,-62.5,4,2,2,5,0,0
261109,-62.5,4,2,2,80,0,0
261553,-200,4,2,2,80,0,0
261719,-200,4,2,2,5,0,0
261776,-44.4444444444445,4,2,2,80,0,0
261942,-44.4444444444445,4,2,2,5,0,0
261998,-62.5,4,2,2,80,0,0
263275,-62.5,4,2,2,5,0,0
263331,-62.5,4,2,2,80,0,0
264608,-62.5,4,2,2,5,0,0
264665,-62.5,4,2,2,80,0,0
265497,-62.5,4,2,2,5,0,0
265553,-62.5,4,2,2,80,0,0
268442,-66.6666666666667,4,2,2,80,0,0
268665,-50,4,2,2,80,0,0
268887,-40,4,2,2,80,0,0
269109,-62.5,4,2,2,80,0,0
269275,-62.5,4,2,2,5,0,0
269331,-62.5,4,2,2,80,0,0
270164,-62.5,4,2,2,5,0,0
270220,-62.5,4,2,2,80,0,0
271998,-66.6666666666667,4,2,2,80,0,0
272220,-50,4,2,2,80,0,0
272442,-40,4,2,2,80,0,0
272665,-36.3636363636364,4,2,2,80,0,0
273109,-44.4444444444445,4,2,2,80,0,0
273553,-62.5,4,2,2,80,0,0
273719,-62.5,4,2,2,5,0,0
273776,-62.5,4,2,2,80,0,0
275053,-62.5,4,2,2,5,0,0
275109,-62.5,4,2,2,80,0,0
275275,-62.5,4,2,2,5,0,0
275331,-62.5,4,2,2,80,0,0
275776,-200,4,2,2,80,0,0
275942,-200,4,2,2,5,0,0
275998,-44.4444444444445,4,2,2,80,0,0
276164,-44.4444444444445,4,2,2,5,0,0
276220,-62.5,4,2,2,80,0,0
277497,-62.5,4,2,2,5,0,0
277553,-62.5,4,2,2,80,0,0
279053,-62.5,4,2,2,5,0,0
279109,-62.5,4,2,2,80,0,0
279942,-62.5,4,2,2,5,0,0
279998,-62.5,4,2,2,80,0,0
282665,-62.5,4,2,2,80,0,1
296887,-100,4,2,2,60,0,0
297331,-50,4,2,2,60,0,0
297776,-100,4,2,2,60,0,0
304442,-50,4,2,2,60,0,0
304887,-100,4,2,2,60,0,0
309331,-200,4,2,2,60,0,0
310442,-133.333333333333,4,2,2,60,0,0
310665,-100,4,2,2,60,0,0

[Colours]
Combo1 : 0,232,58
Combo2 : 255,83,255
Combo3 : 43,255,255
Combo4 : 255,255,13

[HitObjects]
10,333,2665,6,0,P|84:308|186:288,1,155.399995257569,2|2,0:0|0:0,0:0:0:0:
21,116,3554,5,6,0:0:0:0:
134,194,3776,1,2,0:0:0:0:
278,143,3998,1,2,0:0:0:0:
350,42,4220,2,0,P|320:129|331:220,1,155.399995257569,2|2,0:0|0:0,0:0:0:0:
448,365,5109,5,2,0:0:0:0:
499,258,5331,1,2,0:0:0:0:
353,329,5553,2,0,P|295:305|218:294,1,116.549996443176,2|0,0:0|0:0,0:0:0:0:
175,383,5998,2,0,P|150:325|104:262,1,116.549996443176,2|0,0:0|0:0,0:0:0:0:
22,222,6442,2,0,P|31:270|8:311,1,77.6999976287843,2|0,0:0|0:0,0:0:0:0:
2,300,7109,5,2,0:0:0:0:
102,206,7331,1,2,0:0:0:0:
252,177,7553,1,2,0:0:0:0:
420,228,7776,2,0,P|375:178|376:115,1,116.549996443176,2|0,0:0|0:0,0:0:0:0:
265,93,8220,2,0,P|285:29|340:-2,1,116.549996443176,2|2,0:0|0:0,0:0:0:0:
430,70,8665,1,2,0:0:0:0:
182,139,8887,6,0,P|140:124|87:111,1,77.6999976287843,2|2,0:0|0:0,0:0:0:0:
3,50,9331,1,2,0:0:0:0:
192,136,9553,2,0,B|223:232|112:190|145:300,1,155.399995257569,2|0,0:0|0:0,0:0:0:0:
32,314,10220,1,2,0:3:0:0:
103,384,10442,1,2,0:3:0:0:
0,195,10665,5,2,3:0:0:0:
14,202,10776,1,2,3:0:0:0:
71,157,10887,2,0,P|81:130|93:106,1,44.4,2|0,3:0|0:0,0:0:0:0:
3,50,11109,2,0,P|57:36|99:23,1,88.8,8|0,0:3|0:0,0:0:0:0:
203,0,11442,1,2,0:3:0:0:
198,20,11553,1,2,0:3:0:0:
290,125,11776,2,0,P|314:113|356:97,1,44.4,2|0,0:3|0:0,0:0:0:0:
454,58,11998,2,0,P|432:100|420:161,1,88.8,8|0,0:3|0:0,0:0:0:0:
479,219,12331,5,2,0:3:0:0:
463,231,12442,1,2,0:3:0:0:
360,324,12665,2,0,P|344:311|315:296,1,44.4,2|0,0:3|0:0,0:0:0:0:
462,384,12887,2,0,P|477:350|448:295,1,88.8,8|0,0:3|0:0,0:0:0:0:
347,202,13220,1,2,0:3:0:0:
331,216,13331,2,0,P|303:223|284:235,1,44.4,2|0,0:3|0:0,0:0:0:0:
204,334,13553,2,0,P|183:313|164:302,1,44.4,2|0,0:3|0:0,0:0:0:0:
30,326,13776,6,0,P|31:272|22:226,1,88.8,8|0,0:3|0:0,0:0:0:0:
176,56,14109,1,2,0:3:0:0:
193,74,14220,2,0,P|160:120|118:120,1,88.8,2|0,0:3|0:0,0:0:0:0:
46,55,14553,1,2,0:3:0:0:
41,75,14665,1,8,0:3:0:0:
127,228,14887,1,2,0:3:0:0:
297,272,15109,1,2,0:3:0:0:
285,256,15220,1,2,0:3:0:0:
293,238,15331,2,0,P|314:223|340:213,1,44.4,2|0,0:3|0:0,0:0:0:0:
282,361,15553,5,8,0:3:0:0:
383,141,15776,2,0,P|406:151|428:169,1,44.4,2|0,0:3|0:0,0:0:0:0:
512,255,15998,2,0,P|465:264|417:279,1,88.8,2|2,0:0|0:0,0:0:0:0:
235,151,16442,2,0,P|208:113|162:108,1,88.8,2|2,0:0|0:0,0:0:0:0:
9,300,16887,6,0,B|-4:324|-4:324|1:289,1,55.5,2|0,3:2|0:0,0:0:0:0:
66,254,16998,1,2,0:3:0:0:
139,260,17109,1,2,0:3:0:0:
139,272,17331,6,0,P|133:304|130:339,1,55.5,8|0,0:3|0:0,0:0:0:0:
15,185,17553,2,0,P|9:157|-1:132,1,55.5,2|2,0:0|0:0,0:0:0:0:
246,331,17776,6,0,P|275:292|335:276,1,83.2500031757356,6|0,3:2|0:0,0:0:0:0:
512,173,17998,2,0,P|483:212|423:228,1,83.2500031757356,2|0,0:0|0:0,0:0:0:0:
251,134,18220,1,10,0:2:0:0:
316,189,18331,2,0,P|331:138|352:94,1,83.2500031757356,0|2,0:0|0:0,0:0:0:0:
479,15,18553,5,0,0:0:0:0:
425,125,18665,2,0,P|337:69|345:-4,1,166.500006351471,2|0,3:2|0:0,0:0:0:0:
509,163,18998,1,2,0:0:0:0:
442,236,19109,2,0,P|400:219|343:205,1,83.2500031757356,8|0,0:2|0:0,0:0:0:0:
178,133,19331,1,2,0:0:0:0:
336,15,19553,6,0,P|291:33|234:44,1,83.2500031757356,2|0,3:2|0:0,0:0:0:0:
163,139,19776,1,2,0:0:0:0:
108,84,19887,1,0,0:0:0:0:
31,71,19998,2,0,P|24:121|-2:184,1,83.2500031757356,10|0,0:2|0:0,0:0:0:0:
152,332,20220,5,2,0:0:0:0:
184,257,20331,1,0,0:0:0:0:
267,232,20442,2,0,P|287:279|262:327,1,83.2500031757356,0|0,3:2|0:0,0:0:0:0:
163,343,20665,1,0,0:0:0:0:
388,384,20887,2,0,B|337:298|392:263|402:270|458:234|408:152,1,249.750009527207,8|0,0:2|0:0,0:0:0:0:
262,223,21331,6,0,P|315:212|366:198,1,83.2500031757356,2|0,3:2|0:0,0:0:0:0:
426,78,21553,2,0,P|466:88|507:96,1,83.2500031757356,2|0,0:0|0:0,0:0:0:0:
308,131,21776,2,0,P|293:77|324:46,1,83.2500031757356,10|0,0:2|0:0,0:0:0:0:
478,276,21998,1,2,0:0:0:0:
412,317,22109,1,0,0:0:0:0:
305,275,22220,5,2,3:2:0:0:
409,335,22331,2,0,P|367:341|316:356,1,83.2500031757356
415,160,22553,5,2,0:0:0:0:
475,263,22664,2,0,P|435:247|383:234,1,83.2500031757356,8|0,0:2|0:0,0:0:0:0:
319,49,22887,2,0,P|358:61|380:95,1,83.2500031757356,2|0,0:0|0:0,0:0:0:0:
305,275,23109,2,0,P|295:229|279:188,1,83.2500031757356,2|0,3:2|0:0,0:0:0:0:
68,43,23331,1,2,0:0:0:0:
142,29,23442,1,0,0:0:0:0:
192,91,23553,2,0,P|171:129|156:178,1,83.2500031757356,10|0,0:2|0:0,0:0:0:0:
31,322,23776,5,2,0:0:0:0:
114,382,23887,1,0,0:0:0:0:
207,339,23998,2,0,P|225:304|215:259,1,83.2500031757356,0|0,3:2|0:0,0:0:0:0:
83,146,24220,1,10,0:3:0:0:
307,218,24442,2,0,P|285:183|242:170,1,83.2500031757356,10|0,0:2|0:0,0:0:0:0:
73,241,24665,2,0,P|111:239|144:208,1,83.2500031757356,2|0,0:0|0:0,0:0:0:0:
72,45,24887,5,0,3:2:0:0:
319,136,25109,2,0,P|309:177|307:222,1,83.2500031757356,2|0,0:0|0:0,0:0:0:0:
179,71,25331,2,0,P|211:42|262:47,1,83.2500031757356,10|0,0:2|0:0,0:0:0:0:
392,206,25553,1,2,0:0:0:0:
459,165,25665,1,0,0:0:0:0:
446,89,25776,2,0,P|366:75|318:153,1,166.500006351471,2|0,3:2|0:0,0:0:0:0:
247,314,26109,5,2,0:0:0:0:
153,285,26220,2,0,P|119:295|66:308,1,83.2500031757356,8|0,0:2|0:0,0:0:0:0:
334,299,26442,2,0,P|368:309|421:322,1,83.2500031757356,2|0,0:0|0:0,0:0:0:0:
131,206,26665,6,0,P|96:197|44:182,1,83.2500031757356,2|0,3:2|0:0,0:0:0:0:
269,34,26888,1,2,0:0:0:0:
240,106,26999,1,0,0:0:0:0:
164,118,27109,2,0,P|149:86|122:47,1,83.2500031757356,10|0,0:2|0:0,0:0:0:0:
326,247,27332,1,2,0:0:0:0:
344,166,27443,1,0,0:0:0:0:
420,125,27554,2,0,P|440:172|415:220,1,83.2500031757356,0|0,3:2|0:0,0:0:0:0:
164,118,27776,5,10,0:3:0:0:
227,256,27998,2,0,P|254:229|255:175,1,83.2500031757356,10|0,0:2|0:0,0:0:0:0:
48,31,28220,2,0,P|61:72|69:127,1,83.2500031757356,2|0,0:0|0:0,0:0:0:0:
364,0,28442,6,0,B|394:53|351:79|348:73|306:98|339:156,1,166.500006351471,2|0,3:2|0:0,0:0:0:0:
247,334,28776,1,0,0:0:0:0:
221,257,28887,2,0,P|261:226|318:234,1,83.2500031757356,10|0,0:2|0:0,0:0:0:0:
509,301,29109,5,2,0:0:0:0:
439,254,29220,1,0,0:0:0:0:
367,301,29331,2,0,P|367:357|400:393,1,83.2500031757356,0|0,3:2|0:0,0:0:0:0:
251,151,29553,2,0,P|202:123|154:133,1,83.2500031757356,2|0,0:0|0:0,0:0:0:0:
401,195,29776,2,0,P|449:167|464:120,1,83.2500031757356,8|0,0:2|0:0,0:0:0:0:
358,0,29998,1,2,0:0:0:0:
154,155,30220,6,0,P|101:144|54:139,1,83.2500031757356,0|0,3:2|0:0,0:0:0:0:
268,4,30442,2,0,P|288:49|264:92,1,83.2500031757356
56,31,30665,2,0,B|27:-3|27:-3|77:21,1,83.2500031757356,8|0,0:2|0:0,0:0:0:0:
216,243,30887,5,2,0:0:0:0:
262,173,30998,1,0,0:0:0:0:
345,146,31109,1,0,3:2:0:0:
424,191,31220,1,0,0:0:0:0:
399,278,31331,2,0,P|357:269|334:224,1,83.2500031757356
512,78,31553,2,0,P|474:92|434:114,1,83.2500031757356,8|0,0:2|0:0,0:0:0:0:
453,351,31776,2,0,P|484:322|482:271,1,83.2500031757356
252,177,31998,6,0,P|298:167|340:151,1,83.2500031757356,0|0,3:2|0:0,0:0:0:0:
167,23,32220,2,0,P|206:48|247:66,1,83.2500031757356,2|0,0:0|0:0,0:0:0:0:
469,10,32442,1,10,0:2:0:0:
375,0,32553,2,0,P|372:42|400:86,1,83.2500031757356
512,88,32775,5,0,0:0:0:0:
417,252,32887,2,0,P|327:205|337:123,1,166.500006351471,2|0,3:2|0:0,0:0:0:0:
167,23,33220,1,2,0:0:0:0:
250,76,33331,2,0,P|286:48|295:-6,1,83.2500031757356,8|0,0:2|0:0,0:0:0:0:
119,99,33553,1,0,0:0:0:0:
0,11,33775,6,0,P|17:50|24:94,1,83.2500031757356,2|0,3:2|0:0,0:0:0:0:
187,282,33998,1,2,0:0:0:0:
169,204,34109,1,0,0:0:0:0:
92,182,34220,2,0,P|50:193|7:219,1,83.2500031757356,10|0,0:2|0:0,0:0:0:0:
237,377,34442,1,2,0:0:0:0:
270,301,34553,1,0,0:0:0:0:
352,276,34664,2,0,P|372:323|347:371,1,83.2500031757356,0|0,3:2|0:0,0:0:0:0:
254,223,34887,1,8,0:3:0:0:
479,36,35109,2,0,P|457:148|453:295,1,249.750009527207,8|0,0:2|0:0,0:0:0:0:
323,105,35553,6,0,P|282:102|250:128,1,83.2500031757356,2|0,3:2|0:0,0:0:0:0:
109,110,35776,2,0,P|102:69|125:35,1,83.2500031757356,2|0,0:0|0:0,0:0:0:0:
342,260,35998,2,0,P|305:238|264:227,1,83.2500031757356,10|0,0:2|0:0,0:0:0:0:
61,356,36220,1,2,0:0:0:0:
126,312,36331,1,0,0:0:0:0:
112,197,36442,5,2,3:2:0:0:
143,313,36553,2,0,P|155:280|187:228,1,83.2500031757356
259,60,36776,5,2,0:0:0:0:
174,144,36887,2,0,P|208:138|269:140,1,83.2500031757356,8|0,0:2|0:0,0:0:0:0:
410,274,37109,2,0,P|371:248|364:197,1,83.2500031757356,2|0,0:0|0:0,0:0:0:0:
512,17,37331,2,0,P|490:62|486:110,1,83.2500031757356,2|0,3:2|0:0,0:0:0:0:
273,150,37553,1,2,0:0:0:0:
294,77,37665,1,0,0:0:0:0:
370,51,37776,2,0,P|391:94|399:138,1,83.2500031757356,10|0,0:2|0:0,0:0:0:0:
266,294,37998,5,2,0:0:0:0:
173,250,38109,1,0,0:0:0:0:
73,276,38220,2,0,P|81:322|122:358,1,83.2500031757356,0|0,3:2|0:0,0:0:0:0:
172,146,38442,1,10,0:3:0:0:
361,214,38665,2,0,P|339:254|302:263,1,83.2500031757356,10|0,0:2|0:0,0:0:0:0:
232,75,38887,2,0,P|250:121|260:163,1,83.2500031757356,2|0,0:0|0:0,0:0:0:0:
302,358,39109,5,0,3:2:0:0:
482,120,39331,2,0,P|464:172|459:222,1,83.2500031757356,2|0,0:0|0:0,0:0:0:0:
298,30,39553,2,0,P|336:5|392:38,1,83.2500031757356,10|0,0:2|0:0,0:0:0:0:
253,183,39776,1,2,0:0:0:0:
183,145,39887,1,0,0:0:0:0:
121,196,39998,2,0,P|33:175|23:83,1,166.500006351471,2|0,3:2|0:0,0:0:0:0:
253,194,40331,5,2,0:0:0:0:
209,294,40442,2,0,P|253:275|300:262,1,83.2500031757356,8|0,0:2|0:0,0:0:0:0:
180,48,40665,2,0,P|174:95|162:142,1,83.2500031757356,2|0,0:0|0:0,0:0:0:0:
359,109,40887,6,0,P|321:96|278:120,1,83.2500031757356,2|0,3:2|0:0,0:0:0:0:
197,294,41109,1,2,0:0:0:0:
139,350,41221,1,0,0:0:0:0:
72,312,41332,2,0,P|55:275|63:235,1,83.2500031757356,10|0,0:2|0:0,0:0:0:0:
264,244,41553,5,2,0:0:0:0:
322,303,41665,1,0,0:0:0:0:
395,262,41776,2,0,P|415:309|390:357,1,83.2500031757356,0|0,3:2|0:0,0:0:0:0:
151,377,41998,6,0,P|196:365|237:348,1,83.2500031757356,10|0,0:3|0:0,0:0:0:0:
89,150,42220,2,0,P|62:181|61:222,1,83.2500031757356,10|0,0:2|0:0,0:0:0:0:
309,208,42442,2,0,P|267:207|225:200,1,83.2500031757356,2|0,0:0|0:0,0:0:0:0:
0,362,42665,6,0,P|80:308|158:285,1,166.500006351471,2|0,3:2|0:0,0:0:0:0:
0,122,42998,1,0,0:0:0:0:
50,58,43109,2,0,P|103:61|134:107,1,83.2500031757356,10|0,0:2|0:0,0:0:0:0:
221,204,43331,1,2,0:0:0:0:
276,140,43442,1,0,0:0:0:0:
358,167,43553,2,0,P|400:153|447:149,1,83.2500031757356,0|0,3:2|0:0,0:0:0:0:
276,0,43775,2,0,P|240:23|241:87,1,83.2500031757356,2|0,0:0|0:0,0:0:0:0:
512,105,43998,2,0,P|476:75|435:76,1,83.2500031757356,8|0,0:2|0:0,0:0:0:0:
327,264,44220,1,2,0:0:0:0:
134,70,44442,6,0,B|117:105|117:105|153:226,1,138.75,2|0,3:2|0:0,0:0:0:0:
8,110,44665,6,0,B|41:130|41:130|77:251,1,138.75,2|0,0:0|0:0,0:0:0:0:
58,54,44887,5,10,0:2:0:0:
114,235,44998,2,0,L|133:298,1,55.5,2|0,0:0|0:0,0:0:0:0:
14,191,45220,5,2,3:2:0:0:
228,240,45331,2,0,L|292:255,1,55.5,0|0,3:2|0:0,0:0:0:0:
344,323,45553,5,2,0:3:0:0:
354,313,45627,5,2,0:3:0:0:
358,298,45702,5,2,0:3:0:0:
357,283,45776,6,0,B|358:281|360:280|360:280|358:276|358:276|362:278|362:278|362:277|363:276|363:276|367:278|367:278|365:274|365:274|367:272|367:273|367:273|365:269|365:269|369:271|369:271|371:269|371:270|371:270|374:272|374:272|373:268|373:268|374:267|374:267|373:263|373:263|377:265|377:265|379:263|379:264|379:264|382:266|382:266|381:262|381:262|382:262|383:261|383:261|382:257|382:257|385:260|385:260|386:259|387:259|387:259|390:262|390:262|390:257|390:257|391:257|392:257|392:257|391:252|391:252|394:255|394:255|395:255|396:255|396:255|399:258|399:258|399:253|399:253|400:253|401:253|401:253|401:248|401:248|404:252|404:252|404:251|405:251|405:251|408:254|408:254|408:250|408:250|409:250|410:250|410:250|411:245|411:245|413:249|413:249|414:249|415:249|415:249|417:252|417:252|418:248|418:248|419:248|420:248|420:248|421:244|421:244|423:247|423:247|426:247|425:247|425:247|427:251|427:251|428:247|428:247|431:246|430:247|430:247|431:242|431:242|433:246|433:246|436:246|435:246|435:246|436:250|436:250|438:246|438:246|439:246|440:246|440:246|441:242|441:242|443:246|443:246|446:247|445:247|445:247|446:251|446:251|448:247|448:247|449:247|450:247|450:247|452:243|452:243|453:248|453:248|454:248|455:248|455:248|455:252|455:252|458:248|458:248|459:249|460:249|460:249|462:245|462:245|462:249|462:249|463:250,1,255.906453355475,12|0,0:2|0:0,0:0:0:0:
503,158,46220,6,0,P|508:126|515:102,1,49.949998475647,6|0,3:2|0:0,0:0:0:0:
512,11,46665,6,0,P|485:133|455:284,1,249.750009527207,10|0,0:2|0:0,0:0:0:0:
478,284,47109,1,2,3:2:0:0:
379,361,47331,1,2,0:0:0:0:
370,371,47442,2,0,P|332:360|316:327,1,55.5,2|8,0:0|0:2,0:0:0:0:
383,163,47776,1,2,0:0:0:0:
392,179,47887,1,2,0:0:0:0:
322,237,47998,6,0,B|274:255|274:255|267:276|267:276|202:301,1,111,2|2,3:2|0:0,0:0:0:0:
142,199,48331,2,0,L|218:214,1,55.5,2|8,0:0|0:2,0:0:0:0:
150,330,48553,1,2,0:0:0:0:
50,207,48776,6,0,B|37:139|104:171|89:63,1,111,2|0,0:0|0:0,0:0:0:0:
35,28,49109,2,0,P|9:54|9:86,1,55.5,2|0,0:0|0:0,0:0:0:0:
146,32,49331,2,0,P|240:53|331:63,1,166.5,10|0,0:2|0:0,0:0:0:0:
512,130,49776,6,0,P|466:134|433:84,1,111,0|0,3:2|0:0,0:0:0:0:
367,7,50109,1,0,0:0:0:0:
309,61,50220,2,0,P|283:144|259:237,1,166.5,10|0,0:2|0:0,0:0:0:0:
190,273,50665,2,0,P|209:299|246:300,1,55.5,2|0,3:2|0:0,0:0:0:0:
371,186,50887,1,2,0:0:0:0:
361,180,50998,2,0,P|348:222|343:255,1,55.5,2|8,0:0|0:2,0:0:0:0:
371,380,51331,5,2,0:0:0:0:
332,370,51442,1,2,0:0:0:0:
335,330,51553,1,2,3:2:0:0:
472,235,51776,1,2,0:0:0:0:
483,221,51887,2,0,P|470:179|465:146,1,55.5,2|8,0:0|0:2,0:0:0:0:
433,313,52109,1,2,0:0:0:0:
467,167,52331,6,0,P|408:157|384:106,1,111,2|0,0:0|0:0,0:0:0:0:
398,78,52665,1,2,0:0:0:0:
233,34,52887,6,0,P|249:79|257:113,1,55.5,10|0,0:2|0:0,0:0:0:0:
343,2,53109,1,2,0:0:0:0:
301,186,53331,6,0,P|246:170|159:161,1,111,0|0,3:2|0:0,0:0:0:0:
29,141,53665,1,0,0:0:0:0:
76,205,53776,2,0,B|82:252|82:252|113:120,1,166.5,10|0,0:2|0:0,0:0:0:0:
118,98,54220,1,2,3:2:0:0:
183,236,54442,1,2,0:0:0:0:
189,252,54553,2,0,P|179:291|169:322,1,55.5,2|8,0:0|0:2,0:0:0:0:
6,363,54887,1,2,0:0:0:0:
18,350,54998,1,2,0:0:0:0:
99,310,55109,6,0,P|157:326|208:348,1,111,2|2,3:2|0:0,0:0:0:0:
297,382,55442,2,0,P|323:365|356:355,1,55.5,2|8,0:0|0:2,0:0:0:0:
268,291,55664,1,2,0:0:0:0:
436,384,55887,6,0,P|446:320|468:240,1,111,2|0,0:0|0:0,0:0:0:0:
512,217,56220,2,0,P|483:195|446:205,1,55.5,2|0,0:0|0:0,0:0:0:0:
248,200,56442,2,0,B|345:183|345:183|355:221|393:224,1,166.5,10|0,0:2|0:0,0:0:0:0:
411,140,56887,6,0,P|426:85|444:34,1,111,2|0,3:2|0:0,0:0:0:0:
249,17,57220,1,2,0:0:0:0:
315,52,57331,1,8,0:2:0:0:
228,101,57442,2,0,B|171:101|198:165|110:164,1,111,2|2,0:0|0:0,0:0:0:0:
32,129,57776,6,0,P|58:189|71:242,1,111,0|0,3:2|0:0,0:0:0:0:
13,384,58220,2,0,P|24:351|58:335,1,55.5,10|0,0:2|0:0,0:0:0:0:
230,206,58442,1,2,0:0:0:0:
140,297,58665,6,0,P|204:310|261:335,1,111,0|0,3:2|0:0,0:0:0:0:
342,272,58998,1,0,0:0:0:0:
337,290,59109,1,8,0:2:0:0:
456,364,59331,5,2,0:0:0:0:
419,305,59442,1,0,3:2:0:0:
473,253,59553,1,0,3:2:0:0:
512,150,59776,1,0,3:2:0:0:
364,21,59998,6,0,P|376:58|383:86,1,55.5,10|0,0:2|0:0,0:0:0:0:
415,188,60220,1,0,3:2:0:0:
277,60,60442,6,0,P|245:73|235:104,1,55.5,6|0,3:2|0:0,0:0:0:0:
84,202,60776,1,0,0:0:0:0:
69,194,60887,6,0,P|62:119|106:206,1,291.375002778769,10|0,0:2|0:0,0:0:0:0:
192,251,61331,1,0,3:2:0:0:
211,203,61442,1,0,0:0:0:0:
176,160,61553,1,0,0:0:0:0:
295,267,61776,2,0,P|284:310|277:345,1,66.5999979675294,10|0,0:2|0:0,0:0:0:0:
380,292,61998,2,0,P|369:335|362:370,1,66.5999979675294,2|0,0:0|0:0,0:0:0:0:
512,120,62220,6,0,B|438:136|438:136|429:182|363:188,1,133.199995935059,2|0,3:2|0:0,0:0:0:0:
268,50,62553,1,2,0:0:0:0:
339,100,62665,2,0,P|346:61|359:18,1,66.5999979675294,8|0,0:2|0:0,0:0:0:0:
276,169,62887,2,0,P|283:208|296:251,1,66.5999979675294,2|0,0:0|0:0,0:0:0:0:
174,94,63109,5,0,3:2:0:0:
169,109,63220,1,0,0:0:0:0:
44,216,63442,5,0,0:0:0:0:
106,301,63553,2,0,P|115:256|130:215,1,66.5999979675294,10|0,0:2|0:0,0:0:0:0:
39,85,63776,1,2,0:0:0:0:
200,237,63998,6,0,P|240:242|293:268,1,66.5999979675294,2|0,3:2|0:0,0:0:0:0:
142,98,64220,2,0,P|126:60|122:1,1,66.5999979675294,2|0,0:0|0:0,0:0:0:0:
44,216,64442,2,0,P|18:248|-30:280,1,66.5999979675294,10|0,0:2|0:0,0:0:0:0:
236,135,64665,6,0,B|294:146|294:146|307:166|307:166|394:185,1,133.199995935059,2|0,0:0|3:2,0:0:0:0:
512,159,64998,1,0,0:0:0:0:
464,233,65109,2,0,P|441:205|441:160,1,66.5999979675294,2|0,0:0|0:0,0:0:0:0:
486,17,65331,2,0,P|509:45|509:90,1,66.5999979675294,10|0,0:2|0:0,0:0:0:0:
373,30,65553,1,2,0:0:0:0:
355,177,65776,6,0,P|319:186|276:200,1,66.5999979675294,2|0,3:2|0:0,0:0:0:0:
114,250,65998,1,2,0:0:0:0:
197,327,66109,2,0,P|206:291|220:248,1,66.5999979675294,2|8,0:0|0:2,0:0:0:0:
188,115,66331,2,0,P|149:145|158:189,1,66.5999979675294,2|0,0:0|0:0,0:0:0:0:
290,194,66553,1,2,0:0:0:0:
282,186,66665,1,0,3:2:0:0:
254,36,66887,6,0,P|269:76|279:112,1,66.5999979675294,2|0,0:0|0:0,0:0:0:0:
363,229,67109,2,0,B|504:261|504:261|434:198,1,199.799993902588,10|0,0:2|0:0,0:0:0:0:
325,322,67553,6,0,L|255:342,1,55.5,0|0,3:2|0:0,0:0:0:0:
86,263,67887,1,0,0:0:0:0:
168,368,67998,6,0,B|145:250|270:309|241:155|241:155|242:196|191:226,1,291.375002778769,10|0,0:2|0:0,0:0:0:0:
97,153,68442,2,0,B|60:129|60:129|189:155,1,133.199995935059,0|0,3:2|0:0,0:0:0:0:
287,5,68776,1,0,0:0:0:0:
217,20,68887,2,0,P|203:61|192:113,1,66.5999979675294,10|0,0:2|0:0,0:0:0:0:
315,205,69109,1,2,0:0:0:0:
368,65,69331,6,0,P|395:95|463:86,1,66.5999979675294,2|0,3:2|0:0,0:0:0:0:
484,233,69553,1,2,0:0:0:0:
512,160,69665,1,2,0:0:0:0:
402,235,69776,2,0,P|419:286|432:347,1,66.5999979675294,8|0,0:2|0:0,0:0:0:0:
279,384,69998,2,0,P|296:333|309:272,1,66.5999979675294,2|0,0:0|0:0,0:0:0:0:
213,171,70220,5,0,3:2:0:0:
206,184,70331,1,0,0:0:0:0:
363,68,70553,1,0,0:0:0:0:
292,28,70665,2,0,P|251:43|246:91,1,66.5999979675294,8|0,0:2|0:0,0:0:0:0:
325,208,70887,1,2,0:0:0:0:
334,194,70998,1,0,0:0:0:0:
277,281,71109,6,0,P|244:269|185:265,1,72.1499966972353,2|0,3:2|0:0,0:0:0:0:
30,329,71331,1,2,0:0:0:0:
107,384,71442,2,0,P|127:343|117:306,1,72.1499966972353,2|8,0:0|0:2,0:0:0:0:
36,189,71665,2,0,P|13:181|30:205,1,72.1499966972353,2|0,0:0|0:0,0:0:0:0:
126,237,71887,1,2,0:0:0:0:
133,226,71998,1,0,3:2:0:0:
19,118,72220,2,0,P|30:161|39:207,1,72.1499966972353
265,309,72442,5,10,0:2:0:0:
332,261,72553,1,0,0:0:0:0:
239,185,72665,1,2,0:0:0:0:
239,185,72887,6,0,B|224:102|303:137|283:2,1,144.299993394471,2|0,3:2|0:0,0:0:0:0:
347,0,73220,1,2,0:0:0:0:
205,48,73331,2,0,P|169:35|125:28,1,72.1499966972353,8|0,0:2|0:0,0:0:0:0:
350,190,73553,6,0,B|323:167|323:167|440:186|440:186|449:228|496:248,1,216.449990091706,2|2,0:0|0:0,0:0:0:0:
497,85,73998,2,0,P|505:128|516:166,1,72.1499966972353
397,267,74220,1,10,0:2:0:0:
474,236,74331,1,0,0:0:0:0:
512,314,74442,1,2,0:0:0:0:
154,116,74665,6,0,P|140:161|129:201,1,77.6999976287843,0|0,3:2|0:0,0:0:0:0:
309,333,74887,2,0,P|295:288|284:248,1,77.6999976287843,0|0,3:2|0:0,0:0:0:0:
150,264,75109,5,10,0:2:0:0:
141,285,75220,1,0,0:0:0:0:
243,183,75331,2,0,P|286:160|327:199,1,77.6999976287843,0|0,3:2|0:0,0:0:0:0:
394,291,75553,5,2,3:2:0:0:
417,282,75665,1,0,3:2:0:0:
455,250,75776,1,0,3:2:0:0:
478,181,75887,1,0,3:2:0:0:
424,100,75998,5,10,0:2:0:0:
314,75,76109,1,0,3:2:0:0:
387,24,76220,1,0,3:2:0:0:
357,140,76331,1,0,3:2:0:0:
238,30,76442,6,0,P|195:42|150:60,1,83.2500031757356,2|2,0:2|0:0,0:0:0:0:
145,72,76609,1,2,0:3:0:0:
138,79,76665,1,2,0:0:0:0:
172,163,76776,1,10,0:2:0:0:
6,171,76887,6,0,P|44:185|84:196,1,83.2500031757356,2|2,0:0|0:0,0:0:0:0:
238,292,77109,1,8,0:2:0:0:
133,364,77220,2,0,P|142:325|155:279,1,83.2500031757356,2|0,0:0|0:0,0:0:0:0:
286,115,77442,5,10,0:2:0:0:
172,163,77553,1,8,0:2:0:0:
172,163,77776,6,0,P|165:192|163:213,1,41.6250015878678,2|0,3:2|0:0,0:0:0:0:
80,282,77998,2,0,P|89:310|94:333,1,41.6250015878678,2|0,0:3|0:0,0:0:0:0:
86,68,78220,6,0,P|123:70|141:105,1,55.5,6|0,3:2|0:0,0:0:0:0:
243,63,78442,2,0,P|262:101|237:139,1,83.2500031757356,2|0,0:0|0:0,0:0:0:0:
384,219,78665,2,0,P|352:267|290:264,1,111,10|0,0:2|0:0,0:0:0:0:
60,346,78887,6,0,P|125:354|188:373,1,116.549996443176,2|0,0:0|0:0,0:0:0:0:
183,377,79109,1,0,3:2:0:0:
228,312,79220,1,0,0:0:0:0:
155,248,79331,1,2,0:0:0:0:
155,248,79553,6,0,P|146:205|135:167,1,77.6999976287843,8|0,0:2|0:0,0:0:0:0:
269,4,79776,2,0,P|251:67|239:133,1,116.549996443176,2|0,0:0|0:0,0:0:0:0:
264,193,79998,6,0,P|306:182|313:139,1,77.6999976287843,2|0,3:2|0:0,0:0:0:0:
155,47,80220,2,0,P|113:58|106:101,1,77.6999976287843,2|0,0:0|0:0,0:0:0:0:
341,40,80442,1,8,0:2:0:0:
269,4,80553,1,0,0:0:0:0:
316,152,80665,6,0,B|382:165|382:165|394:194|394:194|483:221,1,155.399995257569,2|0,0:0|3:2,0:0:0:0:
510,160,80998,1,0,0:0:0:0:
448,210,81109,2,0,P|426:253|421:289,1,77.6999976287843,2|0,0:0|0:0,0:0:0:0:
315,379,81331,1,8,0:2:0:0:
383,348,81442,1,0,0:0:0:0:
176,172,81665,1,0,0:0:0:0:
120,231,81776,6,0,P|89:215|30:209,1,55.5,2|0,3:2|0:0,0:0:0:0:
249,114,81998,2,0,P|278:95|313:47,1,83.2500031757356,2|0,0:0|0:0,0:0:0:0:
288,273,82220,2,0,P|289:307|327:396,1,111,10|0,0:2|0:0,0:0:0:0:
162,0,82442,6,0,P|276:39|454:69,1,277.5,2|0,0:0|3:2,0:0:0:0:
249,114,82776,1,0,0:0:0:0:
50,54,82887,6,0,P|128:82|242:113,1,194.250001852512,2|8,0:0|0:2,0:0:0:0:
388,38,83220,1,0,0:0:0:0:
442,157,83331,6,0,B|440:225|385:186|380:276,1,116.549996443176,2|0,0:0|0:0,0:0:0:0:
496,289,83553,2,0,P|463:280|482:272,1,77.6999976287843,2|0,3:2|0:0,0:0:0:0:
351,146,83776,1,2,0:0:0:0:
290,222,83887,6,0,P|247:237|192:251,1,77.6999976287843,2|8,0:0|0:2,0:0:0:0:
352,353,84109,1,2,0:0:0:0:
280,317,84220,1,0,0:0:0:0:
148,375,84331,1,2,0:0:0:0:
85,298,84442,6,0,B|31:145|31:145|98:195,1,233.099992886353,0|0,3:2|0:0,0:0:0:0:
234,0,84887,2,0,P|216:73|197:134,1,116.549996443176,10|0,0:2|0:0,0:0:0:0:
125,107,85109,2,0,P|105:66|124:40,1,77.6999976287843,2|0,0:0|0:0,0:0:0:0:
329,2,85331,1,0,3:2:0:0:
432,174,85553,6,0,L|446:128,1,41.625,2|0,0:0|0:0,0:0:0:0:
510,199,85776,6,0,P|426:215|403:328,1,166.5,10|0,0:2|0:0,0:0:0:0:
388,300,85998,1,2,0:0:0:0:
300,332,86109,1,2,0:0:0:0:
172,239,86220,5,2,3:2:0:0:
281,180,86331,2,0,P|261:234|251:274,1,77.6999976287843,2|0,0:0|0:0,0:0:0:0:
27,209,86553,1,2,0:0:0:0:
134,313,86665,2,0,B|160:224|83:258|107:146,1,155.399995257569,8|0,0:2|0:0,0:0:0:0:
21,111,86998,1,0,0:0:0:0:
117,22,87109,6,0,P|167:66|238:51,1,116.549996443176,2|0,3:2|0:0,0:0:0:0:
232,54,87331,1,2,0:0:0:0:
345,8,87442,2,0,P|330:52|322:96,1,77.6999976287843,2|8,0:0|0:2,0:0:0:0:
417,170,87665,2,0,P|386:166|409:155,1,77.6999976287843,2|0,0:0|0:0,0:0:0:0:
507,111,87887,1,2,0:0:0:0:
489,259,87998,6,0,B|428:265|428:265|407:295|407:295|320:311,1,155.399995257569,0|0,3:2|0:0,0:0:0:0:
235,272,88331,1,0,0:0:0:0:
325,383,88442,2,0,P|272:357|269:328,1,77.6999976287843,10|0,0:2|0:0,0:0:0:0:
411,238,88665,2,0,P|407:179|430:162,1,77.6999976287843,2|0,0:0|0:0,0:0:0:0:
406,68,88887,6,0,B|307:86|307:86|301:130|249:137,1,155.399995257569,0|0,3:2|0:0,0:0:0:0:
169,11,89220,1,0,0:0:0:0:
227,65,89331,2,0,P|189:56|137:48,1,77.6999976287843,10|0,0:2|0:0,0:0:0:0:
21,160,89553,2,0,P|64:145|118:134,1,77.6999976287843,2|0,0:0|0:0,0:0:0:0:
236,267,89776,1,0,3:2:0:0:
139,239,89887,6,0,B|110:338|194:291|172:417,1,155.399995257569
39,309,90220,2,0,P|47:352|74:376,1,77.6999976287843,10|0,0:2|0:0,0:0:0:0:
208,184,90442,1,2,0:0:0:0:
139,239,90553,1,0,0:0:0:0:
265,348,90665,6,0,P|349:325|446:311,1,155.399995257569,0|0,3:2|0:0,0:0:0:0:
510,145,90998,1,0,0:0:0:0:
422,170,91109,2,0,P|383:209|394:254,1,77.6999976287843,8|0,0:2|0:0,0:0:0:0:
489,368,91331,1,2,0:0:0:0:
496,359,91442,1,0,3:2:0:0:
372,252,91553,1,0,3:2:0:0:
342,324,91665,1,0,0:0:0:0:
500,240,91776,6,0,P|473:239|501:247,1,77.6999976287843,2|0,3:2|0:0,0:0:0:0:
357,73,91998,6,0,P|342:95|363:75,1,77.6999976287843,8|0,0:2|0:0,0:0:0:0:
131,148,92220,6,0,P|143:171|136:143,1,77.6999976287843,0|0,3:2|0:0,0:0:0:0:
79,19,92442,6,0,P|42:21|24:56,1,55.5,6|0,3:2|0:0,0:0:0:0:
56,125,92665,2,0,P|40:164|65:202,1,83.2500031757356,2|0,0:0|0:0,0:0:0:0:
207,234,92887,2,0,P|239:283|303:279,1,111,10|0,0:2|0:0,0:0:0:0:
423,155,93109,6,0,P|358:163|295:182,1,116.549996443176,2|0,0:0|0:0,0:0:0:0:
298,173,93331,1,0,3:2:0:0:
229,125,93442,1,0,0:0:0:0:
312,55,93553,1,2,0:0:0:0:
312,55,93775,6,0,P|269:46|231:35,1,77.6999976287843,8|0,0:2|0:0,0:0:0:0:
155,159,93998,2,0,B|92:164|133:228|40:234,1,116.549996443176,2|0,0:0|0:0,0:0:0:0:
17,282,94220,6,0,P|31:326|39:359,1,77.6999976287843,2|0,3:2|0:0,0:0:0:0:
176,233,94442,2,0,P|162:189|154:156,1,77.6999976287843,2|0,0:0|0:0,0:0:0:0:
58,83,94664,1,8,0:2:0:0:
28,152,94775,1,0,0:0:0:0:
109,18,94887,6,0,B|175:31|175:31|187:60|187:60|276:87,1,155.399995257569,2|0,0:0|3:2,0:0:0:0:
471,26,95220,1,0,0:0:0:0:
407,81,95331,2,0,P|378:122|389:160,1,77.6999976287843,2|0,0:0|0:0,0:0:0:0:
510,248,95553,1,8,0:2:0:0:
464,183,95664,1,0,0:0:0:0:
191,351,95887,1,0,0:0:0:0:
108,249,95998,6,0,P|134:256|158:270,1,55.5,2|0,3:2|0:0,0:0:0:0:
255,176,96220,2,0,P|284:157|319:109,1,83.2500031757356,2|0,0:0|0:0,0:0:0:0:
405,301,96442,2,0,P|434:319|489:377,1,111,10|0,0:2|0:0,0:0:0:0:
466,41,96665,6,0,B|494:9|494:9|335:58|335:58|345:105|295:132,1,277.5,2|0,0:0|3:2,0:0:0:0:
172,27,96998,1,0,0:0:0:0:
253,69,97109,6,0,B|118:40|118:40|216:18,1,194.250001852512,2|8,0:0|0:2,0:0:0:0:
313,119,97442,1,0,0:0:0:0:
176,197,97553,6,0,B|178:265|233:226|238:316,1,116.549996443176,2|0,0:0|0:0,0:0:0:0:
170,366,97775,2,0,B|134:337|134:337|153:306,1,77.6999976287843,2|0,3:2|0:0,0:0:0:0:
54,182,97998,1,2,0:0:0:0:
103,246,98109,6,0,P|60:261|5:275,1,77.6999976287843,2|8,0:0|0:2,0:0:0:0:
128,109,98331,1,2,0:0:0:0:
50,75,98442,1,0,0:0:0:0:
161,32,98553,1,2,0:0:0:0:
313,118,98664,6,0,B|336:37|437:45|437:45|392:62|376:99,1,233.099992886353,0|0,3:2|0:0,0:0:0:0:
481,309,99109,2,0,P|497:253|510:196,1,116.549996443176,10|0,0:2|0:0,0:0:0:0:
497,121,99331,2,0,P|452:132|438:167,1,77.6999976287843,2|0,0:0|0:0,0:0:0:0:
251,40,99553,1,0,3:2:0:0:
103,218,99776,6,0,L|117:172,1,41.625,2|0,0:0|0:0,0:0:0:0:
11,229,99998,6,0,B|108:226|39:311|187:314,1,166.5,10|0,0:2|0:0,0:0:0:0:
180,308,100220,1,2,0:0:0:0:
270,338,100331,1,2,0:0:0:0:
408,208,100442,5,2,3:2:0:0:
333,263,100553,2,0,P|353:317|363:357,1,77.6999976287843,2|0,0:0|0:0,0:0:0:0:
506,144,100776,1,2,0:0:0:0:
441,56,100887,6,0,P|422:131|408:208,1,155.399995257569,8|2,0:2|0:0,0:0:0:0:
463,278,101220,1,0,0:0:0:0:
327,186,101331,6,0,P|277:230|206:215,1,116.549996443176,2|0,3:2|0:0,0:0:0:0:
198,215,101553,1,2,0:0:0:0:
92,322,101664,2,0,P|107:278|115:234,1,77.6999976287843,2|8,0:0|0:2,0:0:0:0:
247,144,101887,2,0,P|249:111|232:139,1,77.6999976287843,2|0,0:0|0:0,0:0:0:0:
88,88,102109,1,2,0:0:0:0:
239,22,102220,6,0,B|300:28|300:28|321:58|321:58|408:74,1,155.399995257569,0|0,3:2|0:0,0:0:0:0:
496,15,102553,1,0,0:0:0:0:
498,186,102664,2,0,P|445:160|442:131,1,77.6999976287843,10|0,0:2|0:0,0:0:0:0:
321,254,102887,2,0,P|317:195|340:178,1,77.6999976287843,2|0,0:0|0:0,0:0:0:0:
500,276,103109,6,0,B|410:291|410:291|395:338|343:345,1,155.399995257569,0|0,3:2|0:0,0:0:0:0:
180,279,103442,1,0,0:0:0:0:
273,384,103553,2,0,P|264:346|256:294,1,77.6999976287843,8|0,0:2|0:0,0:0:0:0:
111,235,103776,2,0,P|120:197|128:145,1,77.6999976287843
207,18,103998,1,0,3:2:0:0:
51,28,104109,6,0,B|102:50|130:28|130:28|132:68|180:93,1,155.399995257569
30,193,104442,2,0,P|39:155|47:103,1,77.6999976287843,10|0,0:2|0:0,0:0:0:0:
207,18,104664,1,2,0:0:0:0:
168,86,104775,1,0,0:0:0:0:
240,175,104887,6,0,P|299:158|369:148,1,77.6999976287843,0|0,3:2|0:0,0:0:0:0:
169,303,105109,2,0,P|109:286|39:276,1,77.6999976287843,0|0,3:2|0:0,0:0:0:0:
241,168,105331,6,0,P|300:151|370:141,1,77.6999976287843,8|0,0:2|0:0,0:0:0:0:
164,314,105553,2,0,P|104:297|34:287,1,77.6999976287843,2|0,3:2|0:0,0:0:0:0:
430,135,105776,5,0,3:2:0:0:
458,242,105887,1,0,3:2:0:0:
384,204,105998,1,0,3:2:0:0:
503,171,106109,1,0,3:2:0:0:
492,320,106220,5,8,0:2:0:0:
416,310,106331,1,0,3:2:0:0:
315,375,106442,1,0,3:2:0:0:
231,358,106553,1,0,3:2:0:0:
150,211,106665,5,4,3:2:0:0:
281,24,106887,2,0,P|237:32|216:72,1,83.2500031757356,2|0,0:0|0:0,0:0:0:0:
30,161,107109,1,10,0:2:0:0:
89,84,107220,2,0,P|132:95|155:124,1,83.2500031757356,0|2,0:0|0:0,0:0:0:0:
21,164,107442,5,0,0:0:0:0:
221,281,107554,2,0,B|210:189|305:238|273:100,1,166.500006351471,2|0,3:2|0:0,0:0:0:0:
456,51,107887,1,2,0:0:0:0:
412,136,107998,2,0,P|376:108|367:54,1,83.2500031757356,8|0,0:2|0:0,0:0:0:0:
157,9,108220,1,2,0:0:0:0:
377,224,108442,6,0,P|395:266|409:307,1,83.2500031757356,2|0,3:2|0:0,0:0:0:0:
197,377,108665,1,2,0:0:0:0:
132,321,108776,1,0,0:0:0:0:
221,281,108887,2,0,P|239:239|253:198,1,83.2500031757356,10|0,0:2|0:0,0:0:0:0:
157,9,109109,1,2,0:0:0:0:
80,71,109220,1,0,0:0:0:0:
124,150,109331,6,0,P|173:146|192:92,1,83.2500031757356,0|0,3:2|0:0,0:0:0:0:
114,155,109554,1,0,0:0:0:0:
408,57,109776,6,0,B|419:29|456:20|456:20|352:23|412:118|272:112,1,249.750009527207,8|0,0:2|0:0,0:0:0:0:
468,188,110220,6,0,P|476:138|490:86,1,83.2500031757356,0|0,3:2|0:0,0:0:0:0:
305,21,110442,2,0,P|266:27|238:72,1,83.2500031757356,2|0,0:0|0:0,0:0:0:0:
321,259,110665,2,0,P|301:223|250:214,1,83.2500031757356,10|0,0:2|0:0,0:0:0:0:
36,119,110887,1,2,0:0:0:0:
118,78,110998,1,0,0:0:0:0:
29,208,111109,5,2,3:2:0:0:
105,288,111220,2,0,P|125:252|176:243,1,83.2500031757356
37,215,111443,5,2,0:0:0:0:
180,322,111553,2,0,P|262:334|357:362,1,166.500006351471,8|2,0:2|0:0,0:0:0:0:
512,293,111887,1,0,0:0:0:0:
456,371,111998,6,0,P|423:331|434:283,1,83.2500031757356,2|0,3:2|0:0,0:0:0:0:
362,83,112220,1,2,0:0:0:0:
301,149,112332,1,0,0:0:0:0:
382,191,112442,2,0,P|429:172|474:161,1,83.2500031757356,8|0,0:2|0:0,0:0:0:0:
180,19,112665,6,0,B|155:126|244:81|225:203,1,166.500006351471,2|0,0:0|3:2,0:0:0:0:
326,13,112998,1,0,0:0:0:0:
259,50,113109,1,2,0:0:0:0:
234,290,113331,6,0,P|194:268|185:231,1,83.2500031757356,10|0,0:2|0:0,0:0:0:0:
24,149,113553,2,0,P|23:103|50:77,1,83.2500031757356,2|0,0:0|0:0,0:0:0:0:
91,293,113776,5,0,3:2:0:0:
286,128,113998,2,0,P|274:177|264:218,1,83.2500031757356,2|0,0:0|0:0,0:0:0:0:
455,290,114220,1,10,0:2:0:0:
369,357,114331,2,0,P|355:315|344:273,1,83.2500031757356,0|2,0:0|0:0,0:0:0:0:
466,298,114553,5,0,0:0:0:0:
266,208,114665,2,0,B|205:157|153:183|126:244|219:275,1,166.500006351471,2|0,3:2|0:0,0:0:0:0:
460,93,114998,1,2,0:0:0:0:
429,173,115109,2,0,P|393:145|384:91,1,83.2500031757356,8|0,0:2|0:0,0:0:0:0:
505,5,115331,1,2,0:0:0:0:
293,115,115553,6,0,P|247:98|210:91,1,83.2500031757356,2|0,3:2|0:0,0:0:0:0:
0,58,115776,1,2,0:0:0:0:
76,5,115887,1,0,0:0:0:0:
120,123,115998,2,0,P|103:172|95:207,1,83.2500031757356,8|0,0:2|0:0,0:0:0:0:
17,382,116220,5,2,0:0:0:0:
8,370,116331,1,0,0:0:0:0:
86,322,116442,6,0,B|100:307|132:305|132:305|111:312|94:344,1,83.2500031757356,0|0,3:2|0:0,0:0:0:0:
34,154,116665,6,0,P|69:196|134:189,1,83.2500031757356,2|0,0:0|0:0,0:0:0:0:
200,384,116887,2,0,P|253:374|280:314,1,83.2500031757356,10|0,0:2|0:0,0:0:0:0:
473,129,117109,2,0,P|451:178|427:248,1,83.2500031757356,2|0,0:0|0:0,0:0:0:0:
486,354,117332,6,0,P|406:305|328:277,1,166.500006351471,2|0,3:2|0:0,0:0:0:0:
176,157,117665,1,0,0:0:0:0:
264,133,117776,2,0,P|310:163|315:208,1,83.2500031757356,10|0,0:2|0:0,0:0:0:0:
200,384,117998,1,2,0:0:0:0:
117,330,118109,1,0,0:0:0:0:
157,247,118220,2,0,P|203:230|249:216,1,83.2500031757356,0|0,3:2|0:0,0:0:0:0:
370,90,118442,6,0,P|383:80|354:81,1,83.2500031757356,2|0,0:0|0:0,0:0:0:0:
467,305,118665,2,0,P|445:265|424:226,1,83.2500031757356,8|0,0:2|0:0,0:0:0:0:
343,171,118887,1,2,0:0:0:0:
111,333,119109,6,0,P|99:301|93:266,1,41.6250015878678,2|0,3:2|0:0,0:0:0:0:
102,338,119331,2,0,P|90:306|84:271,1,41.6250015878678,2|0,0:0|0:0,0:0:0:0:
41,194,119553,5,2,0:0:0:0:
11,263,119665,1,2,0:0:0:0:
51,96,119887,6,0,B|113:83|92:146|180:122,1,111,2|0,0:0|0:0,0:0:0:0:
240,103,120220,5,2,0:3:0:0:
250,96,120294,5,2,0:3:0:0:
258,88,120368,5,2,0:3:0:0:
262,79,120442,6,0,B|263:77|265:76|265:76|263:72|263:72|267:74|267:74|267:73|268:72|268:72|272:74|272:74|270:70|270:70|272:68|272:69|272:69|270:65|270:65|274:67|274:67|276:65|276:66|276:66|279:68|279:68|278:64|278:64|279:63|279:63|278:59|278:59|282:61|282:61|284:59|284:60|284:60|287:62|287:62|286:58|286:58|287:58|288:57|288:57|287:53|287:53|290:56|290:56|291:55|292:55|292:55|295:58|295:58|295:53|295:53|296:53|297:53|297:53|296:48|296:48|299:51|299:51|300:51|301:51|301:51|304:54|304:54|304:49|304:49|305:49|306:49|306:49|306:44|306:44|309:48|309:48|309:47|310:47|310:47|313:50|313:50|313:46|313:46|314:46|315:46|315:46|316:41|316:41|318:45|318:45|319:45|320:45|320:45|322:48|322:48|323:44|323:44|324:44|325:44|325:44|326:40|326:40|328:43|328:43|331:43|330:43|330:43|332:47|332:47|333:43|333:43|336:42|335:43|335:43|336:38|336:38|338:42|338:42|341:42|340:42|340:42|341:46|341:46|343:42|343:42|344:42|345:42|345:42|346:38|346:38|348:42|348:42|351:43|350:43|350:43|351:47|351:47|353:43|353:43|354:43|355:43|355:43|357:39|357:39|358:44|358:44|359:44|360:44|360:44|360:48|360:48|363:44|363:44|364:45|365:45|365:45|367:41|367:41|367:45|367:45|368:46,1,255.906453355475,2|0,0:0|0:0,0:0:0:0:
429,109,120887,1,6,0:3:0:0:
425,103,121331,6,0,P|401:187|377:292,1,166.5,2|0,0:0|0:0,0:0:0:0:
326,335,121776,2,0,P|288:336|269:295,1,66.5999979675294,2|2,0:0|0:0,0:0:0:0:
244,247,122109,1,2,0:0:0:0:
84,144,122442,2,0,L|78:97,1,33.2999989837647,2|2,0:0|0:0,0:0:0:0:
125,39,122665,6,0,P|165:50|208:49,1,66.5999979675294,2|2,0:0|0:0,0:0:0:0:
243,109,122998,2,0,P|283:98|326:99,1,66.5999979675294,2|2,0:0|0:0,0:0:0:0:
419,36,123442,2,0,P|444:76|431:109,1,66.5999979675294,2|0,0:0|0:0,0:0:0:0:
424,131,123776,1,2,0:0:0:0:
491,186,123998,1,2,0:0:0:0:
405,359,124442,5,2,0:0:0:0:
410,373,124887,2,0,P|365:336|310:355,1,99.899996951294,2|0,0:0|0:0,0:0:0:0:
255,340,125331,2,0,P|242:301|226:266,1,66.5999979675294,2|2,0:0|0:0,0:0:0:0:
197,207,125665,1,2,0:0:0:0:
4,104,125998,2,0,L|65:115,1,33.2999989837647,2|2,0:0|0:0,0:0:0:0:
102,177,126220,6,0,P|89:216|77:258,1,66.5999979675294,2|2,0:0|0:0,0:0:0:0:
135,300,126553,2,0,P|148:339|160:381,1,66.5999979675294,2|2,0:0|0:0,0:0:0:0:
287,384,126998,2,0,P|320:366|321:329,1,66.5999979675294,2|0,0:0|0:0,0:0:0:0:
319,310,127331,1,2,0:0:0:0:
227,228,127553,1,2,0:0:0:0:
272,102,127776,1,2,0:0:0:0:
428,116,127998,5,2,0:0:0:0:
429,132,128442,2,0,P|409:74|391:25,1,99.899996951294,2|0,0:0|0:0,0:0:0:0:
316,27,128887,2,0,P|279:32|268:72,1,66.5999979675294,2|0,0:0|0:0,0:0:0:0:
313,120,129221,1,2,0:0:0:0:
486,215,129554,2,0,L|429:229,1,33.2999989837647,2|0,0:0|0:0,0:0:0:0:
404,289,129776,6,0,P|363:283|346:253,1,66.5999979675294,2|2,0:0|0:0,0:0:0:0:
269,297,130109,2,0,P|253:258|271:228,1,66.5999979675294,2|2,0:0|0:0,0:0:0:0:
196,119,130553,2,0,P|183:155|175:184,1,66.5999979675294,2|0,0:0|0:0,0:0:0:0:
161,211,130887,1,2,0:0:0:0:
84,283,131109,2,0,P|97:319|105:348,1,66.5999979675294,2|0,0:0|0:0,0:0:0:0:
269,297,131553,6,0,P|288:244|310:185,1,99.899996951294,2|2,0:0|0:0,0:0:0:0:
272,309,132109,1,2,0:0:0:0:
390,243,132331,2,0,B|446:247|417:302|491:306,1,99.899996951294,2|0,0:0|0:0,0:0:0:0:
503,222,132887,1,2,0:0:0:0:
389,159,133109,1,2,0:0:0:0:
461,118,133331,6,0,P|467:82|481:26,2,66.5999979675294,2|2|2,0:0|0:0|0:0,0:0:0:0:
389,159,133998,2,0,B|316:167|360:240|253:246,2,133.2,2|2|2,0:0|0:0|0:0,0:0:0:0:
29,48,135109,6,0,P|58:54|96:64,1,55.5,6|0,0:3|0:0,0:0:0:0:
206,97,135331,1,2,0:3:0:0:
206,97,135553,1,10,0:3:0:0:
167,33,135665,1,2,0:3:0:0:
233,0,135776,1,2,0:3:0:0:
295,48,135887,2,0,P|319:112|384:126,1,111,2|2,0:3|0:3,0:0:0:0:
442,125,136220,1,2,0:3:0:0:
454,143,136442,6,0,P|439:177|436:211,1,55.5,10|0,0:3|0:0,0:0:0:0:
344,308,136665,2,0,P|338:280|326:256,1,55.5,2|0,0:0|0:0,0:0:0:0:
512,361,136887,2,0,B|448:337|499:294|419:265,1,111,2|0,0:0|0:0,0:0:0:0:
326,256,137220,1,2,0:0:0:0:
242,200,137331,6,0,P|225:258|261:305,1,111,8|2,0:3|0:0,0:0:0:0:
346,134,137665,1,2,0:3:0:0:
491,68,137887,1,2,0:3:0:0:
454,143,137998,1,2,0:3:0:0:
512,288,138220,6,0,P|481:274|442:265,1,55.5,10|0,0:3|0:0,0:0:0:0:
353,133,138442,2,0,P|325:152|298:182,1,55.5,2|0,0:0|0:0,0:0:0:0:
118,8,138665,2,0,P|133:61|144:115,1,111,2|2,0:0|0:0,0:0:0:0:
229,82,138998,1,0,0:0:0:0:
155,211,139109,6,0,P|100:180|36:168,1,111,10|2,0:3|0:0,0:0:0:0:
0,105,139442,1,2,0:3:0:0:
46,310,139665,1,2,0:3:0:0:
61,322,139776,2,0,P|80:302|79:258,1,55.5,2|0,0:0|0:0,0:0:0:0:
267,198,139998,6,0,P|319:221|308:298,1,111,10|2,0:3|0:0,0:0:0:0:
187,340,140331,1,0,0:0:0:0:
203,361,140442,2,0,P|227:343|258:333,1,55.5,2|0,0:0|0:0,0:0:0:0:
206,154,140665,1,2,0:0:0:0:
148,217,140776,2,0,P|175:228|199:250,1,55.5,2|8,0:0|0:3,0:0:0:0:
345,364,140998,6,0,P|335:333|331:303,1,55.5,2|0,0:0|0:0,0:0:0:0:
411,160,141220,2,0,B|460:129|460:205|517:168,1,111,2|0,0:0|0:0,0:0:0:0:
331,35,141553,2,0,P|343:59|351:86,1,55.5,10|0,0:3|0:0,0:0:0:0:
458,32,141776,1,10,0:3:0:0:
461,18,141887,1,0,0:0:0:0:
453,8,141998,1,0,0:0:0:0:
253,117,142220,6,0,P|222:106|192:103,1,55.5,2|0,0:3|0:0,0:0:0:0:
94,76,142442,1,2,0:3:0:0:
94,76,142665,1,10,0:3:0:0:
139,15,142777,1,2,0:3:0:0:
213,0,142888,1,2,0:3:0:0:
282,33,142998,2,0,P|257:93|249:156,1,111,2|0,0:3|0:0,0:0:0:0:
155,211,143332,1,2,0:3:0:0:
246,360,143553,6,0,P|274:346|311:331,1,55.5,10|0,0:3|0:0,0:0:0:0:
156,221,143776,2,0,P|185:230|222:246,1,55.5,2|0,0:0|0:0,0:0:0:0:
348,279,143998,2,0,B|390:269|390:269|412:282|412:282|458:273,1,111,2|0,0:0|0:0,0:0:0:0:
504,116,144331,1,2,0:0:0:0:
429,172,144442,6,0,P|415:117|398:62,1,111,8|2,0:3|0:0,0:0:0:0:
282,33,144776,1,0,0:0:0:0:
316,134,144887,2,0,P|292:119|267:107,1,55.5,2|0,0:0|0:0,0:0:0:0:
107,92,145109,1,2,0:3:0:0:
171,66,145220,1,2,0:3:0:0:
190,0,145331,1,10,0:3:0:0:
128,178,145553,6,0,P|159:167|187:159,1,55.5,2|0,0:0|0:0,0:0:0:0:
0,300,145776,2,0,P|25:321|45:341,1,55.5,2|0,0:0|0:0,0:0:0:0:
8,205,145998,1,2,0:0:0:0:
72,245,146109,2,0,P|110:253|155:257,1,55.5,2|8,0:0|0:3,0:0:0:0:
226,375,146331,2,0,P|272:340|343:315,1,111,2|2,0:0|0:0,0:0:0:0:
469,285,146665,1,2,0:3:0:0:
405,167,146887,1,2,0:3:0:0:
392,163,146998,1,2,0:3:0:0:
382,174,147109,6,0,P|367:209|359:250,1,55.5,10|0,0:3|0:0,0:0:0:0:
447,384,147331,1,2,0:0:0:0:
282,220,147553,2,0,P|286:280|344:312,1,111,2|0,0:0|0:0,0:0:0:0:
469,285,147887,1,2,0:0:0:0:
512,350,147998,1,8,0:3:0:0:
382,174,148220,6,0,B|440:143|386:105|446:79,1,111,2|0,0:0|0:0,0:0:0:0:
282,221,148553,2,0,P|225:204|157:195,1,111,2|0,0:0|0:0,0:0:0:0:
285,101,148887,2,0,P|269:69|249:39,1,55.5,10|0,0:3|0:0,0:0:0:0:
450,86,149109,2,0,P|462:117|454:151,1,55.5,2|0,0:0|0:0,0:0:0:0:
237,41,149331,6,0,P|228:55|221:73,3,22.2,2|2|2|2,0:3|0:3|0:3|0:3,0:0:0:0:
80,151,149776,6,0,P|88:166|121:192,3,33.2999989837647,2|2|2|2,0:3|0:3|0:3|0:3,0:0:0:0:
282,221,150220,6,0,P|291:235|304:266,3,44.4,2|2|2|2,0:3|0:3|0:3|0:3,0:0:0:0:
439,331,150665,6,0,P|430:346|384:380,3,55.5,2|2|2|2,0:3|0:3|0:3|0:3,0:0:0:0:
197,313,151109,5,2,3:2:0:0:
288,373,151220,5,2,0:0:0:0:
286,364,151276,1,2,0:3:0:0:
284,354,151331,1,2,0:0:0:0:
207,302,151442,5,2,0:0:0:0:
379,207,151553,2,0,P|345:191|303:199,1,55.5,10|2,0:0|0:0,0:0:0:0:
285,105,151776,2,0,P|254:125|240:166,1,55.5,2|0,0:3|0:0,0:0:0:0:
307,272,151998,5,2,0:0:0:0:
155,177,152109,5,2,0:3:0:0:
168,169,152220,1,2,0:3:0:0:
192,65,152331,1,2,0:3:0:0:
14,46,152442,6,0,B|-10:124|42:142|48:138|100:154|71:242,1,216.449990091706,8|0,0:2|0:0,0:0:0:0:
0,383,152887,6,0,P|29:355|63:346,1,55.5,6|0,3:2|0:0,0:0:0:0:
155,177,153109,6,0,P|176:222|231:239,1,83.2500031757356,2|0,0:0|0:0,0:0:0:0:
336,377,153331,6,0,P|365:332|441:296,1,111,10|0,0:2|0:0,0:0:0:0:
512,149,153553,6,0,P|457:139|422:82,1,116.549996443176,2|0,0:0|0:0,0:0:0:0:
404,63,153775,1,0,3:2:0:0:
343,114,153886,1,0,0:0:0:0:
397,195,153998,1,2,0:0:0:0:
512,0,154219,6,0,P|501:49|499:102,1,77.6999976287843,8|0,0:2|0:0,0:0:0:0:
343,114,154442,2,0,B|273:95|288:168|216:144,1,116.549996443176,2|0,0:0|0:0,0:0:0:0:
135,159,154665,6,0,P|162:185|153:255,1,77.6999976287843,2|0,3:2|0:0,0:0:0:0:
115,372,154887,2,0,P|80:356|27:348,1,77.6999976287843,2|0,0:0|0:0,0:0:0:0:
17,174,155108,1,8,0:2:0:0:
73,116,155219,1,0,0:0:0:0:
170,239,155331,6,0,B|258:204|228:306|334:261,1,155.399995257569,2|0,0:0|3:2,0:0:0:0:
126,370,155664,1,0,0:0:0:0:
83,304,155776,2,0,P|70:258|91:222,1,77.6999976287843,2|0,0:0|0:0,0:0:0:0:
313,281,155997,1,8,0:2:0:0:
264,365,156108,1,0,0:0:0:0:
430,165,156331,1,0,0:0:0:0:
343,114,156442,6,0,P|323:141|323:176,1,55.5,2|0,3:2|0:0,0:0:0:0:
510,294,156664,2,0,P|483:257|429:255,1,83.2500031757356,2|0,0:0|0:0,0:0:0:0:
285,372,156887,2,0,P|332:350|397:337,1,111,10|0,0:2|0:0,0:0:0:0:
456,84,157108,6,0,P|437:210|422:361,1,277.5,2|0,0:0|3:2,0:0:0:0:
234,137,157442,1,0,0:0:0:0:
187,269,157553,6,0,B|255:252|271:302|265:306|282:361|348:345,1,194.250001852512,2|8,0:0|0:2,0:0:0:0:
456,84,157886,1,0,0:0:0:0:
457,177,157998,6,0,B|437:242|394:190|366:275,1,116.549996443176,2|0,0:0|0:0,0:0:0:0:
295,152,158219,2,0,P|317:130|319:161,1,77.6999976287843,2|0,3:2|0:0,0:0:0:0:
224,374,158442,1,2,0:0:0:0:
149,330,158553,6,0,P|157:291|208:265,1,77.6999976287843,2|8,0:0|0:2,0:0:0:0:
54,142,158775,1,2,0:0:0:0:
126,178,158886,1,0,0:0:0:0:
213,131,158997,1,2,0:0:0:0:
55,158,159108,6,0,P|163:169|308:190,1,233.099992886353,0|0,3:2|0:0,0:0:0:0:
96,384,159553,2,0,P|56:345|75:282,1,116.549996443176,10|0,0:2|0:0,0:0:0:0:
186,268,159776,2,0,B|224:283|224:283|177:280,1,77.6999976287843,2|0,0:0|0:0,0:0:0:0:
0,223,159997,1,0,3:2:0:0:
124,26,160219,6,0,P|115:49|108:76,1,41.625,2|0,0:0|0:0,0:0:0:0:
52,153,160442,6,0,P|104:93|206:97,1,166.5,10|0,0:2|0:0,0:0:0:0:
200,106,160664,1,2,0:0:0:0:
133,13,160775,1,2,0:0:0:0:
278,115,160886,5,2,3:2:0:0:
236,208,160998,2,0,P|202:195|156:183,1,77.6999976287843,2|0,0:0|0:0,0:0:0:0:
80,223,161219,1,2,0:0:0:0:
125,311,161331,2,0,P|61:246|-8:222,1,155.399995257569,8|0,0:2|0:0,0:0:0:0:
153,188,161664,1,0,0:0:0:0:
200,106,161775,6,0,B|272:100|236:165|310:159,1,116.549996443176,2|0,3:2|0:0,0:0:0:0:
307,173,161998,1,2,0:0:0:0:
289,268,162109,2,0,P|328:249|386:241,1,77.6999976287843,2|8,0:0|0:2,0:0:0:0:
493,110,162331,2,0,P|505:83|479:97,1,77.6999976287843,2|0,0:0|0:0,0:0:0:0:
440,203,162553,1,2,0:0:0:0:
508,293,162664,6,0,P|425:315|366:368,1,155.399995257569,0|0,3:2|0:0,0:0:0:0:
198,272,162997,1,0,0:0:0:0:
244,383,163108,2,0,P|271:348|271:305,1,77.6999976287843,10|0,0:2|0:0,0:0:0:0:
41,225,163331,2,0,P|57:265|95:287,1,77.6999976287843,2|0,0:0|0:0,0:0:0:0:
160,29,163553,6,0,P|143:118|133:201,1,155.399995257569,0|0,3:2|0:0,0:0:0:0:
295,159,163886,1,0,0:0:0:0:
349,100,163998,2,0,P|320:65|279:60,1,77.6999976287843,10|0,0:2|0:0,0:0:0:0:
147,199,164220,2,0,P|191:191|216:158,1,77.6999976287843,2|0,0:0|0:0,0:0:0:0:
0,78,164442,1,0,3:2:0:0:
36,0,164553,6,0,P|100:13|118:102,1,155.399995257569
16,298,164887,2,0,P|26:263|46:212,1,77.6999976287843,10|0,0:2|0:0,0:0:0:0:
208,126,165108,1,2,0:0:0:0:
147,199,165219,1,0,0:0:0:0:
199,322,165331,6,0,B|257:309|257:309|290:326|290:326|367:306,1,155.399995257569,0|0,3:2|0:0,0:0:0:0:
296,85,165664,1,0,0:0:0:0:
201,136,165775,2,0,P|217:174|271:189,1,77.6999976287843,8|0,0:2|0:0,0:0:0:0:
397,221,165997,1,2,0:0:0:0:
389,236,166108,1,0,3:2:0:0:
287,277,166219,1,0,3:2:0:0:
378,148,166331,1,0,0:0:0:0:
496,223,166442,6,0,P|519:235|491:228,1,77.6999976287843,2|0,3:2|0:0,0:0:0:0:
333,42,166664,6,0,P|318:64|339:44,1,77.6999976287843,8|0,0:2|0:0,0:0:0:0:
84,22,166886,6,0,P|96:45|89:17,1,77.6999976287843,0|0,3:2|0:0,0:0:0:0:
37,279,167109,6,0,P|31:241|20:205,1,55.5,6|0,3:2|0:0,0:0:0:0:
182,348,167331,6,0,P|198:303|234:272,1,83.2500031757356,2|0,0:0|0:0,0:0:0:0:
350,149,167553,6,0,P|405:173|421:239,1,111,10|0,0:2|0:0,0:0:0:0:
139,152,167775,6,0,P|194:169|251:187,1,116.549996443176,2|0,0:0|0:0,0:0:0:0:
255,205,167997,1,0,3:2:0:0:
218,129,168108,1,0,0:0:0:0:
298,57,168219,1,2,0:0:0:0:
0,128,168442,6,0,P|40:118|79:100,1,77.6999976287843,8|0,0:2|0:0,0:0:0:0:
113,339,168665,2,0,B|160:295|88:271|158:209,1,116.549996443176,2|0,0:0|0:0,0:0:0:0:
158,235,168886,6,0,P|117:261|63:242,1,77.6999976287843,2|0,3:2|0:0,0:0:0:0:
86,63,169109,2,0,P|125:74|168:78,1,77.6999976287843,2|0,0:0|0:0,0:0:0:0:
255,205,169330,1,8,0:2:0:0:
324,172,169441,1,0,0:0:0:0:
293,298,169553,6,0,B|354:288|360:331|356:337|363:377|422:370,1,155.399995257569,2|0,0:0|3:2,0:0:0:0:
331,183,169886,1,0,0:0:0:0:
403,140,169997,2,0,P|432:181|421:219,1,77.6999976287843,2|0,0:0|0:0,0:0:0:0:
181,267,170219,5,8,0:2:0:0:
100,247,170330,1,0,0:0:0:0:
120,168,170442,1,0,0:0:0:0:
200,184,170553,1,0,0:0:0:0:
148,76,170664,6,0,P|176:61|220:60,1,55.5,2|0,3:2|0:0,0:0:0:0:
262,271,170887,2,0,P|267:222|287:196,1,83.2500031757356,2|0,0:0|0:0,0:0:0:0:
512,384,171108,2,0,P|465:343|493:257,1,111,10|0,0:2|0:0,0:0:0:0:
512,13,171331,6,0,B|410:-30|382:41|391:46|361:126|259:73,1,277.5,2|0,0:0|3:2,0:0:0:0:
45,10,171664,1,0,0:0:0:0:
36,102,171776,2,0,B|22:49|75:-8|126:0|126:0|132:22|151:43,1,194.250001852512,2|8,0:0|0:2,0:0:0:0:
331,197,172108,1,0,0:0:0:0:
265,289,172220,6,0,P|226:251|164:232,1,116.549996443176,2|0,0:0|0:0,0:0:0:0:
146,243,172442,2,0,B|117:267|117:267|157:250,1,77.6999976287843,2|0,3:2|0:0,0:0:0:0:
252,2,172664,1,2,0:0:0:0:
174,45,172775,6,0,P|172:86|202:115,1,77.6999976287843,2|8,0:0|0:2,0:0:0:0:
343,309,172997,1,2,0:0:0:0:
397,239,173108,1,0,0:0:0:0:
512,207,173219,1,2,0:0:0:0:
451,94,173331,6,0,L|420:328,1,233.099992886353,0|0,3:2|0:0,0:0:0:0:
168,232,173776,2,0,P|212:185|277:205,1,116.549996443176,10|0,0:2|0:0,0:0:0:0:
274,218,173997,2,0,P|244:253|247:297,1,77.6999976287843,2|0,0:0|0:0,0:0:0:0:
283,360,174219,1,0,3:2:0:0:
464,282,174442,6,0,P|473:257|487:242,1,41.625,2|0,0:0|0:0,0:0:0:0:
512,354,174665,6,0,P|449:287|354:296,1,166.5,10|0,0:2|0:0,0:0:0:0:
356,308,174886,1,2,0:0:0:0:
274,218,174997,1,2,0:0:0:0:
132,331,175108,5,2,3:2:0:0:
211,384,175219,2,0,P|218:334|231:297,1,77.6999976287843,2|0,0:0|0:0,0:0:0:0:
353,83,175441,1,2,0:0:0:0:
408,162,175553,6,0,B|331:132|338:228|260:195,1,155.399995257569,8|2,0:2|0:0,0:0:0:0:
157,133,175886,1,0,0:0:0:0:
107,31,175997,6,0,P|46:47|27:104,1,116.549996443176,2|0,3:2|0:0,0:0:0:0:
42,110,176219,1,2,0:0:0:0:
67,268,176331,2,0,P|72:227|81:189,1,77.6999976287843,2|8,0:0|0:2,0:0:0:0:
289,40,176553,2,0,P|265:80|225:94,1,77.6999976287843,2|0,0:0|0:0,0:0:0:0:
189,10,176775,1,2,0:0:0:0:
365,56,176886,6,0,B|426:62|426:62|447:92|447:92|534:108,1,155.399995257569,0|0,3:2|0:0,0:0:0:0:
341,218,177219,1,0,0:0:0:0:
375,292,177331,2,0,P|346:265|297:245,1,77.6999976287843,10|0,0:2|0:0,0:0:0:0:
166,83,177553,2,0,P|128:94|86:127,1,77.6999976287843,2|0,0:0|0:0,0:0:0:0:
251,319,177776,6,0,P|261:280|275:231,1,77.6999976287843,0|0,3:2|0:0,0:0:0:0:
57,45,177998,2,0,P|67:82|77:120,1,77.6999976287843,0|0,3:2|0:0,0:0:0:0:
392,178,178220,6,0,P|346:165|298:154,1,77.6999976287843,8|0,0:2|0:0,0:0:0:0:
176,185,178442,1,0,3:2:0:0:
163,168,178553,1,0,0:0:0:0:
286,86,178665,5,0,3:2:0:0:
247,204,178776,1,0,3:2:0:0:
341,279,178887,1,0,3:2:0:0:
316,157,178998,1,0,3:2:0:0:
478,127,179109,5,10,0:2:0:0:
401,180,179220,1,0,3:2:0:0:
427,306,179331,1,2,3:2:0:0:
330,279,179442,2,0,P|311:284|289:300,1,38.8499988143921,0|0,3:2|0:0,0:0:0:0:
211,361,179553,5,0,3:2:0:0:
0,86,180220,2,0,P|24:113|74:123,1,61.0500018630982,2|0,0:0|0:0,0:0:0:0:
134,304,180442,1,2,0:3:0:0:
176,224,180553,1,2,0:3:0:0:
286,204,180665,2,0,P|271:255|264:317,1,91.5750027946473
284,304,180887,6,0,P|308:283|306:238,1,61.0500018630982,2|0,0:0|0:0,0:0:0:0:
131,133,181109,1,2,0:0:0:0:
313,110,181331,6,0,B|320:69|360:63|360:63|331:79|334:109,1,124.875004763603,6|0,0:0|0:0,0:0:0:0:
373,177,181776,6,0,B|263:190|334:85|156:118,1,166.500006351471,8|0,0:3|0:0,0:0:0:0:
83,50,182109,6,0,P|83:75|121:89,1,55.5,2|0,0:0|0:0,0:0:0:0:
187,36,182331,1,2,0:0:0:0:
173,41,182442,1,2,0:0:0:0:
119,209,182665,6,0,P|133:175|169:167,1,55.5,8|0,0:3|0:0,0:0:0:0:
297,17,182887,2,0,B|439:44|439:44|354:71,1,222,2|0,0:0|0:0,0:0:0:0:
256,180,183553,6,0,L|273:108,1,55.5,10|0,0:3|0:0,0:0:0:0:
365,67,183776,1,2,0:0:0:0:
376,80,183887,2,0,B|428:76|397:130|489:123,1,111,2|0,0:0|0:0,0:0:0:0:
364,225,184220,2,0,L|355:161,1,55.5,2|0,0:0|0:0,0:0:0:0:
512,207,184442,1,10,0:3:0:0:
455,262,184553,2,0,L|435:387,1,111,2|0,0:0|0:0,0:0:0:0:
356,170,184887,6,0,B|285:181|285:181|263:211|263:211|187:224,1,166.5,2|0,0:0|0:0,0:0:0:0:
136,129,185331,2,0,L|213:138,1,55.5,10|0,0:3|0:0,0:0:0:0:
332,268,185553,1,0,0:0:0:0:
340,253,185665,1,0,0:0:0:0:
262,300,185776,6,0,P|336:319|351:365,1,111,2|0,0:0|0:0,0:0:0:0:
347,375,186109,1,0,0:0:0:0:
457,262,186220,6,0,P|424:271|417:306,1,55.5,10|0,0:3|0:0,0:0:0:0:
261,382,186442,6,0,P|159:353|75:342,1,166.5,2|0,0:0|0:0,0:0:0:0:
26,292,186887,1,2,0:0:0:0:
20,300,186998,1,2,0:0:0:0:
12,314,187109,1,10,0:3:0:0:
98,254,187331,5,2,0:0:0:0:
40,200,187442,1,2,0:0:0:0:
106,265,187553,6,0,P|173:243|228:228,1,111,2|0,0:0|0:0,0:0:0:0:
305,268,187887,1,2,0:0:0:0:
321,283,187998,2,0,B|338:316|338:316|322:348,1,55.5,8|0,0:3|0:0,0:0:0:0:
294,182,188220,1,2,0:0:0:0:
186,275,188442,6,0,P|178:210|116:179,1,124.875004763603,2|0,0:0|0:0,0:0:0:0:
55,24,188887,6,0,P|14:65|74:30,1,222,10|2,0:3|0:0,0:0:0:0:
53,62,189220,1,2,0:0:0:0:
176,17,189442,1,2,0:0:0:0:
185,25,189553,2,0,L|244:39,1,55.5,2|0,0:0|0:0,0:0:0:0:
186,110,189776,2,0,L|260:129,1,55.5,8|0,0:3|0:0,0:0:0:0:
352,3,189998,6,0,B|320:69|340:105|340:105|377:121|387:167,1,166.5,2|0,0:0|0:0,0:0:0:0:
297,265,190442,1,2,0:0:0:0:
290,258,190553,1,0,0:0:0:0:
287,249,190665,2,0,P|288:222|294:194,1,55.5,8|0,0:3|0:0,0:0:0:0:
493,74,190887,6,0,P|461:143|368:131,1,166.5,2|0,0:0|0:0,0:0:0:0:
393,296,191331,6,0,P|394:260|400:221,1,55.5,2|0,0:0|0:0,0:0:0:0:
485,216,191553,2,0,P|486:180|494:142,1,55.5,8|0,0:3|0:0,0:0:0:0:
414,78,191776,1,2,0:0:0:0:
311,197,191998,6,0,P|272:146|210:148,1,111,2|0,0:0|0:0,0:0:0:0:
195,156,192331,1,0,0:0:0:0:
152,274,192442,6,0,P|113:325|48:316,1,111,10|0,0:3|0:0,0:0:0:0:
0,287,192776,1,0,0:0:0:0:
2,300,192887,1,2,0:0:0:0:
53,234,193109,2,0,P|75:224|65:244,1,55.5,2|0,0:0|0:0,0:0:0:0:
157,384,193331,2,0,P|186:365|198:330,1,55.5,10|0,0:3|0:0,0:0:0:0:
241,209,193553,6,0,B|311:219|311:219|327:244|327:244|410:259,1,166.5,2|0,0:0|0:0,0:0:0:0:
460,307,193998,1,0,0:0:0:0:
472,299,194109,1,0,0:0:0:0:
479,285,194220,1,8,0:3:0:0:
406,104,194442,1,2,0:0:0:0:
389,101,194553,1,0,0:0:0:0:
367,111,194665,1,0,0:0:0:0:
345,149,194776,1,0,0:0:0:0:
448,206,194887,6,0,P|436:188|403:188,1,41.6250015878678,2|0,0:0|0:0,0:0:0:0:
410,87,195109,2,0,P|385:88|365:122,1,55.5,10|0,0:3|0:0,0:0:0:0:
219,80,195331,2,0,P|206:104|228:141,1,69.375,2|0,0:0|0:0,0:0:0:0:
281,305,195553,6,0,P|214:278|144:261,1,138.75,2|0,3:2|0:0,0:0:0:0:
47,321,195887,1,2,0:0:0:0:
132,354,195998,6,0,B|151:212|24:271|40:170|87:132|87:132|150:155|126:214,1,333,10|2,0:2|0:0,0:0:0:0:
0,263,196442,1,0,3:2:0:0:
47,321,196553,1,2,0:0:0:0:
132,184,196776,5,2,0:0:0:0:
187,247,196887,2,0,P|223:261|276:275,1,69.375,8|0,0:2|0:0,0:0:0:0:
268,259,197053,1,2,0:0:0:0:
278,252,197109,2,0,P|317:240|357:235,1,69.375,2|2,0:0|0:0,0:0:0:0:
484,267,197331,1,0,3:2:0:0:
401,321,197442,1,2,0:0:0:0:
401,321,197665,5,2,0:0:0:0:
423,200,197776,2,0,B|409:129|484:166|452:45,1,138.75,8|0,0:2|0:0,0:0:0:0:
390,12,198109,1,2,0:0:0:0:
285,125,198220,6,0,L|227:111,2,34.6875,2|2|2,3:2|0:0|0:0,0:0:0:0:
293,142,198442,5,2,0:0:0:0:
346,77,198553,1,2,0:0:0:0:
223,35,198665,6,0,P|182:45|165:83,1,69.375,10|0,0:2|0:0,0:0:0:0:
293,0,198887,1,2,0:0:0:0:
44,124,199109,6,0,P|120:136|149:205,1,138.75,2|2,3:2|0:0,0:0:0:0:
262,285,199442,2,0,P|243:329|197:339,1,69.375,2|8,0:0|0:2,0:0:0:0:
148,185,199665,1,2,0:0:0:0:
148,185,199887,5,2,0:0:0:0:
182,278,199998,6,0,P|106:290|77:359,1,138.75,0|0,3:2|0:0,0:0:0:0:
65,360,200331,1,2,0:0:0:0:
86,267,200442,2,0,P|80:238|45:211,1,69.375,8|0,0:2|0:0,0:0:0:0:
118,114,200665,1,2,0:0:0:0:
50,212,200776,2,0,B|77:112|-16:147|-3:63|-3:63|-1:92|30:105,1,208.125,2|0,0:0|0:0,0:0:0:0:
112,97,201331,5,10,0:2:0:0:
118,114,201442,1,2,0:0:0:0:
196,41,201553,1,2,0:0:0:0:
190,61,201665,1,2,0:0:0:0:
284,187,201776,5,2,3:2:0:0:
361,115,201887,2,0,P|325:146|324:184,1,69.375,2|0,0:0|0:2,0:0:0:0:
411,267,202109,1,2,0:0:0:0:
479,204,202220,6,0,P|438:198|394:182,1,69.375,10|2,0:2|0:0,0:0:0:0:
269,274,202442,2,0,P|233:285|189:301,1,69.375,2|2,0:0|0:0,0:0:0:0:
392,342,202665,5,2,3:2:0:0:
344,331,202776,1,2,0:0:0:0:
432,356,202887,5,2,0:0:0:0:
441,353,202961,5,2,0:0:0:0:
448,350,203035,5,2,0:0:0:0:
458,345,203109,6,0,P|495:349|514:319,1,69.375,10|0,0:2|0:0,0:0:0:0:
384,220,203331,2,0,P|368:185|333:184,1,69.375,2|0,0:0|0:0,0:0:0:0:
255,346,203553,5,2,3:2:0:0:
176,360,203665,1,2,0:0:0:0:
99,375,203776,1,2,0:0:0:0:
53,272,203887,6,0,P|92:281|127:285,1,69.375,2|8,0:0|0:2,0:0:0:0:
209,158,204109,1,2,0:0:0:0:
207,171,204220,1,2,0:0:0:0:
205,184,204331,1,2,0:0:0:0:
155,176,204442,5,2,3:2:0:0:
255,187,204553,1,2,0:0:0:0:
212,129,204665,1,2,0:0:0:0:
196,236,204776,1,2,0:0:0:0:
107,115,204887,6,0,P|69:128|21:139,1,69.375,10|2,0:2|0:0,0:0:0:0:
70,47,205109,1,2,0:0:0:0:
212,129,205220,6,0,B|207:67|275:88|257:-22,1,138.75,2|0,0:0|0:0,0:0:0:0:
179,1,205553,1,2,0:0:0:0:
300,121,205665,2,0,P|325:100|337:65,1,69.375,0|8,0:0|0:2,0:0:0:0:
212,129,205887,5,2,0:0:0:0:
336,66,205998,1,2,0:0:0:0:
337,212,206109,2,0,L|350:170,1,34.6875,2|2,0:0|0:0,0:0:0:0:
329,227,206220,2,0,B|272:238|272:238|253:260|253:260|178:274,1,138.75,2|0,3:2|3:2,0:0:0:0:
62,220,206553,1,2,0:0:0:0:
96,312,206665,6,0,L|82:395,1,69.375,8|2,0:2|0:0,0:0:0:0:
202,269,206887,2,0,L|188:186,1,69.375,0|2,3:2|0:0,0:0:0:0:
107,102,207109,5,0,3:2:0:0:
143,62,207220,1,0,3:2:0:0:
225,37,207331,1,2,3:2:0:0:
321,92,207442,1,0,3:2:0:0:
375,212,207553,5,10,0:2:0:0:
431,157,207665,1,2,3:2:0:0:
358,218,207776,2,0,L|348:302,1,69.375,10|2,0:2|0:0,0:0:0:0:
505,345,207998,6,0,L|514:388,2,34.6875,2|2|2,0:3|0:3|0:3,0:0:0:0:
435,297,208220,2,0,L|442:255,2,34.6875,2|2|2,0:3|0:3|0:3,0:0:0:0:
334,347,208442,6,0,L|281:354,1,34.6875,2|0,0:3|0:0,0:0:0:0:
324,356,208553,2,0,L|273:356,1,34.6875,2|0,0:3|0:0,0:0:0:0:
318,370,208665,1,2,0:3:0:0:
206,302,208776,6,0,B|189:235|254:252|234:149,1,138.75,2|0,0:3|0:0,0:0:0:0:
154,182,209109,6,0,P|138:193|149:198,1,34.6875,2|0,0:3|0:0,0:0:0:0:
187,112,209220,2,0,P|172:99|143:106,1,34.6875,2|0,0:3|0:0,0:0:0:0:
114,30,209331,2,0,P|70:47|53:93,1,69.375,2|0,0:0|0:0,0:0:0:0:
237,171,209553,1,2,0:0:0:0:
0,308,209776,6,0,B|63:302|32:369|136:359,1,124.875004763603,6|0,3:2|0:0,0:0:0:0:
141,362,209998,1,2,0:0:0:0:
231,261,210109,2,0,B|254:304|254:304|231:362,1,83.2500031757356,2|8,0:0|0:2,0:0:0:0:
130,269,210331,2,0,P|147:190|164:121,1,124.875004763603,2|0,0:0|0:0,0:0:0:0:
139,48,210553,5,2,0:0:0:0:
147,54,210609,1,2,0:0:0:0:
156,61,210665,2,0,P|217:73|233:126,1,83.2500031757356,2|0,3:2|0:0,0:0:0:0:
378,198,210887,1,2,0:0:0:0:
449,157,210998,1,2,0:0:0:0:
330,133,211109,2,0,P|349:215|361:290,1,124.875004763603,8|0,0:2|0:0,0:0:0:0:
321,329,211331,2,0,B|286:325|285:355|285:355|316:355|328:322,1,83.2500031757356,2|0,0:0|0:0,0:0:0:0:
454,257,211553,6,0,B|448:177|516:203|508:110,1,124.875004763603,0|0,3:2|0:0,0:0:0:0:
464,73,211776,1,2,0:0:0:0:
378,60,211887,1,2,0:0:0:0:
162,170,211998,5,10,0:2:0:0:
252,192,212109,1,2,0:0:0:0:
231,91,212220,5,2,0:0:0:0:
228,99,212276,1,2,0:0:0:0:
225,108,212331,1,2,0:0:0:0:
42,41,212553,5,2,0:0:0:0:
48,55,212609,1,2,0:0:0:0:
53,69,212665,1,2,0:0:0:0:
149,41,212776,1,2,0:0:0:0:
4,143,212887,5,10,0:2:0:0:
162,170,212998,1,2,0:0:0:0:
60,270,213109,1,2,0:0:0:0:
76,182,213220,1,2,0:0:0:0:
173,272,213331,5,2,3:2:0:0:
0,323,213442,2,0,P|63:303|103:382,1,166.500006351471,2|0,0:0|0:0,0:0:0:0:
340,165,213776,2,0,P|263:176|252:226,1,124.875004763603,10|0,0:2|0:0,0:0:0:0:
251,244,213998,1,2,0:0:0:0:
353,327,214109,2,0,P|333:267|321:220,1,83.2500031757356,2|0,0:0|3:2,0:0:0:0:
395,85,214331,2,0,B|400:29|463:19|463:19|422:33|415:80,1,166.500006351471,2|0,0:0|0:0,0:0:0:0:
246,169,214665,6,0,P|183:152|144:69,1,124.875004763603,10|0,0:2|0:0,0:0:0:0:
153,74,214887,1,2,0:0:0:0:
249,18,214998,1,2,0:0:0:0:
97,221,215109,6,0,B|82:122|175:175|147:39,1,166.500006351471,0|0,3:2|0:0,0:0:0:0:
61,52,215442,1,0,0:0:0:0:
66,65,215553,1,8,0:2:0:0:
186,212,215776,2,0,B|229:229|229:229|189:194,1,83.2500031757356
47,330,215998,5,2,3:2:0:0:
97,221,216109,1,2,0:0:0:0:
0,190,216220,5,2,0:0:0:0:
40,321,216331,1,2,0:0:0:0:
246,272,216442,5,10,0:2:0:0:
153,298,216553,1,2,0:0:0:0:
153,298,216776,6,0,P|223:302|258:363,1,124.875004763603,2|0,0:0|0:0,0:0:0:0:
264,371,216998,1,2,0:0:0:0:
351,308,217109,2,0,P|361:257|373:213,1,83.2500031757356,2|0,0:0|0:0,0:0:0:0:
512,81,217331,5,10,0:2:0:0:
440,160,217442,2,0,L|461:245,1,83.2500031757356,2|0,0:0|0:0,0:0:0:0:
269,290,217665,6,0,P|198:268|125:254,1,124.875004763603,2|0,0:0|0:0,0:0:0:0:
72,299,217887,2,0,B|54:254|54:254|97:194,1,83.2500031757356,2|0,0:0|0:0,0:0:0:0:
37,88,218109,1,2,0:0:0:0:
74,225,218220,2,0,B|53:139|126:179|121:79,1,124.875004763603,8|0,0:2|0:0,0:0:0:0:
119,38,218442,2,0,P|170:46|188:88,1,83.2500031757356,2|0,0:0|0:0,0:0:0:0:
365,195,218665,1,2,3:2:0:0:
298,149,218776,1,2,0:0:0:0:
335,59,218887,1,0,0:0:0:0:
480,22,218998,6,0,B|503:32|503:62|503:62|479:39|447:31,1,83.2500031757356,2|8,0:0|0:2,0:0:0:0:
397,251,219220,2,0,P|406:201|420:147,1,83.2500031757356,2|0,0:0|0:0,0:0:0:0:
335,59,219442,2,0,B|263:68|263:68|239:100|239:100|151:111,1,166.500006351471,2|0,0:0|0:0,0:0:0:0:
37,36,219776,1,0,0:0:0:0:
37,36,219998,5,10,0:2:0:0:
49,118,220109,1,0,0:0:0:0:
62,208,220220,2,0,P|74:270|83:329,1,83.2500031757356,2|0,0:0|0:0,0:0:0:0:
301,325,220442,6,0,B|310:313|331:312|331:312|262:300|276:381|210:365,1,166.500006351471,2|0,3:2|0:0,0:0:0:0:
79,303,220776,1,2,0:0:0:0:
213,186,220887,2,0,P|201:235|191:280,1,83.2500031757356,8|0,0:2|0:0,0:0:0:0:
394,361,221109,2,0,P|417:314|380:261,1,83.2500031757356,2|0,0:0|0:0,0:0:0:0:
268,122,221331,1,0,3:2:0:0:
213,186,221442,1,0,0:0:0:0:
238,43,221553,6,0,P|284:33|330:70,1,83.2500031757356,2|0,0:0|0:0,0:0:0:0:
407,181,221776,2,0,L|493:164,1,83.2500031757356,10|0,0:2|0:0,0:0:0:0:
402,10,221998,2,0,P|433:44|424:103,1,83.2500031757356,2|0,0:0|0:0,0:0:0:0:
238,262,222220,6,0,P|200:213|121:224,1,124.875004763603,2|0,3:2|0:0,0:0:0:0:
103,219,222442,1,2,0:0:0:0:
254,367,222553,6,0,B|288:349|290:324|290:324|280:345|253:345,1,83.2500031757356,2|8,0:0|0:2,0:0:0:0:
163,282,222776,1,2,0:0:0:0:
116,349,222887,1,2,0:0:0:0:
314,248,222998,1,2,3:2:0:0:
320,237,223053,1,2,0:0:0:0:
323,226,223109,1,2,3:2:0:0:
327,216,223165,2,0,B|327:143|386:177|380:82,1,124.875004763603,2|0,0:0|0:2,0:0:0:0:
321,8,223442,1,2,0:0:0:0:
403,28,223553,5,10,0:2:0:0:
289,87,223665,1,2,0:0:0:0:
129,41,223776,1,2,3:2:0:0:
122,37,223887,1,2,0:0:0:0:
14,159,223998,6,0,P|60:168|82:223,1,83.2500031757356,6|0,3:2|0:0,0:0:0:0:
229,275,224220,2,0,P|244:319|207:365,1,83.2500031757356,2|0,0:0|0:0,0:0:0:0:
111,380,224442,6,0,P|163:210|214:87,1,277.5,10|0,0:2|0:0,0:0:0:0:
203,95,224776,1,0,0:0:0:0:
344,170,224887,6,0,B|438:162|386:240|522:212,1,166.500006351471,2|0,3:2|0:0,0:0:0:0:
299,373,225220,1,2,0:0:0:0:
376,337,225331,2,0,P|362:286|351:253,1,83.2500031757356,8|0,0:2|0:0,0:0:0:0:
475,140,225553,2,0,P|489:71|509:10,1,124.875004763603,2|0,0:0|0:0,0:0:0:0:
417,9,225776,6,0,P|369:23|360:81,1,83.2500031757356,2|0,3:2|0:0,0:0:0:0:
270,211,225998,1,0,0:0:0:0:
344,170,226109,1,0,0:0:0:0:
252,296,226220,6,0,P|203:281|165:274,1,83.2500031757356,10|0,0:2|0:0,0:0:0:0:
89,142,226442,2,0,P|138:127|176:120,1,83.2500031757356
291,0,226665,1,2,3:2:0:0:
284,53,226776,1,2,0:0:0:0:
275,106,226887,1,2,0:0:0:0:
344,170,226998,5,2,0:0:0:0:
252,296,227109,2,0,P|193:278|155:268,1,83.2500031757356,8|0,0:2|0:0,0:0:0:0:
444,273,227331,6,0,P|460:237|517:223,1,83.2500031757356,2|0,0:0|0:0,0:0:0:0:
398,72,227553,6,0,P|365:119|269:125,1,124.875004763603,2|0,3:2|0:0,0:0:0:0:
208,68,227776,2,0,B|166:56|166:56|213:92,1,83.2500031757356,2|0,0:0|0:0,0:0:0:0:
187,281,227998,6,0,P|193:214|211:155,1,124.875004763603,10|0,0:2|0:0,0:0:0:0:
285,41,228220,2,0,B|327:29|327:29|280:65,1,83.2500031757356,2|0,0:0|0:0,0:0:0:0:
62,173,228442,6,0,P|108:168|126:112,1,83.2500031757356,2|0,3:2|0:0,0:0:0:0:
58,99,228665,1,0,0:0:0:0:
209,158,228776,6,0,P|255:163|273:219,1,83.2500031757356,2|8,0:0|0:2,0:0:0:0:
298,271,228998,1,0,0:0:0:0:
417,188,229109,6,0,P|395:241|380:333,1,124.875004763603,2|0,0:0|0:0,0:0:0:0:
306,355,229331,2,0,B|245:378|200:347|200:347|193:306|146:292,1,166.500006351471,2|0,3:2|0:0,0:0:0:0:
58,256,229665,1,2,0:0:0:0:
125,361,229776,2,0,P|137:293|150:234,1,124.875004763603,8|0,0:2|0:0,0:0:0:0:
255,175,229998,2,0,B|275:157|275:157|208:181,1,83.2500031757356,2|0,0:0|0:0,0:0:0:0:
75,120,230220,1,2,3:2:0:0:
147,161,230331,1,2,0:0:0:0:
120,48,230442,1,2,0:0:0:0:
120,48,230665,6,0,P|186:68|253:80,1,124.875004763603,10|0,0:2|0:0,0:0:0:0:
326,57,230887,2,0,P|360:78|372:135,1,83.2500031757356,2|0,0:0|0:0,0:0:0:0:
439,267,231109,5,2,3:2:0:0:
420,291,231220,1,2,0:0:0:0:
352,319,231331,1,2,0:0:0:0:
254,293,231442,1,2,0:0:0:0:
147,161,231553,5,10,0:2:0:0:
168,237,231665,1,2,0:0:0:0:
254,293,231776,5,2,0:0:0:0:
249,309,231887,1,2,0:0:0:0:
180,379,231998,5,2,3:2:0:0:
66,344,232109,1,2,0:0:0:0:
143,314,232220,1,2,0:0:0:0:
297,384,232331,6,0,P|344:366|384:352,1,83.2500031757356,2|8,0:0|0:2,0:0:0:0:
470,252,232553,5,2,0:0:0:0:
454,353,232665,1,2,0:0:0:0:
490,283,232776,1,2,0:0:0:0:
410,193,232887,5,2,3:2:0:0:
351,122,232998,1,2,0:0:0:0:
502,173,233109,1,2,0:0:0:0:
501,59,233220,6,0,P|455:78|448:114,1,83.2500031757356,2|8,0:0|0:2,0:0:0:0:
246,190,233442,6,0,L|227:149,1,41.6250015878678,2|0,0:0|0:0,0:0:0:0:
240,213,233553,6,0,L|213:249,1,41.6250015878678,2|0,0:0|0:0,0:0:0:0:
261,208,233665,6,0,L|306:212,1,41.6250015878678,2|0,0:0|0:0,0:0:0:0:
220,129,233776,5,2,3:2:0:0:
193,271,233887,1,2,0:0:0:0:
322,210,233998,1,2,0:0:0:0:
326,203,234109,1,2,0:0:0:0:
366,323,234220,5,10,0:2:0:0:
278,309,234331,1,2,0:0:0:0:
155,376,234442,1,2,0:0:0:0:
62,354,234553,1,2,0:0:0:0:
91,121,234665,5,2,3:2:0:0:
54,200,234776,1,2,0:0:0:0:
113,145,234887,5,2,3:2:0:0:
32,176,234998,1,2,0:0:0:0:
113,178,235109,5,10,0:2:0:0:
33,143,235220,1,2,0:0:0:0:
88,201,235331,5,2,3:2:0:0:
57,119,235442,1,2,0:0:0:0:
232,112,235553,5,2,3:2:0:0:
198,229,235665,1,2,3:2:0:0:
240,125,235776,5,2,3:2:0:0:
210,218,235887,1,2,3:2:0:0:
328,192,235998,5,10,0:2:0:0:
347,310,236109,1,2,3:2:0:0:
317,183,236220,5,2,3:2:0:0:
338,319,236331,1,2,3:2:0:0:
430,188,236442,6,0,L|441:139,2,41.6250015878678,2|2|2,3:2|0:0|0:0,0:0:0:0:
510,287,236665,1,2,0:0:0:0:
440,266,236776,1,2,0:0:0:0:
440,340,236887,6,0,L|451:389,2,41.6250015878678,2|2|2,0:0|0:0|0:0,0:0:0:0:
347,310,237109,1,2,0:0:0:0:
345,303,237165,1,2,0:0:0:0:
343,293,237220,2,0,L|334:237,2,41.6250015878678,2|2|2,0:0|0:0|0:0,0:0:0:0:
277,369,237442,6,0,L|244:362,3,27.7500010585785,2|2|2|2,0:0|0:0|0:0|0:0,0:0:0:0:
147,381,237665,1,2,0:0:0:0:
188,309,237776,1,2,0:0:0:0:
78,227,237998,1,2,0:0:0:0:
154,69,238220,6,0,L|143:11,1,44.4,6|0,0:0|0:0,0:0:0:0:
213,125,238665,2,0,L|315:144,2,88.8,2|2|2,0:0|0:0|0:0,0:0:0:0:
130,145,239776,5,2,0:0:0:0:
112,142,239998,1,2,0:0:0:0:
84,151,240220,1,2,0:0:0:0:
64,182,240442,1,2,0:0:0:0:
99,255,240665,6,0,P|145:268|174:310,1,88.8,2|0,0:0|0:0,0:0:0:0:
170,298,241776,5,2,0:0:0:0:
92,341,241998,1,2,0:0:0:0:
99,255,242220,1,2,0:0:0:0:
256,360,242442,6,0,P|281:322|339:310,1,88.8,2|0,0:0|0:0,0:0:0:0:
320,308,243331,5,2,0:0:0:0:
378,327,243553,1,2,0:0:0:0:
426,316,243776,1,2,0:0:0:0:
451,290,243998,1,2,0:0:0:0:
456,279,244220,1,2,0:0:0:0:
456,279,244665,6,0,L|448:218,2,44.4,2|2|2,0:0|0:0|0:0,0:0:0:0:
451,290,245331,5,2,0:0:0:0:
426,316,245553,1,2,0:0:0:0:
378,327,245776,1,2,0:0:0:0:
320,308,245998,2,0,B|322:261|277:274|289:217,1,88.8,2|0,0:0|0:0,0:0:0:0:
287,229,246887,5,2,0:0:0:0:
214,211,247109,1,2,0:0:0:0:
147,265,247331,1,2,0:0:0:0:
148,279,247553,1,2,0:0:0:0:
256,358,247776,6,0,P|266:291|290:221,1,133.2,2|2,0:0|0:0,0:0:0:0:
406,150,248665,1,2,0:0:0:0:
420,239,248887,6,0,L|363:222,1,44.4,2|0,0:0|0:0,0:0:0:0:
313,145,249331,1,2,0:0:0:0:
406,150,249553,6,0,B|394:75|459:106|452:16,1,133.2,2|0,0:0|0:0,0:0:0:0:
343,6,250442,2,0,P|307:44|259:46,1,88.8,0|2,0:0|0:0,0:0:0:0:
190,40,251109,1,2,0:0:0:0:
92,81,251331,1,2,0:0:0:0:
20,232,251776,1,2,0:0:0:0:
174,362,252220,5,2,0:0:0:0:
180,351,252294,5,2,0:0:0:0:
180,351,253331,5,0,3:0:0:0:
295,242,253479,5,8,0:0:0:0:
299,254,253553,5,8,0:0:0:0:
453,371,253776,5,8,0:0:0:0:
460,359,253850,5,8,0:0:0:0:
464,346,253924,5,8,0:0:0:0:
469,336,253998,5,8,0:0:0:0:
394,283,254109,1,2,0:3:0:0:
463,227,254220,6,0,P|464:180|474:125,1,83.2500031757356,6|0,3:2|0:0,0:0:0:0:
326,366,254442,2,0,P|317:312|297:259,1,111,2|0,0:0|0:0,0:0:0:0:
50,173,254665,2,0,P|77:106|92:35,1,138.75,10|0,0:2|0:0,0:0:0:0:
288,109,254887,6,0,P|268:53|187:40,1,133.2,2|0,0:0|0:0,0:0:0:0:
188,54,255109,1,0,3:2:0:0:
209,143,255220,1,0,0:0:0:0:
118,222,255331,1,2,0:0:0:0:
394,283,255553,6,0,P|356:266|309:248,1,88.8,8|0,0:2|0:0,0:0:0:0:
201,34,255776,2,0,P|138:54|131:136,1,133.2,2|0,0:0|0:0,0:0:0:0:
190,185,255998,6,0,P|232:165|276:152,1,88.8,2|0,3:2|0:0,0:0:0:0:
50,173,256220,2,0,P|71:226|115:237,1,88.8,2|0,0:0|0:0,0:0:0:0:
303,313,256442,1,8,0:2:0:0:
267,384,256553,1,0,0:0:0:0:
414,215,256665,6,0,B|391:311|464:287|438:393,1,177.6,2|0,0:0|3:2,0:0:0:0:
203,295,256998,1,0,0:0:0:0:
134,378,257109,2,0,P|92:354|36:345,1,88.8,2|0,0:0|0:0,0:0:0:0:
188,196,257331,1,8,0:2:0:0:
137,105,257442,1,0,0:0:0:0:
342,345,257665,1,0,0:0:0:0:
484,307,257776,6,0,P|460:341|450:380,1,83.2500031757356,2|0,3:2|0:0,0:0:0:0:
288,157,257998,2,0,P|338:176|355:227,1,111,2|0,0:0|0:0,0:0:0:0:
134,378,258220,2,0,P|195:354|274:330,1,138.75,10|0,0:2|0:0,0:0:0:0:
91,200,258442,6,0,P|237:243|396:273,1,305.250002911091,2|0,0:0|3:2,0:0:0:0:
493,38,258776,1,0,0:0:0:0:
371,88,258887,2,0,B|369:182|435:183|438:166|514:174|512:263,1,249.750009527207,2|8,0:0|0:2,0:0:0:0:
263,46,259220,1,0,0:0:0:0:
163,120,259331,6,0,P|222:139|289:173,1,133.2,2|0,0:0|0:0,0:0:0:0:
357,91,259553,2,0,P|312:111|299:154,1,88.8,2|0,3:2|0:0,0:0:0:0:
394,313,259776,1,2,0:0:0:0:
259,384,259887,6,0,P|226:360|158:339,1,88.8,2|8,0:0|0:2,0:0:0:0:
4,176,260109,1,2,0:0:0:0:
94,88,260220,1,0,0:0:0:0:
56,229,260331,1,2,0:0:0:0:
9,103,260442,6,0,B|34:87|28:56|28:56|118:16|151:81|141:88|174:151|256:108,1,310.8,0|0,3:2|0:0,0:0:0:0:
291,35,260887,2,0,P|333:77|313:159,1,133.2,10|0,0:2|0:0,0:0:0:0:
349,245,261109,2,0,P|391:236|412:198,1,88.8,2|0,0:0|0:0,0:0:0:0:
207,12,261331,1,0,3:2:0:0:
409,178,261553,6,0,L|456:166,1,41.625,2|0,0:0|0:0,0:0:0:0:
512,222,261776,6,0,P|422:195|328:175,1,187.312507145405,10|0,0:2|0:0,0:0:0:0:
306,158,261998,1,2,0:0:0:0:
407,99,262109,1,2,0:0:0:0:
238,110,262220,5,2,3:2:0:0:
298,244,262331,2,0,P|291:305|268:338,1,88.8,2|0,0:0|0:0,0:0:0:0:
104,200,262553,1,2,0:0:0:0:
217,267,262665,2,0,B|109:235|151:345|23:303,1,177.6,8|0,0:2|0:0,0:0:0:0:
0,131,262998,1,0,0:0:0:0:
156,34,263109,6,0,P|138:96|80:124,1,133.2,2|0,3:2|0:0,0:0:0:0:
7,120,263331,1,2,0:0:0:0:
203,166,263442,2,0,P|251:150|298:140,1,88.8,2|8,0:0|0:2,0:0:0:0:
398,40,263665,2,0,B|411:-3|411:-3|387:36,1,88.8,2|0,0:0|0:0,0:0:0:0:
298,244,263887,1,2,0:0:0:0:
462,223,263998,6,0,P|372:175|380:95,1,177.6,0|0,3:2|0:0,0:0:0:0:
219,0,264331,1,0,0:0:0:0:
317,20,264442,2,0,B|308:85|243:47|237:135,1,133.2,10|0,0:2|0:0,0:0:0:0:
122,151,264665,2,0,P|169:170|193:213,1,88.8,2|0,0:0|0:0,0:0:0:0:
386,239,264887,6,0,P|296:267|223:348,1,177.6,0|0,3:2|0:0,0:0:0:0:
220,77,265220,1,0,0:0:0:0:
317,20,265331,2,0,P|293:98|284:155,1,133.2,10|0,0:2|0:0,0:0:0:0:
189,200,265553,2,0,P|163:165|122:151,1,88.8,2|0,0:0|0:0,0:0:0:0:
236,323,265776,1,0,3:2:0:0:
386,239,265887,6,0,P|296:267|223:348,1,177.6
317,20,266220,2,0,P|320:72|331:116,1,88.8,10|0,0:2|0:0,0:0:0:0:
512,220,266442,1,2,0:0:0:0:
425,144,266553,1,0,0:0:0:0:
512,318,266665,6,0,P|433:277|330:262,1,177.6,0|0,3:2|0:0,0:0:0:0:
512,110,266998,1,0,0:0:0:0:
426,152,267109,2,0,P|402:204|408:238,1,88.8,8|0,0:2|0:0,0:0:0:0:
467,384,267331,1,2,0:0:0:0:
394,344,267442,1,0,3:2:0:0:
481,280,267553,1,0,3:2:0:0:
317,330,267665,1,0,0:0:0:0:
220,277,267776,6,0,P|207:244|231:268,1,88.8,2|0,3:2|0:0,0:0:0:0:
426,152,267998,6,0,P|441:124|417:144,1,88.8,8|0,0:2|0:0,0:0:0:0:
120,50,268220,6,0,P|104:26|135:44,1,88.8,0|0,3:2|0:0,0:0:0:0:
0,195,268442,6,0,P|45:206|79:235,1,83.2500031757356,6|0,3:2|0:0,0:0:0:0:
228,376,268665,2,0,P|203:327|219:276,1,111,2|0,0:0|0:0,0:0:0:0:
512,222,268887,2,0,P|444:244|378:276,1,138.75,10|0,0:2|0:0,0:0:0:0:
160,207,269109,6,0,P|203:150|279:157,1,133.2,2|0,0:0|0:0,0:0:0:0:
280,168,269331,1,0,3:2:0:0:
204,110,269442,1,0,0:0:0:0:
257,8,269553,1,2,0:0:0:0:
331,348,269775,6,0,P|340:305|355:261,1,88.8,8|0,0:2|0:0,0:0:0:0:
497,92,269998,2,0,P|450:152|384:157,1,133.2,2|0,0:0|0:0,0:0:0:0:
337,84,270220,6,0,P|351:128|358:181,1,88.8,2|0,3:2|0:0,0:0:0:0:
338,352,270442,2,0,P|347:309|362:265,1,88.8,2|0,0:0|0:0,0:0:0:0:
382,242,270664,1,8,0:2:0:0:
467,191,270775,1,0,0:0:0:0:
312,287,270887,6,0,B|244:276|248:230|255:228|261:184|189:169,1,177.6,2|0,0:0|3:2,0:0:0:0:
267,39,271220,1,0,0:0:0:0:
128,0,271331,2,0,P|149:46|148:104,1,88.8,2|0,0:0|0:0,0:0:0:0:
84,221,271553,1,8,0:2:0:0:
0,184,271664,1,0,0:0:0:0:
373,28,271887,1,0,0:0:0:0:
328,105,271998,6,0,P|326:148|357:194,1,83.2500031757356,2|0,3:2|0:0,0:0:0:0:
512,120,272220,2,0,P|454:113|386:98,1,111,2|0,0:0|0:0,0:0:0:0:
184,382,272442,2,0,P|217:330|307:296,1,138.75,10|0,0:2|0:0,0:0:0:0:
36,53,272665,6,0,B|32:82|1:96|1:96|-1:173|82:225|149:202|149:202|131:188|125:154,1,305.250002911091,2|0,0:0|3:2,0:0:0:0:
302,0,272998,1,0,0:0:0:0:
402,109,273109,6,0,B|419:90|458:86|458:86|441:17|345:-7|300:56,1,249.750009527207,2|8,0:0|0:2,0:0:0:0:
504,251,273442,1,0,0:0:0:0:
420,380,273553,6,0,P|358:347|296:327,1,133.2,2|0,0:0|0:0,0:0:0:0:
339,261,273776,2,0,P|333:306|282:328,1,88.8,2|0,3:2|0:0,0:0:0:0:
85,124,273998,1,2,0:0:0:0:
13,217,274109,6,0,P|30:269|39:303,1,88.8,2|8,0:0|0:2,0:0:0:0:
214,69,274331,1,2,0:0:0:0:
290,121,274442,1,0,0:0:0:0:
264,244,274553,1,2,0:0:0:0:
418,195,274665,6,0,B|437:180|465:176|465:176|303:144|303:144|246:132|261:191|203:177,1,310.8,0|0,3:2|0:0,0:0:0:0:
185,279,275109,2,0,B|178:201|113:259|105:168,1,133.2,10|0,0:2|0:0,0:0:0:0:
18,143,275331,2,0,P|40:99|94:84,1,88.8,2|0,0:0|0:0,0:0:0:0:
128,338,275553,1,0,3:2:0:0:
103,14,275776,6,0,P|126:23|141:43,1,41.625,2|0,0:0|0:0,0:0:0:0:
203,167,275998,6,0,P|222:80|298:10,1,187.312507145405,10|0,0:2|0:0,0:0:0:0:
314,0,276220,1,2,0:0:0:0:
214,31,276331,1,2,0:0:0:0:
362,101,276442,5,2,3:2:0:0:
300,199,276553,2,0,P|354:178|408:177,1,88.8,2|0,0:0|0:0,0:0:0:0:
512,306,276775,1,2,0:0:0:0:
459,384,276887,6,0,P|467:297|480:199,1,177.6,8|2,0:2|0:0,0:0:0:0:
252,97,277220,1,0,0:0:0:0:
143,173,277331,6,0,P|208:166|256:214,1,133.2,2|0,3:2|0:0,0:0:0:0:
226,281,277553,1,2,0:0:0:0:
297,384,277664,2,0,P|333:353|394:345,1,88.8,2|8,0:0|0:2,0:0:0:0:
440,99,277887,2,0,P|481:112|512:143,1,88.8,2|0,0:0|0:0,0:0:0:0:
317,271,278109,1,2,0:0:0:0:
297,384,278220,6,0,P|220:326|128:300,1,177.6,0|0,3:2|0:0,0:0:0:0:
254,107,278553,1,0,0:0:0:0:
339,187,278664,2,0,P|293:194|253:210,1,88.8,10|0,0:2|0:0,0:0:0:0:
135,0,278887,2,0,P|202:6|236:82,1,133.2,2|0,0:0|0:0,0:0:0:0:
155,134,279109,6,0,B|90:105|65:154|70:160|43:209|-15:180,1,177.6,2|0,3:2|0:0,0:0:0:0:
143,301,279442,1,0,0:0:0:0:
241,247,279553,1,8,0:2:0:0:
371,384,279665,2,0,P|389:270|422:156,1,222
473,111,279998,1,0,3:2:0:0:
315,217,280109,6,0,P|243:146|161:123,1,177.6
401,0,280442,2,0,P|378:48|373:90,1,88.8,10|0,0:2|0:0,0:0:0:0:
512,204,280664,1,2,0:0:0:0:
473,111,280775,1,0,0:0:0:0:
462,280,280887,6,0,P|423:263|346:250,1,88.8,0|0,3:2|0:0,0:0:0:0:
240,23,281109,2,0,P|197:40|156:50,1,88.8,0|0,3:2|0:0,0:0:0:0:
480,205,281331,6,0,P|498:162|471:109,1,88.8,8|0,0:2|0:0,0:0:0:0:
162,308,281553,2,0,P|120:289|78:280,1,88.8,2|0,3:2|0:0,0:0:0:0:
296,176,281776,5,0,3:2:0:0:
240,310,281887,1,0,3:2:0:0:
374,207,281998,1,0,3:2:0:0:
229,225,282109,1,0,3:2:0:0:
273,87,282220,5,8,0:2:0:0:
296,176,282331,1,0,3:2:0:0:
132,210,282442,1,0,3:2:0:0:
155,121,282553,1,0,3:2:0:0:
315,265,282665,6,0,P|361:244|412:234,1,88.8,4|0,3:2|0:0,0:0:0:0:
499,45,282887,2,0,P|452:56|430:104,1,88.8,2|0,0:0|0:0,0:0:0:0:
487,286,283109,1,10,0:2:0:0:
399,324,283220,2,0,P|395:277|422:238,1,88.8,0|2,0:0|0:0,0:0:0:0:
504,200,283442,5,0,0:0:0:0:
315,265,283554,2,0,B|267:181|374:177|319:85,1,177.6,2|0,3:2|0:0,0:0:0:0:
107,266,283887,1,2,0:0:0:0:
165,342,283998,2,0,P|211:325|255:314,1,88.8,8|0,0:2|0:0,0:0:0:0:
190,82,284220,1,2,0:0:0:0:
399,324,284442,6,0,P|408:273|371:233,1,88.8,2|0,3:2|0:0,0:0:0:0:
190,82,284665,1,2,0:0:0:0:
261,34,284776,1,0,0:0:0:0:
344,63,284887,2,0,P|366:98|365:145,1,88.8,10|0,0:2|0:0,0:0:0:0:
249,315,285109,5,2,0:0:0:0:
218,229,285220,1,0,0:0:0:0:
130,201,285331,2,0,P|87:222|69:276,1,88.8,0|0,3:2|0:0,0:0:0:0:
279,149,285554,1,0,0:0:0:0:
0,321,285776,2,0,P|117:309|259:402,1,266.4,8|0,0:2|0:0,0:0:0:0:
279,149,286220,6,0,P|235:155|215:192,1,88.8,0|0,3:2|0:0,0:0:0:0:
367,302,286442,2,0,P|376:255|389:200,1,88.8,2|0,0:0|0:0,0:0:0:0:
130,201,286665,2,0,P|136:244|195:264,1,88.8,10|0,0:2|0:0,0:0:0:0:
367,140,286887,1,2,0:0:0:0:
306,230,286998,1,0,0:0:0:0:
228,195,287109,5,2,3:2:0:0:
396,219,287220,2,0,P|384:272|377:315,1,88.8
302,209,287442,5,2,0:0:0:0:
436,108,287553,2,0,P|464:153|490:189,1,88.8,8|0,0:2|0:0,0:0:0:0:
308,46,287776,2,0,P|262:62|219:72,1,88.8,2|0,0:0|0:0,0:0:0:0:
427,103,287998,2,0,P|442:62|425:23,1,88.8,2|0,3:2|0:0,0:0:0:0:
238,192,288220,1,2,0:0:0:0:
165,144,288331,1,0,0:0:0:0:
143,60,288442,2,0,P|185:47|225:75,1,88.8,8|0,0:2|0:0,0:0:0:0:
270,286,288665,5,2,0:0:0:0:
376,295,288776,1,0,0:0:0:0:
458,227,288887,2,0,P|441:175|403:155,1,88.8,0|0,3:2|0:0,0:0:0:0:
310,362,289109,1,2,0:0:0:0:
382,65,289331,2,0,P|336:77|313:117,1,88.8,10|0,0:2|0:0,0:0:0:0:
466,339,289553,2,0,P|426:317|370:297,1,88.8,2|0,0:0|0:0,0:0:0:0:
148,328,289776,5,0,3:2:0:0:
314,109,289998,2,0,P|356:136|359:196,1,88.8,2|0,0:0|0:0,0:0:0:0:
172,225,290220,2,0,P|174:175|224:142,1,88.8,10|0,0:2|0:0,0:0:0:0:
435,221,290442,1,2,0:0:0:0:
505,161,290554,1,0,0:0:0:0:
473,76,290665,2,0,B|427:44|393:88|398:93|361:144|297:98,1,177.6,2|0,3:2|0:0,0:0:0:0:
61,47,290998,5,2,0:0:0:0:
107,120,291109,2,0,P|102:166|90:210,1,88.8,8|0,0:2|0:0,0:0:0:0:
273,299,291331,2,0,P|224:319|180:330,1,88.8,2|0,0:0|0:0,0:0:0:0:
269,34,291554,6,0,P|226:58|217:113,1,88.8,2|0,3:2|0:0,0:0:0:0:
348,240,291777,1,2,0:0:0:0:
372,161,291888,1,0,0:0:0:0:
441,118,291999,2,0,P|492:127|514:182,1,88.8,8|0,0:2|0:0,0:0:0:0:
338,245,292221,1,2,0:0:0:0:
264,203,292332,1,0,0:0:0:0:
191,248,292443,2,0,P|174:202|148:159,1,88.8,0|0,3:2|0:0,0:0:0:0:
110,37,292665,6,0,P|68:69|66:116,1,88.8,2|0,0:0|0:0,0:0:0:0:
263,295,292887,2,0,P|284:248|295:208,1,88.8,10|0,0:2|0:0,0:0:0:0:
73,181,293109,2,0,B|32:209|32:209|70:196,1,88.8,2|0,0:0|0:0,0:0:0:0:
228,95,293331,6,0,B|286:64|312:107|306:110|331:152|395:116,1,177.6,2|0,3:2|0:0,0:0:0:0:
510,11,293665,1,0,0:0:0:0:
476,98,293776,2,0,P|496:144|509:189,1,88.8,10|0,0:2|0:0,0:0:0:0:
407,330,293998,5,2,0:0:0:0:
379,244,294109,1,0,0:0:0:0:
294,212,294220,2,0,P|245:240|230:290,1,88.8,0|0,3:2|0:0,0:0:0:0:
486,362,294442,2,0,P|486:305|449:267,1,88.8,2|0,0:0|0:0,0:0:0:0:
222,290,294665,2,0,P|250:338|300:353,1,88.8,8|0,0:2|0:0,0:0:0:0:
359,169,294887,1,2,0:0:0:0:
193,0,295109,6,0,P|208:52|217:108,1,88.8,0|0,3:2|0:0,0:0:0:0:
23,174,295331,2,0,P|42:127|94:112,1,88.8
222,290,295554,2,0,P|191:253|204:203,1,88.8,8|0,0:2|0:0,0:0:0:0:
436,140,295776,5,2,0:0:0:0:
411,222,295887,1,0,3:2:0:0:
317,95,295998,2,0,P|325:147|367:167,1,88.8,0|0,3:2|0:0,0:0:0:0:
512,2,296220,2,0,P|469:14|429:34,1,88.8,0|0,3:2|0:0,0:0:0:0:
411,238,296442,2,0,P|463:230|483:188,1,88.8,8|0,0:2|0:0,0:0:0:0:
237,55,296665,2,0,P|286:76|325:101,1,88.8,0|0,3:2|0:0,0:0:0:0:
411,238,296887,6,0,P|347:263|296:296,1,111,4|2,3:2|0:0,0:0:0:0:
235,367,297220,1,0,0:0:0:0:
209,379,297331,2,0,B|226:289|167:278|161:283|105:274|122:183,1,222,10|2,0:3|0:0,0:0:0:0:
56,61,297665,1,0,0:0:0:0:
37,76,297776,6,0,P|67:112|148:113,1,111,2|0,0:0|0:0,0:0:0:0:
216,66,298109,1,2,0:0:0:0:
206,88,298220,1,8,0:3:0:0:
207,162,298442,1,2,0:0:0:0:
319,46,298665,6,0,L|449:67,1,111,2|2,0:0|0:0,0:0:0:0:
512,0,298998,1,0,0:0:0:0:
498,21,299109,1,10,0:3:0:0:
493,202,299331,5,2,0:0:0:0:
466,209,299442,1,0,0:0:0:0:
441,197,299553,1,0,0:0:0:0:
422,176,299665,1,0,0:0:0:0:
394,178,299776,1,0,0:0:0:0:
327,269,299998,5,8,0:3:0:0:
306,249,300109,1,0,0:0:0:0:
279,241,300220,1,0,0:0:0:0:
315,382,300442,1,0,0:0:0:0:
428,341,300665,6,0,P|401:333|373:329,1,55.5,2|0,0:0|0:0,0:0:0:0:
248,343,300887,2,0,P|197:326|136:314,1,111,10|2,0:3|0:0,0:0:0:0:
22,236,301220,1,0,0:0:0:0:
6,218,301331,6,0,P|25:166|98:150,1,111,2|0,0:0|0:0,0:0:0:0:
146,194,301665,1,2,0:0:0:0:
135,217,301776,1,8,0:3:0:0:
218,171,301998,1,2,0:0:0:0:
252,29,302220,6,0,P|304:22|342:78,1,111,2|0,0:0|0:0,0:0:0:0:
309,138,302553,1,0,0:0:0:0:
326,156,302664,1,8,0:3:0:0:
359,273,302887,5,2,0:0:0:0:
371,247,302998,1,0,0:0:0:0:
394,233,303109,2,0,P|427:221|470:229,1,55.5
409,363,303331,1,2,0:0:0:0:
294,372,303553,6,0,P|275:334|267:307,1,55.5,10|0,0:3|0:0,0:0:0:0:
184,274,303775,1,2,0:0:0:0:
166,384,303998,6,0,P|176:328|186:261,1,111
47,228,304331,1,0,0:0:0:0:
31,248,304442,2,0,P|133:217|178:102,1,222,10|2,0:3|0:0,0:0:0:0:
286,2,304776,1,0,0:0:0:0:
308,15,304887,6,0,P|295:69|285:128,1,111,2|0,0:0|0:0,0:0:0:0:
241,209,305220,1,2,0:0:0:0:
259,224,305331,1,8,0:3:0:0:
280,299,305553,1,2,0:0:0:0:
194,361,305776,6,0,P|253:343|314:330,1,111,2|2,0:0|0:0,0:0:0:0:
378,384,306109,1,0,0:0:0:0:
392,363,306220,1,8,0:3:0:0:
378,139,306442,5,2,0:0:0:0:
429,87,306553,1,0,0:0:0:0:
498,113,306665,2,0,P|481:173|470:236,1,111
387,268,306998,1,0,0:0:0:0:
404,286,307109,1,10,0:3:0:0:
462,384,307331,2,0,P|489:367|518:362,1,55.5,2|0,0:0|0:0,0:0:0:0:
387,268,307553,6,0,P|333:253|279:235,1,111,2|0,0:0|0:0,0:0:0:0:
208,167,307887,1,0,0:0:0:0:
197,190,307998,1,10,0:3:0:0:
136,345,308220,2,0,P|124:319|109:296,1,55.5,2|0,0:0|0:0,0:0:0:0:
21,292,308442,6,0,P|45:242|40:164,1,111,0|2,0:0|0:0,0:0:0:0:
0,115,308776,1,0,0:0:0:0:
14,94,308887,1,8,0:3:0:0:
161,39,309109,1,2,0:0:0:0:
307,117,309331,6,0,P|341:106|370:99,1,55.5,2|0,0:0|0:0,0:0:0:0:
396,27,309665,1,0,0:0:0:0:
404,19,309776,2,0,P|430:42|451:64,1,55.5,2|0,0:0|0:0,0:0:0:0:
512,190,310109,5,2,0:0:0:0:
502,201,310220,1,8,0:2:0:0:
438,161,310331,1,0,0:0:0:0:
381,214,310442,2,0,P|397:244|403:278,1,41.6250015878678
288,363,310665,6,0,P|297:333|292:307,1,55.5,8|0,0:2|0:0,0:0:0:0:
143,205,310887,2,0,P|164:221|177:246,1,55.5,8|8,0:2|0:2,0:0:0:0:
50,328,311109,5,0,3:2:0:0:
