osu file format v14

[General]
AudioFilename: audio.mp3
AudioLeadIn: 0
PreviewTime: 238939
Countdown: 0
SampleSet: Normal
StackLeniency: 0.7
Mode: 1
LetterboxInBreaks: 0
WidescreenStoryboard: 1

[Editor]
DistanceSpacing: 0.8
BeatDivisor: 4
GridSize: 32
TimelineZoom: 2.799999

[Metadata]
Title:For Ulysses
TitleUnicode:For Ulysses
Artist:BlackY feat. Risa Yuzuki
ArtistUnicode:BlackY feat. Risa Yuzuki
Creator:ler1211
Version:Conveying
Source:
Tags:fa featured artist Yuzurisa ゆずりさ Celestial Sight electronic japanese hardcore Feel 7he The Emotion BlackY's BEATFLOOR BYBF-0015
BeatmapID:3269341
BeatmapSetID:1595989

[Difficulty]
HPDrainRate:5.5
CircleSize:5
OverallDifficulty:7
ApproachRate:5
SliderMultiplier:1.4
SliderTickRate:1

[Events]
//Background and Video events
0,0,"76086504_p0.jpg",0,0
//Break Periods
2,22189,31637
//Storyboard Layer 0 (Background)
//Storyboard Layer 1 (Fail)
//Storyboard Layer 2 (Pass)
//Storyboard Layer 3 (Foreground)
//Storyboard Layer 4 (Overlay)
//Storyboard Sound Samples

[TimingPoints]
295,338.983050847458,4,1,0,70,1,0
630,-100.755667506297,4,1,0,70,0,0
888,-101.329955668144,4,1,0,70,0,0
967,-101.522842639594,4,1,0,70,0,0
1142,-101.910828025478,4,1,0,70,0,0
1306,-102.30179028133,4,1,0,70,0,0
1476,-102.695763799743,4,1,0,70,0,0
1645,-103.092783505155,4,1,0,70,0,0
1984,-103.896103896104,4,1,0,70,0,0
2244,-104.506858262573,4,1,0,70,0,0
2323,-104.712041884817,4,1,0,70,0,0
2498,-105.124835742444,4,1,0,70,0,0
2662,-105.540897097625,4,1,0,70,0,0
2834,-105.960264900662,4,1,0,70,0,0
2919,-106.171201061712,4,1,0,70,0,0
3003,-106.382978723404,4,1,0,70,0,0
3342,-107.238605898123,4,1,0,70,0,0
3600,-107.889413351315,4,1,0,70,0,0
3681,-108.108108108108,4,1,0,70,0,0
3854,-108.548168249661,4,1,0,70,0,0
4020,-108.991825613079,4,1,0,70,0,0
4190,-109.439124487004,4,1,0,70,0,0
4359,-109.89010989011,4,1,0,70,0,0
4698,-110.803324099723,4,1,0,70,0,0
4956,-111.498257839721,4,1,0,70,0,0
5037,-111.731843575419,4,1,0,70,0,0
5210,-112.201963534362,4,1,0,70,0,0
5376,-112.676056338028,4,1,0,70,0,0
5546,-113.154172560113,4,1,0,70,0,0
5630,-113.394755492558,4,1,0,70,0,0
5715,-113.636363636364,4,1,0,70,0,0
6054,-114.613180515759,4,1,0,70,0,0
6311,-115.356885364095,4,1,0,70,0,0
6393,-115.606936416185,4,1,0,70,0,0
6566,-116.11030478955,4,1,0,70,0,0
6732,-116.618075801749,4,1,0,70,0,0
6902,-117.130307467057,4,1,0,70,0,0
7071,-117.647058823529,4,1,0,70,0,0
11139,-105.263157894737,4,1,0,80,0,0
16561,-104.763497263725,4,1,0,80,0,0
16731,-104.266208409802,4,1,0,80,0,0
16900,-103.771280074673,4,1,0,80,0,0
16985,-103.524697598059,4,1,0,80,0,0
17070,-103.278701053485,4,1,0,80,0,0
17155,-103.033289048651,4,1,0,80,0,0
17239,-102.788460194569,4,1,0,80,0,0
17409,-102.300546399195,4,1,0,80,0,0
17578,-101.814948621311,4,1,0,80,0,0
17663,-101.573014801382,4,1,0,80,0,0
17748,-101.331655867303,4,1,0,80,0,0
17833,-101.090870453023,4,1,0,80,0,0
17917,-100.850657195738,4,1,0,80,0,0
18087,-100.37194171712,4,1,0,80,0,0
18256,-99.8954985936448,4,1,0,80,0,0
18341,-99.6581257923447,4,1,0,80,0,0
18426,-99.4213170389507,4,1,0,80,0,0
18511,-99.1850709931656,4,1,0,80,0,0
18595,-98.9493863178775,4,1,0,80,0,0
18765,-98.4796957462222,4,1,0,80,0,0
18934,-98.0122346904974,4,1,0,80,0,0
19019,-97.7793369219523,4,1,0,80,0,0
19104,-97.5469925676902,4,1,0,80,0,0
19189,-97.3152003126821,4,1,0,80,0,0
19273,-97.0839588450233,4,1,0,80,0,0
19358,-96.853266855927,4,1,0,80,0,0
19443,-96.6231230397159,4,1,0,80,0,0
19528,-96.3935260938156,4,1,0,80,0,0
19612,-96.1644747187466,4,1,0,80,0,0
19697,-95.9359676181174,4,1,0,80,0,0
19782,-95.7080034986172,4,1,0,80,0,0
19867,-95.4805810700079,4,1,0,80,0,0
19951,-95.2536990451177,4,1,0,80,0,0
20036,-95.0273561398332,4,1,0,80,0,0
20121,-94.8015510730924,4,1,0,80,0,0
20206,-94.5762825668772,4,1,0,80,0,0
20290,-94.3515493462067,4,1,0,80,0,0
20375,-94.1273501391291,4,1,0,80,0,0
20460,-93.9036836767156,4,1,0,80,0,0
20545,-93.6805486930523,4,1,0,80,0,0
20629,-93.4579439252336,4,1,0,80,0,0
21986,-86.9565217391304,4,1,0,80,0,0
23342,-133.333333333333,4,1,0,75,0,0
24698,-142.857142857143,4,1,0,75,0,0
26054,-153.846153846154,4,1,0,75,0,0
43003,-125,4,1,0,75,0,0
43342,-117.647058823529,4,1,0,75,0,0
43681,-111.111111111111,4,1,0,75,0,0
54529,-105.263157894737,4,1,0,80,0,0
59951,-104.763497263725,4,1,0,80,0,0
60121,-104.266208409802,4,1,0,80,0,0
60290,-103.771280074673,4,1,0,80,0,0
60375,-103.524697598059,4,1,0,80,0,0
60545,-103.033289048651,4,1,0,80,0,0
60629,-102.788460194569,4,1,0,80,0,0
60799,-102.300546399195,4,1,0,80,0,0
60968,-101.814948621311,4,1,0,80,0,0
61053,-101.573014801382,4,1,0,80,0,0
61223,-101.090870453023,4,1,0,80,0,0
61307,-100.850657195738,4,1,0,80,0,0
61477,-100.37194171712,4,1,0,80,0,0
61646,-99.8954985936448,4,1,0,80,0,0
61731,-99.6581257923447,4,1,0,80,0,0
61901,-99.1850709931656,4,1,0,80,0,0
61985,-98.9493863178775,4,1,0,80,0,0
62155,-98.4796957462222,4,1,0,80,0,0
62324,-98.0122346904974,4,1,0,80,0,0
62409,-97.7793369219523,4,1,0,80,0,0
62494,-97.5469925676902,4,1,0,80,0,0
62579,-97.3152003126821,4,1,0,80,0,0
62663,-97.0839588450233,4,1,0,80,0,0
62748,-96.853266855927,4,1,0,80,0,0
62833,-96.6231230397159,4,1,0,80,0,0
62918,-96.3935260938156,4,1,0,80,0,0
63002,-96.1644747187466,4,1,0,80,0,0
63087,-95.9359676181174,4,1,0,80,0,0
63172,-95.7080034986172,4,1,0,80,0,0
63257,-95.4805810700079,4,1,0,80,0,0
63341,-95.2536990451177,4,1,0,80,0,0
63426,-95.0273561398332,4,1,0,80,0,0
63511,-94.8015510730924,4,1,0,80,0,0
63596,-94.5762825668772,4,1,0,80,0,0
63680,-94.3515493462067,4,1,0,80,0,0
63765,-94.1273501391291,4,1,0,80,0,0
63850,-93.9036836767156,4,1,0,80,0,0
63935,-93.6805486930523,4,1,0,80,0,0
64019,-93.4579439252334,4,1,0,80,0,0
64698,-117.647058823529,4,1,0,80,0,0
65379,-76.9230769230769,4,1,0,90,0,1
65715,-84.7457627118644,4,1,0,90,0,1
66054,-89.2857142857143,4,1,0,90,0,1
66139,-90.4977375565611,4,1,0,90,0,1
66224,-91.743119266055,4,1,0,90,0,1
66393,-94.3396226415094,4,1,0,90,0,1
66563,-97.0873786407767,4,1,0,90,0,1
66732,-76.9230769230769,4,1,0,90,0,1
67410,-80.6451612903226,4,1,0,90,0,1
67467,-81.9672131147541,4,1,0,90,0,1
67523,-83.3333333333333,4,1,0,90,0,1
67580,-84.7457627118644,4,1,0,90,0,1
67664,-86.9565217391304,4,1,0,90,0,1
67749,-89.2857142857143,4,1,0,90,0,1
67834,-91.743119266055,4,1,0,90,0,1
67919,-94.3396226415094,4,1,0,90,0,1
68003,-97.0873786407767,4,1,0,90,0,1
68088,-76.9230769230769,4,1,0,90,0,1
68427,-84.7457627118644,4,1,0,90,0,1
68484,-83.3333333333333,4,1,0,90,0,1
68540,-81.9672131147541,4,1,0,90,0,1
68597,-80.6451612903226,4,1,0,90,0,1
68681,-78.7401574803149,4,1,0,90,0,1
68766,-76.9230769230769,4,1,0,90,0,1
68936,-89.2857142857143,4,1,0,90,0,1
69105,-84.7457627118644,4,1,0,90,0,1
69190,-82.6446280991736,4,1,0,90,0,1
69275,-80.6451612903226,4,1,0,90,0,1
69444,-76.9230769230769,4,1,0,90,0,1
69783,-80.6451612903226,4,1,0,90,0,1
69953,-83.3333333333333,4,1,0,90,0,1
70037,-84.7457627118644,4,1,0,90,0,1
70122,-86.2068965517241,4,1,0,90,0,1
70207,-87.719298245614,4,1,0,90,0,1
70292,-89.2857142857143,4,1,0,90,0,1
70376,-90.9090909090909,4,1,0,90,0,1
70546,-94.3396226415094,4,1,0,90,0,1
70630,-96.1538461538461,4,1,0,90,0,1
70800,-76.9230769230769,4,1,0,90,0,1
71393,-80.6451612903226,4,1,0,90,0,1
71478,-81.9672131147541,4,1,0,90,0,1
71563,-83.3333333333333,4,1,0,90,0,1
71647,-84.7457627118644,4,1,0,90,0,1
71817,-81.9672131147541,4,1,0,90,0,1
71902,-80.6451612903226,4,1,0,90,0,1
71986,-79.3650793650794,4,1,0,90,0,1
72156,-76.9230769230769,4,1,0,90,0,1
72749,-78.125,4,1,0,90,0,1
72834,-79.3650793650794,4,1,0,90,0,1
72890,-80.213903743101,4,1,0,90,0,1
72947,-81.0810810810811,4,1,0,90,0,1
73003,-81.9672131147541,4,1,0,90,0,1
73088,-83.3333333333333,4,1,0,90,0,1
73173,-84.7457627118644,4,1,0,90,0,1
73258,-86.2068965517241,4,1,0,90,0,1
73342,-87.719298245614,4,1,0,90,0,1
73427,-89.2857142857143,4,1,0,90,0,1
73512,-76.9230769230769,4,1,0,90,0,1
73851,-100,4,1,0,90,0,1
73964,-94.3396226415094,4,1,0,90,0,1
74077,-89.2857142857143,4,1,0,90,0,1
74190,-76.9230769230769,4,1,0,90,0,1
74529,-89.2857142857143,4,1,0,90,0,1
74585,-86.9565217391304,4,1,0,90,0,1
74642,-84.7457627118644,4,1,0,90,0,1
74698,-82.6446280991736,4,1,0,90,0,1
74783,-79.6812749003984,4,1,0,90,0,1
74868,-76.9230769230769,4,1,0,90,0,1
75546,-86.9565217391304,4,1,0,90,0,1
76396,-89.2857142857143,4,1,0,90,0,1
76566,-91.743119266055,4,1,0,90,0,1
76679,-93.4579439252336,4,1,0,90,0,1
76792,-95.2380952380952,4,1,0,90,0,1
76905,-97.0873786407767,4,1,0,90,0,1
77018,-99.009900990099,4,1,0,90,0,1
77131,-101.010101010101,4,1,0,90,0,1
77244,-66.6666666666667,4,1,0,90,0,1
77580,-83.3333333333333,4,1,0,90,0,1
78936,-80.6451612903226,4,1,0,90,0,1
79020,-79.3650793650794,4,1,0,90,0,1
79105,-78.125,4,1,0,90,0,1
79190,-76.9230769230769,4,1,0,90,0,1
79275,-75.7575757575758,4,1,0,90,0,1
79444,-83.3333333333333,4,1,0,90,0,1
80630,-86.2068965517241,4,1,0,90,0,1
80800,-87.719298245614,4,1,0,90,0,1
80969,-89.2857142857143,4,1,0,90,0,1
81054,-90.0900900900901,4,1,0,90,0,1
81224,-91.743119266055,4,1,0,90,0,1
81308,-92.5925925925926,4,1,0,90,0,1
81478,-94.3396226415094,4,1,0,90,0,1
81647,-96.1538461538461,4,1,0,90,0,1
83766,-94.3396226415094,4,1,0,90,0,1
83851,-92.5925925925926,4,1,0,90,0,1
83936,-90.9090909090909,4,1,0,90,0,1
84020,-89.2857142857143,4,1,0,90,0,1
84105,-87.719298245614,4,1,0,90,0,1
84190,-86.2068965517241,4,1,0,90,0,1
84275,-84.7457627118644,4,1,0,90,0,1
84359,-83.3333333333333,4,1,0,90,0,1
87074,-83.3333333333333,4,1,0,80,0,0
87410,-88.4955752212389,4,1,0,80,0,0
87749,-94.3396226415094,4,1,0,80,0,0
88003,-98.5221674876847,4,1,0,80,0,0
88088,-100,4,1,0,80,0,0
88257,-103.092783505155,4,1,0,80,0,0
88427,-106.382978723404,4,1,0,80,0,0
91646,-105.263157894737,4,1,0,80,0,0
91731,-104.712041884817,4,1,0,80,0,0
91816,-104.166666666667,4,1,0,80,0,0
91901,-103.626943005181,4,1,0,80,0,0
91985,-103.092783505155,4,1,0,80,0,0
92070,-102.564102564103,4,1,0,80,0,0
92154,-102.040816326531,4,1,0,80,0,0
92211,-101.694915254237,4,1,0,80,0,0
92267,-101.351351351351,4,1,0,80,0,0
92324,-101.010101010101,4,1,0,80,0,0
92409,-100.502512562814,4,1,0,80,0,0
92493,-100,4,1,0,80,0,0
92832,-98.6301815926987,4,1,0,80,0,0
93001,-97.9523250459638,4,1,0,80,0,0
93171,-97.2791272100873,4,1,0,80,0,0
93256,-96.9442652944935,4,1,0,80,0,0
93425,-96.277995560046,4,1,0,80,0,0
93510,-95.9465798191015,4,1,0,80,0,0
93679,-95.2871668867013,4,1,0,80,0,0
93849,-94.6322859075634,4,1,0,80,0,0
93939,-94.3396226415094,4,1,0,80,0,0
94018,-93.9819057348914,4,1,0,80,0,0
94103,-93.6583937761793,4,1,0,80,0,0
94188,-93.3359954359517,4,1,0,80,0,0
94357,-92.6945242906024,4,1,0,80,0,0
94527,-92.0574617898322,4,1,0,80,0,0
94612,-91.7405743044719,4,1,0,80,0,0
94696,-91.4247776343094,4,1,0,80,0,0
94781,-91.110068024454,4,1,0,80,0,0
94866,-90.7964417329407,4,1,0,80,0,0
95035,-90.1724242014403,4,1,0,80,0,0
95205,-89.5526953609083,4,1,0,80,0,0
95290,-89.2444299809119,4,1,0,80,0,0
95374,-88.9372257364192,4,1,0,80,0,0
95459,-88.6310789747056,4,1,0,80,0,0
95544,-88.3259860556202,4,1,0,80,0,0
95629,-88.0219433515423,4,1,0,80,0,0
95713,-87.7189472473387,4,1,0,80,0,0
95798,-87.4169941403204,4,1,0,80,0,0
95883,-87.1160804402,4,1,0,80,0,0
95968,-86.8162025690486,4,1,0,80,0,0
96052,-86.5173569612538,4,1,0,80,0,0
96137,-86.2195400634768,4,1,0,80,0,0
96222,-85.9227483346107,4,1,0,80,0,0
96307,-85.6269782457378,4,1,0,80,0,0
96391,-85.332226280088,4,1,0,80,0,0
96476,-85.0384889329968,4,1,0,80,0,0
96561,-84.7457627118641,4,1,0,80,0,0
97071,-117.647058823529,4,1,0,80,0,0
97580,-66.6666666666667,4,1,0,80,0,0
97919,-117.647058823529,4,1,0,80,0,0
98261,-84.7457627118644,4,1,0,90,0,1
103600,-66.6666666666667,4,1,0,90,0,1
103769,-84.7457627118644,4,1,0,90,0,1
107581,-86.9565217391304,4,1,0,90,0,1
107750,-89.2857142857143,4,1,0,90,0,1
107863,-90.9090909090909,4,1,0,90,0,1
107976,-92.5925925925926,4,1,0,90,0,1
108089,-94.3396226415094,4,1,0,90,0,1
108202,-96.1538461538461,4,1,0,90,0,1
108315,-98.0392156862745,4,1,0,90,0,1
108428,-74.0740740740741,4,1,0,90,0,1
108767,-98.0392156862745,4,1,0,90,0,1
109106,-66.6666666666667,4,1,0,90,0,1
109445,-84.7457627118644,4,1,0,90,0,1
114447,-66.6666666666667,4,1,0,90,0,1
114616,-84.7457627118644,4,1,0,90,0,1
118936,-72.463768115942,4,1,0,90,0,1
119190,-74.6268656716418,4,1,0,90,0,1
119444,-76.9230769230769,4,1,0,90,0,1
119614,-79.3650793650794,4,1,0,90,0,1
119953,-72.463768115942,4,1,0,90,0,1
120207,-74.6268656716418,4,1,0,90,0,1
120461,-76.9230769230769,4,1,0,90,0,1
120630,-79.3650793650794,4,1,0,90,0,1
120969,-72.463768115942,4,1,0,90,0,1
121224,-75.7575757575758,4,1,0,90,0,1
121478,-78.4313725490196,4,1,0,90,0,1
121732,-81.3008130081301,4,1,0,90,0,1
121986,-83.3333333333333,4,1,0,90,0,1
122156,-84.7457627118644,4,1,0,90,0,1
125295,-66.6666666666667,4,1,0,90,0,1
125464,-84.7457627118644,4,1,0,90,0,1
129221,-86.9565217391304,4,1,0,90,0,1
129390,-89.2857142857143,4,1,0,90,0,1
129503,-90.9090909090909,4,1,0,90,0,1
129616,-92.5925925925926,4,1,0,90,0,1
129729,-94.3396226415094,4,1,0,90,0,1
129842,-96.1538461538461,4,1,0,90,0,1
129955,-98.0392156862745,4,1,0,90,0,1
130068,-74.0740740740741,4,1,0,90,0,1
130407,-98.0392156862745,4,1,0,90,0,1
130746,-66.6666666666667,4,1,0,90,0,1
131085,-84.7457627118644,4,1,0,90,0,1
136142,-66.6666666666667,4,1,0,90,0,1
136311,-84.7457627118644,4,1,0,90,0,1
140122,-86.9565217391304,4,1,0,90,0,1
140292,-89.2857142857143,4,1,0,90,0,1
140461,-91.743119266055,4,1,0,90,0,1
140800,-97.0873786407767,4,1,0,90,0,1
141139,-103.092783505155,4,1,0,90,0,1
141311,-106.382978723404,4,1,0,75,0,0
161817,-99.009900990099,4,1,0,80,0,0
161902,-99.502487562189,4,1,0,80,0,0
161986,-100,4,1,0,80,0,0
162071,-100.502512562814,4,1,0,80,0,0
162156,-101.010101010101,4,1,0,80,0,0
162241,-101.522842639594,4,1,0,80,0,0
162325,-102.040816326531,4,1,0,80,0,0
162410,-102.564102564103,4,1,0,80,0,0
162495,-103.092783505155,4,1,0,80,0,0
162664,-104.166666666667,4,1,0,80,0,0
162834,-105.263157894737,4,1,0,80,0,0
163003,-106.382978723404,4,1,0,75,0,0
173851,-103.092783505155,4,1,0,75,0,0
184698,-90.9090909090909,4,1,0,80,0,0
185037,-100,4,1,0,80,0,0
186054,-90.9090909090909,4,1,0,80,0,0
186393,-100,4,1,0,80,0,0
187410,-90.9090909090909,4,1,0,80,0,0
187749,-100,4,1,0,80,0,0
190122,-90.9090909090909,4,1,0,80,0,0
190461,-100,4,1,0,80,0,0
191478,-90.9090909090909,4,1,0,80,0,0
191817,-100,4,1,0,80,0,0
192834,-90.9090909090909,4,1,0,80,0,0
193173,-100,4,1,0,80,0,0
195210,-76.9230769230769,4,1,0,80,0,0
195549,-100,4,1,0,80,0,0
203680,-99.1485230953432,4,1,0,80,0,0
203765,-98.7255073121576,4,1,0,80,0,0
203850,-98.304296319878,4,1,0,80,0,0
203935,-97.8848824183894,4,1,0,80,0,0
204019,-97.4672579404289,4,1,0,80,0,0
204104,-97.0514152514463,4,1,0,80,0,0
204189,-96.6373467494639,4,1,0,80,0,0
204274,-96.2250448649377,4,1,0,80,0,0
204358,-95.8145020606191,4,1,0,80,0,0
204443,-95.4057108314171,4,1,0,80,0,0
204528,-94.998663704261,4,1,0,80,0,0
204613,-94.5933532379639,4,1,0,80,0,0
204697,-94.1897720230866,4,1,0,80,0,0
204782,-93.7879126818022,4,1,0,80,0,0
204867,-93.3877678677612,4,1,0,80,0,0
204952,-92.989330265957,4,1,0,80,0,0
205036,-92.5925925925927,4,1,0,80,0,0
205207,-92.1658986175115,4,1,0,80,0,0
205376,-90.9090909090909,4,1,0,80,0,0
205546,-90.0900900900901,4,1,0,80,0,0
205715,-89.2857142857143,4,1,0,80,0,0
205772,-89.0207715133531,4,1,0,80,0,0
205828,-88.7573964497041,4,1,0,80,0,0
205885,-88.4955752212389,4,1,0,80,0,0
205969,-88.1057268722467,4,1,0,80,0,0
206054,-87.719298245614,4,1,0,80,0,0
206139,-87.3362445414847,4,1,0,80,0,0
206224,-86.9565217391304,4,1,0,80,0,0
206308,-86.5800865800866,4,1,0,80,0,0
206396,-76.9230769230769,4,1,0,90,0,1
206732,-84.7457627118644,4,1,0,90,0,1
206902,-86.9565217391304,4,1,0,90,0,1
207043,-89.2857142857143,4,1,0,90,0,1
207128,-90.4977375565611,4,1,0,90,0,1
207213,-91.743119266055,4,1,0,90,0,1
207382,-94.3396226415094,4,1,0,90,0,1
207552,-97.0873786407767,4,1,0,90,0,1
207721,-76.9230769230769,4,1,0,90,0,1
208399,-80.6451612903226,4,1,0,90,0,1
208456,-81.9672131147541,4,1,0,90,0,1
208512,-83.3333333333333,4,1,0,90,0,1
208569,-84.7457627118644,4,1,0,90,0,1
208653,-86.9565217391304,4,1,0,90,0,1
208738,-89.2857142857143,4,1,0,90,0,1
208823,-91.743119266055,4,1,0,90,0,1
208908,-94.3396226415094,4,1,0,90,0,1
208992,-97.0873786407767,4,1,0,90,0,1
209077,-76.9230769230769,4,1,0,90,0,1
209416,-84.7457627118644,4,1,0,90,0,1
209473,-83.3333333333333,4,1,0,90,0,1
209529,-81.9672131147541,4,1,0,90,0,1
209586,-80.6451612903226,4,1,0,90,0,1
209670,-78.7401574803149,4,1,0,90,0,1
209755,-76.9230769230769,4,1,0,90,0,1
209953,-89.2857142857143,4,1,0,90,0,1
210037,-86.9565217391304,4,1,0,90,0,1
210125,-84.7457627118644,4,1,0,90,0,1
210207,-82.6446280991736,4,1,0,90,0,1
210264,-80.6451612903226,4,1,0,90,0,1
210348,-78.7401574803149,4,1,0,90,0,1
210433,-76.9230769230769,4,1,0,90,0,1
210772,-79.3650793650794,4,1,0,90,0,1
210942,-81.9672131147541,4,1,0,90,0,1
211026,-83.3333333333333,4,1,0,90,0,1
211111,-84.7457627118644,4,1,0,90,0,1
211196,-86.2068965517241,4,1,0,90,0,1
211281,-87.719298245614,4,1,0,90,0,1
211365,-89.2857142857143,4,1,0,90,0,1
211478,-90.9090909090909,4,1,0,90,0,1
211534,-92.3076923076923,4,1,0,90,0,1
211591,-93.75,4,1,0,90,0,1
211647,-95.2380952380952,4,1,0,90,0,1
211732,-86.9565217391304,4,1,0,90,0,1
211789,-76.9230769230769,4,1,0,90,0,1
212325,-78.7401574803149,4,1,0,90,0,1
212382,-80.6451612903226,4,1,0,90,0,1
212467,-81.9672131147541,4,1,0,90,0,1
212552,-83.3333333333333,4,1,0,90,0,1
212636,-84.7457627118644,4,1,0,90,0,1
212806,-81.9672131147541,4,1,0,90,0,1
212891,-80.6451612903226,4,1,0,90,0,1
213003,-79.3650793650794,4,1,0,90,0,1
213060,-78.125,4,1,0,90,0,1
213145,-76.9230769230769,4,1,0,90,0,1
213738,-78.7401574803149,4,1,0,90,0,1
213823,-80.6451612903226,4,1,0,90,0,1
213879,-81.9672131147541,4,1,0,90,0,1
213936,-83.3333333333333,4,1,0,90,0,1
213992,-84.7457627118644,4,1,0,90,0,1
214105,-86.9565217391304,4,1,0,90,0,1
214162,-89.2857142857143,4,1,0,90,0,1
214275,-91.743119266055,4,1,0,90,0,1
214331,-94.3396226415094,4,1,0,90,0,1
214416,-97.0873786407767,4,1,0,90,0,1
214501,-76.9230769230769,4,1,0,90,0,1
214840,-100,4,1,0,90,0,1
214953,-94.3396226415094,4,1,0,90,0,1
215066,-89.2857142857143,4,1,0,90,0,1
215179,-76.9230769230769,4,1,0,90,0,1
215376,-89.2857142857143,4,1,0,90,0,1
215518,-89.2857142857143,4,1,0,90,0,1
215574,-86.9565217391304,4,1,0,90,0,1
215631,-84.7457627118644,4,1,0,90,0,1
215687,-82.6446280991736,4,1,0,90,0,1
215772,-79.6812749003984,4,1,0,90,0,1
215857,-76.9230769230769,4,1,0,90,0,1
216224,-95.2380952380952,4,1,0,90,0,1
216535,-86.9565217391304,4,1,0,90,0,1
217413,-89.2857142857143,4,1,0,90,0,1
217583,-91.743119266055,4,1,0,90,0,1
217696,-93.4579439252336,4,1,0,90,0,1
217809,-95.2380952380952,4,1,0,90,0,1
217922,-97.0873786407767,4,1,0,90,0,1
218035,-99.009900990099,4,1,0,90,0,1
218148,-101.010101010101,4,1,0,90,0,1
218261,-66.6666666666667,4,1,0,90,0,1
218569,-83.3333333333333,4,1,0,90,0,1
219925,-80.6451612903226,4,1,0,90,0,1
220009,-79.3650793650794,4,1,0,90,0,1
220094,-78.125,4,1,0,90,0,1
220179,-76.9230769230769,4,1,0,90,0,1
220264,-75.7575757575758,4,1,0,90,0,1
220433,-83.3333333333333,4,1,0,90,0,1
221619,-86.2068965517241,4,1,0,90,0,1
221789,-87.719298245614,4,1,0,90,0,1
221958,-89.2857142857143,4,1,0,90,0,1
222043,-90.0900900900901,4,1,0,90,0,1
222213,-91.743119266055,4,1,0,90,0,1
222297,-92.5925925925926,4,1,0,90,0,1
222467,-94.3396226415094,4,1,0,90,0,1
222636,-96.1538461538461,4,1,0,90,0,1
224755,-94.3396226415094,4,1,0,90,0,1
224840,-92.5925925925926,4,1,0,90,0,1
224925,-90.9090909090909,4,1,0,90,0,1
225009,-89.2857142857143,4,1,0,90,0,1
225094,-87.719298245614,4,1,0,90,0,1
225179,-86.2068965517241,4,1,0,90,0,1
225264,-84.7457627118644,4,1,0,90,0,1
225348,-83.3333333333333,4,1,0,90,0,1
228091,-83.3333333333333,4,1,0,80,0,0
228399,-88.4955752212389,4,1,0,80,0,0
228738,-94.3396226415094,4,1,0,80,0,0
228992,-98.5221674876847,4,1,0,80,0,0
229077,-100,4,1,0,80,0,0
229246,-103.092783505155,4,1,0,80,0,0
229416,-106.382978723404,4,1,0,80,0,0
232636,-105.263157894737,4,1,0,80,0,0
232721,-104.712041884817,4,1,0,80,0,0
232806,-104.166666666667,4,1,0,80,0,0
232891,-103.626943005181,4,1,0,80,0,0
232975,-103.092783505155,4,1,0,80,0,0
233060,-102.564102564103,4,1,0,80,0,0
233144,-102.040816326531,4,1,0,80,0,0
233201,-101.694915254237,4,1,0,80,0,0
233257,-101.351351351351,4,1,0,80,0,0
233314,-101.010101010101,4,1,0,80,0,0
233399,-100.502512562814,4,1,0,80,0,0
233483,-100,4,1,0,80,0,0
233808,-98.6301815926987,4,1,0,80,0,0
233977,-97.9523250459638,4,1,0,80,0,0
234147,-97.2791272100873,4,1,0,80,0,0
234232,-96.9442652944935,4,1,0,80,0,0
234401,-96.277995560046,4,1,0,80,0,0
234486,-95.9465798191015,4,1,0,80,0,0
234655,-95.2871668867013,4,1,0,80,0,0
234825,-94.6322859075634,4,1,0,80,0,0
234913,-94.3396226415094,4,1,0,80,0,0
234994,-93.9819057348914,4,1,0,80,0,0
235079,-93.6583937761793,4,1,0,80,0,0
235164,-93.3359954359517,4,1,0,80,0,0
235333,-92.6945242906024,4,1,0,80,0,0
235503,-92.0574617898322,4,1,0,80,0,0
235588,-91.7405743044719,4,1,0,80,0,0
235672,-91.4247776343094,4,1,0,80,0,0
235757,-91.110068024454,4,1,0,80,0,0
235842,-90.7964417329407,4,1,0,80,0,0
236011,-90.1724242014403,4,1,0,80,0,0
236181,-89.5526953609083,4,1,0,80,0,0
236266,-89.2444299809119,4,1,0,80,0,0
236350,-88.9372257364192,4,1,0,80,0,0
236435,-88.6310789747056,4,1,0,80,0,0
236520,-88.3259860556202,4,1,0,80,0,0
236605,-88.0219433515423,4,1,0,80,0,0
236689,-87.7189472473387,4,1,0,80,0,0
236774,-87.4169941403204,4,1,0,80,0,0
236859,-87.1160804402,4,1,0,80,0,0
236944,-86.8162025690486,4,1,0,80,0,0
237028,-86.5173569612538,4,1,0,80,0,0
237113,-86.2195400634768,4,1,0,80,0,0
237198,-85.9227483346107,4,1,0,80,0,0
237283,-85.6269782457378,4,1,0,80,0,0
237367,-85.332226280088,4,1,0,80,0,0
237452,-85.0384889329968,4,1,0,80,0,0
237537,-84.7457627118641,4,1,0,80,0,0
238060,-117.647058823529,4,1,0,80,0,0
238569,-66.6666666666667,4,1,0,80,0,0
238939,-90.9090909090909,4,1,0,90,0,1
249447,-90.9090909090909,4,1,0,90,0,0
249786,-90.9090909090909,4,1,0,90,0,1
259617,-100,4,1,0,90,0,1
259956,-98.0392156862745,4,1,0,90,0,1
260040,-97.0873786407767,4,1,0,90,0,1
260125,-96.1538461538461,4,1,0,90,0,1
260210,-95.2380952380952,4,1,0,90,0,1
260295,-94.3396226415094,4,1,0,90,0,1
260379,-93.4579439252336,4,1,0,90,0,1
260464,-92.5925925925926,4,1,0,90,0,1
260549,-91.743119266055,4,1,0,90,0,1
260633,-90.9090909090909,4,1,0,90,0,1
271142,-90.9090909090909,4,1,0,90,0,0
271481,-90.9090909090909,4,1,0,90,0,1
281647,-95.2380952380952,4,1,0,90,0,1
281986,-97.5609756097561,4,1,0,90,0,1
282328,-100,4,1,0,80,0,0
298595,-99.7671957778516,4,1,0,80,0,0
298765,-99.5349335337618,4,1,0,80,0,0
298934,-99.3032120059826,4,1,0,80,0,0
299019,-99.1875536172168,4,1,0,80,0,0
299104,-99.0720299357038,4,1,0,80,0,0
299189,-98.9566408045502,4,1,0,80,0,0
299273,-98.8413860670454,4,1,0,80,0,0
299443,-98.6112791470513,4,1,0,80,0,0
299612,-98.3817079256825,4,1,0,80,0,0
299697,-98.2671228121413,4,1,0,80,0,0
299782,-98.1526711558099,4,1,0,80,0,0
299867,-98.0383528012509,4,1,0,80,0,0
299951,-97.9241675932078,4,1,0,80,0,0
300121,-97.6961959965471,4,1,0,80,0,0
300290,-97.4687551273888,4,1,0,80,0,0
300375,-97.3552333293994,4,1,0,80,0,0
300460,-97.2418437501768,4,1,0,80,0,0
300545,-97.1285862357261,4,1,0,80,0,0
300629,-97.0154606322315,4,1,0,80,0,0
300799,-96.789604543743,4,1,0,80,0,0
300968,-96.5642742577645,4,1,0,80,0,0
301053,-96.4518059080768,4,1,0,80,0,0
301138,-96.3394685502055,4,1,0,80,0,0
301223,-96.2272620315845,4,1,0,80,0,0
301307,-96.1151861998253,4,1,0,80,0,0
301392,-96.0032409027172,4,1,0,80,0,0
301477,-95.8914259882264,4,1,0,80,0,0
301562,-95.7797413044964,4,1,0,80,0,0
301646,-95.6681866998476,4,1,0,80,0,0
301731,-95.5567620227768,4,1,0,80,0,0
301816,-95.4454671219575,4,1,0,80,0,0
301901,-95.3343018462395,4,1,0,80,0,0
301985,-95.2232660446484,4,1,0,80,0,0
302070,-95.1123595663858,4,1,0,80,0,0
302155,-95.0015822608289,4,1,0,80,0,0
302240,-94.8909339775303,4,1,0,80,0,0
302324,-94.780414566218,4,1,0,80,0,0
302409,-94.6700238767946,4,1,0,80,0,0
302494,-94.5597617593381,4,1,0,80,0,0
302579,-94.4496280641006,4,1,0,80,0,0
302663,-94.3396226415089,4,1,0,80,0,0
304019,-108.695652173913,4,1,0,75,0,0
304358,-109.330478620059,4,1,0,75,0,0
304527,-109.649280858633,4,1,0,75,0,0
304697,-109.96901270868,4,1,0,75,0,0
304866,-110.289676880901,4,1,0,75,0,0
305205,-110.933813074213,4,1,0,75,0,0
305375,-111.25729055632,4,1,0,75,0,0
305714,-111.90707800374,4,1,0,75,0,0
305883,-112.23339347798,4,1,0,75,0,0
306053,-112.560660471915,4,1,0,75,0,0
306392,-113.218060125298,4,1,0,75,0,0
306731,-113.879299257788,4,1,0,75,0,0
306900,-114.211365631125,4,1,0,75,0,0
307070,-114.544400293492,4,1,0,75,0,0
307239,-114.878406068374,4,1,0,75,0,0
307409,-115.213385787484,4,1,0,75,0,0
307578,-115.549342290796,4,1,0,75,0,0
307917,-116.22419705135,4,1,0,75,0,0
308087,-116.563101030039,4,1,0,75,0,0
308426,-117.243876550483,4,1,0,75,0,0
308595,-117.585753863883,4,1,0,75,0,0
308765,-117.928628074527,4,1,0,75,0,0
309104,-118.617378823634,4,1,0,75,0,0
309443,-119.310152154892,4,1,0,75,0,0
309612,-119.658054625197,4,1,0,75,0,0
309782,-120.006971561803,4,1,0,75,0,0
310121,-120.707860675082,4,1,0,75,0,0
310290,-121.059838793922,4,1,0,75,0,0
310629,-121.766877076462,4,1,0,75,0,0
310799,-122.121943234463,4,1,0,75,0,0
311138,-122.835184635288,4,1,0,75,0,0
311307,-123.193365925003,4,1,0,75,0,0
311477,-123.552591653546,4,1,0,75,0,0
311816,-124.274188618125,4,1,0,75,0,0
312155,-125,4,1,0,75,0,0
315207,-128.205128205128,4,1,0,70,0,0
315379,-129.87012987013,4,1,0,70,0,0
315546,-131.578947368421,4,1,0,70,0,0
315718,-133.333333333333,4,1,0,70,0,0
316057,-136.986301369863,4,1,0,70,0,0
316224,-138.888888888889,4,1,0,70,0,0
316566,-142.857142857143,4,1,0,70,0,0
316735,-144.927536231884,4,1,0,70,0,0
316905,-147.058823529412,4,1,0,70,0,0
317244,-151.515151515152,4,1,0,70,0,0
317583,-156.25,4,1,0,70,0,0

[HitObjects]
255,187,295,5,4,0:0:0:0:
255,187,633,1,0,0:0:0:0:
255,187,888,1,8,0:0:0:0:
255,187,972,1,0,0:0:0:0:
255,187,1142,1,8,0:0:0:0:
255,187,1311,1,0,0:0:0:0:
255,187,1481,1,8,0:0:0:0:
255,187,1650,1,0,0:0:0:0:
255,187,1988,1,0,0:0:0:0:
255,187,2244,1,8,0:0:0:0:
255,187,2327,1,0,0:0:0:0:
255,187,2498,1,8,0:0:0:0:
255,187,2666,1,0,0:0:0:0:
255,187,2837,1,8,0:0:0:0:
255,187,2922,1,8,0:0:0:0:
255,187,3006,1,0,0:0:0:0:
255,187,3345,1,0,0:0:0:0:
255,187,3600,1,8,0:0:0:0:
255,187,3684,1,0,0:0:0:0:
255,187,3854,1,8,0:0:0:0:
255,187,4023,1,0,0:0:0:0:
255,187,4193,1,8,0:0:0:0:
255,187,4362,1,0,0:0:0:0:
255,187,4701,1,0,0:0:0:0:
255,187,4956,1,8,0:0:0:0:
255,187,5040,1,0,0:0:0:0:
255,187,5210,1,8,0:0:0:0:
255,187,5379,1,0,0:0:0:0:
255,187,5549,1,8,0:0:0:0:
255,187,5633,1,0,0:0:0:0:
255,187,5718,1,0,0:0:0:0:
255,187,6057,1,0,0:0:0:0:
255,187,6311,1,8,0:0:0:0:
255,187,6396,1,0,0:0:0:0:
255,187,6566,1,8,0:0:0:0:
255,187,6735,1,0,0:0:0:0:
255,187,6905,1,8,0:0:0:0:
255,187,7074,1,0,0:0:0:0:
255,187,7413,1,0,0:0:0:0:
255,187,7752,1,0,0:0:0:0:
255,187,7922,1,8,0:0:0:0:
255,187,8091,1,0,0:0:0:0:
255,187,8261,1,8,0:0:0:0:
255,187,8345,1,8,0:0:0:0:
255,187,8430,1,0,0:0:0:0:
255,187,8769,1,0,0:0:0:0:
255,187,8939,1,8,0:0:0:0:
255,187,9108,1,0,0:0:0:0:
255,187,9447,1,0,0:0:0:0:
255,187,9617,1,8,0:0:0:0:
255,187,9701,1,8,0:0:0:0:
255,187,9786,1,0,0:0:0:0:
255,187,10125,1,0,0:0:0:0:
255,187,10295,1,0,0:0:0:0:
255,187,10464,1,8,0:0:0:0:
255,187,10633,1,0,0:0:0:0:
255,187,10718,1,8,0:0:0:0:
255,187,10888,1,0,0:0:0:0:
255,187,10972,1,8,0:0:0:0:
255,187,11142,1,4,0:0:0:0:
255,187,11481,1,8,0:0:0:0:
255,187,11820,1,8,0:0:0:0:
255,187,12074,1,0,0:0:0:0:
255,187,12159,1,8,0:0:0:0:
255,187,12328,1,0,0:0:0:0:
255,187,12498,1,8,0:0:0:0:
255,187,12837,1,8,0:0:0:0:
255,187,13176,1,8,0:0:0:0:
255,187,13345,1,0,0:0:0:0:
255,187,13430,1,0,0:0:0:0:
255,187,13515,1,8,0:0:0:0:
255,187,13684,1,0,0:0:0:0:
255,187,13854,1,8,0:0:0:0:
255,187,14193,1,8,0:0:0:0:
255,187,14532,1,8,0:0:0:0:
255,187,14786,1,0,0:0:0:0:
255,187,14871,1,8,0:0:0:0:
255,187,15040,1,0,0:0:0:0:
255,187,15210,1,8,0:0:0:0:
255,187,15549,1,8,0:0:0:0:
255,187,15888,1,8,0:0:0:0:
255,187,16142,1,0,0:0:0:0:
255,187,16227,1,8,0:0:0:0:
255,187,16396,1,0,0:0:0:0:
255,187,16566,1,8,0:0:0:0:
255,187,16735,1,8,0:0:0:0:
255,187,16905,1,0,0:0:0:0:
255,187,16989,1,8,0:0:0:0:
255,187,17159,1,0,0:0:0:0:
255,187,17244,1,0,0:0:0:0:
255,187,17413,1,8,0:0:0:0:
255,187,17583,1,0,0:0:0:0:
255,187,17667,1,0,0:0:0:0:
255,187,17837,1,8,0:0:0:0:
255,187,17922,1,0,0:0:0:0:
255,187,18091,1,8,0:0:0:0:
255,187,18261,1,0,0:0:0:0:
255,187,18345,1,8,0:0:0:0:
255,187,18515,1,8,0:0:0:0:
255,187,18600,1,0,0:0:0:0:
255,187,18769,1,8,0:0:0:0:
255,187,18939,1,0,0:0:0:0:
255,187,19023,1,0,0:0:0:0:
255,187,19108,1,8,0:0:0:0:
255,187,19193,1,0,0:0:0:0:
255,187,19278,1,8,0:0:0:0:
255,187,19362,1,8,0:0:0:0:
255,187,19446,1,0,0:0:0:0:
255,187,19531,1,0,0:0:0:0:
255,187,19616,1,8,0:0:0:0:
255,187,19701,1,0,0:0:0:0:
255,187,19786,1,8,0:0:0:0:
255,187,19870,1,8,0:0:0:0:
255,187,19955,1,0,0:0:0:0:
255,187,20040,1,0,0:0:0:0:
255,187,20125,1,8,0:0:0:0:
255,187,20210,1,0,0:0:0:0:
255,187,20294,1,8,0:0:0:0:
255,187,20379,1,8,0:0:0:0:
255,187,20464,1,8,0:0:0:0:
255,187,20549,1,8,0:0:0:0:
255,187,20633,1,0,0:0:0:0:
255,187,21989,1,4,0:0:0:0:
255,187,32837,5,8,0:0:0:0:
255,187,35549,1,8,0:0:0:0:
255,187,37540,1,8,0:0:0:0:
255,187,37583,1,8,0:0:0:0:
255,187,38261,1,8,0:0:0:0:
255,187,40295,5,8,0:0:0:0:
255,187,40633,1,8,0:0:0:0:
255,187,40972,1,8,0:0:0:0:
255,187,43006,5,8,0:0:0:0:
255,187,43345,1,8,0:0:0:0:
255,187,43684,1,4,0:0:0:0:
255,187,44362,1,8,0:0:0:0:
255,187,44701,1,0,0:0:0:0:
255,187,44871,1,8,0:0:0:0:
255,187,45718,5,8,0:0:0:0:
255,187,46057,1,0,0:0:0:0:
255,187,46396,1,8,0:0:0:0:
255,187,47074,1,8,0:0:0:0:
255,187,47413,1,0,0:0:0:0:
255,187,47583,1,8,0:0:0:0:
255,187,48430,1,8,0:0:0:0:
255,187,48684,1,8,0:0:0:0:
255,187,48939,1,0,0:0:0:0:
255,187,49108,1,8,0:0:0:0:
255,187,49786,1,8,0:0:0:0:
255,187,50125,1,0,0:0:0:0:
255,187,50295,1,8,0:0:0:0:
255,187,50803,1,0,0:0:0:0:
255,187,51142,1,8,0:0:0:0:
255,187,51481,1,0,0:0:0:0:
255,187,51820,1,8,0:0:0:0:
255,187,52159,1,0,0:0:0:0:
255,187,52328,1,8,0:0:0:0:
255,187,52498,1,8,0:0:0:0:
255,187,52667,1,0,0:0:0:0:
255,187,52837,1,0,0:0:0:0:
255,187,53006,1,8,0:0:0:0:
255,187,53345,1,8,0:0:0:0:
255,187,53684,1,0,0:0:0:0:
255,187,53854,1,8,0:0:0:0:
255,187,54193,1,8,0:0:0:0:
255,187,54532,1,4,0:0:0:0:
255,187,54871,1,0,0:0:0:0:
255,187,55210,1,8,0:0:0:0:
255,187,55464,1,0,0:0:0:0:
255,187,55549,1,8,0:0:0:0:
255,187,55718,1,8,0:0:0:0:
255,187,55888,1,0,0:0:0:0:
255,187,56227,1,0,0:0:0:0:
255,187,56566,1,8,0:0:0:0:
255,187,56820,1,0,0:0:0:0:
255,187,56905,1,8,0:0:0:0:
255,187,57074,1,0,0:0:0:0:
255,187,57244,1,8,0:0:0:0:
255,187,57583,1,0,0:0:0:0:
255,187,57922,1,8,0:0:0:0:
255,187,58176,1,8,0:0:0:0:
255,187,58261,1,8,0:0:0:0:
255,187,58430,1,0,0:0:0:0:
255,187,58600,1,8,0:0:0:0:
255,187,58939,1,0,0:0:0:0:
255,187,59278,1,8,0:0:0:0:
255,187,59532,1,0,0:0:0:0:
255,187,59786,1,8,0:0:0:0:
255,187,59956,1,8,0:0:0:0:
255,187,60125,1,0,0:0:0:0:
255,187,60295,1,8,0:0:0:0:
255,187,60379,1,0,0:0:0:0:
255,187,60549,1,0,0:0:0:0:
255,187,60633,1,8,0:0:0:0:
255,187,60803,1,0,0:0:0:0:
255,187,60972,1,8,0:0:0:0:
255,187,61057,1,8,0:0:0:0:
255,187,61227,1,0,0:0:0:0:
255,187,61311,1,8,0:0:0:0:
255,187,61481,1,0,0:0:0:0:
255,187,61650,1,8,0:0:0:0:
255,187,61735,1,0,0:0:0:0:
255,187,61905,1,0,0:0:0:0:
255,187,61989,1,8,0:0:0:0:
255,187,62159,1,0,0:0:0:0:
255,187,62328,1,8,0:0:0:0:
255,187,62413,1,0,0:0:0:0:
255,187,62498,1,0,0:0:0:0:
255,187,62583,1,0,0:0:0:0:
255,187,62667,1,8,0:0:0:0:
255,187,62752,1,8,0:0:0:0:
255,187,62837,1,0,0:0:0:0:
255,187,62922,1,0,0:0:0:0:
255,187,63006,1,8,0:0:0:0:
255,187,63091,1,0,0:0:0:0:
255,187,63176,1,8,0:0:0:0:
255,187,63261,1,8,0:0:0:0:
255,187,63345,1,0,0:0:0:0:
255,187,63430,1,0,0:0:0:0:
255,187,63515,1,8,0:0:0:0:
255,187,63600,1,0,0:0:0:0:
255,187,63684,1,0,0:0:0:0:
255,187,63769,1,0,0:0:0:0:
255,187,63854,1,8,0:0:0:0:
255,187,63939,1,8,0:0:0:0:
255,187,64023,1,0,0:0:0:0:
255,187,65040,1,8,0:0:0:0:
255,187,65379,1,4,0:0:0:0:
255,187,65718,1,0,0:0:0:0:
255,187,66057,1,8,0:0:0:0:
255,187,66142,1,8,0:0:0:0:
255,187,66227,1,0,0:0:0:0:
255,187,66396,1,8,0:0:0:0:
255,187,66735,1,4,0:0:0:0:
255,187,66989,1,0,0:0:0:0:
255,187,67074,1,8,0:0:0:0:
255,187,67244,1,0,0:0:0:0:
255,187,67413,1,8,0:0:0:0:
255,187,67470,1,8,0:0:0:0:
255,187,67526,1,8,0:0:0:0:
255,187,67583,1,0,0:0:0:0:
255,187,67667,1,0,0:0:0:0:
255,187,67752,1,8,0:0:0:0:
255,187,67837,1,0,0:0:0:0:
255,187,67922,1,8,0:0:0:0:
255,187,68091,1,4,0:0:0:0:
255,187,68430,1,8,0:0:0:0:
255,187,68487,1,0,0:0:0:0:
255,187,68543,1,0,0:0:0:0:
255,187,68600,1,8,0:0:0:0:
255,187,68769,1,4,0:0:0:0:
255,187,68939,1,8,0:0:0:0:
255,187,69108,1,0,0:0:0:0:
255,187,69193,1,0,0:0:0:0:
255,187,69278,1,8,0:0:0:0:
255,187,69447,1,4,0:0:0:0:
255,187,69786,1,4,0:0:0:0:
255,187,69956,1,8,0:0:0:0:
255,187,70040,1,8,0:0:0:0:
255,187,70125,1,0,0:0:0:0:
255,187,70210,1,8,0:0:0:0:
255,187,70295,1,8,0:0:0:0:
255,187,70379,1,0,0:0:0:0:
255,187,70549,1,0,0:0:0:0:
255,187,70633,1,8,0:0:0:0:
255,187,70803,1,4,0:0:0:0:
255,187,71142,1,4,0:0:0:0:
255,187,71396,1,0,0:0:0:0:
255,187,71481,1,8,0:0:0:0:
255,187,71566,1,8,0:0:0:0:
255,187,71650,1,0,0:0:0:0:
255,187,71820,1,8,0:0:0:0:
255,187,72159,1,4,0:0:0:0:
255,187,72413,1,4,0:0:0:0:
255,187,72667,1,0,0:0:0:0:
255,187,72752,1,0,0:0:0:0:
255,187,72837,1,8,0:0:0:0:
255,187,72893,1,8,0:0:0:0:
255,187,72950,1,8,0:0:0:0:
255,187,73006,1,0,0:0:0:0:
255,187,73091,1,0,0:0:0:0:
255,187,73176,1,8,0:0:0:0:
255,187,73261,1,0,0:0:0:0:
255,187,73345,1,8,0:0:0:0:
255,187,73515,1,4,0:0:0:0:
255,187,73854,1,8,0:0:0:0:
255,187,73967,1,8,0:0:0:0:
255,187,74080,1,8,0:0:0:0:
255,187,74193,1,4,0:0:0:0:
255,187,74532,1,0,0:0:0:0:
255,187,74588,1,0,0:0:0:0:
255,187,74645,1,0,0:0:0:0:
255,187,74701,1,8,0:0:0:0:
255,187,74871,1,4,0:0:0:0:
255,187,75549,1,4,0:0:0:0:
255,187,75718,1,8,0:0:0:0:
255,187,75803,1,0,0:0:0:0:
255,187,75888,1,8,0:0:0:0:
255,187,76227,1,0,0:0:0:0:
255,187,76396,1,0,0:0:0:0:
255,187,76566,1,8,0:0:0:0:
255,187,76679,1,0,0:0:0:0:
255,187,76792,1,0,0:0:0:0:
255,187,76905,1,8,0:0:0:0:
255,187,77018,1,8,0:0:0:0:
255,187,77131,1,0,0:0:0:0:
255,187,77244,1,12,0:0:0:0:
255,187,77583,1,4,0:0:0:0:
255,187,77837,1,8,0:0:0:0:
255,187,77922,1,0,0:0:0:0:
255,187,77978,1,0,0:0:0:0:
255,187,78035,1,0,0:0:0:0:
255,187,78091,1,8,0:0:0:0:
255,187,78261,1,0,0:0:0:0:
255,187,78345,1,0,0:0:0:0:
255,187,78430,1,8,0:0:0:0:
255,187,78487,1,8,0:0:0:0:
255,187,78543,1,8,0:0:0:0:
255,187,78600,1,0,0:0:0:0:
255,187,78769,1,8,0:0:0:0:
255,187,78939,1,0,0:0:0:0:
255,187,79023,1,0,0:0:0:0:
255,187,79108,1,8,0:0:0:0:
255,187,79193,1,8,0:0:0:0:
255,187,79278,1,0,0:0:0:0:
255,187,79447,1,8,0:0:0:0:
255,187,79532,1,0,0:0:0:0:
255,187,79617,1,8,0:0:0:0:
255,187,79786,1,0,0:0:0:0:
255,187,79956,1,0,0:0:0:0:
255,187,80012,1,0,0:0:0:0:
255,187,80069,1,0,0:0:0:0:
255,187,80125,1,8,0:0:0:0:
255,187,80295,1,4,0:0:0:0:
255,187,80633,1,4,0:0:0:0:
255,187,80803,1,8,0:0:0:0:
255,187,80972,1,0,0:0:0:0:
255,187,81057,1,8,0:0:0:0:
255,187,81227,1,8,0:0:0:0:
255,187,81311,1,0,0:0:0:0:
255,187,81481,1,12,0:0:0:0:
255,187,81650,1,4,0:0:0:0:
255,187,81905,1,8,0:0:0:0:
255,187,82159,1,8,0:0:0:0:
255,187,82328,1,4,0:0:0:0:
255,187,82583,1,8,0:0:0:0:
255,187,82837,1,8,0:0:0:0:
255,187,83006,1,4,0:0:0:0:
255,187,83261,1,8,0:0:0:0:
255,187,83515,1,8,0:0:0:0:
255,187,83684,1,0,0:0:0:0:
255,187,83769,1,8,0:0:0:0:
255,187,83854,1,8,0:0:0:0:
255,187,83939,1,0,0:0:0:0:
255,187,84023,1,8,0:0:0:0:
255,187,84108,1,8,0:0:0:0:
255,187,84193,1,0,0:0:0:0:
255,187,84362,1,4,0:0:0:0:
255,187,84701,1,4,0:0:0:0:
255,187,84871,1,8,0:0:0:0:
255,187,85040,1,0,0:0:0:0:
255,187,85125,1,0,0:0:0:0:
255,187,85210,1,8,0:0:0:0:
255,187,85295,1,8,0:0:0:0:
255,187,85379,1,0,0:0:0:0:
255,187,85464,1,8,0:0:0:0:
255,187,85549,1,8,0:0:0:0:
255,187,85633,1,8,0:0:0:0:
255,187,85718,1,0,0:0:0:0:
255,187,85803,1,0,0:0:0:0:
255,187,85888,1,8,0:0:0:0:
255,187,85972,1,0,0:0:0:0:
255,187,86057,1,8,0:0:0:0:
255,187,86142,1,8,0:0:0:0:
255,187,86227,1,0,0:0:0:0:
255,187,86311,1,0,0:0:0:0:
255,187,86396,1,8,0:0:0:0:
255,187,86453,1,0,0:0:0:0:
255,187,86509,1,0,0:0:0:0:
255,187,86566,1,8,0:0:0:0:
255,187,86650,1,0,0:0:0:0:
255,187,86735,1,8,0:0:0:0:
255,187,86792,1,8,0:0:0:0:
255,187,86848,1,8,0:0:0:0:
255,187,86905,1,0,0:0:0:0:
255,187,86989,1,8,0:0:0:0:
255,187,87074,1,0,0:0:0:0:
255,187,87413,1,8,0:0:0:0:
255,187,87752,1,8,0:0:0:0:
255,187,88006,1,0,0:0:0:0:
255,187,88091,1,8,0:0:0:0:
255,187,88260,1,0,0:0:0:0:
255,187,88430,1,8,0:0:0:0:
255,187,88769,1,8,0:0:0:0:
255,187,89108,1,8,0:0:0:0:
255,187,89278,1,0,0:0:0:0:
255,187,89362,1,0,0:0:0:0:
255,187,89447,1,8,0:0:0:0:
255,187,89616,1,0,0:0:0:0:
255,187,89786,1,8,0:0:0:0:
255,187,90125,1,8,0:0:0:0:
255,187,90464,1,8,0:0:0:0:
255,187,90718,1,0,0:0:0:0:
255,187,90803,1,8,0:0:0:0:
255,187,90972,1,0,0:0:0:0:
255,187,91142,1,8,0:0:0:0:
255,187,91481,1,8,0:0:0:0:
255,187,91650,1,0,0:0:0:0:
255,187,91735,1,0,0:0:0:0:
255,187,91820,1,8,0:0:0:0:
255,187,91905,1,0,0:0:0:0:
255,187,91989,1,8,0:0:0:0:
255,187,92074,1,8,0:0:0:0:
255,187,92159,1,0,0:0:0:0:
255,187,92215,1,0,0:0:0:0:
255,187,92272,1,0,0:0:0:0:
255,187,92328,1,8,0:0:0:0:
255,187,92413,1,8,0:0:0:0:
255,187,92498,1,0,0:0:0:0:
255,187,92667,1,0,0:0:0:0:
255,187,92837,1,8,0:0:0:0:
255,187,93006,1,0,0:0:0:0:
255,187,93176,1,8,0:0:0:0:
255,187,93261,1,8,0:0:0:0:
255,187,93430,1,0,0:0:0:0:
255,187,93515,1,8,0:0:0:0:
255,187,93684,1,0,0:0:0:0:
255,187,93854,1,8,0:0:0:0:
255,187,93939,1,0,0:0:0:0:
255,187,94108,1,0,0:0:0:0:
255,187,94193,1,8,0:0:0:0:
255,187,94362,1,0,0:0:0:0:
255,187,94532,1,8,0:0:0:0:
255,187,94617,1,8,0:0:0:0:
255,187,94786,1,0,0:0:0:0:
255,187,94871,1,8,0:0:0:0:
255,187,95040,1,0,0:0:0:0:
255,187,95210,1,8,0:0:0:0:
255,187,95295,1,8,0:0:0:0:
255,187,95379,1,0,0:0:0:0:
255,187,95464,1,0,0:0:0:0:
255,187,95549,1,8,0:0:0:0:
255,187,95633,1,8,0:0:0:0:
255,187,95718,1,0,0:0:0:0:
255,187,95803,1,8,0:0:0:0:
255,187,95888,1,8,0:0:0:0:
255,187,95972,1,0,0:0:0:0:
255,187,96057,1,8,0:0:0:0:
255,187,96142,1,0,0:0:0:0:
255,187,96227,1,8,0:0:0:0:
255,187,96311,1,8,0:0:0:0:
255,187,96396,1,0,0:0:0:0:
255,187,96481,1,0,0:0:0:0:
255,187,96566,1,8,0:0:0:0:
255,187,97074,1,0,0:0:0:0:
255,187,97244,1,8,0:0:0:0:
255,187,97328,1,8,0:0:0:0:
255,187,97413,1,0,0:0:0:0:
255,187,97583,1,12,0:0:0:0:
255,187,97922,1,0,0:0:0:0:
255,187,98091,1,8,0:0:0:0:
255,187,98133,1,8,0:0:0:0:
255,187,98261,1,4,0:0:0:0:
255,187,98430,1,8,0:0:0:0:
255,187,98600,1,0,0:0:0:0:
255,187,98684,1,8,0:0:0:0:
255,187,98769,1,8,0:0:0:0:
255,187,98939,1,0,0:0:0:0:
255,187,99023,1,8,0:0:0:0:
255,187,99108,1,8,0:0:0:0:
255,187,99193,1,8,0:0:0:0:
255,187,99278,1,0,0:0:0:0:
255,187,99447,1,8,0:0:0:0:
255,187,99617,1,0,0:0:0:0:
255,187,99786,1,8,0:0:0:0:
255,187,99871,1,8,0:0:0:0:
255,187,99956,1,0,0:0:0:0:
255,187,100125,1,8,0:0:0:0:
255,187,100210,1,0,0:0:0:0:
255,187,100295,1,0,0:0:0:0:
255,187,100379,1,0,0:0:0:0:
255,187,100464,1,8,0:0:0:0:
255,187,100549,1,8,0:0:0:0:
255,187,100633,1,0,0:0:0:0:
255,187,100761,1,8,0:0:0:0:
255,187,100803,1,8,0:0:0:0:
255,187,100972,1,0,0:0:0:0:
255,187,101057,1,0,0:0:0:0:
255,187,101142,1,8,0:0:0:0:
255,187,101198,1,8,0:0:0:0:
255,187,101255,1,8,0:0:0:0:
255,187,101311,1,0,0:0:0:0:
255,187,101396,1,0,0:0:0:0:
255,187,101481,1,8,0:0:0:0:
255,187,101537,1,0,0:0:0:0:
255,187,101594,1,0,0:0:0:0:
255,187,101650,1,8,0:0:0:0:
255,187,101735,1,0,0:0:0:0:
255,187,101820,1,8,0:0:0:0:
255,187,101876,1,0,0:0:0:0:
255,187,101933,1,0,0:0:0:0:
255,187,101989,1,8,0:0:0:0:
255,187,102074,1,0,0:0:0:0:
255,187,102159,1,8,0:0:0:0:
255,187,102215,1,8,0:0:0:0:
255,187,102272,1,8,0:0:0:0:
255,187,102328,1,0,0:0:0:0:
255,187,102413,1,8,0:0:0:0:
255,187,102498,1,8,0:0:0:0:
255,187,102583,1,8,0:0:0:0:
255,187,102667,1,0,0:0:0:0:
255,187,102752,1,8,0:0:0:0:
255,187,102837,1,8,0:0:0:0:
255,187,102922,1,8,0:0:0:0:
255,187,103006,1,0,0:0:0:0:
255,187,103063,1,0,0:0:0:0:
255,187,103119,1,0,0:0:0:0:
255,187,103176,1,8,0:0:0:0:
255,187,103261,1,8,0:0:0:0:
255,187,103345,1,0,0:0:0:0:
255,187,103515,1,0,0:0:0:0:
255,187,103684,1,12,0:0:0:0:
255,187,104023,1,8,0:0:0:0:
255,187,104193,1,0,0:0:0:0:
255,187,104278,1,0,0:0:0:0:
255,187,104362,1,8,0:0:0:0:
255,187,104532,1,8,0:0:0:0:
255,187,104701,1,0,0:0:0:0:
255,187,104871,1,8,0:0:0:0:
255,187,104927,1,8,0:0:0:0:
255,187,104984,1,8,0:0:0:0:
255,187,105040,1,0,0:0:0:0:
255,187,105125,1,0,0:0:0:0:
255,187,105210,1,8,0:0:0:0:
255,187,105379,1,0,0:0:0:0:
255,187,105549,1,8,0:0:0:0:
255,187,105605,1,8,0:0:0:0:
255,187,105662,1,8,0:0:0:0:
255,187,105718,1,0,0:0:0:0:
255,187,105803,1,8,0:0:0:0:
255,187,105888,1,8,0:0:0:0:
255,187,105972,1,8,0:0:0:0:
255,187,106057,1,0,0:0:0:0:
255,187,106184,1,8,0:0:0:0:
255,187,106227,1,8,0:0:0:0:
255,187,106396,1,0,0:0:0:0:
255,187,106481,1,0,0:0:0:0:
255,187,106566,1,8,0:0:0:0:
255,187,106622,1,8,0:0:0:0:
255,187,106679,1,8,0:0:0:0:
255,187,106735,1,0,0:0:0:0:
255,187,106820,1,0,0:0:0:0:
255,187,106905,1,8,0:0:0:0:
255,187,106961,1,0,0:0:0:0:
255,187,107018,1,0,0:0:0:0:
255,187,107074,1,8,0:0:0:0:
255,187,107159,1,8,0:0:0:0:
255,187,107244,1,0,0:0:0:0:
255,187,107300,1,0,0:0:0:0:
255,187,107357,1,0,0:0:0:0:
255,187,107413,1,8,0:0:0:0:
255,187,107583,1,0,0:0:0:0:
255,187,107752,1,8,0:0:0:0:
255,187,107865,1,8,0:0:0:0:
255,187,107978,1,8,0:0:0:0:
255,187,108091,1,0,0:0:0:0:
255,187,108204,1,0,0:0:0:0:
255,187,108317,1,0,0:0:0:0:
255,187,108430,1,12,0:0:0:0:
255,187,108769,1,0,0:0:0:0:
255,187,108939,1,0,0:0:0:0:
255,187,109108,1,12,0:0:0:0:
255,187,109447,1,0,0:0:0:0:
255,187,109617,1,8,0:0:0:0:
255,187,109786,1,0,0:0:0:0:
255,187,109956,1,8,0:0:0:0:
255,187,110040,1,8,0:0:0:0:
255,187,110125,1,0,0:0:0:0:
255,187,110295,1,8,0:0:0:0:
255,187,110464,1,0,0:0:0:0:
255,187,110549,1,0,0:0:0:0:
255,187,110633,1,8,0:0:0:0:
255,187,110718,1,8,0:0:0:0:
255,187,110803,1,0,0:0:0:0:
255,187,110972,1,8,0:0:0:0:
255,187,111057,1,0,0:0:0:0:
255,187,111142,1,0,0:0:0:0:
255,187,111227,1,0,0:0:0:0:
255,187,111311,1,8,0:0:0:0:
255,187,111396,1,8,0:0:0:0:
255,187,111481,1,0,0:0:0:0:
255,187,111608,1,8,0:0:0:0:
255,187,111650,1,8,0:0:0:0:
255,187,111820,1,0,0:0:0:0:
255,187,111905,1,0,0:0:0:0:
255,187,111990,1,8,0:0:0:0:
255,187,112046,1,8,0:0:0:0:
255,187,112103,1,8,0:0:0:0:
255,187,112159,1,0,0:0:0:0:
255,187,112244,1,8,0:0:0:0:
255,187,112329,1,0,0:0:0:0:
255,187,112385,1,0,0:0:0:0:
255,187,112442,1,0,0:0:0:0:
255,187,112498,1,8,0:0:0:0:
255,187,112583,1,0,0:0:0:0:
255,187,112668,1,8,0:0:0:0:
255,187,112724,1,0,0:0:0:0:
255,187,112781,1,0,0:0:0:0:
255,187,112837,1,8,0:0:0:0:
255,187,112922,1,0,0:0:0:0:
255,187,113007,1,8,0:0:0:0:
255,187,113063,1,8,0:0:0:0:
255,187,113120,1,8,0:0:0:0:
255,187,113176,1,0,0:0:0:0:
255,187,113261,1,8,0:0:0:0:
255,187,113346,1,8,0:0:0:0:
255,187,113431,1,8,0:0:0:0:
255,187,113515,1,0,0:0:0:0:
255,187,113600,1,8,0:0:0:0:
255,187,113685,1,8,0:0:0:0:
255,187,113770,1,8,0:0:0:0:
255,187,113854,1,0,0:0:0:0:
255,187,113939,1,0,0:0:0:0:
255,187,114024,1,2,0:0:0:0:
255,187,114080,1,8,0:0:0:0:
255,187,114137,1,8,0:0:0:0:
255,187,114193,1,0,0:0:0:0:
255,187,114362,1,0,0:0:0:0:
255,187,114532,1,12,0:0:0:0:
255,187,114871,1,8,0:0:0:0:
255,187,115041,1,8,0:0:0:0:
255,187,115126,1,0,0:0:0:0:
255,187,115210,1,0,0:0:0:0:
255,187,115380,1,8,0:0:0:0:
255,187,115549,1,0,0:0:0:0:
255,187,115719,1,8,0:0:0:0:
255,187,115803,1,8,0:0:0:0:
255,187,115888,1,0,0:0:0:0:
255,187,115973,1,0,0:0:0:0:
255,187,116058,1,8,0:0:0:0:
255,187,116227,1,0,0:0:0:0:
255,187,116397,1,8,0:0:0:0:
255,187,116481,1,8,0:0:0:0:
255,187,116566,1,0,0:0:0:0:
255,187,116651,1,8,0:0:0:0:
255,187,116736,1,8,0:0:0:0:
255,187,116820,1,8,0:0:0:0:
255,187,116905,1,0,0:0:0:0:
255,187,117032,1,8,0:0:0:0:
255,187,117075,1,8,0:0:0:0:
255,187,117244,1,0,0:0:0:0:
255,187,117329,1,0,0:0:0:0:
255,187,117414,1,8,0:0:0:0:
255,187,117470,1,0,0:0:0:0:
255,187,117527,1,0,0:0:0:0:
255,187,117583,1,8,0:0:0:0:
255,187,117668,1,0,0:0:0:0:
255,187,117753,1,8,0:0:0:0:
255,187,117809,1,8,0:0:0:0:
255,187,117866,1,8,0:0:0:0:
255,187,117922,1,0,0:0:0:0:
255,187,118007,1,0,0:0:0:0:
255,187,118092,1,8,0:0:0:0:
255,187,118148,1,8,0:0:0:0:
255,187,118205,1,8,0:0:0:0:
255,187,118261,1,0,0:0:0:0:
255,187,118430,1,0,0:0:0:0:
255,187,118600,1,8,0:0:0:0:
255,187,118769,1,8,0:0:0:0:
255,187,118939,1,4,0:0:0:0:
255,187,119193,1,4,0:0:0:0:
255,187,119447,1,4,0:0:0:0:
255,187,119617,1,8,0:0:0:0:
255,187,119701,1,8,0:0:0:0:
255,187,119786,1,8,0:0:0:0:
255,187,119956,1,4,0:0:0:0:
255,187,120210,1,4,0:0:0:0:
255,187,120464,1,4,0:0:0:0:
255,187,120633,1,8,0:0:0:0:
255,187,120690,1,8,0:0:0:0:
255,187,120746,1,8,0:0:0:0:
255,187,120803,1,8,0:0:0:0:
255,187,120972,1,4,0:0:0:0:
255,187,121227,1,4,0:0:0:0:
255,187,121481,1,4,0:0:0:0:
255,187,121735,1,4,0:0:0:0:
255,187,121989,1,8,0:0:0:0:
255,187,122159,1,0,0:0:0:0:
255,187,122328,1,8,0:0:0:0:
255,187,122385,1,8,0:0:0:0:
255,187,122441,1,8,0:0:0:0:
255,187,122498,1,0,0:0:0:0:
255,187,122667,1,0,0:0:0:0:
255,187,122752,1,0,0:0:0:0:
255,187,122837,1,8,0:0:0:0:
255,187,122893,1,8,0:0:0:0:
255,187,122950,1,8,0:0:0:0:
255,187,123006,1,0,0:0:0:0:
255,187,123091,1,0,0:0:0:0:
255,187,123176,1,8,0:0:0:0:
255,187,123232,1,8,0:0:0:0:
255,187,123289,1,8,0:0:0:0:
255,187,123345,1,0,0:0:0:0:
255,187,123430,1,0,0:0:0:0:
255,187,123515,1,8,0:0:0:0:
255,187,123571,1,0,0:0:0:0:
255,187,123628,1,0,0:0:0:0:
255,187,123684,1,8,0:0:0:0:
255,187,123769,1,0,0:0:0:0:
255,187,123854,1,8,0:0:0:0:
255,187,123910,1,8,0:0:0:0:
255,187,123967,1,8,0:0:0:0:
255,187,124023,1,0,0:0:0:0:
255,187,124108,1,8,0:0:0:0:
255,187,124193,1,8,0:0:0:0:
255,187,124278,1,8,0:0:0:0:
255,187,124362,1,0,0:0:0:0:
255,187,124447,1,8,0:0:0:0:
255,187,124532,1,8,0:0:0:0:
255,187,124617,1,8,0:0:0:0:
255,187,124701,1,0,0:0:0:0:
255,187,124758,1,0,0:0:0:0:
255,187,124814,1,0,0:0:0:0:
255,187,124871,1,2,0:0:0:0:
255,187,124956,1,8,0:0:0:0:
255,187,125040,1,0,0:0:0:0:
255,187,125210,1,0,0:0:0:0:
255,187,125379,1,12,0:0:0:0:
255,187,125718,1,8,0:0:0:0:
255,187,125888,1,8,0:0:0:0:
255,187,125973,1,0,0:0:0:0:
255,187,126057,1,0,0:0:0:0:
255,187,126227,1,8,0:0:0:0:
255,187,126396,1,0,0:0:0:0:
255,187,126566,1,8,0:0:0:0:
255,187,126622,1,8,0:0:0:0:
255,187,126679,1,8,0:0:0:0:
255,187,126735,1,0,0:0:0:0:
255,187,126820,1,0,0:0:0:0:
255,187,126905,1,8,0:0:0:0:
255,187,127074,1,0,0:0:0:0:
255,187,127244,1,8,0:0:0:0:
255,187,127300,1,8,0:0:0:0:
255,187,127357,1,8,0:0:0:0:
255,187,127413,1,0,0:0:0:0:
255,187,127498,1,8,0:0:0:0:
255,187,127583,1,8,0:0:0:0:
255,187,127667,1,8,0:0:0:0:
255,187,127752,1,0,0:0:0:0:
255,187,127879,1,8,0:0:0:0:
255,187,127922,1,8,0:0:0:0:
255,187,128091,1,0,0:0:0:0:
255,187,128176,1,0,0:0:0:0:
255,187,128261,1,8,0:0:0:0:
255,187,128317,1,8,0:0:0:0:
255,187,128374,1,8,0:0:0:0:
255,187,128430,1,0,0:0:0:0:
255,187,128515,1,0,0:0:0:0:
255,187,128600,1,8,0:0:0:0:
255,187,128656,1,0,0:0:0:0:
255,187,128713,1,0,0:0:0:0:
255,187,128769,1,8,0:0:0:0:
255,187,128854,1,8,0:0:0:0:
255,187,128939,1,0,0:0:0:0:
255,187,128995,1,0,0:0:0:0:
255,187,129052,1,0,0:0:0:0:
255,187,129108,1,8,0:0:0:0:
255,187,129278,1,0,0:0:0:0:
255,187,129447,1,8,0:0:0:0:
255,187,129560,1,8,0:0:0:0:
255,187,129673,1,8,0:0:0:0:
255,187,129786,1,0,0:0:0:0:
255,187,129899,1,0,0:0:0:0:
255,187,130012,1,0,0:0:0:0:
255,187,130125,1,12,0:0:0:0:
255,187,130464,1,0,0:0:0:0:
255,187,130634,1,0,0:0:0:0:
255,187,130803,1,12,0:0:0:0:
255,187,131142,1,8,0:0:0:0:
255,187,131227,1,0,0:0:0:0:
255,187,131396,1,0,0:0:0:0:
255,187,131481,1,8,0:0:0:0:
255,187,131651,1,8,0:0:0:0:
255,187,131735,1,8,0:0:0:0:
255,187,131820,1,0,0:0:0:0:
255,187,131990,1,0,0:0:0:0:
255,187,132159,1,8,0:0:0:0:
255,187,132328,1,0,0:0:0:0:
255,187,132413,1,0,0:0:0:0:
255,187,132498,1,8,0:0:0:0:
255,187,132583,1,0,0:0:0:0:
255,187,132752,1,0,0:0:0:0:
255,187,132837,1,8,0:0:0:0:
255,187,133006,1,8,0:0:0:0:
255,187,133091,1,8,0:0:0:0:
255,187,133176,1,0,0:0:0:0:
255,187,133303,1,8,0:0:0:0:
255,187,133345,1,8,0:0:0:0:
255,187,133515,1,0,0:0:0:0:
255,187,133600,1,0,0:0:0:0:
255,187,133685,1,8,0:0:0:0:
255,187,133741,1,8,0:0:0:0:
255,187,133798,1,8,0:0:0:0:
255,187,133854,1,0,0:0:0:0:
255,187,133939,1,8,0:0:0:0:
255,187,134024,1,0,0:0:0:0:
255,187,134080,1,0,0:0:0:0:
255,187,134137,1,0,0:0:0:0:
255,187,134193,1,8,0:0:0:0:
255,187,134278,1,0,0:0:0:0:
255,187,134363,1,8,0:0:0:0:
255,187,134419,1,0,0:0:0:0:
255,187,134476,1,0,0:0:0:0:
255,187,134532,1,8,0:0:0:0:
255,187,134617,1,0,0:0:0:0:
255,187,134702,1,8,0:0:0:0:
255,187,134758,1,8,0:0:0:0:
255,187,134815,1,8,0:0:0:0:
255,187,134871,1,0,0:0:0:0:
255,187,134956,1,8,0:0:0:0:
255,187,135041,1,8,0:0:0:0:
255,187,135126,1,8,0:0:0:0:
255,187,135210,1,0,0:0:0:0:
255,187,135295,1,8,0:0:0:0:
255,187,135380,1,8,0:0:0:0:
255,187,135465,1,8,0:0:0:0:
255,187,135549,1,0,0:0:0:0:
255,187,135634,1,0,0:0:0:0:
255,187,135719,1,2,0:0:0:0:
255,187,135775,1,8,0:0:0:0:
255,187,135832,1,8,0:0:0:0:
255,187,135888,1,0,0:0:0:0:
255,187,136057,1,0,0:0:0:0:
255,187,136227,1,12,0:0:0:0:
255,187,136481,1,8,0:0:0:0:
255,187,136566,1,0,0:0:0:0:
255,187,136736,1,0,0:0:0:0:
255,187,136821,1,0,0:0:0:0:
255,187,136905,1,8,0:0:0:0:
255,187,136989,1,8,0:0:0:0:
255,187,137159,1,8,0:0:0:0:
255,187,137244,1,0,0:0:0:0:
255,187,137414,1,0,0:0:0:0:
255,187,137583,1,8,0:0:0:0:
255,187,137668,1,8,0:0:0:0:
255,187,137837,1,8,0:0:0:0:
255,187,137922,1,0,0:0:0:0:
255,187,138092,1,0,0:0:0:0:
255,187,138176,1,0,0:0:0:0:
255,187,138261,1,8,0:0:0:0:
255,187,138346,1,8,0:0:0:0:
255,187,138431,1,0,0:0:0:0:
255,187,138515,1,8,0:0:0:0:
255,187,138600,1,0,0:0:0:0:
255,187,138684,1,0,0:0:0:0:
255,187,138770,1,8,0:0:0:0:
255,187,138854,1,8,0:0:0:0:
255,187,138939,1,0,0:0:0:0:
255,187,139024,1,0,0:0:0:0:
255,187,139109,1,8,0:0:0:0:
255,187,139165,1,0,0:0:0:0:
255,187,139222,1,0,0:0:0:0:
255,187,139278,1,8,0:0:0:0:
255,187,139363,1,0,0:0:0:0:
255,187,139448,1,8,0:0:0:0:
255,187,139504,1,8,0:0:0:0:
255,187,139561,1,8,0:0:0:0:
255,187,139617,1,0,0:0:0:0:
255,187,139702,1,0,0:0:0:0:
255,187,139787,1,8,0:0:0:0:
255,187,139843,1,8,0:0:0:0:
255,187,139900,1,8,0:0:0:0:
255,187,139956,1,0,0:0:0:0:
255,187,140125,1,0,0:0:0:0:
255,187,140295,1,8,0:0:0:0:
255,187,140464,1,8,0:0:0:0:
255,187,140803,1,0,0:0:0:0:
255,187,141142,1,8,0:0:0:0:
255,187,141311,1,4,0:0:0:0:
255,187,141650,1,0,0:0:0:0:
255,187,141989,1,8,0:0:0:0:
255,187,142328,1,0,0:0:0:0:
255,187,142498,1,8,0:0:0:0:
255,187,142837,1,0,0:0:0:0:
255,187,143176,1,8,0:0:0:0:
255,187,143345,1,8,0:0:0:0:
255,187,143515,1,0,0:0:0:0:
255,187,144023,1,0,0:0:0:0:
255,187,144362,1,8,0:0:0:0:
255,187,144701,1,8,0:0:0:0:
255,187,145040,1,0,0:0:0:0:
255,187,145210,1,8,0:0:0:0:
255,187,145549,1,0,0:0:0:0:
255,187,145888,1,8,0:0:0:0:
255,187,146057,1,8,0:0:0:0:
255,187,146227,1,0,0:0:0:0:
255,187,146735,1,8,0:0:0:0:
255,187,147244,1,0,0:0:0:0:
255,187,147413,1,8,0:0:0:0:
255,187,148091,1,8,0:0:0:0:
255,187,148430,1,8,0:0:0:0:
255,187,148769,1,8,0:0:0:0:
255,187,149108,1,0,0:0:0:0:
255,187,149278,1,0,0:0:0:0:
255,187,149447,1,8,0:0:0:0:
255,187,150125,1,8,0:0:0:0:
255,187,150252,1,8,0:0:0:0:
255,187,150295,1,8,0:0:0:0:
255,187,150633,1,0,0:0:0:0:
255,187,150972,1,8,0:0:0:0:
255,187,151481,1,8,0:0:0:0:
255,187,151650,1,0,0:0:0:0:
255,187,151820,1,8,0:0:0:0:
255,187,151989,1,8,0:0:0:0:
255,187,152159,1,0,0:0:0:0:
255,187,152498,1,8,0:0:0:0:
255,187,152837,1,8,0:0:0:0:
255,187,153176,1,0,0:0:0:0:
255,187,153346,1,8,0:0:0:0:
255,187,153685,1,0,0:0:0:0:
255,187,154024,1,8,0:0:0:0:
255,187,154193,1,8,0:0:0:0:
255,187,154363,1,0,0:0:0:0:
255,187,154871,1,0,0:0:0:0:
255,187,155210,1,8,0:0:0:0:
255,187,155549,1,8,0:0:0:0:
255,187,155888,1,0,0:0:0:0:
255,187,156058,1,8,0:0:0:0:
255,187,156397,1,0,0:0:0:0:
255,187,156736,1,8,0:0:0:0:
255,187,156862,1,8,0:0:0:0:
255,187,156905,1,8,0:0:0:0:
255,187,157583,1,8,0:0:0:0:
255,187,157922,1,0,0:0:0:0:
255,187,158091,1,0,0:0:0:0:
255,187,158261,1,8,0:0:0:0:
255,187,158430,1,0,0:0:0:0:
255,187,158727,1,8,0:0:0:0:
255,187,158769,1,8,0:0:0:0:
255,187,159108,1,0,0:0:0:0:
255,187,159447,1,8,0:0:0:0:
255,187,159617,1,8,0:0:0:0:
255,187,159786,1,0,0:0:0:0:
255,187,159956,1,8,0:0:0:0:
255,187,160252,1,8,0:0:0:0:
255,187,160295,1,8,0:0:0:0:
255,187,160633,1,0,0:0:0:0:
255,187,160803,1,8,0:0:0:0:
255,187,160972,1,8,0:0:0:0:
255,187,161142,1,0,0:0:0:0:
255,187,161481,1,8,0:0:0:0:
255,187,161820,1,8,0:0:0:0:
255,187,161905,1,8,0:0:0:0:
255,187,161989,1,0,0:0:0:0:
255,187,162074,1,8,0:0:0:0:
255,187,162159,1,0,0:0:0:0:
255,187,162244,1,0,0:0:0:0:
255,187,162328,1,8,0:0:0:0:
255,187,162413,1,0,0:0:0:0:
255,187,162498,1,8,0:0:0:0:
255,187,162667,1,0,0:0:0:0:
255,187,162837,1,8,0:0:0:0:
255,187,163006,1,4,0:0:0:0:
255,187,163515,1,0,0:0:0:0:
255,187,163684,1,8,0:0:0:0:
255,187,164023,1,8,0:0:0:0:
255,187,164193,1,0,0:0:0:0:
255,187,165040,1,8,0:0:0:0:
255,187,165379,1,0,0:0:0:0:
255,187,165549,1,0,0:0:0:0:
255,187,165718,1,8,0:0:0:0:
255,187,166227,1,0,0:0:0:0:
255,187,166396,1,8,0:0:0:0:
255,187,166735,1,8,0:0:0:0:
255,187,166905,1,0,0:0:0:0:
255,187,167413,1,0,0:0:0:0:
255,187,167752,1,8,0:0:0:0:
255,187,168006,1,8,0:0:0:0:
255,187,168261,1,0,0:0:0:0:
255,187,168430,1,8,0:0:0:0:
255,187,168939,1,0,0:0:0:0:
255,187,169108,1,8,0:0:0:0:
255,187,169447,1,8,0:0:0:0:
255,187,169617,1,0,0:0:0:0:
255,187,170125,1,0,0:0:0:0:
255,187,170464,1,8,0:0:0:0:
255,187,170803,1,0,0:0:0:0:
255,187,170972,1,0,0:0:0:0:
255,187,171142,1,8,0:0:0:0:
255,187,171481,1,0,0:0:0:0:
255,187,171650,1,0,0:0:0:0:
255,187,171820,1,8,0:0:0:0:
255,187,171989,1,0,0:0:0:0:
255,187,172159,1,8,0:0:0:0:
255,187,172328,1,8,0:0:0:0:
255,187,172837,1,0,0:0:0:0:
255,187,173176,1,8,0:0:0:0:
255,187,173515,1,8,0:0:0:0:
255,187,173854,1,4,0:0:0:0:
255,187,174193,1,0,0:0:0:0:
255,187,174362,1,0,0:0:0:0:
255,187,174531,1,8,0:0:0:0:
255,187,174617,1,0,0:0:0:0:
255,187,174786,1,0,0:0:0:0:
255,187,174870,1,8,0:0:0:0:
255,187,175040,1,0,0:0:0:0:
255,187,175379,1,0,0:0:0:0:
255,187,175549,1,8,0:0:0:0:
255,187,175633,1,8,0:0:0:0:
255,187,175803,1,0,0:0:0:0:
255,187,175887,1,8,0:0:0:0:
255,187,176057,1,0,0:0:0:0:
255,187,176142,1,0,0:0:0:0:
255,187,176226,1,8,0:0:0:0:
255,187,176396,1,0,0:0:0:0:
255,187,176565,1,8,0:0:0:0:
255,187,176905,1,0,0:0:0:0:
255,187,177074,1,0,0:0:0:0:
255,187,177243,1,8,0:0:0:0:
255,187,177328,1,0,0:0:0:0:
255,187,177498,1,0,0:0:0:0:
255,187,177582,1,8,0:0:0:0:
255,187,177752,1,0,0:0:0:0:
255,187,178091,1,0,0:0:0:0:
255,187,178260,1,8,0:0:0:0:
255,187,178430,1,0,0:0:0:0:
255,187,178599,1,8,0:0:0:0:
255,187,178684,1,0,0:0:0:0:
255,187,178853,1,8,0:0:0:0:
255,187,178939,1,8,0:0:0:0:
255,187,179108,1,0,0:0:0:0:
255,187,179277,1,8,0:0:0:0:
255,187,179617,1,0,0:0:0:0:
255,187,179786,1,0,0:0:0:0:
255,187,179955,1,8,0:0:0:0:
255,187,180125,1,0,0:0:0:0:
255,187,180210,1,0,0:0:0:0:
255,187,180294,1,8,0:0:0:0:
255,187,180464,1,0,0:0:0:0:
255,187,180803,1,0,0:0:0:0:
255,187,180972,1,8,0:0:0:0:
255,187,181142,1,0,0:0:0:0:
255,187,181227,1,0,0:0:0:0:
255,187,181311,1,8,0:0:0:0:
255,187,181481,1,0,0:0:0:0:
255,187,181650,1,8,0:0:0:0:
255,187,181735,1,0,0:0:0:0:
255,187,181819,1,0,0:0:0:0:
255,187,181989,1,8,0:0:0:0:
255,187,182328,1,8,0:0:0:0:
255,187,182497,1,0,0:0:0:0:
255,187,182583,1,8,0:0:0:0:
255,187,182667,1,8,0:0:0:0:
255,187,182836,1,0,0:0:0:0:
255,187,183006,1,8,0:0:0:0:
255,187,183175,1,8,0:0:0:0:
255,187,183345,1,4,0:0:0:0:
255,187,183515,1,8,0:0:0:0:
255,187,183684,1,0,0:0:0:0:
255,187,183797,1,0,0:0:0:0:
255,187,183910,1,0,0:0:0:0:
255,187,184023,1,8,0:0:0:0:
255,187,184193,1,0,0:0:0:0:
255,187,184278,1,0,0:0:0:0:
255,187,184362,1,8,0:0:0:0:
255,187,184532,1,8,0:0:0:0:
255,187,184701,1,4,0:0:0:0:
255,187,185040,1,0,0:0:0:0:
255,187,185210,1,0,0:0:0:0:
255,187,185379,1,8,0:0:0:0:
255,187,185464,1,0,0:0:0:0:
255,187,185549,1,0,0:0:0:0:
255,187,185718,1,8,0:0:0:0:
255,187,186057,1,4,0:0:0:0:
255,187,186396,1,0,0:0:0:0:
255,187,186566,1,0,0:0:0:0:
255,187,186735,1,8,0:0:0:0:
255,187,186820,1,8,0:0:0:0:
255,187,186905,1,0,0:0:0:0:
255,187,187074,1,8,0:0:0:0:
255,187,187413,1,4,0:0:0:0:
255,187,187752,1,8,0:0:0:0:
255,187,187922,1,0,0:0:0:0:
255,187,188091,1,8,0:0:0:0:
255,187,188176,1,0,0:0:0:0:
255,187,188261,1,0,0:0:0:0:
255,187,188430,1,8,0:0:0:0:
255,187,188600,1,0,0:0:0:0:
255,187,188684,1,0,0:0:0:0:
255,187,188769,1,8,0:0:0:0:
255,187,188939,1,0,0:0:0:0:
255,187,189108,1,8,0:0:0:0:
255,187,189193,1,8,0:0:0:0:
255,187,189278,1,0,0:0:0:0:
255,187,189447,1,8,0:0:0:0:
255,187,189617,1,0,0:0:0:0:
255,187,189701,1,8,0:0:0:0:
255,187,189786,1,0,0:0:0:0:
255,187,189956,1,8,0:0:0:0:
255,187,190125,1,4,0:0:0:0:
255,187,190464,1,0,0:0:0:0:
255,187,190634,1,0,0:0:0:0:
255,187,190803,1,8,0:0:0:0:
255,187,190888,1,0,0:0:0:0:
255,187,190973,1,0,0:0:0:0:
255,187,191142,1,8,0:0:0:0:
255,187,191481,1,4,0:0:0:0:
255,187,191820,1,0,0:0:0:0:
255,187,191990,1,0,0:0:0:0:
255,187,192159,1,8,0:0:0:0:
255,187,192244,1,8,0:0:0:0:
255,187,192329,1,0,0:0:0:0:
255,187,192498,1,8,0:0:0:0:
255,187,192837,1,4,0:0:0:0:
255,187,193176,1,8,0:0:0:0:
255,187,193346,1,0,0:0:0:0:
255,187,193515,1,8,0:0:0:0:
255,187,193600,1,0,0:0:0:0:
255,187,193685,1,0,0:0:0:0:
255,187,193854,1,8,0:0:0:0:
255,187,194024,1,0,0:0:0:0:
255,187,194108,1,0,0:0:0:0:
255,187,194193,1,8,0:0:0:0:
255,187,194278,1,8,0:0:0:0:
255,187,194363,1,0,0:0:0:0:
255,187,194532,1,8,0:0:0:0:
255,187,194702,1,0,0:0:0:0:
255,187,194786,1,0,0:0:0:0:
255,187,194871,1,8,0:0:0:0:
255,187,195041,1,0,0:0:0:0:
255,187,195210,1,12,0:0:0:0:
255,187,195549,1,0,0:0:0:0:
255,187,195718,1,8,0:0:0:0:
255,187,195888,1,0,0:0:0:0:
255,187,196057,1,0,0:0:0:0:
255,187,196227,1,12,0:0:0:0:
255,187,196566,1,8,0:0:0:0:
255,187,196735,1,8,0:0:0:0:
255,187,196905,1,4,0:0:0:0:
255,187,197244,1,0,0:0:0:0:
255,187,197413,1,0,0:0:0:0:
255,187,197583,1,8,0:0:0:0:
255,187,197667,1,0,0:0:0:0:
255,187,197752,1,0,0:0:0:0:
255,187,197922,1,8,0:0:0:0:
255,187,198091,1,0,0:0:0:0:
255,187,198176,1,0,0:0:0:0:
255,187,198261,1,8,0:0:0:0:
255,187,198430,1,0,0:0:0:0:
255,187,198600,1,8,0:0:0:0:
255,187,198684,1,8,0:0:0:0:
255,187,198769,1,0,0:0:0:0:
255,187,198939,1,8,0:0:0:0:
255,187,199108,1,0,0:0:0:0:
255,187,199193,1,0,0:0:0:0:
255,187,199278,1,8,0:0:0:0:
255,187,199362,1,0,0:0:0:0:
255,187,199447,1,0,0:0:0:0:
255,187,199617,1,8,0:0:0:0:
255,187,199956,1,8,0:0:0:0:
255,187,200125,1,0,0:0:0:0:
255,187,200295,1,8,0:0:0:0:
255,187,200379,1,0,0:0:0:0:
255,187,200549,1,0,0:0:0:0:
255,187,200633,1,8,0:0:0:0:
255,187,200803,1,0,0:0:0:0:
255,187,200972,1,8,0:0:0:0:
255,187,201311,1,0,0:0:0:0:
255,187,201481,1,0,0:0:0:0:
255,187,201650,1,8,0:0:0:0:
255,187,201820,1,0,0:0:0:0:
255,187,201905,1,0,0:0:0:0:
255,187,201989,1,8,0:0:0:0:
255,187,202159,1,0,0:0:0:0:
255,187,202328,1,8,0:0:0:0:
255,187,202583,1,0,0:0:0:0:
255,187,202667,1,8,0:0:0:0:
255,187,202837,1,0,0:0:0:0:
255,187,203006,1,8,0:0:0:0:
255,187,203091,1,0,0:0:0:0:
255,187,203261,1,0,0:0:0:0:
255,187,203345,1,8,0:0:0:0:
255,187,203515,1,8,0:0:0:0:
255,187,203684,1,0,0:0:0:0:
255,187,203769,1,8,0:0:0:0:
255,187,203854,1,0,0:0:0:0:
255,187,203939,1,0,0:0:0:0:
255,187,204023,1,8,0:0:0:0:
255,187,204108,1,8,0:0:0:0:
255,187,204193,1,0,0:0:0:0:
255,187,204278,1,0,0:0:0:0:
255,187,204362,1,8,0:0:0:0:
255,187,204447,1,8,0:0:0:0:
255,187,204532,1,0,0:0:0:0:
255,187,204617,1,0,0:0:0:0:
255,187,204701,1,8,0:0:0:0:
255,187,204786,1,0,0:0:0:0:
255,187,204871,1,8,0:0:0:0:
255,187,204956,1,8,0:0:0:0:
255,187,205040,1,0,0:0:0:0:
255,187,205210,1,0,0:0:0:0:
255,187,205379,1,8,0:0:0:0:
255,187,205549,1,0,0:0:0:0:
255,187,205718,1,8,0:0:0:0:
255,187,205775,1,8,0:0:0:0:
255,187,205831,1,8,0:0:0:0:
255,187,205888,1,0,0:0:0:0:
255,187,205972,1,8,0:0:0:0:
255,187,206057,1,0,0:0:0:0:
255,187,206142,1,0,0:0:0:0:
255,187,206227,1,8,0:0:0:0:
255,187,206396,1,4,0:0:0:0:
255,187,206735,1,0,0:0:0:0:
255,187,206905,1,0,0:0:0:0:
255,187,207074,1,8,0:0:0:0:
255,187,207159,1,8,0:0:0:0:
255,187,207244,1,0,0:0:0:0:
255,187,207413,1,8,0:0:0:0:
255,187,207752,1,4,0:0:0:0:
255,187,208006,1,0,0:0:0:0:
255,187,208091,1,8,0:0:0:0:
255,187,208261,1,0,0:0:0:0:
255,187,208430,1,8,0:0:0:0:
255,187,208487,1,8,0:0:0:0:
255,187,208543,1,8,0:0:0:0:
255,187,208600,1,0,0:0:0:0:
255,187,208684,1,8,0:0:0:0:
255,187,208769,1,0,0:0:0:0:
255,187,208854,1,0,0:0:0:0:
255,187,208939,1,8,0:0:0:0:
255,187,209108,1,4,0:0:0:0:
255,187,209447,1,8,0:0:0:0:
255,187,209504,1,0,0:0:0:0:
255,187,209560,1,0,0:0:0:0:
255,187,209617,1,8,0:0:0:0:
255,187,209786,1,4,0:0:0:0:
255,187,209956,1,8,0:0:0:0:
255,187,210040,1,8,0:0:0:0:
255,187,210125,1,0,0:0:0:0:
255,187,210210,1,0,0:0:0:0:
255,187,210295,1,8,0:0:0:0:
255,187,210464,1,4,0:0:0:0:
255,187,210803,1,4,0:0:0:0:
255,187,210973,1,8,0:0:0:0:
255,187,211057,1,8,0:0:0:0:
255,187,211142,1,0,0:0:0:0:
255,187,211227,1,8,0:0:0:0:
255,187,211312,1,8,0:0:0:0:
255,187,211396,1,0,0:0:0:0:
255,187,211481,1,8,0:0:0:0:
255,187,211537,1,0,0:0:0:0:
255,187,211594,1,0,0:0:0:0:
255,187,211650,1,8,0:0:0:0:
255,187,211820,1,4,0:0:0:0:
255,187,212159,1,4,0:0:0:0:
255,187,212328,1,8,0:0:0:0:
255,187,212413,1,0,0:0:0:0:
255,187,212498,1,8,0:0:0:0:
255,187,212583,1,8,0:0:0:0:
255,187,212667,1,0,0:0:0:0:
255,187,212837,1,0,0:0:0:0:
255,187,212922,1,8,0:0:0:0:
255,187,213006,1,8,0:0:0:0:
255,187,213176,1,4,0:0:0:0:
255,187,213430,1,4,0:0:0:0:
255,187,213684,1,0,0:0:0:0:
255,187,213769,1,0,0:0:0:0:
255,187,213854,1,8,0:0:0:0:
255,187,213910,1,8,0:0:0:0:
255,187,213967,1,8,0:0:0:0:
255,187,214023,1,0,0:0:0:0:
255,187,214108,1,8,0:0:0:0:
255,187,214193,1,0,0:0:0:0:
255,187,214278,1,0,0:0:0:0:
255,187,214362,1,8,0:0:0:0:
255,187,214532,1,4,0:0:0:0:
255,187,214871,1,8,0:0:0:0:
255,187,214984,1,8,0:0:0:0:
255,187,215097,1,8,0:0:0:0:
255,187,215210,1,4,0:0:0:0:
255,187,215379,1,8,0:0:0:0:
255,187,215549,1,0,0:0:0:0:
255,187,215605,1,0,0:0:0:0:
255,187,215662,1,0,0:0:0:0:
255,187,215718,1,8,0:0:0:0:
255,187,215888,1,4,0:0:0:0:
255,187,216227,1,0,0:0:0:0:
255,187,216396,1,8,0:0:0:0:
255,187,216566,1,4,0:0:0:0:
255,187,216735,1,8,0:0:0:0:
255,187,216820,1,0,0:0:0:0:
255,187,216905,1,8,0:0:0:0:
255,187,217074,1,8,0:0:0:0:
255,187,217244,1,0,0:0:0:0:
255,187,217413,1,0,0:0:0:0:
255,187,217583,1,8,0:0:0:0:
255,187,217696,1,0,0:0:0:0:
255,187,217809,1,0,0:0:0:0:
255,187,217922,1,8,0:0:0:0:
255,187,218035,1,8,0:0:0:0:
255,187,218148,1,0,0:0:0:0:
255,187,218261,1,12,0:0:0:0:
255,187,218600,1,4,0:0:0:0:
255,187,218854,1,8,0:0:0:0:
255,187,218939,1,0,0:0:0:0:
255,187,218995,1,0,0:0:0:0:
255,187,219052,1,0,0:0:0:0:
255,187,219108,1,8,0:0:0:0:
255,187,219193,1,8,0:0:0:0:
255,187,219278,1,0,0:0:0:0:
255,187,219362,1,0,0:0:0:0:
255,187,219447,1,8,0:0:0:0:
255,187,219504,1,8,0:0:0:0:
255,187,219560,1,8,0:0:0:0:
255,187,219617,1,0,0:0:0:0:
255,187,219786,1,8,0:0:0:0:
255,187,219956,1,0,0:0:0:0:
255,187,220040,1,0,0:0:0:0:
255,187,220125,1,8,0:0:0:0:
255,187,220210,1,8,0:0:0:0:
255,187,220295,1,0,0:0:0:0:
255,187,220464,1,8,0:0:0:0:
255,187,220549,1,0,0:0:0:0:
255,187,220634,1,8,0:0:0:0:
255,187,220803,1,0,0:0:0:0:
255,187,220888,1,8,0:0:0:0:
255,187,220973,1,0,0:0:0:0:
255,187,221029,1,0,0:0:0:0:
255,187,221086,1,0,0:0:0:0:
255,187,221142,1,8,0:0:0:0:
255,187,221312,1,4,0:0:0:0:
255,187,221650,1,4,0:0:0:0:
255,187,221820,1,8,0:0:0:0:
255,187,221989,1,0,0:0:0:0:
255,187,222074,1,8,0:0:0:0:
255,187,222244,1,8,0:0:0:0:
255,187,222328,1,0,0:0:0:0:
255,187,222498,1,12,0:0:0:0:
255,187,222667,1,4,0:0:0:0:
255,187,222922,1,8,0:0:0:0:
255,187,223006,1,0,0:0:0:0:
255,187,223176,1,8,0:0:0:0:
255,187,223345,1,0,0:0:0:0:
255,187,223515,1,8,0:0:0:0:
255,187,223600,1,8,0:0:0:0:
255,187,223769,1,0,0:0:0:0:
255,187,223854,1,8,0:0:0:0:
255,187,224023,1,4,0:0:0:0:
255,187,224278,1,8,0:0:0:0:
255,187,224362,1,0,0:0:0:0:
255,187,224532,1,8,0:0:0:0:
255,187,224701,1,0,0:0:0:0:
255,187,224786,1,8,0:0:0:0:
255,187,224871,1,8,0:0:0:0:
255,187,224956,1,0,0:0:0:0:
255,187,225040,1,8,0:0:0:0:
255,187,225125,1,8,0:0:0:0:
255,187,225210,1,0,0:0:0:0:
255,187,225379,1,4,0:0:0:0:
255,187,225718,1,4,0:0:0:0:
255,187,225888,1,8,0:0:0:0:
255,187,226057,1,0,0:0:0:0:
255,187,226142,1,0,0:0:0:0:
255,187,226227,1,8,0:0:0:0:
255,187,226312,1,8,0:0:0:0:
255,187,226396,1,0,0:0:0:0:
255,187,226481,1,8,0:0:0:0:
255,187,226566,1,8,0:0:0:0:
255,187,226650,1,8,0:0:0:0:
255,187,226735,1,0,0:0:0:0:
255,187,226820,1,0,0:0:0:0:
255,187,226905,1,8,0:0:0:0:
255,187,226989,1,0,0:0:0:0:
255,187,227074,1,8,0:0:0:0:
255,187,227159,1,8,0:0:0:0:
255,187,227244,1,0,0:0:0:0:
255,187,227328,1,0,0:0:0:0:
255,187,227413,1,8,0:0:0:0:
255,187,227470,1,0,0:0:0:0:
255,187,227526,1,0,0:0:0:0:
255,187,227583,1,8,0:0:0:0:
255,187,227667,1,0,0:0:0:0:
255,187,227752,1,8,0:0:0:0:
255,187,227809,1,8,0:0:0:0:
255,187,227865,1,8,0:0:0:0:
255,187,227922,1,0,0:0:0:0:
255,187,228006,1,8,0:0:0:0:
255,187,228091,1,0,0:0:0:0:
255,187,228430,1,8,0:0:0:0:
255,187,228769,1,8,0:0:0:0:
255,187,229023,1,0,0:0:0:0:
255,187,229108,1,8,0:0:0:0:
255,187,229277,1,0,0:0:0:0:
255,187,229447,1,8,0:0:0:0:
255,187,229786,1,8,0:0:0:0:
255,187,229956,1,0,0:0:0:0:
255,187,230125,1,8,0:0:0:0:
255,187,230379,1,0,0:0:0:0:
255,187,230464,1,8,0:0:0:0:
255,187,230633,1,0,0:0:0:0:
255,187,230803,1,8,0:0:0:0:
255,187,231057,1,0,0:0:0:0:
255,187,231142,1,8,0:0:0:0:
255,187,231311,1,0,0:0:0:0:
255,187,231481,1,8,0:0:0:0:
255,187,231566,1,0,0:0:0:0:
255,187,231735,1,0,0:0:0:0:
255,187,231820,1,8,0:0:0:0:
255,187,231989,1,0,0:0:0:0:
255,187,232074,1,0,0:0:0:0:
255,187,232159,1,8,0:0:0:0:
255,187,232244,1,0,0:0:0:0:
255,187,232413,1,0,0:0:0:0:
255,187,232498,1,8,0:0:0:0:
255,187,232667,1,0,0:0:0:0:
255,187,232752,1,0,0:0:0:0:
255,187,232837,1,8,0:0:0:0:
255,187,232922,1,0,0:0:0:0:
255,187,233006,1,8,0:0:0:0:
255,187,233091,1,8,0:0:0:0:
255,187,233176,1,0,0:0:0:0:
255,187,233232,1,0,0:0:0:0:
255,187,233289,1,0,0:0:0:0:
255,187,233345,1,8,0:0:0:0:
255,187,233430,1,8,0:0:0:0:
255,187,233515,1,0,0:0:0:0:
255,187,233684,1,0,0:0:0:0:
255,187,233854,1,8,0:0:0:0:
255,187,234023,1,0,0:0:0:0:
255,187,234193,1,8,0:0:0:0:
255,187,234278,1,8,0:0:0:0:
255,187,234447,1,0,0:0:0:0:
255,187,234532,1,8,0:0:0:0:
255,187,234701,1,0,0:0:0:0:
255,187,234871,1,8,0:0:0:0:
255,187,234956,1,0,0:0:0:0:
255,187,235125,1,0,0:0:0:0:
255,187,235210,1,8,0:0:0:0:
255,187,235379,1,0,0:0:0:0:
255,187,235549,1,8,0:0:0:0:
255,187,235634,1,8,0:0:0:0:
255,187,235803,1,0,0:0:0:0:
255,187,235888,1,8,0:0:0:0:
255,187,236057,1,0,0:0:0:0:
255,187,236227,1,8,0:0:0:0:
255,187,236312,1,8,0:0:0:0:
255,187,236396,1,0,0:0:0:0:
255,187,236481,1,0,0:0:0:0:
255,187,236566,1,8,0:0:0:0:
255,187,236650,1,8,0:0:0:0:
255,187,236735,1,0,0:0:0:0:
255,187,236820,1,8,0:0:0:0:
255,187,236905,1,8,0:0:0:0:
255,187,236989,1,0,0:0:0:0:
255,187,237074,1,8,0:0:0:0:
255,187,237159,1,0,0:0:0:0:
255,187,237244,1,8,0:0:0:0:
255,187,237328,1,8,0:0:0:0:
255,187,237413,1,0,0:0:0:0:
255,187,237498,1,0,0:0:0:0:
255,187,237583,1,8,0:0:0:0:
255,187,238091,1,0,0:0:0:0:
255,187,238261,1,8,0:0:0:0:
255,187,238345,1,8,0:0:0:0:
255,187,238430,1,0,0:0:0:0:
255,187,238600,1,12,0:0:0:0:
255,187,238939,1,4,0:0:0:0:
255,187,239193,1,8,0:0:0:0:
255,187,239278,1,0,0:0:0:0:
255,187,239447,1,8,0:0:0:0:
255,187,239617,1,0,0:0:0:0:
255,187,239701,1,0,0:0:0:0:
255,187,239786,1,8,0:0:0:0:
255,187,239956,1,0,0:0:0:0:
255,187,240125,1,8,0:0:0:0:
255,187,240210,1,8,0:0:0:0:
255,187,240295,1,0,0:0:0:0:
255,187,240379,1,8,0:0:0:0:
255,187,240549,1,8,0:0:0:0:
255,187,240633,1,0,0:0:0:0:
255,187,240803,1,8,0:0:0:0:
255,187,240972,1,0,0:0:0:0:
255,187,241057,1,8,0:0:0:0:
255,187,241142,1,8,0:0:0:0:
255,187,241227,1,8,0:0:0:0:
255,187,241311,1,0,0:0:0:0:
255,187,241481,1,8,0:0:0:0:
255,187,241650,1,0,0:0:0:0:
255,187,241819,1,8,0:0:0:0:
255,187,241905,1,8,0:0:0:0:
255,187,241989,1,0,0:0:0:0:
255,187,242158,1,8,0:0:0:0:
255,187,242328,1,0,0:0:0:0:
255,187,242412,1,0,0:0:0:0:
255,187,242497,1,8,0:0:0:0:
255,187,242667,1,0,0:0:0:0:
255,187,242836,1,8,0:0:0:0:
255,187,242922,1,8,0:0:0:0:
255,187,243006,1,0,0:0:0:0:
255,187,243091,1,8,0:0:0:0:
255,187,243261,1,8,0:0:0:0:
255,187,243345,1,0,0:0:0:0:
255,187,243515,1,8,0:0:0:0:
255,187,243684,1,0,0:0:0:0:
255,187,243769,1,0,0:0:0:0:
255,187,243854,1,8,0:0:0:0:
255,187,243939,1,0,0:0:0:0:
255,187,244023,1,8,0:0:0:0:
255,187,244108,1,8,0:0:0:0:
255,187,244193,1,0,0:0:0:0:
255,187,244362,1,0,0:0:0:0:
255,187,244616,1,8,0:0:0:0:
255,187,244701,1,0,0:0:0:0:
255,187,244870,1,8,0:0:0:0:
255,187,245040,1,0,0:0:0:0:
255,187,245124,1,0,0:0:0:0:
255,187,245209,1,8,0:0:0:0:
255,187,245379,1,0,0:0:0:0:
255,187,245548,1,8,0:0:0:0:
255,187,245633,1,8,0:0:0:0:
255,187,245718,1,0,0:0:0:0:
255,187,245803,1,8,0:0:0:0:
255,187,245972,1,8,0:0:0:0:
255,187,246057,1,0,0:0:0:0:
255,187,246142,1,0,0:0:0:0:
255,187,246227,1,8,0:0:0:0:
255,187,246396,1,0,0:0:0:0:
255,187,246481,1,0,0:0:0:0:
255,187,246566,1,8,0:0:0:0:
255,187,246650,1,8,0:0:0:0:
255,187,246735,1,0,0:0:0:0:
255,187,246905,1,8,0:0:0:0:
255,187,247074,1,0,0:0:0:0:
255,187,247243,1,8,0:0:0:0:
255,187,247328,1,8,0:0:0:0:
255,187,247413,1,0,0:0:0:0:
255,187,247582,1,8,0:0:0:0:
255,187,247752,1,0,0:0:0:0:
255,187,247836,1,0,0:0:0:0:
255,187,247921,1,8,0:0:0:0:
255,187,248006,1,0,0:0:0:0:
255,187,248091,1,0,0:0:0:0:
255,187,248260,1,8,0:0:0:0:
255,187,248430,1,0,0:0:0:0:
255,187,248515,1,8,0:0:0:0:
255,187,248684,1,8,0:0:0:0:
255,187,248769,1,0,0:0:0:0:
255,187,248854,1,0,0:0:0:0:
255,187,248939,1,8,0:0:0:0:
255,187,249023,1,8,0:0:0:0:
255,187,249108,1,0,0:0:0:0:
255,187,249278,1,0,0:0:0:0:
255,187,249447,1,12,0:0:0:0:
255,187,249786,1,4,0:0:0:0:
255,187,250040,1,8,0:0:0:0:
255,187,250125,1,0,0:0:0:0:
255,187,250294,1,8,0:0:0:0:
255,187,250464,1,0,0:0:0:0:
255,187,250548,1,0,0:0:0:0:
255,187,250633,1,8,0:0:0:0:
255,187,250718,1,8,0:0:0:0:
255,187,250803,1,0,0:0:0:0:
255,187,250972,1,8,0:0:0:0:
255,187,251057,1,8,0:0:0:0:
255,187,251142,1,0,0:0:0:0:
255,187,251227,1,8,0:0:0:0:
255,187,251396,1,8,0:0:0:0:
255,187,251481,1,0,0:0:0:0:
255,187,251651,1,8,0:0:0:0:
255,187,251820,1,0,0:0:0:0:
255,187,251905,1,8,0:0:0:0:
255,187,251990,1,8,0:0:0:0:
255,187,252074,1,8,0:0:0:0:
255,187,252159,1,0,0:0:0:0:
255,187,252244,1,0,0:0:0:0:
255,187,252329,1,8,0:0:0:0:
255,187,252498,1,0,0:0:0:0:
255,187,252667,1,8,0:0:0:0:
255,187,252837,1,0,0:0:0:0:
255,187,252922,1,0,0:0:0:0:
255,187,253006,1,8,0:0:0:0:
255,187,253091,1,8,0:0:0:0:
255,187,253176,1,0,0:0:0:0:
255,187,253345,1,8,0:0:0:0:
255,187,253430,1,8,0:0:0:0:
255,187,253515,1,0,0:0:0:0:
255,187,253684,1,8,0:0:0:0:
255,187,253854,1,0,0:0:0:0:
255,187,253939,1,8,0:0:0:0:
255,187,254108,1,8,0:0:0:0:
255,187,254193,1,0,0:0:0:0:
255,187,254278,1,0,0:0:0:0:
255,187,254363,1,8,0:0:0:0:
255,187,254532,1,0,0:0:0:0:
255,187,254617,1,0,0:0:0:0:
255,187,254702,1,8,0:0:0:0:
255,187,254787,1,0,0:0:0:0:
255,187,254871,1,8,0:0:0:0:
255,187,254956,1,8,0:0:0:0:
255,187,255041,1,0,0:0:0:0:
255,187,255125,1,0,0:0:0:0:
255,187,255210,1,8,0:0:0:0:
255,187,255379,1,0,0:0:0:0:
255,187,255464,1,8,0:0:0:0:
255,187,255549,1,0,0:0:0:0:
255,187,255718,1,8,0:0:0:0:
255,187,255888,1,0,0:0:0:0:
255,187,255972,1,0,0:0:0:0:
255,187,256057,1,8,0:0:0:0:
255,187,256142,1,0,0:0:0:0:
255,187,256227,1,0,0:0:0:0:
255,187,256312,1,0,0:0:0:0:
255,187,256396,1,8,0:0:0:0:
255,187,256481,1,8,0:0:0:0:
255,187,256566,1,0,0:0:0:0:
255,187,256735,1,8,0:0:0:0:
255,187,256905,1,0,0:0:0:0:
255,187,256989,1,0,0:0:0:0:
255,187,257074,1,8,0:0:0:0:
255,187,257244,1,0,0:0:0:0:
255,187,257413,1,8,0:0:0:0:
255,187,257583,1,0,0:0:0:0:
255,187,257667,1,8,0:0:0:0:
255,187,257752,1,8,0:0:0:0:
255,187,257922,1,0,0:0:0:0:
255,187,258006,1,8,0:0:0:0:
255,187,258091,1,8,0:0:0:0:
255,187,258176,1,8,0:0:0:0:
255,187,258261,1,0,0:0:0:0:
255,187,258430,1,8,0:0:0:0:
255,187,258600,1,0,0:0:0:0:
255,187,258769,1,8,0:0:0:0:
255,187,258854,1,8,0:0:0:0:
255,187,258939,1,0,0:0:0:0:
255,187,259108,1,8,0:0:0:0:
255,187,259278,1,4,0:0:0:0:
255,187,259617,1,8,0:0:0:0:
255,187,259786,1,8,0:0:0:0:
255,187,259956,1,0,0:0:0:0:
255,187,260040,1,8,0:0:0:0:
255,187,260125,1,8,0:0:0:0:
255,187,260210,1,0,0:0:0:0:
255,187,260295,1,8,0:0:0:0:
255,187,260379,1,8,0:0:0:0:
255,187,260464,1,0,0:0:0:0:
255,187,260549,1,8,0:0:0:0:
255,187,260633,1,0,0:0:0:0:
255,187,260803,1,0,0:0:0:0:
255,187,260972,1,12,0:1:0:0:
255,187,261142,1,0,0:0:0:0:
255,187,261227,1,0,0:0:0:0:
255,187,261311,1,8,0:0:0:0:
255,187,261481,1,0,0:0:0:0:
255,187,261650,1,8,0:0:0:0:
255,187,261735,1,0,0:0:0:0:
255,187,261820,1,8,0:0:0:0:
255,187,261905,1,8,0:0:0:0:
255,187,261989,1,0,0:0:0:0:
255,187,262159,1,0,0:0:0:0:
255,187,262328,1,8,0:0:0:0:
255,187,262498,1,0,0:0:0:0:
255,187,262583,1,0,0:0:0:0:
255,187,262667,1,8,0:0:0:0:
255,187,262752,1,8,0:0:0:0:
255,187,262837,1,8,0:0:0:0:
255,187,262922,1,0,0:0:0:0:
255,187,263006,1,8,0:0:0:0:
255,187,263176,1,8,0:0:0:0:
255,187,263345,1,0,0:0:0:0:
255,187,263515,1,0,0:0:0:0:
255,187,263600,1,0,0:0:0:0:
255,187,263684,1,8,0:0:0:0:
255,187,263854,1,0,0:0:0:0:
255,187,264023,1,8,0:0:0:0:
255,187,264108,1,8,0:0:0:0:
255,187,264193,1,0,0:0:0:0:
255,187,264362,1,8,0:0:0:0:
255,187,264532,1,0,0:0:0:0:
255,187,264616,1,0,0:0:0:0:
255,187,264701,1,8,0:0:0:0:
255,187,264786,1,0,0:0:0:0:
255,187,264956,1,0,0:0:0:0:
255,187,265040,1,8,0:0:0:0:
255,187,265210,1,8,0:0:0:0:
255,187,265295,1,8,0:0:0:0:
255,187,265379,1,0,0:0:0:0:
255,187,265464,1,8,0:0:0:0:
255,187,265549,1,8,0:0:0:0:
255,187,265633,1,8,0:0:0:0:
255,187,265718,1,0,0:0:0:0:
255,187,265888,1,8,0:0:0:0:
255,187,266057,1,0,0:0:0:0:
255,187,266227,1,0,0:0:0:0:
255,187,266311,1,0,0:0:0:0:
255,187,266396,1,8,0:0:0:0:
255,187,266481,1,8,0:0:0:0:
255,187,266566,1,0,0:0:0:0:
255,187,266735,1,8,0:0:0:0:
255,187,266905,1,0,0:0:0:0:
255,187,266989,1,0,0:0:0:0:
255,187,267074,1,8,0:0:0:0:
255,187,267159,1,0,0:0:0:0:
255,187,267244,1,8,0:0:0:0:
255,187,267328,1,8,0:0:0:0:
255,187,267413,1,0,0:0:0:0:
255,187,267583,1,0,0:0:0:0:
255,187,267667,1,0,0:0:0:0:
255,187,267752,1,8,0:0:0:0:
255,187,267922,1,0,0:0:0:0:
255,187,268091,1,8,0:0:0:0:
255,187,268176,1,8,0:0:0:0:
255,187,268261,1,0,0:0:0:0:
255,187,268346,1,0,0:0:0:0:
255,187,268430,1,8,0:0:0:0:
255,187,268600,1,8,0:0:0:0:
255,187,268769,1,0,0:0:0:0:
255,187,268854,1,8,0:0:0:0:
255,187,268939,1,0,0:0:0:0:
255,187,269023,1,0,0:0:0:0:
255,187,269108,1,8,0:0:0:0:
255,187,269278,1,0,0:0:0:0:
255,187,269447,1,8,0:0:0:0:
255,187,269532,1,8,0:0:0:0:
255,187,269617,1,0,0:0:0:0:
255,187,269701,1,0,0:0:0:0:
255,187,269786,1,8,0:0:0:0:
255,187,269956,1,0,0:0:0:0:
255,187,270040,1,0,0:0:0:0:
255,187,270125,1,8,0:0:0:0:
255,187,270295,1,0,0:0:0:0:
255,187,270379,1,0,0:0:0:0:
255,187,270464,1,8,0:0:0:0:
255,187,270549,1,0,0:0:0:0:
255,187,270634,1,8,0:0:0:0:
255,187,270719,1,8,0:0:0:0:
255,187,270803,1,0,0:0:0:0:
255,187,270973,1,0,0:0:0:0:
255,187,271142,1,12,0:0:0:0:
255,187,271481,1,4,0:0:0:0:
255,187,271650,1,8,0:0:0:0:
255,187,271735,1,0,0:0:0:0:
255,187,271820,1,8,0:0:0:0:
255,187,271989,1,0,0:0:0:0:
255,187,272159,1,8,0:0:0:0:
255,187,272244,1,0,0:0:0:0:
255,187,272413,1,0,0:0:0:0:
255,187,272498,1,8,0:0:0:0:
255,187,272667,1,0,0:0:0:0:
255,187,272837,1,8,0:0:0:0:
255,187,273006,1,0,0:0:0:0:
255,187,273091,1,0,0:0:0:0:
255,187,273176,1,8,0:0:0:0:
255,187,273345,1,0,0:0:0:0:
255,187,273515,1,8,0:0:0:0:
255,187,273600,1,0,0:0:0:0:
255,187,273769,1,0,0:0:0:0:
255,187,273854,1,8,0:0:0:0:
255,187,273939,1,8,0:0:0:0:
255,187,274023,1,0,0:0:0:0:
255,187,274193,1,8,0:0:0:0:
255,187,274362,1,0,0:0:0:0:
255,187,274447,1,0,0:0:0:0:
255,187,274532,1,8,0:0:0:0:
255,187,274701,1,8,0:0:0:0:
255,187,274871,1,0,0:0:0:0:
255,187,274956,1,8,0:0:0:0:
255,187,275125,1,8,0:0:0:0:
255,187,275210,1,0,0:0:0:0:
255,187,275379,1,8,0:0:0:0:
255,187,275549,1,0,0:0:0:0:
255,187,275633,1,0,0:0:0:0:
255,187,275718,1,8,0:0:0:0:
255,187,275803,1,8,0:0:0:0:
255,187,275888,1,0,0:0:0:0:
255,187,276057,1,8,0:0:0:0:
255,187,276227,1,0,0:0:0:0:
255,187,276311,1,8,0:0:0:0:
255,187,276481,1,8,0:0:0:0:
255,187,276566,1,0,0:0:0:0:
255,187,276650,1,0,0:0:0:0:
255,187,276735,1,8,0:0:0:0:
255,187,276905,1,0,0:0:0:0:
255,187,277074,1,0,0:0:0:0:
255,187,277244,1,8,0:0:0:0:
255,187,277328,1,0,0:0:0:0:
255,187,277498,1,0,0:0:0:0:
255,187,277583,1,8,0:0:0:0:
255,187,277752,1,0,0:0:0:0:
255,187,277837,1,0,0:0:0:0:
255,187,277922,1,8,0:0:0:0:
255,187,278006,1,0,0:0:0:0:
255,187,278176,1,0,0:0:0:0:
255,187,278261,1,8,0:0:0:0:
255,187,278430,1,0,0:0:0:0:
255,187,278600,1,8,0:0:0:0:
255,187,278684,1,0,0:0:0:0:
255,187,278854,1,0,0:0:0:0:
255,187,278939,1,8,0:0:0:0:
255,187,279108,1,8,0:0:0:0:
255,187,279278,1,0,0:0:0:0:
255,187,279362,1,0,0:0:0:0:
255,187,279447,1,8,0:0:0:0:
255,187,279532,1,0,0:0:0:0:
255,187,279617,1,8,0:0:0:0:
255,187,279701,1,8,0:0:0:0:
255,187,279785,1,0,0:0:0:0:
255,187,279870,1,0,0:0:0:0:
255,187,279955,1,8,0:0:0:0:
255,187,280040,1,0,0:0:0:0:
255,187,280125,1,8,0:0:0:0:
255,187,280209,1,8,0:0:0:0:
255,187,280294,1,0,0:0:0:0:
255,187,280379,1,0,0:0:0:0:
255,187,280464,1,8,0:0:0:0:
255,187,280549,1,0,0:0:0:0:
255,187,280633,1,8,0:0:0:0:
255,187,280718,1,8,0:0:0:0:
255,187,280803,1,8,0:0:0:0:
255,187,280888,1,8,0:0:0:0:
255,187,280972,1,0,0:0:0:0:
255,187,281989,1,8,0:0:0:0:
255,187,282328,1,4,0:0:0:0:
255,187,282667,1,0,0:0:0:0:
255,187,282837,1,8,0:0:0:0:
255,187,283006,1,8,0:0:0:0:
255,187,283091,1,8,0:0:0:0:
255,187,283176,1,0,0:0:0:0:
255,187,283261,1,8,0:0:0:0:
255,187,283345,1,0,0:0:0:0:
255,187,283515,1,8,0:0:0:0:
255,187,283684,1,0,0:0:0:0:
255,187,283854,1,8,0:0:0:0:
255,187,283939,1,8,0:0:0:0:
255,187,284023,1,0,0:0:0:0:
255,187,284193,1,0,0:0:0:0:
255,187,284362,1,8,0:0:0:0:
255,187,284532,1,0,0:0:0:0:
255,187,284617,1,8,0:0:0:0:
255,187,284701,1,0,0:0:0:0:
255,187,284871,1,8,0:0:0:0:
255,187,285040,1,0,0:0:0:0:
255,187,285379,1,0,0:0:0:0:
255,187,285549,1,0,0:0:0:0:
255,187,285718,1,8,0:0:0:0:
255,187,285888,1,8,0:0:0:0:
255,187,285972,1,8,0:0:0:0:
255,187,286057,1,0,0:0:0:0:
255,187,286227,1,8,0:0:0:0:
255,187,286396,1,0,0:0:0:0:
255,187,286735,1,8,0:0:0:0:
255,187,286905,1,0,0:0:0:0:
255,187,287074,1,8,0:0:0:0:
255,187,287244,1,0,0:0:0:0:
255,187,287328,1,8,0:0:0:0:
255,187,287413,1,0,0:0:0:0:
255,187,287583,1,8,0:0:0:0:
255,187,287752,1,0,0:0:0:0:
255,187,288091,1,0,0:0:0:0:
255,187,288261,1,0,0:0:0:0:
255,187,288430,1,8,0:0:0:0:
255,187,288600,1,8,0:0:0:0:
255,187,288684,1,8,0:0:0:0:
255,187,288769,1,0,0:0:0:0:
255,187,288939,1,8,0:0:0:0:
255,187,289108,1,0,0:0:0:0:
255,187,289447,1,8,0:0:0:0:
255,187,289617,1,0,0:0:0:0:
255,187,289786,1,8,0:0:0:0:
255,187,289956,1,0,0:0:0:0:
255,187,290040,1,8,0:0:0:0:
255,187,290125,1,0,0:0:0:0:
255,187,290295,1,8,0:0:0:0:
255,187,290464,1,0,0:0:0:0:
255,187,290803,1,0,0:0:0:0:
255,187,290973,1,0,0:0:0:0:
255,187,291142,1,8,0:0:0:0:
255,187,291312,1,0,0:0:0:0:
255,187,291396,1,0,0:0:0:0:
255,187,291481,1,0,0:0:0:0:
255,187,291651,1,8,0:0:0:0:
255,187,291820,1,0,0:0:0:0:
255,187,292159,1,8,0:0:0:0:
255,187,292329,1,0,0:0:0:0:
255,187,292498,1,8,0:0:0:0:
255,187,292668,1,0,0:0:0:0:
255,187,292752,1,8,0:0:0:0:
255,187,292837,1,8,0:0:0:0:
255,187,293007,1,8,0:0:0:0:
255,187,293176,1,4,0:0:0:0:
255,187,293515,1,0,0:0:0:0:
255,187,293684,1,0,0:0:0:0:
255,187,293854,1,8,0:0:0:0:
255,187,294108,1,8,0:0:0:0:
255,187,294193,1,0,0:0:0:0:
255,187,294362,1,8,0:0:0:0:
255,187,294532,1,0,0:0:0:0:
255,187,294871,1,0,0:0:0:0:
255,187,295040,1,0,0:0:0:0:
255,187,295210,1,8,0:0:0:0:
255,187,295464,1,0,0:0:0:0:
255,187,295549,1,0,0:0:0:0:
255,187,295718,1,8,0:0:0:0:
255,187,295888,1,0,0:0:0:0:
255,187,296227,1,0,0:0:0:0:
255,187,296396,1,0,0:0:0:0:
255,187,296566,1,8,0:0:0:0:
255,187,296820,1,8,0:0:0:0:
255,187,296905,1,0,0:0:0:0:
255,187,297074,1,8,0:0:0:0:
255,187,297244,1,0,0:0:0:0:
255,187,297583,1,0,0:0:0:0:
255,187,297752,1,0,0:0:0:0:
255,187,297922,1,8,0:0:0:0:
255,187,298176,1,8,0:0:0:0:
255,187,298261,1,0,0:0:0:0:
255,187,298430,1,8,0:0:0:0:
255,187,298600,1,0,0:0:0:0:
255,187,298769,1,0,0:0:0:0:
255,187,298939,1,8,0:0:0:0:
255,187,299023,1,0,0:0:0:0:
255,187,299193,1,0,0:0:0:0:
255,187,299278,1,8,0:0:0:0:
255,187,299447,1,0,0:0:0:0:
255,187,299617,1,8,0:0:0:0:
255,187,299701,1,8,0:0:0:0:
255,187,299871,1,0,0:0:0:0:
255,187,299956,1,8,0:0:0:0:
255,187,300125,1,0,0:0:0:0:
255,187,300295,1,8,0:0:0:0:
255,187,300379,1,0,0:0:0:0:
255,187,300549,1,0,0:0:0:0:
255,187,300634,1,8,0:0:0:0:
255,187,300803,1,8,0:0:0:0:
255,187,300973,1,0,0:0:0:0:
255,187,301057,1,0,0:0:0:0:
255,187,301142,1,8,0:0:0:0:
255,187,301227,1,0,0:0:0:0:
255,187,301312,1,8,0:0:0:0:
255,187,301396,1,8,0:0:0:0:
255,187,301480,1,0,0:0:0:0:
255,187,301565,1,0,0:0:0:0:
255,187,301650,1,8,0:0:0:0:
255,187,301735,1,8,0:0:0:0:
255,187,301820,1,0,0:0:0:0:
255,187,301904,1,0,0:0:0:0:
255,187,301989,1,8,0:0:0:0:
255,187,302074,1,0,0:0:0:0:
255,187,302159,1,0,0:0:0:0:
255,187,302244,1,0,0:0:0:0:
255,187,302328,1,8,0:0:0:0:
255,187,302413,1,8,0:0:0:0:
255,187,302498,1,8,0:0:0:0:
255,187,302583,1,8,0:0:0:0:
255,187,302667,1,0,0:0:0:0:
255,187,304023,1,4,0:0:0:0:
255,187,304362,1,0,0:0:0:0:
255,187,304532,1,0,0:0:0:0:
255,187,304701,1,8,0:0:0:0:
255,187,304871,1,0,0:0:0:0:
255,187,305210,1,8,0:0:0:0:
255,187,305379,1,0,0:0:0:0:
255,187,305718,1,0,0:0:0:0:
255,187,305888,1,0,0:0:0:0:
255,187,306057,1,8,0:0:0:0:
255,187,306396,1,0,0:0:0:0:
255,187,306735,1,0,0:0:0:0:
255,187,306905,1,8,0:0:0:0:
255,187,307074,1,0,0:0:0:0:
255,187,307244,1,0,0:0:0:0:
255,187,307413,1,8,0:0:0:0:
255,187,307583,1,0,0:0:0:0:
255,187,307922,1,8,0:0:0:0:
255,187,308091,1,0,0:0:0:0:
255,187,308430,1,0,0:0:0:0:
255,187,308600,1,0,0:0:0:0:
255,187,308769,1,8,0:0:0:0:
255,187,309108,1,0,0:0:0:0:
255,187,309447,1,0,0:0:0:0:
255,187,309617,1,8,0:0:0:0:
255,187,309786,1,0,0:0:0:0:
255,187,310125,1,8,0:0:0:0:
255,187,310295,1,0,0:0:0:0:
255,187,310634,1,8,0:0:0:0:
255,187,310803,1,0,0:0:0:0:
255,187,311142,1,0,0:0:0:0:
255,187,311312,1,0,0:0:0:0:
255,187,311481,1,8,0:0:0:0:
255,187,311820,1,0,0:0:0:0:
255,187,312159,1,0,0:0:0:0:
255,187,312329,1,8,0:0:0:0:
255,187,312498,1,0,0:0:0:0:
255,187,312668,1,0,0:0:0:0:
255,187,312837,1,8,0:0:0:0:
255,187,313007,1,0,0:0:0:0:
255,187,313346,1,8,0:0:0:0:
255,187,313515,1,0,0:0:0:0:
255,187,313854,1,0,0:0:0:0:
255,187,314023,1,8,0:0:0:0:
255,187,314193,1,8,0:0:0:0:
255,187,314362,1,0,0:0:0:0:
255,187,314532,1,8,0:0:0:0:
255,187,314701,1,8,0:0:0:0:
255,187,314871,1,4,0:0:0:0:
255,187,315210,1,0,0:0:0:0:
255,187,315380,1,0,0:0:0:0:
255,187,315549,1,8,0:0:0:0:
255,187,315719,1,0,0:0:0:0:
255,187,316058,1,8,0:0:0:0:
255,187,316227,1,0,0:0:0:0:
255,187,316566,1,0,0:0:0:0:
255,187,316905,1,8,0:0:0:0:
255,187,317244,1,0,0:0:0:0:
255,187,317583,1,0,0:0:0:0:
255,187,317753,1,8,0:0:0:0:
255,187,317922,1,0,0:0:0:0:
255,187,318092,1,0,0:0:0:0:
255,187,318261,1,8,0:0:0:0:
255,187,318431,1,0,0:0:0:0:
255,187,318770,1,8,0:0:0:0:
255,187,318939,1,0,0:0:0:0:
255,187,319278,1,0,0:0:0:0:
255,187,319617,1,8,0:0:0:0:
255,187,319956,1,0,0:0:0:0:
255,187,320295,1,0,0:0:0:0:
255,187,320465,1,8,0:0:0:0:
255,187,320634,1,0,0:0:0:0:
255,187,320973,1,8,0:0:0:0:
255,187,321143,1,0,0:0:0:0:
255,187,321482,1,8,0:0:0:0:
255,187,321651,1,0,0:0:0:0:
255,187,321990,1,0,0:0:0:0:
255,187,322329,1,8,0:0:0:0:
255,187,322668,1,0,0:0:0:0:
255,187,323007,1,0,0:0:0:0:
255,187,323177,1,8,0:0:0:0:
255,187,323346,1,0,0:0:0:0:
255,187,323516,1,0,0:0:0:0:
255,187,323685,1,8,0:0:0:0:
255,187,323855,1,0,0:0:0:0:
255,187,324194,1,8,0:0:0:0:
255,187,324532,1,0,0:0:0:0:
255,187,324870,1,8,0:0:0:0:
255,187,325040,1,8,0:0:0:0:
255,187,325209,1,0,0:0:0:0:
255,187,325379,1,8,0:0:0:0:
255,187,325548,1,8,0:0:0:0:
