osu file format v14

[General]
AudioFilename: audio.ogg
AudioLeadIn: 0
PreviewTime: 89628
Countdown: 0
SampleSet: Soft
StackLeniency: 0.7
Mode: 3
LetterboxInBreaks: 0
SpecialStyle: 0
WidescreenStoryboard: 0

[Editor]
DistanceSpacing: 1.2
BeatDivisor: 4
GridSize: 4
TimelineZoom: 2.599999

[Metadata]
Title:azalea
TitleUnicode:αzalea
Artist:BlackY
ArtistUnicode:BlackY
Creator:ML-ysg
Version:MAXIMUM
Source:SOUND VOLTEX EXCEED GEAR
Tags:instrumental electronic bemani video game SDVX コナステ スティンガー Stinger Haruka Kyobate 京終 始果 グレイスからの挑戦状!! GRACE kara no chousenjou!! 3 III GRAVITY WARS Konami
BeatmapID:4339625
BeatmapSetID:2073289

[Difficulty]
HPDrainRate:8.5
CircleSize:4
OverallDifficulty:8.5
ApproachRate:5
SliderMultiplier:1.4
SliderTickRate:1

[Events]
//Background and Video events
0,0,"azelea.jpg",0,0
//Break Periods
//Storyboard Layer 0 (Background)
//Storyboard Layer 1 (Fail)
//Storyboard Layer 2 (Pass)
//Storyboard Layer 3 (Foreground)
//Storyboard Layer 4 (Overlay)
//Storyboard Sound Samples
Sample,115916,0,"Fast Finish.wav",60

[TimingPoints]
2432,303.030303030303,4,2,1,50,1,0
43644,-100.0,4,2,1,50,0,1
61825,-100.0,4,2,1,50,0,0
89704,-100.0,4,2,1,50,0,1
121219,-100.0,4,2,1,50,0,0

[HitObjects]
320,192,3341,1,0,0:0:0:0:
320,192,3416,1,0,0:0:0:0:
192,192,3492,1,0,0:0:0:0:
192,192,3568,1,0,0:0:0:0:
64,192,3644,128,2,4704:0:0:0:0:
320,192,3644,1,4,0:0:0:0:
448,192,3644,1,0,0:0:0:0:
192,192,3795,128,0,3947:0:0:0:0:
448,192,3947,128,0,4098:0:0:0:0:
320,192,4098,128,0,4250:0:0:0:0:
448,192,4250,1,0,0:0:0:0:
192,192,4401,128,0,4553:0:0:0:0:
320,192,4553,1,0,0:0:0:0:
192,192,4704,128,2,4856:0:0:0:0:
320,192,4704,128,0,4856:0:0:0:60:Fast Finish.wav
448,192,4704,128,0,4856:0:0:0:0:
64,192,5007,128,2,5083:0:0:0:0:
192,192,5007,128,0,5083:0:0:0:60:Fast Finish.wav
448,192,5007,128,0,5083:0:0:0:0:
64,192,5159,128,2,5310:0:0:0:0:
192,192,5159,128,0,5310:0:0:0:60:Fast Finish.wav
320,192,5159,128,0,5310:0:0:0:0:
448,192,5310,128,0,5462:0:0:0:0:
64,192,5462,1,0,0:0:0:0:
192,192,5462,128,0,5613:0:0:0:0:
320,192,5613,128,0,5765:0:0:0:0:
64,192,5765,128,0,5916:0:0:0:0:
192,192,5916,128,0,6068:0:0:0:0:
64,192,6068,1,4,0:0:0:0:
320,192,6068,128,2,7128:0:0:0:0:
448,192,6068,1,0,0:0:0:0:
192,192,6219,128,0,6371:0:0:0:0:
64,192,6371,128,0,6522:0:0:0:0:
448,192,6522,128,0,6674:0:0:0:0:
192,192,6674,1,0,0:0:0:0:
64,192,6825,128,0,6977:0:0:0:0:
448,192,6977,1,0,0:0:0:0:
64,192,7128,128,2,7280:0:0:0:0:
192,192,7128,128,0,7280:0:0:0:60:Fast Finish.wav
448,192,7128,128,0,7280:0:0:0:0:
64,192,7431,128,2,7583:0:0:0:0:
320,192,7431,128,0,7583:0:0:0:60:Fast Finish.wav
448,192,7431,128,0,7583:0:0:0:0:
64,192,7659,128,2,7810:0:0:0:0:
320,192,7659,128,0,7810:0:0:0:60:Fast Finish.wav
448,192,7659,128,0,7810:0:0:0:0:
64,192,7886,128,2,8038:0:0:0:0:
192,192,7886,128,0,8038:0:0:0:60:Fast Finish.wav
448,192,7886,128,0,8038:0:0:0:0:
64,192,8113,128,2,8265:0:0:0:0:
192,192,8113,128,0,8265:0:0:0:60:Fast Finish.wav
448,192,8113,128,0,8265:0:0:0:0:
320,192,8341,1,2,0:0:0:0:
448,192,8341,1,0,0:0:0:60:Fast Finish.wav
64,192,8416,1,2,0:0:0:0:
192,192,8416,1,0,0:0:0:0:
320,192,8492,1,0,0:0:0:0:
448,192,8568,1,0,0:0:0:0:
192,192,8644,1,0,0:0:0:0:
320,192,8719,1,0,0:0:0:0:
64,192,8795,128,2,9401:0:0:0:0:
192,192,8795,1,4,0:0:0:0:
448,192,8795,1,0,0:0:0:0:
320,192,8947,128,0,9098:0:0:0:0:
192,192,9098,1,0,0:0:0:0:
448,192,9250,1,0,0:0:0:0:
320,192,9401,128,0,9553:0:0:0:0:
64,192,9553,128,2,9704:0:0:0:0:
192,192,9553,128,0,9704:0:0:0:60:Fast Finish.wav
448,192,9553,128,0,9704:0:0:0:0:
64,192,9856,128,2,9932:0:0:0:0:
192,192,9856,128,0,9932:0:0:0:60:Fast Finish.wav
448,192,9856,128,0,9932:0:0:0:0:
64,192,10007,128,2,10159:0:0:0:0:
320,192,10007,128,0,10159:0:0:0:60:Fast Finish.wav
448,192,10007,128,0,10159:0:0:0:0:
192,192,10159,128,0,10310:0:0:0:0:
64,192,10310,1,0,0:0:0:0:
320,192,10310,128,0,10462:0:0:0:0:
448,192,10462,128,0,10613:0:0:0:0:
64,192,10613,1,0,0:0:0:0:
192,192,10613,128,0,10765:0:0:0:0:
320,192,10765,128,0,10916:0:0:0:0:
64,192,10916,128,2,10992:0:0:0:0:
192,192,10916,128,0,10992:0:0:0:60:Fast Finish.wav
448,192,10916,128,0,10992:0:0:0:0:
64,192,11068,128,2,11144:0:0:0:0:
192,192,11068,128,0,11144:0:0:0:60:Fast Finish.wav
448,192,11068,128,0,11144:0:0:0:0:
64,192,11219,128,2,11295:0:0:0:0:
320,192,11219,128,0,11295:0:0:0:60:Fast Finish.wav
448,192,11219,128,0,11295:0:0:0:0:
64,192,11371,128,2,11447:0:0:0:0:
320,192,11371,128,0,11447:0:0:0:60:Fast Finish.wav
448,192,11371,128,0,11447:0:0:0:0:
64,192,11522,1,2,0:0:0:0:
192,192,11522,1,0,0:0:0:60:Fast Finish.wav
320,192,11598,1,2,0:0:0:0:
448,192,11598,1,0,0:0:0:0:
64,192,11674,1,2,0:0:0:0:
192,192,11674,1,0,0:0:0:60:Fast Finish.wav
320,192,11750,1,2,0:0:0:0:
448,192,11750,1,0,0:0:0:0:
64,192,11825,1,2,0:0:0:0:
192,192,11825,1,0,0:0:0:60:Fast Finish.wav
320,192,11901,1,2,0:0:0:0:
448,192,11901,1,0,0:0:0:0:
64,192,11977,1,2,0:0:0:0:
192,192,11977,1,0,0:0:0:60:Fast Finish.wav
320,192,12053,1,2,0:0:0:0:
448,192,12053,1,0,0:0:0:0:
192,192,12128,1,0,0:0:0:0:
64,192,12204,1,0,0:0:0:0:
320,192,12280,1,0,0:0:0:0:
192,192,12356,1,0,0:0:0:0:
320,192,12432,128,0,12583:0:0:0:0:
448,192,12432,128,0,12583:0:0:0:0:
64,192,12583,1,0,0:0:0:50:Snare2.wav
192,192,12583,1,0,0:0:0:0:
320,192,12659,1,0,0:0:0:50:Snare2.wav
448,192,12659,1,0,0:0:0:0:
64,192,12735,1,0,0:0:0:50:Snare2.wav
192,192,12735,1,0,0:0:0:0:
192,192,12886,1,0,0:0:0:50:Snare2.wav
320,192,12886,1,0,0:0:0:0:
320,192,13038,1,0,0:0:0:50:Snare2.wav
448,192,13038,1,0,0:0:0:0:
64,192,13113,1,0,0:0:0:50:Snare2.wav
192,192,13113,1,0,0:0:0:0:
320,192,13189,1,0,0:0:0:50:Snare2.wav
448,192,13189,1,0,0:0:0:0:
192,192,13265,1,0,0:0:0:50:Snare2.wav
64,192,13341,1,2,0:0:0:0:
320,192,13341,1,4,0:0:0:0:
448,192,13341,1,0,0:0:0:0:
64,192,13492,1,0,0:0:0:0:
192,192,13644,1,2,0:0:0:0:
320,192,13644,1,8,0:0:0:0:
448,192,13644,1,0,0:0:0:0:
320,192,13795,1,0,0:0:0:0:
64,192,13947,1,2,0:0:0:0:
192,192,13947,1,8,0:0:0:0:
448,192,13947,1,0,0:0:0:0:
192,192,14098,1,0,0:0:0:0:
64,192,14250,1,2,0:0:0:0:
320,192,14250,1,8,0:0:0:0:
448,192,14250,1,0,0:0:0:0:
448,192,14401,1,0,0:0:0:0:
64,192,14553,1,2,0:0:0:0:
192,192,14553,1,8,0:0:0:0:
320,192,14553,1,0,0:0:0:0:
64,192,14704,1,0,0:0:0:0:
192,192,14856,1,2,0:0:0:0:
320,192,14856,1,8,0:0:0:0:
448,192,14856,1,0,0:0:0:0:
320,192,15007,1,0,0:0:0:0:
64,192,15159,1,2,0:0:0:0:
192,192,15159,1,8,0:0:0:0:
448,192,15159,1,0,0:0:0:0:
64,192,15310,1,0,0:0:0:0:
192,192,15462,1,2,0:0:0:0:
320,192,15462,1,8,0:0:0:0:
448,192,15462,1,0,0:0:0:0:
320,192,15613,1,2,0:0:0:20:soft-hitwhistle.wav
192,192,15689,1,2,0:0:0:40:soft-hitwhistle.wav
64,192,15765,1,2,0:0:0:0:
320,192,15765,1,8,0:0:0:0:
448,192,15765,1,0,0:0:0:0:
192,192,15916,1,2,0:0:0:0:
448,192,15916,1,0,0:0:0:0:
64,192,16068,1,2,0:0:0:0:
192,192,16068,1,4,0:0:0:0:
320,192,16068,1,8,0:0:0:0:
320,192,16219,1,0,0:0:0:0:
64,192,16371,1,2,0:0:0:0:
192,192,16371,1,8,0:0:0:0:
448,192,16371,1,0,0:0:0:0:
192,192,16522,1,0,0:0:0:0:
64,192,16674,1,2,0:0:0:0:
320,192,16674,1,8,0:0:0:0:
448,192,16674,1,0,0:0:0:0:
320,192,16825,1,0,0:0:0:0:
64,192,16977,1,2,0:0:0:0:
192,192,16977,1,8,0:0:0:0:
448,192,16977,1,0,0:0:0:0:
64,192,17128,1,0,0:0:0:0:
192,192,17280,1,2,0:0:0:0:
320,192,17280,1,8,0:0:0:0:
448,192,17280,1,0,0:0:0:0:
448,192,17431,1,0,0:0:0:0:
64,192,17583,128,2,17735:0:0:0:0:
192,192,17583,128,0,17735:0:0:0:60:Fast Finish.wav
320,192,17583,128,0,17735:0:0:0:0:
64,192,17810,128,2,17962:0:0:0:0:
192,192,17810,128,0,17962:0:0:0:60:Fast Finish.wav
320,192,17810,128,0,17962:0:0:0:0:
192,192,18038,128,2,18189:0:0:0:0:
320,192,18038,128,0,18189:0:0:0:60:Fast Finish.wav
448,192,18038,128,0,18189:0:0:0:0:
192,192,18265,128,2,18416:0:0:0:0:
320,192,18265,128,0,18416:0:0:0:60:Fast Finish.wav
448,192,18265,128,0,18416:0:0:0:0:
64,192,18492,1,2,0:0:0:0:
192,192,18492,1,4,0:0:0:0:
448,192,18492,1,0,0:0:0:0:
192,192,18644,1,0,0:0:0:0:
64,192,18795,128,2,18947:0:0:0:0:
320,192,18795,128,0,18947:0:0:0:60:Fast Finish.wav
448,192,18795,128,0,18947:0:0:0:0:
64,192,19022,128,2,19174:0:0:0:0:
320,192,19022,128,0,19174:0:0:0:60:Fast Finish.wav
448,192,19022,128,0,19174:0:0:0:0:
64,192,19250,128,2,19401:0:0:0:0:
192,192,19250,128,0,19401:0:0:0:60:Fast Finish.wav
448,192,19250,128,0,19401:0:0:0:0:
64,192,19477,128,2,19628:0:0:0:0:
192,192,19477,128,0,19628:0:0:0:60:Fast Finish.wav
448,192,19477,128,0,19628:0:0:0:0:
64,192,19704,1,2,0:0:0:0:
320,192,19704,1,4,0:0:0:0:
448,192,19704,1,0,0:0:0:0:
320,192,19856,1,0,0:0:0:0:
64,192,20007,128,2,20159:0:0:0:0:
192,192,20007,128,0,20159:0:0:0:60:Fast Finish.wav
448,192,20007,128,0,20159:0:0:0:0:
64,192,20235,128,2,20386:0:0:0:0:
192,192,20235,128,0,20386:0:0:0:60:Fast Finish.wav
448,192,20235,128,0,20386:0:0:0:0:
64,192,20462,1,2,0:0:0:0:
192,192,20462,1,0,0:0:0:60:Fast Finish.wav
448,192,20462,1,0,0:0:0:0:
64,192,20613,1,2,0:0:0:0:
192,192,20613,1,4,0:0:0:0:
448,192,20613,1,0,0:0:0:0:
320,192,20689,1,2,0:0:0:0:
64,192,20765,1,2,0:0:0:0:
192,192,20765,1,0,0:0:0:0:
320,192,20841,1,2,0:0:0:0:
64,192,20916,1,2,0:0:0:0:
192,192,20916,1,0,0:0:0:0:
448,192,20916,1,0,0:0:0:0:
320,192,20992,1,2,0:0:0:0:
64,192,21068,1,2,0:0:0:0:
448,192,21068,1,0,0:0:0:0:
192,192,21144,1,2,0:0:0:0:
64,192,21219,1,2,0:0:0:0:
320,192,21219,1,0,0:0:0:0:
448,192,21219,1,0,0:0:0:0:
192,192,21295,1,2,0:0:0:0:
320,192,21371,1,2,0:0:0:0:
448,192,21371,1,0,0:0:0:0:
64,192,21447,1,2,0:0:0:0:
192,192,21522,1,2,0:0:0:0:
320,192,21522,1,0,0:0:0:0:
448,192,21522,1,0,0:0:0:0:
64,192,21598,1,2,0:0:0:0:
192,192,21674,1,2,0:0:0:0:
320,192,21674,1,0,0:0:0:0:
448,192,21750,1,2,0:0:0:0:
64,192,21825,128,2,22659:0:0:0:0:
192,192,21825,128,4,22659:0:0:0:0:
320,192,21825,128,0,22204:0:0:0:0:
320,192,22280,128,0,23113:0:0:0:0:
448,192,22280,128,0,23189:0:0:0:0:
64,192,22735,128,0,22962:0:0:0:0:
192,192,22735,128,0,23038:0:0:0:0:
64,192,23038,1,0,0:0:0:0:
192,192,23113,1,0,0:0:0:0:
320,192,23189,1,0,0:0:0:0:
448,192,23265,1,0,0:0:0:0:
64,192,23341,1,0,0:0:0:0:
192,192,23416,1,0,0:0:0:0:
320,192,23492,1,0,0:0:0:0:
448,192,23568,1,0,0:0:0:0:
64,192,23644,1,0,0:0:0:0:
192,192,23681,1,0,0:0:0:0:
320,192,23719,1,0,0:0:0:0:
448,192,23757,1,0,0:0:0:0:
64,192,23795,1,0,0:0:0:0:
192,192,23833,1,0,0:0:0:0:
320,192,23871,1,0,0:0:0:0:
448,192,23909,1,0,0:0:0:0:
64,192,23947,1,0,0:0:0:0:
192,192,23985,1,0,0:0:0:0:
320,192,24022,1,0,0:0:0:0:
448,192,24060,1,0,0:0:0:0:
64,192,24098,1,0,0:0:0:0:
192,192,24136,1,0,0:0:0:0:
320,192,24174,1,0,0:0:0:0:
448,192,24212,1,0,0:0:0:0:
64,192,24250,1,2,0:0:0:0:
192,192,24250,1,4,0:0:0:0:
320,192,24325,1,0,0:0:0:0:
192,192,24401,1,0,0:0:0:0:
64,192,24477,1,0,0:0:0:0:
320,192,24553,1,2,0:0:0:0:
448,192,24553,1,0,0:0:0:0:
192,192,24628,1,0,0:0:0:0:
64,192,24704,1,0,0:0:0:0:
448,192,24780,1,0,0:0:0:0:
64,192,24856,1,2,0:0:0:0:
320,192,24856,1,0,0:0:0:0:
192,192,24931,1,0,0:0:0:0:
320,192,25007,1,0,0:0:0:0:
64,192,25083,1,0,0:0:0:0:
192,192,25159,1,2,0:0:0:0:
448,192,25159,1,0,0:0:0:0:
320,192,25235,1,0,0:0:0:0:
64,192,25310,1,0,0:0:0:0:
192,192,25386,1,0,0:0:0:0:
320,192,25462,1,2,0:0:0:0:
448,192,25462,1,0,0:0:0:0:
192,192,25538,1,0,0:0:0:0:
64,192,25613,1,0,0:0:0:0:
448,192,25689,1,0,0:0:0:0:
192,192,25765,1,2,0:0:0:0:
320,192,25765,1,0,0:0:0:0:
64,192,25841,1,0,0:0:0:0:
448,192,25916,1,0,0:0:0:0:
320,192,25992,1,0,0:0:0:0:
64,192,26068,1,2,0:0:0:0:
192,192,26068,1,0,0:0:0:0:
448,192,26118,1,0,0:0:0:0:
320,192,26169,1,0,0:0:0:0:
192,192,26219,1,0,0:0:0:0:
64,192,26270,1,0,0:0:0:0:
448,192,26320,1,0,0:0:0:0:
192,192,26371,1,2,0:0:0:0:
320,192,26371,1,0,0:0:0:0:
64,192,26421,1,0,0:0:0:0:
448,192,26472,1,0,0:0:0:0:
320,192,26522,1,0,0:0:0:0:
192,192,26573,1,0,0:0:0:0:
64,192,26623,1,0,0:0:0:0:
320,192,26674,1,2,0:0:0:0:
448,192,26674,1,0,0:0:0:0:
192,192,26750,1,0,0:0:0:0:
320,192,26825,1,0,0:0:0:0:
448,192,26901,1,0,0:0:0:0:
64,192,26977,1,2,0:0:0:0:
192,192,26977,1,0,0:0:0:0:
320,192,27053,1,0,0:0:0:0:
448,192,27128,1,0,0:0:0:0:
64,192,27204,1,0,0:0:0:0:
192,192,27280,1,2,0:0:0:0:
320,192,27280,1,0,0:0:0:0:
448,192,27356,1,0,0:0:0:0:
64,192,27431,1,0,0:0:0:0:
320,192,27507,1,0,0:0:0:0:
192,192,27583,1,2,0:0:0:0:
448,192,27583,1,0,0:0:0:0:
64,192,27659,1,0,0:0:0:0:
320,192,27735,1,0,0:0:0:0:
192,192,27810,1,0,0:0:0:0:
64,192,27886,1,2,0:0:0:0:
320,192,27886,1,0,0:0:0:0:
448,192,27962,1,0,0:0:0:0:
192,192,28038,1,0,0:0:0:0:
320,192,28113,1,0,0:0:0:0:
192,192,28189,1,2,0:0:0:0:
448,192,28189,1,0,0:0:0:0:
64,192,28265,1,0,0:0:0:0:
320,192,28341,1,0,0:0:0:0:
448,192,28416,1,0,0:0:0:0:
192,192,28492,1,2,0:0:0:0:
320,192,28492,1,0,0:0:0:0:
64,192,28568,1,0,0:0:0:0:
448,192,28644,1,0,0:0:0:0:
320,192,28719,1,0,0:0:0:0:
64,192,28795,1,2,0:0:0:0:
192,192,28795,1,0,0:0:0:0:
320,192,28871,1,0,0:0:0:0:
192,192,28947,1,0,0:0:0:0:
64,192,29022,1,0,0:0:0:0:
448,192,29098,1,0,0:0:0:0:
320,192,29174,1,0,0:0:0:0:
64,192,29250,1,0,0:0:0:0:
192,192,29325,1,0,0:0:0:0:
320,192,29401,1,2,0:0:0:0:
448,192,29401,1,0,0:0:0:0:
192,192,29477,1,0,0:0:0:0:
64,192,29553,1,0,0:0:0:0:
320,192,29628,1,0,0:0:0:0:
64,192,29704,1,2,0:0:0:0:
192,192,29704,1,0,0:0:0:0:
320,192,29780,1,0,0:0:0:0:
448,192,29856,1,0,0:0:0:0:
192,192,29931,1,0,0:0:0:0:
320,192,30007,1,2,0:0:0:0:
448,192,30007,1,0,0:0:0:0:
192,192,30083,1,0,0:0:0:0:
64,192,30159,1,0,0:0:0:0:
448,192,30235,1,0,0:0:0:0:
192,192,30310,1,2,0:0:0:0:
320,192,30310,1,0,0:0:0:0:
64,192,30386,1,0,0:0:0:0:
448,192,30462,1,0,0:0:0:0:
320,192,30538,1,0,0:0:0:0:
64,192,30613,1,2,0:0:0:0:
192,192,30613,1,0,0:0:0:0:
320,192,30689,1,0,0:0:0:0:
64,192,30765,1,0,0:0:0:0:
192,192,30841,1,0,0:0:0:0:
320,192,30916,1,2,0:0:0:0:
448,192,30916,1,0,0:0:0:0:
64,192,30967,1,0,0:0:0:0:
192,192,31017,1,0,0:0:0:0:
320,192,31068,1,0,0:0:0:0:
448,192,31118,1,0,0:0:0:0:
64,192,31169,1,0,0:0:0:0:
192,192,31219,1,2,0:0:0:0:
320,192,31219,1,0,0:0:0:0:
448,192,31270,1,0,0:0:0:0:
64,192,31320,1,0,0:0:0:0:
192,192,31371,1,0,0:0:0:0:
320,192,31421,1,0,0:0:0:0:
448,192,31472,1,0,0:0:0:0:
64,192,31522,1,2,0:0:0:0:
192,192,31522,1,0,0:0:0:0:
320,192,31598,1,0,0:0:0:0:
448,192,31674,1,0,0:0:0:0:
64,192,31750,1,0,0:0:0:0:
192,192,31825,1,2,0:0:0:0:
320,192,31825,1,0,0:0:0:0:
448,192,31901,1,0,0:0:0:0:
192,192,31977,1,2,0:0:0:0:
320,192,31977,1,0,0:0:0:0:
64,192,32053,1,0,0:0:0:0:
448,192,32128,1,0,0:0:0:0:
320,192,32204,1,0,0:0:0:0:
64,192,32280,1,2,0:0:0:0:
192,192,32280,1,0,0:0:0:0:
320,192,32356,1,0,0:0:0:0:
64,192,32431,1,0,0:0:0:0:
192,192,32507,1,0,0:0:0:0:
320,192,32583,1,2,0:0:0:0:
448,192,32583,1,0,0:0:0:0:
192,192,32659,1,0,0:0:0:0:
64,192,32735,1,0,0:0:0:0:
448,192,32810,1,0,0:0:0:0:
192,192,32886,1,2,0:0:0:0:
320,192,32886,1,0,0:0:0:0:
64,192,32962,1,0,0:0:0:0:
448,192,33038,1,0,0:0:0:0:
320,192,33113,1,0,0:0:0:0:
64,192,33189,1,2,0:0:0:0:
192,192,33189,1,0,0:0:0:0:
320,192,33240,1,2,0:0:0:0:
448,192,33240,1,0,0:0:0:0:
64,192,33290,1,2,0:0:0:0:
192,192,33290,1,0,0:0:0:0:
320,192,33341,1,2,0:0:0:0:
448,192,33341,1,0,0:0:0:0:
192,192,33416,1,0,0:0:0:0:
64,192,33492,1,2,0:0:0:0:
448,192,33492,1,0,0:0:0:0:
320,192,33568,1,0,0:0:0:0:
64,192,33644,1,2,0:0:0:0:
192,192,33644,1,0,0:0:0:0:
320,192,33719,1,2,0:0:0:0:
448,192,33719,1,0,0:0:0:0:
64,192,33795,1,2,0:0:0:0:
192,192,33795,1,0,0:0:0:0:
320,192,33871,1,2,0:0:0:0:
448,192,33871,1,0,0:0:0:0:
192,192,33947,1,0,0:0:0:0:
64,192,34022,1,0,0:0:0:0:
320,192,34098,1,0,0:0:0:0:
192,192,34174,1,0,0:0:0:0:
64,192,34250,1,4,0:0:0:0:
320,192,34250,1,2,0:0:0:0:
448,192,34250,1,0,0:0:0:0:
192,192,34325,1,0,0:0:0:0:
320,192,34401,1,0,0:0:0:0:
64,192,34477,1,0,0:0:0:0:
192,192,34553,1,2,0:0:0:0:
448,192,34553,1,0,0:0:0:0:
320,192,34628,1,0,0:0:0:0:
64,192,34704,1,0,0:0:0:0:
192,192,34780,1,0,0:0:0:0:
320,192,34856,1,2,0:0:0:0:
448,192,34856,1,0,0:0:0:0:
64,192,34931,1,0,0:0:0:0:
192,192,35007,1,0,0:0:0:0:
320,192,35083,1,0,0:0:0:0:
64,192,35159,1,2,0:0:0:0:
192,192,35159,1,0,0:0:0:0:
448,192,35235,1,0,0:0:0:0:
320,192,35310,1,0,0:0:0:0:
192,192,35386,1,0,0:0:0:0:
64,192,35462,1,2,0:0:0:0:
320,192,35462,1,0,0:0:0:0:
448,192,35538,1,0,0:0:0:0:
192,192,35613,1,0,0:0:0:0:
320,192,35689,1,0,0:0:0:0:
64,192,35765,1,2,0:0:0:0:
448,192,35765,1,0,0:0:0:0:
320,192,35815,1,0,0:0:0:0:
192,192,35866,1,0,0:0:0:0:
64,192,35916,1,0,0:0:0:0:
448,192,35967,1,0,0:0:0:0:
320,192,36017,1,0,0:0:0:0:
64,192,36068,1,2,0:0:0:0:
192,192,36068,1,0,0:0:0:0:
448,192,36118,1,0,0:0:0:0:
320,192,36169,1,0,0:0:0:0:
192,192,36219,1,0,0:0:0:0:
64,192,36270,1,0,0:0:0:0:
448,192,36320,1,0,0:0:0:0:
192,192,36371,1,2,0:0:0:0:
320,192,36371,1,0,0:0:0:0:
64,192,36447,1,0,0:0:0:0:
448,192,36522,1,0,0:0:0:0:
320,192,36598,1,0,0:0:0:0:
64,192,36674,1,2,0:0:0:0:
192,192,36674,1,0,0:0:0:0:
320,192,36750,1,0,0:0:0:0:
64,192,36825,1,0,0:0:0:0:
448,192,36901,1,0,0:0:0:0:
192,192,36977,1,2,0:0:0:0:
320,192,36977,1,0,0:0:0:0:
64,192,37053,1,0,0:0:0:0:
448,192,37128,1,0,0:0:0:0:
320,192,37204,1,0,0:0:0:0:
64,192,37280,1,2,0:0:0:0:
192,192,37280,1,0,0:0:0:0:
448,192,37356,1,0,0:0:0:0:
320,192,37431,1,0,0:0:0:0:
192,192,37507,1,0,0:0:0:0:
64,192,37583,1,2,0:0:0:0:
448,192,37583,1,0,0:0:0:0:
192,192,37659,1,0,0:0:0:0:
320,192,37735,1,0,0:0:0:0:
64,192,37810,1,0,0:0:0:0:
192,192,37886,1,2,0:0:0:0:
320,192,37886,1,0,0:0:0:0:
448,192,37962,1,0,0:0:0:0:
64,192,38038,1,0,0:0:0:0:
192,192,38113,1,0,0:0:0:0:
320,192,38189,1,2,0:0:0:0:
448,192,38189,1,0,0:0:0:0:
64,192,38265,1,0,0:0:0:0:
192,192,38341,1,0,0:0:0:0:
320,192,38416,1,0,0:0:0:0:
64,192,38492,1,2,0:0:0:0:
448,192,38492,1,0,0:0:0:0:
192,192,38568,1,0,0:0:0:0:
320,192,38644,1,0,0:0:0:0:
192,192,38719,1,0,0:0:0:0:
64,192,38795,1,2,0:0:0:0:
448,192,38795,1,0,0:0:0:0:
320,192,38871,1,0,0:0:0:0:
192,192,38947,1,2,0:0:0:0:
448,192,38947,1,0,0:0:0:0:
320,192,39022,1,0,0:0:0:0:
64,192,39098,1,2,0:0:0:0:
448,192,39098,1,0,0:0:0:0:
192,192,39174,1,0,0:0:0:0:
64,192,39250,1,2,0:0:0:0:
320,192,39250,1,0,0:0:0:0:
192,192,39325,1,0,0:0:0:0:
64,192,39401,1,2,0:0:0:0:
448,192,39401,1,0,0:0:0:0:
320,192,39477,1,0,0:0:0:0:
64,192,39553,1,2,0:0:0:0:
192,192,39553,1,0,0:0:0:0:
320,192,39628,1,0,0:0:0:0:
64,192,39704,1,2,0:0:0:0:
448,192,39704,1,0,0:0:0:0:
192,192,39780,1,0,0:0:0:0:
320,192,39856,1,2,0:0:0:0:
448,192,39856,1,0,0:0:0:0:
192,192,39931,1,0,0:0:0:0:
64,192,40007,1,2,0:0:0:0:
320,192,40007,1,0,0:0:0:0:
448,192,40083,1,0,0:0:0:0:
64,192,40159,1,2,0:0:0:0:
192,192,40159,1,0,0:0:0:0:
320,192,40235,1,0,0:0:0:0:
192,192,40310,1,2,0:0:0:0:
448,192,40310,1,0,0:0:0:0:
64,192,40386,1,0,0:0:0:0:
320,192,40462,1,2,0:0:0:0:
448,192,40462,1,0,0:0:0:0:
192,192,40538,1,0,0:0:0:0:
64,192,40613,1,2,0:0:0:0:
448,192,40613,1,0,0:0:0:0:
192,192,40689,1,2,0:0:0:0:
320,192,40689,1,0,0:0:0:0:
64,192,40765,1,2,0:0:0:0:
448,192,40765,1,0,0:0:0:0:
192,192,40841,1,2,0:0:0:0:
320,192,40841,1,0,0:0:0:0:
64,192,40916,1,2,0:0:0:0:
448,192,40916,1,0,0:0:0:0:
192,192,40992,1,2,0:0:0:0:
320,192,40992,1,0,0:0:0:0:
64,192,41068,1,2,0:0:0:0:
448,192,41068,1,0,0:0:0:0:
320,192,41144,1,2,0:0:0:0:
64,192,41219,128,2,41447:0:0:0:0:
192,192,41219,128,4,41447:0:0:0:0:
448,192,41219,128,0,41447:0:0:0:0:
320,192,41371,128,0,41447:0:0:0:0:
64,192,41522,128,2,41598:0:0:0:0:
192,192,41522,128,0,41598:0:0:0:60:Fast Finish.wav
320,192,41522,128,0,41598:0:0:0:0:
448,192,41522,128,0,41598:0:0:0:0:
64,192,41674,128,2,41750:0:0:0:0:
192,192,41674,128,0,41750:0:0:0:60:Fast Finish.wav
320,192,41674,128,0,41750:0:0:0:0:
448,192,41674,128,0,41750:0:0:0:0:
64,192,41825,1,0,0:0:0:0:
192,192,41876,1,0,0:0:0:0:
320,192,41926,1,0,0:0:0:0:
64,192,41977,128,2,42053:0:0:0:0:
192,192,41977,128,0,42053:0:0:0:60:Fast Finish.wav
448,192,41977,128,0,42053:0:0:0:0:
448,192,42128,1,0,0:0:0:0:
320,192,42179,1,0,0:0:0:0:
192,192,42229,1,0,0:0:0:0:
64,192,42280,128,2,42356:0:0:0:0:
320,192,42280,128,0,42356:0:0:0:60:Fast Finish.wav
448,192,42280,128,0,42356:0:0:0:0:
64,192,42431,1,0,0:0:0:0:
192,192,42431,1,0,0:0:0:0:
320,192,42507,1,0,0:0:0:0:
64,192,42583,1,0,0:0:0:0:
192,192,42583,1,0,0:0:0:0:
320,192,42659,1,0,0:0:0:0:
64,192,42735,1,0,0:0:0:0:
448,192,42735,1,0,0:0:0:0:
192,192,42810,1,0,0:0:0:0:
320,192,42886,1,0,0:0:0:50:Snare2.wav
448,192,42886,1,0,0:0:0:0:
64,192,42962,1,0,0:0:0:50:Snare2.wav
192,192,42962,1,0,0:0:0:0:
320,192,43038,1,0,0:0:0:50:Snare2.wav
448,192,43038,1,0,0:0:0:0:
192,192,43113,1,0,0:0:0:0:
64,192,43189,1,0,0:0:0:50:Snare2.wav
448,192,43189,1,0,0:0:0:0:
320,192,43265,1,0,0:0:0:0:
64,192,43341,1,0,0:0:0:50:Snare2.wav
192,192,43341,1,0,0:0:0:0:
320,192,43416,1,0,0:0:0:50:Snare2.wav
448,192,43416,1,0,0:0:0:0:
64,192,43492,1,0,0:0:0:50:Snare2.wav
192,192,43492,1,0,0:0:0:0:
320,192,43568,1,0,0:0:0:50:Snare2.wav
64,192,43644,1,4,0:0:0:0:
192,192,43644,1,2,0:0:0:0:
448,192,43644,1,0,0:0:0:0:
320,192,43719,1,0,0:0:0:0:
192,192,43795,1,0,0:0:0:0:
64,192,43871,1,0,0:0:0:0:
320,192,43947,1,2,0:0:0:0:
448,192,43947,1,0,0:0:0:0:
192,192,44022,1,0,0:0:0:0:
64,192,44098,1,0,0:0:0:0:
448,192,44174,1,0,0:0:0:0:
192,192,44250,1,2,0:0:0:0:
320,192,44250,1,0,0:0:0:0:
64,192,44325,1,0,0:0:0:0:
448,192,44401,1,0,0:0:0:0:
320,192,44477,1,0,0:0:0:0:
64,192,44553,1,2,0:0:0:0:
192,192,44553,1,0,0:0:0:0:
448,192,44628,1,0,0:0:0:0:
320,192,44704,1,0,0:0:0:0:
192,192,44780,1,0,0:0:0:0:
64,192,44856,1,2,0:0:0:0:
320,192,44856,1,0,0:0:0:0:
448,192,44931,1,0,0:0:0:0:
192,192,45007,1,0,0:0:0:0:
320,192,45083,1,0,0:0:0:0:
64,192,45159,1,2,0:0:0:0:
448,192,45159,1,0,0:0:0:0:
192,192,45235,1,0,0:0:0:0:
320,192,45310,1,0,0:0:0:0:
64,192,45386,1,0,0:0:0:0:
192,192,45462,1,2,0:0:0:0:
448,192,45462,1,0,0:0:0:0:
320,192,45538,1,0,0:0:0:0:
64,192,45613,1,0,0:0:0:0:
192,192,45689,1,0,0:0:0:0:
320,192,45765,1,2,0:0:0:0:
448,192,45765,1,0,0:0:0:0:
64,192,45841,1,0,0:0:0:0:
192,192,45916,1,0,0:0:0:0:
320,192,45992,1,0,0:0:0:0:
64,192,46068,1,2,0:0:0:0:
448,192,46068,1,0,0:0:0:0:
320,192,46144,1,0,0:0:0:0:
192,192,46219,1,0,0:0:0:0:
448,192,46295,1,0,0:0:0:0:
192,192,46371,1,2,0:0:0:0:
320,192,46371,1,0,0:0:0:0:
64,192,46447,1,0,0:0:0:0:
448,192,46522,1,0,0:0:0:0:
320,192,46598,1,0,0:0:0:0:
64,192,46674,1,2,0:0:0:0:
192,192,46674,1,0,0:0:0:0:
320,192,46750,1,0,0:0:0:0:
64,192,46825,1,0,0:0:0:0:
448,192,46901,1,0,0:0:0:0:
192,192,46977,1,2,0:0:0:0:
320,192,46977,1,0,0:0:0:0:
64,192,47053,1,0,0:0:0:0:
320,192,47128,1,0,0:0:0:0:
192,192,47204,1,0,0:0:0:0:
64,192,47280,1,2,0:0:0:0:
320,192,47280,1,0,0:0:0:0:
448,192,47356,1,0,0:0:0:0:
192,192,47431,1,0,0:0:0:0:
320,192,47507,1,0,0:0:0:0:
64,192,47583,1,2,0:0:0:0:
448,192,47583,1,0,0:0:0:0:
192,192,47659,1,0,0:0:0:0:
320,192,47735,1,0,0:0:0:0:
64,192,47810,1,0,0:0:0:0:
192,192,47886,1,2,0:0:0:0:
448,192,47886,1,0,0:0:0:0:
320,192,47962,1,0,0:0:0:0:
64,192,48038,1,0,0:0:0:0:
192,192,48113,1,0,0:0:0:0:
320,192,48189,1,2,0:0:0:0:
448,192,48189,1,0,0:0:0:0:
64,192,48265,1,0,0:0:0:0:
192,192,48341,1,0,0:0:0:0:
320,192,48416,1,0,0:0:0:0:
192,192,48492,1,2,0:0:0:0:
448,192,48492,1,0,0:0:0:0:
64,192,48568,1,0,0:0:0:0:
320,192,48644,1,0,0:0:0:0:
192,192,48719,1,0,0:0:0:0:
64,192,48795,1,2,0:0:0:0:
320,192,48795,1,0,0:0:0:0:
448,192,48871,1,0,0:0:0:0:
192,192,48947,1,0,0:0:0:0:
320,192,49022,1,0,0:0:0:0:
192,192,49098,1,2,0:0:0:0:
448,192,49098,1,0,0:0:0:0:
64,192,49174,1,0,0:0:0:0:
320,192,49250,1,0,0:0:0:0:
192,192,49325,1,0,0:0:0:0:
64,192,49401,1,2,0:0:0:0:
320,192,49401,1,0,0:0:0:0:
448,192,49477,1,0,0:0:0:0:
192,192,49553,1,0,0:0:0:0:
320,192,49628,1,0,0:0:0:0:
64,192,49704,1,2,0:0:0:0:
192,192,49704,1,0,0:0:0:0:
448,192,49780,1,0,0:0:0:0:
320,192,49856,1,0,0:0:0:0:
192,192,49931,1,0,0:0:0:0:
320,192,50007,1,2,0:0:0:0:
448,192,50007,1,0,0:0:0:0:
64,192,50083,1,0,0:0:0:0:
192,192,50159,1,0,0:0:0:0:
320,192,50235,1,0,0:0:0:0:
64,192,50310,1,2,0:0:0:0:
192,192,50310,1,0,0:0:0:0:
448,192,50386,1,0,0:0:0:0:
320,192,50462,1,0,0:0:0:0:
192,192,50538,1,0,0:0:0:0:
320,192,50613,1,2,0:0:0:0:
448,192,50613,1,0,0:0:0:0:
64,192,50689,1,0,0:0:0:0:
192,192,50765,1,2,0:0:0:0:
320,192,50765,1,0,0:0:0:0:
448,192,50841,1,0,0:0:0:0:
64,192,50916,1,2,0:0:0:0:
192,192,50916,1,0,0:0:0:0:
320,192,50992,1,0,0:0:0:0:
64,192,51068,1,0,0:0:0:0:
320,192,51144,1,2,0:0:0:0:
448,192,51144,1,0,0:0:0:0:
192,192,51219,1,0,0:0:0:0:
64,192,51371,1,2,0:0:0:0:
448,192,51371,1,0,0:0:0:0:
320,192,51447,1,0,0:0:0:0:
192,192,51522,1,0,0:0:0:0:
320,192,51598,1,2,0:0:0:0:
448,192,51598,1,0,0:0:0:0:
64,192,51674,1,0,0:0:0:0:
448,192,51750,1,0,0:0:0:0:
64,192,51825,1,2,0:0:0:0:
192,192,51825,1,0,0:0:0:0:
320,192,51901,1,0,0:0:0:0:
192,192,51977,1,2,0:0:0:0:
448,192,51977,1,0,0:0:0:0:
320,192,52053,1,0,0:0:0:0:
64,192,52128,128,0,52204:0:0:0:0:
448,192,52128,128,0,52204:0:0:0:0:
320,192,52280,128,0,52356:0:0:0:0:
448,192,52280,128,0,52356:0:0:0:0:
64,192,52356,128,0,52431:0:0:0:0:
192,192,52356,128,0,52431:0:0:0:0:
320,192,52431,128,0,52507:0:0:0:0:
448,192,52431,128,0,52507:0:0:0:0:
64,192,52583,128,0,52659:0:0:0:0:
192,192,52583,128,0,52659:0:0:0:0:
320,192,52659,128,2,52735:0:0:0:0:
448,192,52659,128,0,52735:0:0:0:0:
64,192,52735,1,2,0:0:0:0:
192,192,52735,1,0,0:0:0:0:
320,192,52810,1,0,0:0:0:0:
192,192,52886,1,2,0:0:0:0:
448,192,52886,1,0,0:0:0:0:
64,192,52962,1,0,0:0:0:0:
320,192,53038,1,2,0:0:0:0:
448,192,53038,1,0,0:0:0:0:
64,192,53113,1,2,0:0:0:0:
192,192,53113,1,0,0:0:0:0:
320,192,53189,1,2,0:0:0:0:
448,192,53189,1,0,0:0:0:0:
64,192,53265,1,2,0:0:0:0:
192,192,53265,1,0,0:0:0:0:
448,192,53341,128,0,53568:0:0:0:0:
320,192,53416,128,0,53568:0:0:0:0:
192,192,53492,128,0,53568:0:0:0:0:
64,192,53568,1,0,0:0:0:0:
192,192,53644,1,4,0:0:0:0:
320,192,53644,1,2,0:0:0:0:
448,192,53644,1,0,0:0:0:0:
64,192,53719,1,0,0:0:0:0:
448,192,53795,1,0,0:0:0:0:
320,192,53871,1,0,0:0:0:0:
64,192,53947,1,2,0:0:0:0:
192,192,53947,1,0,0:0:0:0:
320,192,54022,1,0,0:0:0:0:
448,192,54098,1,0,0:0:0:0:
64,192,54174,1,0,0:0:0:0:
192,192,54250,1,2,0:0:0:0:
320,192,54250,1,0,0:0:0:0:
448,192,54325,1,0,0:0:0:0:
64,192,54401,1,0,0:0:0:0:
192,192,54477,1,0,0:0:0:0:
320,192,54553,1,2,0:0:0:0:
448,192,54553,1,0,0:0:0:0:
192,192,54628,1,0,0:0:0:0:
64,192,54704,1,0,0:0:0:0:
448,192,54780,1,0,0:0:0:0:
192,192,54856,1,2,0:0:0:0:
320,192,54856,1,0,0:0:0:0:
64,192,54931,1,0,0:0:0:0:
448,192,55007,1,0,0:0:0:0:
320,192,55083,1,0,0:0:0:0:
64,192,55159,1,2,0:0:0:0:
192,192,55159,1,0,0:0:0:0:
320,192,55235,1,0,0:0:0:0:
448,192,55310,1,0,0:0:0:0:
64,192,55386,1,0,0:0:0:0:
192,192,55462,1,2,0:0:0:0:
320,192,55462,1,0,0:0:0:0:
448,192,55538,1,0,0:0:0:0:
64,192,55613,1,0,0:0:0:0:
192,192,55689,1,0,0:0:0:0:
320,192,55765,1,2,0:0:0:0:
448,192,55765,1,0,0:0:0:0:
64,192,55841,1,0,0:0:0:0:
448,192,55916,1,0,0:0:0:0:
320,192,55992,1,0,0:0:0:0:
64,192,56068,1,2,0:0:0:0:
192,192,56068,1,0,0:0:0:0:
448,192,56144,1,0,0:0:0:0:
64,192,56219,1,0,0:0:0:0:
192,192,56295,1,0,0:0:0:0:
320,192,56371,1,2,0:0:0:0:
448,192,56371,1,0,0:0:0:0:
64,192,56447,1,0,0:0:0:0:
192,192,56522,1,0,0:0:0:0:
448,192,56598,1,0,0:0:0:0:
64,192,56674,1,2,0:0:0:0:
320,192,56674,1,0,0:0:0:0:
192,192,56750,1,0,0:0:0:0:
448,192,56825,1,0,0:0:0:0:
320,192,56901,1,0,0:0:0:0:
64,192,56977,1,2,0:0:0:0:
192,192,56977,1,4,0:0:0:0:
320,192,57078,1,2,0:0:0:0:
448,192,57078,1,4,0:0:0:0:
64,192,57179,1,2,0:0:0:0:
192,192,57179,1,4,0:0:0:0:
64,192,57280,1,2,0:0:0:0:
448,192,57280,1,4,0:0:0:0:
192,192,57381,1,2,0:0:0:0:
320,192,57381,1,4,0:0:0:0:
64,192,57482,1,2,0:0:0:0:
448,192,57482,1,4,0:0:0:0:
320,192,57583,1,2,0:0:0:0:
448,192,57583,1,4,0:0:0:0:
64,192,57684,1,2,0:0:0:0:
192,192,57684,1,4,0:0:0:0:
320,192,57785,1,2,0:0:0:0:
448,192,57785,1,4,0:0:0:0:
192,192,57886,1,2,0:0:0:0:
320,192,57886,1,4,0:0:0:0:
64,192,57987,1,2,0:0:0:0:
448,192,57987,1,4,0:0:0:0:
192,192,58088,1,2,0:0:0:0:
320,192,58088,1,4,0:0:0:0:
64,192,58189,1,0,0:0:0:0:
448,192,58265,1,0,0:0:0:0:
192,192,58341,1,0,0:0:0:0:
320,192,58416,1,0,0:0:0:0:
64,192,58492,1,2,0:0:0:0:
192,192,58492,1,4,0:0:0:0:
448,192,58492,1,0,0:0:0:0:
320,192,58568,1,0,0:0:0:0:
64,192,58644,1,2,0:0:0:0:
448,192,58644,1,0,0:0:0:0:
192,192,58719,1,0,0:0:0:0:
320,192,58795,1,2,0:0:0:0:
448,192,58795,1,0,0:0:0:0:
64,192,58871,1,0,0:0:0:0:
192,192,58947,1,2,0:0:0:0:
448,192,58947,1,0,0:0:0:0:
320,192,59022,1,0,0:0:0:0:
64,192,59098,1,2,0:0:0:0:
192,192,59098,1,0,0:0:0:0:
320,192,59174,1,0,0:0:0:0:
64,192,59250,1,2,0:0:0:0:
448,192,59250,1,0,0:0:0:0:
192,192,59325,1,0,0:0:0:0:
320,192,59401,1,2,0:0:0:0:
448,192,59401,1,0,0:0:0:0:
64,192,59477,1,0,0:0:0:0:
192,192,59553,1,2,0:0:0:0:
448,192,59553,1,0,0:0:0:0:
320,192,59628,1,0,0:0:0:0:
64,192,59704,1,2,0:0:0:0:
192,192,59704,1,0,0:0:0:0:
448,192,59780,1,0,0:0:0:0:
192,192,59856,1,2,0:0:0:0:
320,192,59856,1,0,0:0:0:0:
64,192,59931,1,0,0:0:0:0:
320,192,60007,1,2,0:0:0:0:
448,192,60007,1,0,0:0:0:0:
192,192,60083,1,0,0:0:0:0:
64,192,60159,1,2,0:0:0:0:
320,192,60159,1,0,0:0:0:0:
448,192,60235,1,0,0:0:0:0:
64,192,60310,1,2,0:0:0:0:
192,192,60310,1,0,0:0:0:0:
320,192,60386,1,0,0:0:0:0:
64,192,60462,1,2,0:0:0:0:
448,192,60462,1,0,0:0:0:0:
192,192,60538,1,0,0:0:0:0:
64,192,60613,1,2,0:0:0:0:
320,192,60613,1,4,0:0:0:0:
448,192,60613,1,0,0:0:0:0:
192,192,60689,1,2,0:0:0:0:
320,192,60765,1,2,0:0:0:0:
448,192,60765,1,0,0:0:0:0:
64,192,60841,1,2,0:0:0:0:
192,192,60841,1,0,0:0:0:0:
320,192,60916,1,2,0:0:0:0:
448,192,60916,1,0,0:0:0:0:
64,192,60992,1,2,0:0:0:0:
192,192,60992,1,0,0:0:0:0:
320,192,61068,1,2,0:0:0:0:
448,192,61068,1,0,0:0:0:0:
64,192,61144,1,2,0:0:0:0:
192,192,61144,1,0,0:0:0:0:
320,192,61219,1,2,0:0:0:0:
448,192,61219,1,0,0:0:0:0:
64,192,61295,1,2,0:0:0:0:
192,192,61295,1,0,0:0:0:0:
320,192,61371,1,2,0:0:0:0:
448,192,61371,1,0,0:0:0:0:
64,192,61447,1,2,0:0:0:0:
192,192,61447,1,0,0:0:0:0:
320,192,61522,1,2,0:0:0:0:
448,192,61522,1,0,0:0:0:0:
64,192,61598,1,2,0:0:0:0:
192,192,61598,1,0,0:0:0:0:
320,192,61674,1,2,0:0:0:0:
448,192,61674,1,0,0:0:0:0:
64,192,61750,1,2,0:0:0:0:
192,192,61750,1,0,0:0:0:0:
320,192,61825,128,0,62053:0:0:0:0:
192,192,61901,128,0,62053:0:0:0:0:
64,192,61977,128,0,62053:0:0:0:0:
448,192,61977,128,0,62053:0:0:0:0:
448,192,62128,128,0,62280:0:0:0:0:
320,192,62204,128,0,62356:0:0:0:0:
64,192,62280,128,0,62431:0:0:0:0:
192,192,62356,128,0,62507:0:0:0:0:
320,192,62431,128,0,62583:0:0:0:0:
448,192,62507,128,0,62659:0:0:0:0:
192,192,62583,128,0,62735:0:0:0:0:
64,192,62659,128,0,62810:0:0:0:0:
320,192,62735,128,0,62886:0:0:0:0:
448,192,62735,128,0,62810:0:0:0:0:
192,192,62810,128,0,62962:0:0:0:0:
64,192,62886,128,0,62962:0:0:0:0:
320,192,62962,128,0,65386:0:0:0:0:
448,192,62962,128,0,65386:0:0:0:0:
192,192,64250,128,0,65386:0:0:0:0:
64,192,64856,128,0,65386:0:0:0:0:
320,192,65462,128,4,65613:0:0:0:0:
448,192,65462,128,0,66219:0:0:0:0:
64,192,65613,128,0,65765:0:0:0:0:
192,192,65765,128,0,65916:0:0:0:0:
320,192,65916,128,0,66825:0:0:0:0:
64,192,66219,128,0,66371:0:0:0:0:
192,192,66371,128,0,66522:0:0:0:0:
448,192,66522,128,0,66674:0:0:0:0:
64,192,66674,128,0,66977:0:0:0:0:
192,192,66825,128,0,66977:0:0:0:0:
448,192,66977,128,0,67128:0:0:0:0:
192,192,67128,128,0,67432:0:0:0:0:
320,192,67128,128,0,67280:0:0:0:0:
64,192,67280,128,0,67432:0:0:0:0:
320,192,67432,128,0,67583:0:0:0:0:
448,192,67432,128,0,67735:0:0:0:0:
192,192,67583,128,0,67735:0:0:0:0:
64,192,67735,128,0,67886:0:0:0:0:
320,192,67848,1,0,0:0:0:0:
192,192,67886,128,0,68038:0:0:0:0:
448,192,67886,128,0,68644:0:0:0:0:
320,192,68038,128,0,68189:0:0:0:0:
64,192,68189,128,0,68341:0:0:0:0:
192,192,68341,128,0,69250:0:0:0:0:
64,192,68644,128,0,68795:0:0:0:0:
320,192,68795,128,0,68947:0:0:0:0:
448,192,68947,128,0,69098:0:0:0:0:
64,192,69098,128,0,69401:0:0:0:0:
448,192,69250,128,0,69401:0:0:0:0:
320,192,69401,128,0,69553:0:0:0:0:
64,192,69553,128,0,69856:0:0:0:0:
192,192,69553,128,0,69856:0:0:0:0:
320,192,69856,128,0,70310:0:0:0:0:
448,192,69856,128,0,70007:0:0:0:0:
192,192,70007,128,0,70159:0:0:0:0:
64,192,70159,1,0,0:0:0:0:
448,192,70260,1,0,0:0:0:0:
64,192,70285,1,0,0:0:0:0:
192,192,70310,128,0,70613:0:0:0:0:
448,192,70462,128,0,70613:0:0:0:0:
320,192,70613,128,0,70765:0:0:0:0:
64,192,70765,128,0,71068:0:0:0:0:
192,192,70765,128,0,71219:0:0:0:0:
320,192,71068,128,0,71371:0:0:0:0:
448,192,71219,128,0,71674:0:0:0:0:
64,192,71371,128,0,72128:0:0:0:0:
192,192,71674,128,0,71825:0:0:0:0:
320,192,71825,128,0,71977:0:0:0:0:
448,192,71977,128,0,72128:0:0:0:0:
192,192,72128,128,0,72280:0:0:0:0:
320,192,72128,128,0,72432:0:0:0:0:
448,192,72280,128,0,72583:0:0:0:0:
64,192,72432,128,0,72735:0:0:0:0:
192,192,72583,128,0,72735:0:0:0:0:
320,192,72735,128,0,73341:0:0:0:0:
448,192,72735,128,0,72937:0:0:0:0:
64,192,72937,128,0,73038:0:0:0:0:
192,192,73038,128,0,73139:0:0:0:0:
448,192,73139,128,0,73240:0:0:0:0:
64,192,73240,128,0,73341:0:0:0:0:
192,192,73341,128,0,73947:0:0:0:0:
448,192,73341,128,0,73543:0:0:0:0:
64,192,73543,128,0,73644:0:0:0:0:
448,192,73644,128,0,73745:0:0:0:0:
64,192,73745,128,0,73846:0:0:0:0:
320,192,73846,128,0,73947:0:0:0:0:
64,192,73947,128,0,74149:0:0:0:0:
448,192,73947,128,0,74553:0:0:0:0:
320,192,74149,128,0,74250:0:0:0:0:
64,192,74250,128,0,74351:0:0:0:0:
192,192,74351,128,0,74452:0:0:0:0:
320,192,74452,128,0,74553:0:0:0:0:
64,192,74553,128,0,74856:0:0:0:0:
192,192,74628,1,0,0:0:0:0:
448,192,74704,1,0,0:0:0:0:
192,192,74780,1,0,0:0:0:0:
448,192,74856,1,0,0:0:0:0:
320,192,74894,1,0,0:0:0:0:
64,192,74932,1,0,0:0:0:0:
192,192,74969,1,0,0:0:0:0:
448,192,75007,1,0,0:0:0:0:
320,192,75045,1,0,0:0:0:0:
64,192,75083,1,0,0:0:0:0:
192,192,75121,1,0,0:0:0:0:
320,192,75159,128,4,75310:0:0:0:0:
448,192,75159,128,2,75310:0:0:0:0:
192,192,75310,1,0,0:0:0:0:
320,192,75386,1,0,0:0:0:0:
64,192,75462,128,0,75613:0:0:0:0:
192,192,75462,128,0,75613:0:0:0:0:
320,192,75613,128,0,75765:0:0:0:0:
448,192,75613,128,0,75765:0:0:0:0:
192,192,75689,1,0,0:0:0:0:
64,192,75765,1,0,0:0:0:0:
192,192,75916,128,0,76068:0:0:0:0:
320,192,75916,128,0,76068:0:0:0:0:
64,192,76068,1,2,0:0:0:0:
448,192,76068,1,0,0:0:0:60:Fast Finish.wav
64,192,76219,128,2,76522:0:0:0:0:
320,192,76219,1,0,0:0:0:60:Fast Finish.wav
448,192,76219,128,0,76522:0:0:0:0:
192,192,76522,128,0,76674:0:0:0:0:
320,192,76522,128,0,76674:0:0:0:0:
64,192,76674,1,2,0:0:0:0:
448,192,76674,1,4,0:0:0:0:
320,192,76750,1,0,0:0:0:0:
192,192,76825,1,0,0:0:0:0:
64,192,76901,1,0,0:0:0:0:
448,192,76977,1,0,0:0:0:0:
320,192,77053,1,0,0:0:0:0:
64,192,77128,1,2,0:0:0:0:
192,192,77128,1,0,0:0:0:60:Fast Finish.wav
320,192,77204,1,0,0:0:0:0:
448,192,77280,1,0,0:0:0:0:
64,192,77356,1,0,0:0:0:0:
192,192,77432,1,0,0:0:0:0:
320,192,77507,1,0,0:0:0:0:
64,192,77583,128,2,77735:0:0:0:0:
192,192,77583,128,0,77735:0:0:0:60:Fast Finish.wav
448,192,77583,128,0,77735:0:0:0:0:
64,192,77810,128,2,77962:0:0:0:0:
320,192,77810,128,0,77962:0:0:0:60:Fast Finish.wav
448,192,77810,128,0,77962:0:0:0:0:
64,192,78038,128,2,78189:0:0:0:0:
192,192,78038,128,4,78189:0:0:0:0:
448,192,78038,128,0,78189:0:0:0:0:
320,192,78189,1,0,0:0:0:0:
192,192,78265,1,0,0:0:0:0:
64,192,78341,128,0,78492:0:0:0:0:
320,192,78341,1,0,0:0:0:0:
448,192,78416,1,0,0:0:0:0:
192,192,78492,1,0,0:0:0:0:
320,192,78568,1,0,0:0:0:0:
192,192,78644,1,0,0:0:0:0:
448,192,78644,128,0,78795:0:0:0:0:
64,192,78719,1,0,0:0:0:0:
320,192,78795,1,0,0:0:0:0:
64,192,78871,1,0,0:0:0:0:
192,192,78947,128,0,79098:0:0:0:0:
448,192,78947,1,0,0:0:0:0:
320,192,79022,1,0,0:0:0:0:
64,192,79098,1,2,0:0:0:0:
448,192,79098,1,0,0:0:0:60:Fast Finish.wav
192,192,79174,1,0,0:0:0:0:
320,192,79250,128,0,79401:0:0:0:0:
448,192,79250,1,0,0:0:0:0:
64,192,79325,1,0,0:0:0:0:
192,192,79401,1,2,0:0:0:0:
448,192,79401,1,0,0:0:0:60:Fast Finish.wav
320,192,79477,1,0,0:0:0:0:
64,192,79553,1,0,0:0:0:0:
192,192,79553,128,0,79704:0:0:0:0:
320,192,79628,1,0,0:0:0:0:
64,192,79704,1,2,0:0:0:0:
448,192,79704,1,0,0:0:0:60:Fast Finish.wav
192,192,79780,1,0,0:0:0:0:
320,192,79856,1,0,0:0:0:0:
192,192,79932,1,0,0:0:0:0:
64,192,80007,1,2,0:0:0:0:
448,192,80007,1,4,0:0:0:0:
320,192,80083,1,0,0:0:0:0:
64,192,80159,1,2,0:0:0:0:
192,192,80159,1,0,0:0:0:0:
320,192,80235,1,0,0:0:0:0:
192,192,80310,1,2,0:0:0:0:
448,192,80310,1,0,0:0:0:0:
64,192,80386,1,0,0:0:0:0:
320,192,80462,1,2,0:0:0:0:
448,192,80462,1,0,0:0:0:0:
192,192,80538,1,0,0:0:0:0:
64,192,80613,1,2,0:0:0:0:
320,192,80613,1,0,0:0:0:0:
448,192,80689,1,0,0:0:0:0:
192,192,80765,1,2,0:0:0:0:
320,192,80765,1,0,0:0:0:0:
64,192,80841,1,0,0:0:0:0:
192,192,80916,1,2,0:0:0:0:
448,192,80916,1,0,0:0:0:0:
320,192,80992,1,0,0:0:0:0:
64,192,81068,1,2,0:0:0:0:
448,192,81068,1,0,0:0:0:0:
192,192,81144,1,0,0:0:0:0:
64,192,81219,1,2,0:0:0:0:
320,192,81219,1,4,0:0:0:0:
448,192,81219,1,0,0:0:0:0:
192,192,81295,1,0,0:0:0:0:
320,192,81371,1,2,0:0:0:0:
448,192,81371,1,0,0:0:0:0:
192,192,81447,1,0,0:0:0:0:
64,192,81522,1,2,0:0:0:0:
448,192,81522,1,0,0:0:0:0:
320,192,81598,1,0,0:0:0:0:
64,192,81674,1,2,0:0:0:0:
192,192,81674,1,0,0:0:0:0:
320,192,81750,1,0,0:0:0:0:
192,192,81825,1,2,0:0:0:0:
448,192,81825,1,0,0:0:0:0:
64,192,81901,1,0,0:0:0:0:
320,192,81977,1,2,0:0:0:0:
448,192,81977,1,0,0:0:0:0:
192,192,82053,1,0,0:0:0:0:
64,192,82128,1,2,0:0:0:0:
320,192,82128,1,0,0:0:0:0:
448,192,82204,1,0,0:0:0:0:
64,192,82280,1,2,0:0:0:0:
192,192,82280,1,0,0:0:0:0:
320,192,82356,1,0,0:0:0:0:
64,192,82432,1,4,0:0:0:0:
448,192,82432,1,2,0:0:0:40:soft-hitwhistle.wav
192,192,82507,1,2,0:0:0:40:soft-hitwhistle.wav
320,192,82507,1,0,0:0:0:0:
64,192,82583,1,2,0:0:0:40:soft-hitwhistle.wav
448,192,82583,1,0,0:0:0:0:
192,192,82659,1,2,0:0:0:40:soft-hitwhistle.wav
320,192,82659,1,0,0:0:0:0:
64,192,82735,1,2,0:0:0:40:soft-hitwhistle.wav
448,192,82735,1,0,0:0:0:0:
192,192,82810,1,2,0:0:0:40:soft-hitwhistle.wav
320,192,82810,1,0,0:0:0:0:
64,192,82886,1,2,0:0:0:40:soft-hitwhistle.wav
448,192,82886,1,0,0:0:0:0:
192,192,82962,1,2,0:0:0:40:soft-hitwhistle.wav
320,192,83038,1,2,0:0:0:40:soft-hitwhistle.wav
448,192,83038,1,0,0:0:0:0:
64,192,83113,1,2,0:0:0:40:soft-hitwhistle.wav
192,192,83113,1,0,0:0:0:0:
320,192,83189,1,2,0:0:0:40:soft-hitwhistle.wav
448,192,83189,1,0,0:0:0:0:
64,192,83265,1,2,0:0:0:40:soft-hitwhistle.wav
192,192,83265,1,0,0:0:0:0:
320,192,83341,1,2,0:0:0:40:soft-hitwhistle.wav
448,192,83341,1,0,0:0:0:0:
64,192,83416,1,2,0:0:0:40:soft-hitwhistle.wav
192,192,83416,1,0,0:0:0:0:
320,192,83492,1,2,0:0:0:40:soft-hitwhistle.wav
448,192,83492,1,0,0:0:0:0:
192,192,83568,1,2,0:0:0:40:soft-hitwhistle.wav
64,192,83644,1,2,0:0:0:30:soft-hitwhistle.wav
448,192,83644,1,0,0:0:0:0:
320,192,83682,1,2,0:0:0:30:soft-hitwhistle.wav
192,192,83719,1,2,0:0:0:30:soft-hitwhistle.wav
64,192,83757,1,2,0:0:0:30:soft-hitwhistle.wav
448,192,83795,1,2,0:0:0:30:soft-hitwhistle.wav
320,192,83833,1,2,0:0:0:30:soft-hitwhistle.wav
192,192,83871,1,2,0:0:0:30:soft-hitwhistle.wav
64,192,83909,1,2,0:0:0:30:soft-hitwhistle.wav
320,192,83947,1,2,0:0:0:30:soft-hitwhistle.wav
448,192,83985,1,2,0:0:0:30:soft-hitwhistle.wav
64,192,84022,1,2,0:0:0:30:soft-hitwhistle.wav
192,192,84060,1,2,0:0:0:30:soft-hitwhistle.wav
320,192,84098,1,2,0:0:0:30:soft-hitwhistle.wav
448,192,84136,1,2,0:0:0:30:soft-hitwhistle.wav
64,192,84174,1,2,0:0:0:30:soft-hitwhistle.wav
192,192,84212,1,2,0:0:0:30:soft-hitwhistle.wav
448,192,84250,1,2,0:0:0:30:soft-hitwhistle.wav
320,192,84288,1,2,0:0:0:30:soft-hitwhistle.wav
192,192,84325,1,2,0:0:0:30:soft-hitwhistle.wav
64,192,84363,1,2,0:0:0:30:soft-hitwhistle.wav
448,192,84401,1,2,0:0:0:30:soft-hitwhistle.wav
320,192,84439,1,2,0:0:0:30:soft-hitwhistle.wav
192,192,84477,1,2,0:0:0:30:soft-hitwhistle.wav
64,192,84515,1,2,0:0:0:30:soft-hitwhistle.wav
320,192,84553,1,2,0:0:0:30:soft-hitwhistle.wav
448,192,84591,1,2,0:0:0:30:soft-hitwhistle.wav
64,192,84628,1,2,0:0:0:30:soft-hitwhistle.wav
192,192,84666,1,2,0:0:0:30:soft-hitwhistle.wav
320,192,84704,1,2,0:0:0:30:soft-hitwhistle.wav
448,192,84742,1,2,0:0:0:30:soft-hitwhistle.wav
64,192,84780,1,2,0:0:0:30:soft-hitwhistle.wav
192,192,84818,1,2,0:0:0:30:soft-hitwhistle.wav
320,192,84856,1,4,0:0:0:0:
448,192,84856,1,2,0:0:0:30:soft-hitwhistle.wav
64,192,84957,1,0,0:0:0:0:
192,192,85007,1,0,0:0:0:0:
320,192,85058,1,0,0:0:0:0:
64,192,85159,1,0,0:0:0:0:
448,192,85159,1,0,0:0:0:0:
192,192,85260,1,0,0:0:0:0:
320,192,85310,1,0,0:0:0:0:
448,192,85361,1,0,0:0:0:0:
64,192,85462,1,0,0:0:0:0:
192,192,85462,1,0,0:0:0:0:
320,192,85563,1,0,0:0:0:0:
192,192,85664,1,0,0:0:0:0:
64,192,85765,1,0,0:0:0:0:
448,192,85765,1,0,0:0:0:0:
320,192,85866,1,0,0:0:0:0:
192,192,85967,1,0,0:0:0:0:
320,192,86068,1,0,0:0:0:0:
448,192,86068,1,0,0:0:0:0:
64,192,86169,1,0,0:0:0:0:
192,192,86270,1,0,0:0:0:0:
320,192,86371,1,0,0:0:0:0:
448,192,86371,1,0,0:0:0:0:
192,192,86472,1,0,0:0:0:0:
64,192,86573,1,0,0:0:0:0:
448,192,86674,1,0,0:0:0:8:Snare.wav
192,192,86750,1,0,0:0:0:8:Snare.wav
320,192,86825,1,0,0:0:0:8:Snare.wav
192,192,86901,1,0,0:0:0:8:Snare.wav
64,192,86977,1,0,0:0:0:10:Snare.wav
320,192,87053,1,0,0:0:0:10:Snare.wav
192,192,87128,1,0,0:0:0:10:Snare.wav
320,192,87204,1,0,0:0:0:10:Snare.wav
192,192,87280,1,0,0:0:0:13:Snare.wav
448,192,87280,1,0,0:0:0:0:
64,192,87356,1,0,0:0:0:13:Snare.wav
320,192,87432,1,0,0:0:0:13:Snare.wav
192,192,87507,1,0,0:0:0:13:Snare.wav
448,192,87583,1,0,0:0:0:16:Snare.wav
64,192,87659,1,0,0:0:0:16:Snare.wav
320,192,87735,1,0,0:0:0:16:Snare.wav
192,192,87810,1,0,0:0:0:16:Snare.wav
448,192,87886,1,0,0:0:0:20:Snare.wav
320,192,87962,1,0,0:0:0:20:Snare.wav
64,192,88038,1,0,0:0:0:20:Snare.wav
192,192,88113,1,0,0:0:0:20:Snare.wav
320,192,88189,1,0,0:0:0:23:Snare.wav
448,192,88265,1,0,0:0:0:23:Snare.wav
192,192,88341,1,0,0:0:0:23:Snare.wav
64,192,88416,1,0,0:0:0:23:Snare.wav
320,192,88492,1,0,0:0:0:30:Snare.wav
448,192,88492,1,0,0:0:0:0:
192,192,88568,1,0,0:0:0:30:Snare.wav
64,192,88644,1,0,0:0:0:30:Snare.wav
320,192,88644,1,0,0:0:0:0:
448,192,88719,1,0,0:0:0:30:Snare.wav
64,192,88795,1,0,0:0:0:35:Snare.wav
192,192,88795,1,0,0:0:0:0:
320,192,88871,1,0,0:0:0:35:Snare.wav
192,192,88947,1,0,0:0:0:35:Snare.wav
448,192,88947,1,0,0:0:0:0:
64,192,89022,1,0,0:0:0:35:Snare.wav
320,192,89098,1,0,0:0:0:35:Snare.wav
448,192,89098,1,0,0:0:0:0:
64,192,89174,1,0,0:0:0:35:Snare.wav
192,192,89174,1,0,0:0:0:0:
320,192,89250,1,0,0:0:0:35:Snare.wav
448,192,89250,1,0,0:0:0:0:
64,192,89325,1,0,0:0:0:35:Snare.wav
192,192,89325,1,0,0:0:0:0:
320,192,89401,1,4,0:0:0:0:
448,192,89401,1,0,0:0:0:0:
192,192,89477,1,0,0:0:0:0:
64,192,89553,1,0,0:0:0:0:
448,192,89553,1,0,0:0:0:0:
320,192,89628,1,0,0:0:0:0:
64,192,89704,128,2,89856:0:0:0:0:
192,192,89704,128,4,89856:0:0:0:0:
448,192,89704,128,0,89856:0:0:0:0:
320,192,89856,1,0,0:0:0:0:
192,192,89932,1,0,0:0:0:0:
64,192,90007,128,2,90159:0:0:0:0:
320,192,90007,128,0,90159:0:0:0:0:
448,192,90007,128,0,90159:0:0:0:0:
192,192,90159,1,0,0:0:0:0:
320,192,90235,1,0,0:0:0:0:
64,192,90310,128,2,90462:0:0:0:0:
192,192,90310,1,0,0:0:0:0:
448,192,90310,128,0,90462:0:0:0:0:
320,192,90462,128,0,90613:0:0:0:0:
64,192,90613,128,2,90765:0:0:0:0:
192,192,90613,128,0,90765:0:0:0:0:
448,192,90613,1,0,0:0:0:0:
320,192,90765,128,0,90916:0:0:0:0:
448,192,90765,128,0,90916:0:0:0:0:
64,192,90916,1,2,0:0:0:0:
192,192,90916,1,0,0:0:0:0:
192,192,91068,128,0,91219:0:0:0:0:
320,192,91068,128,0,91219:0:0:0:0:
64,192,91219,1,2,0:0:0:0:
448,192,91219,1,0,0:0:0:0:
64,192,91371,128,0,91522:0:0:0:0:
192,192,91371,128,0,91522:0:0:0:0:
320,192,91522,1,2,0:0:0:0:
448,192,91522,1,0,0:0:0:0:
192,192,91598,1,0,0:0:0:0:
64,192,91674,1,0,0:0:0:0:
448,192,91674,1,0,0:0:0:0:
320,192,91750,1,0,0:0:0:0:
64,192,91825,1,2,0:0:0:0:
192,192,91825,1,0,0:0:0:0:
320,192,91901,1,0,0:0:0:0:
64,192,91977,1,0,0:0:0:0:
448,192,91977,1,0,0:0:0:0:
192,192,92053,1,0,0:0:0:0:
320,192,92128,128,2,92280:0:0:0:0:
448,192,92128,128,0,92280:0:0:0:0:
64,192,92280,1,0,0:0:0:0:
192,192,92356,128,0,92432:0:0:0:0:
320,192,92356,128,0,92432:0:0:0:0:
64,192,92432,1,2,0:0:0:0:
448,192,92432,1,0,0:0:0:0:
64,192,92583,128,0,92735:0:0:0:0:
192,192,92583,128,0,92735:0:0:0:0:
320,192,92735,1,2,0:0:0:0:
448,192,92735,1,0,0:0:0:0:
192,192,92810,128,0,92962:0:0:0:0:
320,192,92810,128,0,92962:0:0:0:0:
64,192,93038,128,2,93189:0:0:0:0:
448,192,93038,128,0,93189:0:0:0:0:
192,192,93189,128,0,93341:0:0:0:0:
320,192,93189,128,0,93341:0:0:0:0:
64,192,93341,128,2,93492:0:0:0:0:
448,192,93341,128,0,93492:0:0:0:0:
192,192,93492,1,0,0:0:0:0:
320,192,93568,1,0,0:0:0:0:
64,192,93644,128,2,93795:0:0:0:0:
192,192,93644,1,0,0:0:0:0:
448,192,93644,128,0,93795:0:0:0:0:
320,192,93795,1,0,0:0:0:0:
192,192,93871,1,0,0:0:0:0:
64,192,93947,1,2,0:0:0:0:
320,192,93947,128,0,94098:0:0:0:0:
448,192,93947,128,0,94098:0:0:0:0:
192,192,94098,1,0,0:0:0:0:
64,192,94174,1,0,0:0:0:0:
192,192,94250,128,2,94401:0:0:0:0:
320,192,94250,128,0,94401:0:0:0:0:
448,192,94250,1,0,0:0:0:0:
64,192,94401,1,0,0:0:0:0:
192,192,94477,1,0,0:0:0:0:
64,192,94553,128,2,94704:0:0:0:0:
320,192,94553,128,4,94704:0:0:0:0:
448,192,94553,128,0,94704:0:0:0:0:
192,192,94704,1,0,0:0:0:0:
64,192,94856,1,0,0:0:0:0:
320,192,94856,1,0,0:0:0:0:
64,192,95007,128,4,95159:0:0:0:0:
192,192,95007,128,2,95159:0:0:0:0:
448,192,95007,128,0,95159:0:0:0:0:
320,192,95159,1,0,0:0:0:0:
192,192,95310,1,0,0:0:0:0:
448,192,95310,1,0,0:0:0:0:
64,192,95462,128,2,95613:0:0:0:0:
320,192,95462,128,4,95613:0:0:0:0:
448,192,95462,128,0,95613:0:0:0:0:
192,192,95613,1,0,0:0:0:0:
320,192,95689,1,0,0:0:0:0:
64,192,95765,1,0,0:0:0:0:
448,192,95765,1,0,0:0:0:0:
192,192,95841,1,0,0:0:0:0:
320,192,95916,1,2,0:0:0:0:
448,192,95916,1,0,0:0:0:0:
64,192,95992,1,2,0:0:0:0:
192,192,95992,1,0,0:0:0:0:
320,192,96068,1,2,0:0:0:0:
448,192,96068,1,4,0:0:0:0:
192,192,96144,1,0,0:0:0:0:
64,192,96219,1,0,0:0:0:0:
448,192,96219,1,0,0:0:0:0:
320,192,96295,1,0,0:0:0:0:
64,192,96371,1,2,0:0:0:0:
192,192,96371,1,0,0:0:0:0:
320,192,96447,1,0,0:0:0:0:
192,192,96522,1,0,0:0:0:0:
448,192,96522,1,0,0:0:0:0:
64,192,96598,1,0,0:0:0:0:
320,192,96674,1,2,0:0:0:0:
448,192,96674,1,0,0:0:0:0:
192,192,96750,1,0,0:0:0:0:
64,192,96825,1,0,0:0:0:0:
320,192,96825,1,0,0:0:0:0:
448,192,96901,1,0,0:0:0:0:
64,192,96977,1,2,0:0:0:0:
192,192,96977,1,0,0:0:0:0:
320,192,97053,1,0,0:0:0:0:
64,192,97128,1,0,0:0:0:0:
448,192,97128,1,0,0:0:0:0:
192,192,97204,1,0,0:0:0:0:
320,192,97280,1,2,0:0:0:0:
448,192,97280,1,0,0:0:0:0:
192,192,97356,1,0,0:0:0:0:
64,192,97432,1,0,0:0:0:0:
448,192,97432,1,0,0:0:0:0:
320,192,97507,1,0,0:0:0:0:
64,192,97583,1,2,0:0:0:0:
192,192,97583,1,0,0:0:0:0:
448,192,97659,1,0,0:0:0:0:
192,192,97735,1,0,0:0:0:0:
320,192,97735,1,0,0:0:0:0:
64,192,97810,1,0,0:0:0:0:
320,192,97886,1,2,0:0:0:0:
448,192,97886,1,0,0:0:0:0:
192,192,97962,1,0,0:0:0:0:
64,192,98038,1,0,0:0:0:0:
320,192,98038,1,0,0:0:0:0:
448,192,98113,1,0,0:0:0:0:
64,192,98189,1,2,0:0:0:0:
192,192,98189,1,0,0:0:0:0:
320,192,98265,1,0,0:0:0:0:
192,192,98341,1,0,0:0:0:0:
448,192,98341,1,0,0:0:0:0:
64,192,98416,1,0,0:0:0:0:
320,192,98492,1,2,0:0:0:0:
448,192,98492,1,0,0:0:0:0:
192,192,98568,1,0,0:0:0:0:
64,192,98644,1,0,0:0:0:0:
320,192,98644,1,0,0:0:0:0:
448,192,98719,1,0,0:0:0:0:
64,192,98795,1,2,0:0:0:0:
192,192,98795,1,0,0:0:0:0:
320,192,98871,1,0,0:0:0:0:
192,192,98947,1,0,0:0:0:0:
64,192,99022,1,2,0:0:0:0:
448,192,99022,1,0,0:0:0:0:
320,192,99098,1,0,0:0:0:0:
192,192,99174,1,0,0:0:0:0:
320,192,99250,128,0,99401:0:0:0:0:
448,192,99250,128,0,99401:0:0:0:0:
64,192,99401,128,0,99553:0:0:0:0:
192,192,99401,128,0,99553:0:0:0:0:
320,192,99553,1,2,0:0:0:0:
448,192,99553,1,0,0:0:0:0:
64,192,99704,128,4,99856:0:0:0:0:
192,192,99704,128,2,99856:0:0:0:0:
448,192,99704,128,0,99856:0:0:0:0:
320,192,99856,1,0,0:0:0:0:
192,192,99932,1,0,0:0:0:0:
64,192,100007,128,2,100159:0:0:0:0:
320,192,100007,128,0,100159:0:0:0:0:
448,192,100007,128,0,100159:0:0:0:0:
192,192,100159,1,0,0:0:0:0:
320,192,100235,1,0,0:0:0:0:
64,192,100310,1,2,0:0:0:0:
448,192,100310,1,0,0:0:0:0:
192,192,100386,1,0,0:0:0:0:
320,192,100462,128,0,100613:0:0:0:0:
448,192,100462,128,0,100613:0:0:0:0:
64,192,100613,1,2,0:0:0:0:
192,192,100613,1,0,0:0:0:0:
64,192,100765,128,0,100916:0:0:0:0:
448,192,100765,128,0,100916:0:0:0:0:
192,192,100916,1,2,0:0:0:0:
320,192,100916,1,0,0:0:0:0:
64,192,101068,1,0,0:0:0:0:
448,192,101068,1,0,0:0:0:0:
192,192,101144,1,0,0:0:0:0:
320,192,101219,1,2,0:0:0:0:
448,192,101219,1,0,0:0:0:0:
192,192,101295,1,0,0:0:0:0:
64,192,101371,1,0,0:0:0:0:
448,192,101371,1,0,0:0:0:0:
320,192,101447,1,0,0:0:0:0:
64,192,101522,1,2,0:0:0:0:
192,192,101522,1,0,0:0:0:0:
320,192,101598,1,0,0:0:0:0:
64,192,101674,1,0,0:0:0:0:
448,192,101674,1,0,0:0:0:0:
192,192,101750,1,0,0:0:0:0:
64,192,101825,128,2,101977:0:0:0:0:
320,192,101825,128,0,101977:0:0:0:60:Fast Finish.wav
448,192,101825,128,0,101977:0:0:0:0:
64,192,102053,128,2,102204:0:0:0:0:
192,192,102053,128,0,102204:0:0:0:60:Fast Finish.wav
448,192,102053,128,0,102204:0:0:0:0:
64,192,102280,128,2,102432:0:0:0:0:
192,192,102280,128,0,102432:0:0:0:60:Fast Finish.wav
320,192,102280,128,0,102432:0:0:0:0:
192,192,102507,128,2,102659:0:0:0:0:
320,192,102507,128,0,102659:0:0:0:60:Fast Finish.wav
448,192,102507,128,0,102659:0:0:0:0:
64,192,102735,128,2,102810:0:0:0:0:
192,192,102735,128,0,102810:0:0:0:60:Fast Finish.wav
448,192,102735,128,0,102810:0:0:0:0:
64,192,102886,128,2,102962:0:0:0:0:
320,192,102886,128,0,102962:0:0:0:60:Fast Finish.wav
448,192,102886,128,0,102962:0:0:0:0:
64,192,103038,128,0,103189:0:0:0:0:
192,192,103038,128,0,103189:0:0:0:0:
320,192,103189,1,2,0:0:0:0:
448,192,103189,1,0,0:0:0:60:Fast Finish.wav
64,192,103341,128,0,103492:0:0:0:0:
448,192,103341,128,0,103492:0:0:0:0:
192,192,103492,1,2,0:0:0:0:
320,192,103492,1,0,0:0:0:60:Fast Finish.wav
320,192,103644,128,2,103795:0:0:0:0:
448,192,103644,128,0,103795:0:0:0:60:Fast Finish.wav
64,192,103795,1,2,0:0:0:0:
192,192,103833,1,2,0:0:0:0:
320,192,103871,1,2,0:0:0:0:
448,192,103909,1,2,0:0:0:0:
64,192,103947,1,2,0:0:0:0:
192,192,103947,1,4,0:0:0:0:
320,192,104022,1,2,0:0:0:0:
448,192,104022,1,0,0:0:0:0:
64,192,104098,1,2,0:0:0:0:
192,192,104098,1,0,0:0:0:0:
320,192,104174,1,2,0:0:0:0:
64,192,104250,128,2,104401:0:0:0:0:
192,192,104250,128,4,104401:0:0:0:0:
448,192,104250,128,0,104401:0:0:0:0:
320,192,104401,1,0,0:0:0:0:
192,192,104477,1,0,0:0:0:0:
320,192,104553,1,0,0:0:0:0:
192,192,104628,1,0,0:0:0:0:
64,192,104704,128,2,104856:0:0:0:0:
320,192,104704,128,4,104856:0:0:0:0:
448,192,104704,128,0,104856:0:0:0:0:
192,192,104856,1,0,0:0:0:0:
64,192,104932,1,0,0:0:0:0:
320,192,105007,1,0,0:0:0:0:
448,192,105083,1,0,0:0:0:0:
64,192,105159,128,2,105310:0:0:0:0:
192,192,105159,128,4,105310:0:0:0:0:
320,192,105159,128,0,105310:0:0:0:0:
448,192,105310,1,0,0:0:0:0:
64,192,105386,1,0,0:0:0:0:
448,192,105462,1,0,0:0:0:0:
64,192,105538,1,0,0:0:0:0:
192,192,105613,128,2,105765:0:0:0:0:
320,192,105613,128,4,105765:0:0:0:0:
448,192,105613,128,0,105765:0:0:0:0:
64,192,105765,1,0,0:0:0:0:
192,192,105841,1,0,0:0:0:0:
448,192,105916,1,0,0:0:0:0:
320,192,105992,1,0,0:0:0:0:
64,192,106068,128,2,106219:0:0:0:0:
192,192,106068,128,4,106219:0:0:0:0:
448,192,106068,128,0,106219:0:0:0:0:
320,192,106219,1,0,0:0:0:0:
192,192,106295,1,0,0:0:0:0:
64,192,106371,128,4,106522:0:0:0:0:
320,192,106371,128,2,106522:0:0:0:0:
448,192,106371,128,0,106522:0:0:0:0:
192,192,106522,1,0,0:0:0:0:
320,192,106598,1,0,0:0:0:0:
64,192,106674,1,4,0:0:0:0:
448,192,106674,1,2,0:0:0:0:
192,192,106750,1,0,0:0:0:0:
320,192,106825,1,2,0:0:0:0:
448,192,106825,1,0,0:0:0:0:
64,192,106901,1,0,0:0:0:0:
192,192,106977,1,2,0:0:0:0:
320,192,106977,1,0,0:0:0:0:
448,192,107053,1,0,0:0:0:0:
64,192,107128,1,2,0:0:0:0:
192,192,107128,1,0,0:0:0:0:
320,192,107204,1,0,0:0:0:0:
64,192,107280,1,2,0:0:0:0:
448,192,107280,1,0,0:0:0:0:
192,192,107356,1,0,0:0:0:0:
320,192,107432,1,2,0:0:0:0:
448,192,107432,1,0,0:0:0:0:
192,192,107507,1,0,0:0:0:0:
64,192,107583,1,2,0:0:0:0:
320,192,107583,1,0,0:0:0:0:
448,192,107659,1,0,0:0:0:0:
192,192,107735,1,2,0:0:0:0:
320,192,107735,1,0,0:0:0:0:
64,192,107810,1,0,0:0:0:0:
192,192,107886,1,2,0:0:0:0:
448,192,107886,1,0,0:0:0:0:
320,192,107962,1,0,0:0:0:0:
64,192,108038,1,2,0:0:0:0:
448,192,108038,1,0,0:0:0:0:
192,192,108113,1,0,0:0:0:0:
64,192,108189,1,2,0:0:0:0:
320,192,108189,1,0,0:0:0:0:
448,192,108265,1,0,0:0:0:0:
64,192,108341,1,2,0:0:0:0:
192,192,108341,1,0,0:0:0:0:
320,192,108416,1,0,0:0:0:0:
192,192,108492,1,2,0:0:0:0:
448,192,108492,1,0,0:0:0:0:
64,192,108568,1,0,0:0:0:0:
448,192,108644,1,2,0:0:0:0:
320,192,108682,1,2,0:0:0:0:
192,192,108719,1,2,0:0:0:0:
64,192,108757,1,2,0:0:0:0:
320,192,108795,1,2,0:0:0:0:
448,192,108795,1,0,0:0:0:0:
192,192,108871,1,0,0:0:0:0:
64,192,108947,1,2,0:0:0:40:soft-hitwhistle.wav
448,192,108947,1,0,0:0:0:0:
192,192,109022,1,2,0:0:0:40:soft-hitwhistle.wav
320,192,109022,1,0,0:0:0:0:
64,192,109098,1,4,0:0:0:0:
448,192,109098,1,2,0:0:0:40:soft-hitwhistle.wav
320,192,109174,1,2,0:0:0:40:soft-hitwhistle.wav
64,192,109250,1,2,0:0:0:40:soft-hitwhistle.wav
192,192,109250,1,0,0:0:0:0:
320,192,109325,1,2,0:0:0:40:soft-hitwhistle.wav
448,192,109325,1,0,0:0:0:0:
64,192,109401,1,2,0:0:0:40:soft-hitwhistle.wav
192,192,109401,1,0,0:0:0:0:
320,192,109477,1,2,0:0:0:40:soft-hitwhistle.wav
64,192,109553,1,2,0:0:0:40:soft-hitwhistle.wav
448,192,109553,1,0,0:0:0:0:
192,192,109628,1,2,0:0:0:40:soft-hitwhistle.wav
320,192,109628,1,0,0:0:0:0:
64,192,109704,1,2,0:0:0:40:soft-hitwhistle.wav
448,192,109704,1,0,0:0:0:0:
192,192,109780,1,2,0:0:0:40:soft-hitwhistle.wav
320,192,109856,1,2,0:0:0:40:soft-hitwhistle.wav
448,192,109856,1,0,0:0:0:0:
64,192,109932,1,2,0:0:0:40:soft-hitwhistle.wav
192,192,109932,1,0,0:0:0:0:
320,192,110007,1,2,0:0:0:40:soft-hitwhistle.wav
448,192,110007,1,0,0:0:0:0:
192,192,110083,1,2,0:0:0:40:soft-hitwhistle.wav
64,192,110159,1,2,0:0:0:40:soft-hitwhistle.wav
448,192,110159,1,0,0:0:0:0:
192,192,110235,1,2,0:0:0:40:soft-hitwhistle.wav
320,192,110235,1,0,0:0:0:0:
64,192,110310,1,2,0:0:0:30:soft-hitwhistle.wav
448,192,110310,1,0,0:0:0:0:
320,192,110348,1,2,0:0:0:30:soft-hitwhistle.wav
192,192,110386,1,2,0:0:0:30:soft-hitwhistle.wav
64,192,110424,1,2,0:0:0:30:soft-hitwhistle.wav
448,192,110462,1,2,0:0:0:30:soft-hitwhistle.wav
320,192,110500,1,2,0:0:0:30:soft-hitwhistle.wav
192,192,110538,1,2,0:0:0:30:soft-hitwhistle.wav
64,192,110575,1,2,0:0:0:30:soft-hitwhistle.wav
320,192,110613,1,2,0:0:0:30:soft-hitwhistle.wav
448,192,110651,1,2,0:0:0:30:soft-hitwhistle.wav
64,192,110689,1,2,0:0:0:30:soft-hitwhistle.wav
192,192,110727,1,2,0:0:0:30:soft-hitwhistle.wav
320,192,110765,1,2,0:0:0:30:soft-hitwhistle.wav
448,192,110803,1,2,0:0:0:30:soft-hitwhistle.wav
64,192,110841,1,2,0:0:0:30:soft-hitwhistle.wav
192,192,110878,1,2,0:0:0:30:soft-hitwhistle.wav
448,192,110916,1,2,0:0:0:30:soft-hitwhistle.wav
320,192,110954,1,2,0:0:0:30:soft-hitwhistle.wav
192,192,110992,1,2,0:0:0:30:soft-hitwhistle.wav
64,192,111030,1,2,0:0:0:30:soft-hitwhistle.wav
448,192,111068,1,2,0:0:0:30:soft-hitwhistle.wav
320,192,111106,1,2,0:0:0:30:soft-hitwhistle.wav
192,192,111144,1,2,0:0:0:30:soft-hitwhistle.wav
64,192,111182,1,2,0:0:0:30:soft-hitwhistle.wav
320,192,111219,1,2,0:0:0:30:soft-hitwhistle.wav
448,192,111219,1,0,0:0:0:50:Snare.wav
192,192,111295,1,2,0:0:0:30:soft-hitwhistle.wav
64,192,111371,1,2,0:0:0:30:soft-hitwhistle.wav
448,192,111371,1,0,0:0:0:0:
320,192,111447,1,2,0:0:0:30:soft-hitwhistle.wav
64,192,111522,1,2,0:0:0:0:
192,192,111522,1,0,0:0:0:60:Fast Finish.wav
448,192,111598,1,0,0:0:0:0:
192,192,111674,1,2,0:0:0:0:
320,192,111674,1,0,0:0:0:60:Fast Finish.wav
64,192,111750,1,0,0:0:0:0:
192,192,111825,1,2,0:0:0:0:
448,192,111825,1,0,0:0:0:60:Fast Finish.wav
320,192,111901,1,0,0:0:0:0:
64,192,111977,128,2,112128:0:0:0:0:
192,192,111977,128,0,112128:0:0:0:60:Fast Finish.wav
448,192,111977,128,0,112128:0:0:0:0:
320,192,112128,1,0,0:0:0:0:
192,192,112204,1,0,0:0:0:0:
64,192,112280,1,2,0:0:0:0:
448,192,112280,1,0,0:0:0:60:Fast Finish.wav
320,192,112356,1,0,0:0:0:0:
64,192,112432,1,2,0:0:0:0:
192,192,112432,1,0,0:0:0:60:Fast Finish.wav
320,192,112507,1,0,0:0:0:0:
192,192,112583,1,2,0:0:0:0:
448,192,112583,1,0,0:0:0:60:Fast Finish.wav
64,192,112659,1,0,0:0:0:0:
320,192,112735,1,2,0:0:0:0:
448,192,112735,1,0,0:0:0:0:
192,192,112810,1,0,0:0:0:0:
64,192,112886,128,2,113038:0:0:0:0:
320,192,112886,128,0,113038:0:0:0:60:Fast Finish.wav
448,192,112886,128,0,113038:0:0:0:0:
192,192,113038,1,0,0:0:0:0:
320,192,113113,1,0,0:0:0:0:
64,192,113189,1,2,0:0:0:0:
448,192,113189,1,0,0:0:0:60:Fast Finish.wav
192,192,113265,1,0,0:0:0:0:
64,192,113341,128,2,113492:0:0:0:0:
320,192,113341,128,0,113492:0:0:0:60:Fast Finish.wav
448,192,113341,128,0,113492:0:0:0:0:
64,192,113568,128,2,113719:0:0:0:0:
320,192,113568,128,0,113719:0:0:0:60:Fast Finish.wav
448,192,113568,128,0,113719:0:0:0:0:
64,192,113795,128,2,113947:0:0:0:0:
192,192,113795,128,0,113947:0:0:0:60:Fast Finish.wav
448,192,113795,128,0,113947:0:0:0:0:
320,192,113947,1,0,0:0:0:0:
192,192,114022,1,0,0:0:0:0:
64,192,114098,128,2,114250:0:0:0:0:
320,192,114098,128,0,114250:0:0:0:60:Fast Finish.wav
448,192,114098,128,0,114250:0:0:0:0:
192,192,114250,1,0,0:0:0:0:
320,192,114325,1,0,0:0:0:0:
64,192,114401,1,2,0:0:0:0:
448,192,114401,1,0,0:0:0:60:Fast Finish.wav
192,192,114477,1,0,0:0:0:0:
320,192,114553,1,2,0:0:0:0:
448,192,114553,1,0,0:0:0:60:Fast Finish.wav
192,192,114628,1,0,0:0:0:0:
64,192,114704,128,2,114856:0:0:0:0:
320,192,114704,128,0,114856:0:0:0:60:Fast Finish.wav
448,192,114704,128,0,114856:0:0:0:0:
192,192,114856,1,0,0:0:0:0:
320,192,114932,1,0,0:0:0:0:
64,192,115007,1,2,0:0:0:0:
192,192,115007,1,0,0:0:0:60:Fast Finish.wav
320,192,115083,1,0,0:0:0:0:
64,192,115159,128,2,115310:0:0:0:0:
192,192,115159,128,0,115310:0:0:0:60:Fast Finish.wav
448,192,115159,128,0,115310:0:0:0:0:
64,192,115386,128,2,115538:0:0:0:0:
192,192,115386,128,0,115538:0:0:0:60:Fast Finish.wav
448,192,115386,128,0,115538:0:0:0:0:
64,192,115613,128,2,115689:0:0:0:0:
320,192,115613,128,0,115689:0:0:0:60:Fast Finish.wav
448,192,115613,128,0,115689:0:0:0:0:
64,192,115765,1,2,0:0:0:0:
320,192,115765,1,0,0:0:0:60:Fast Finish.wav
448,192,115765,1,0,0:0:0:0:
192,192,115841,1,0,0:0:0:0:
448,192,115916,1,2,0:0:0:0:
320,192,115954,1,2,0:0:0:0:
64,192,115992,1,2,0:0:0:0:
192,192,116030,1,2,0:0:0:0:
320,192,116068,1,2,0:0:0:0:
448,192,116068,1,0,0:0:0:0:
64,192,116144,1,2,0:0:0:0:
192,192,116144,1,0,0:0:0:0:
320,192,116219,1,2,0:0:0:0:
448,192,116219,1,0,0:0:0:0:
192,192,116295,1,2,0:0:0:0:
64,192,116371,128,2,116522:0:0:0:0:
320,192,116371,128,0,116522:0:0:0:60:Fast Finish.wav
448,192,116371,128,0,116522:0:0:0:0:
64,192,116598,128,2,116750:0:0:0:0:
320,192,116598,128,0,116750:0:0:0:60:Fast Finish.wav
448,192,116598,128,0,116750:0:0:0:0:
64,192,116825,128,2,116977:0:0:0:0:
192,192,116825,128,0,116977:0:0:0:60:Fast Finish.wav
448,192,116825,128,0,116977:0:0:0:0:
64,192,117053,128,2,117204:0:0:0:0:
192,192,117053,128,0,117204:0:0:0:60:Fast Finish.wav
448,192,117053,128,0,117204:0:0:0:0:
192,192,117280,128,2,117432:0:0:0:0:
320,192,117280,128,0,117432:0:0:0:60:Fast Finish.wav
448,192,117280,128,0,117432:0:0:0:0:
192,192,117507,128,2,117659:0:0:0:0:
320,192,117507,128,0,117659:0:0:0:60:Fast Finish.wav
448,192,117507,128,0,117659:0:0:0:0:
64,192,117735,128,2,117886:0:0:0:0:
192,192,117735,128,0,117886:0:0:0:60:Fast Finish.wav
320,192,117735,128,0,117886:0:0:0:0:
64,192,117962,128,2,118113:0:0:0:0:
192,192,117962,128,0,118113:0:0:0:60:Fast Finish.wav
320,192,117962,128,0,118113:0:0:0:0:
64,192,118189,128,2,118341:0:0:0:0:
320,192,118189,128,0,118341:0:0:0:60:Fast Finish.wav
448,192,118189,128,0,118341:0:0:0:0:
64,192,118416,128,2,118568:0:0:0:0:
192,192,118416,128,0,118568:0:0:0:60:Fast Finish.wav
448,192,118416,128,0,118568:0:0:0:0:
64,192,118644,1,2,0:0:0:0:
192,192,118644,1,0,0:0:0:60:Fast Finish.wav
320,192,118719,1,0,0:0:0:0:
64,192,118795,1,2,0:0:0:0:
192,192,118795,1,4,0:0:0:0:
448,192,118795,1,0,0:0:0:0:
320,192,118871,1,0,0:0:0:0:
64,192,118947,1,2,0:0:0:0:
448,192,118947,1,0,0:0:0:0:
192,192,119022,1,0,0:0:0:0:
320,192,119098,1,2,0:0:0:0:
448,192,119098,1,0,0:0:0:0:
192,192,119174,1,0,0:0:0:0:
64,192,119250,1,2,0:0:0:0:
448,192,119250,1,0,0:0:0:0:
320,192,119325,1,0,0:0:0:0:
64,192,119401,1,2,0:0:0:0:
192,192,119401,1,4,0:0:0:0:
448,192,119401,1,0,0:0:0:0:
320,192,119477,1,0,0:0:0:0:
64,192,119553,1,2,0:0:0:0:
192,192,119553,1,0,0:0:0:0:
320,192,119628,1,0,0:0:0:0:
64,192,119704,1,2,0:0:0:0:
448,192,119704,1,0,0:0:0:0:
192,192,119780,1,0,0:0:0:0:
320,192,119856,1,2,0:0:0:0:
448,192,119856,1,0,0:0:0:0:
192,192,119932,1,0,0:0:0:0:
64,192,120007,1,2,0:0:0:40:soft-hitwhistle.wav
448,192,120007,1,0,0:0:0:0:
192,192,120083,1,2,0:0:0:40:soft-hitwhistle.wav
320,192,120083,1,0,0:0:0:0:
64,192,120159,1,2,0:0:0:40:soft-hitwhistle.wav
448,192,120159,1,0,0:0:0:0:
320,192,120235,1,2,0:0:0:40:soft-hitwhistle.wav
64,192,120310,1,2,0:0:0:40:soft-hitwhistle.wav
192,192,120310,1,0,0:0:0:0:
320,192,120386,1,2,0:0:0:40:soft-hitwhistle.wav
448,192,120386,1,0,0:0:0:0:
64,192,120462,1,2,0:0:0:40:soft-hitwhistle.wav
192,192,120462,1,0,0:0:0:0:
320,192,120538,1,2,0:0:0:40:soft-hitwhistle.wav
64,192,120613,1,2,0:0:0:30:soft-hitwhistle.wav
448,192,120613,1,0,0:0:0:0:
192,192,120651,1,2,0:0:0:30:soft-hitwhistle.wav
320,192,120689,1,2,0:0:0:30:soft-hitwhistle.wav
448,192,120727,1,2,0:0:0:30:soft-hitwhistle.wav
64,192,120765,1,2,0:0:0:30:soft-hitwhistle.wav
192,192,120803,1,2,0:0:0:30:soft-hitwhistle.wav
320,192,120841,1,2,0:0:0:30:soft-hitwhistle.wav
448,192,120878,1,2,0:0:0:30:soft-hitwhistle.wav
64,192,120916,1,2,0:0:0:30:soft-hitwhistle.wav
192,192,120954,1,2,0:0:0:30:soft-hitwhistle.wav
320,192,120992,1,2,0:0:0:30:soft-hitwhistle.wav
448,192,121030,1,2,0:0:0:30:soft-hitwhistle.wav
64,192,121068,1,2,0:0:0:30:soft-hitwhistle.wav
192,192,121106,1,2,0:0:0:30:soft-hitwhistle.wav
320,192,121144,1,2,0:0:0:30:soft-hitwhistle.wav
448,192,121182,1,2,0:0:0:30:soft-hitwhistle.wav
64,192,121219,128,4,122507:0:0:0:0:
192,192,121219,128,2,121371:0:0:0:0:
320,192,121371,128,0,121522:0:0:0:0:
448,192,121522,128,0,121674:0:0:0:0:
192,192,121674,128,0,122507:0:0:0:0:
320,192,121977,128,0,122659:0:0:0:0:
448,192,122280,128,0,122810:0:0:0:0:
64,192,122583,128,0,123113:0:0:0:0:
192,192,122583,128,0,122962:0:0:0:0:
320,192,122735,128,0,122962:0:0:0:0:
448,192,122886,128,0,123265:0:0:0:0:
192,192,123038,128,0,123416:0:0:0:0:
320,192,123038,128,0,123416:0:0:0:0:
64,192,123189,128,0,123568:0:0:0:0:
448,192,123341,128,0,123568:0:0:0:0:
192,192,123492,128,0,123568:0:0:0:0:
320,192,123492,128,0,123568:0:0:0:0:
64,192,123644,128,0,128492:0:0:0:0:
192,192,123644,128,0,126068:0:0:0:0:
320,192,123644,128,0,124856:0:0:0:0:
448,192,123644,128,0,128492:0:0:0:0:
