osu file format v14

[General]
AudioFilename: audio.ogg
AudioLeadIn: 0
PreviewTime: 71144
Countdown: 0
SampleSet: Soft
StackLeniency: 0.7
Mode: 3
LetterboxInBreaks: 0
SpecialStyle: 0
WidescreenStoryboard: 0

[Editor]
DistanceSpacing: 1
BeatDivisor: 4
GridSize: 4
TimelineZoom: 2.5

[Metadata]
Title:XENOViA
TitleUnicode:XENOViA
Artist:BlackY
ArtistUnicode:BlackY
Creator:Shima Rin
Version:XEUS
Source:jubeat festo
Tags:_DUSK_ -Dusk Dusk- Axer Murumoo Kuo Kyoka Akasha- Tofu1222 WAiKURO The 10th KAC KONAMI Arcade Championship FA Featured Artist Video Game Electronic Instrumental
BeatmapID:3478330
BeatmapSetID:1702342

[Difficulty]
HPDrainRate:9
CircleSize:4
OverallDifficulty:8.5
ApproachRate:5
SliderMultiplier:1.4
SliderTickRate:1

[Events]
//Background and Video events
0,0,"BG.jpg",0,0
//Break Periods
//Storyboard Layer 0 (Background)
//Storyboard Layer 1 (Fail)
//Storyboard Layer 2 (Pass)
//Storyboard Layer 3 (Foreground)
//Storyboard Layer 4 (Overlay)
//Storyboard Sound Samples

[TimingPoints]
760,288.461538461538,4,2,1,60,1,0
91913,-100,4,2,1,60,0,1
110375,-100,4,2,1,60,0,0

[HitObjects]
64,192,760,5,0,0:0:0:0:
192,192,760,128,0,1192:0:0:0:0:
320,192,904,1,0,0:0:0:0:
448,192,1048,1,0,0:0:0:0:
64,192,1192,1,0,0:0:0:0:
320,192,1192,128,0,1625:0:0:0:0:
192,192,1336,1,0,0:0:0:0:
64,192,1481,1,0,0:0:0:0:
192,192,1625,1,0,0:0:0:0:
448,192,1625,128,0,2058:0:0:0:0:
64,192,1769,1,0,0:0:0:0:
192,192,1769,1,0,0:0:0:0:
320,192,1913,1,0,0:0:0:0:
64,192,2058,128,0,2490:0:0:0:0:
192,192,2058,1,0,0:0:0:0:
320,192,2202,1,0,0:0:0:0:
448,192,2346,1,0,0:0:0:0:
192,192,2490,1,0,0:0:0:0:
448,192,2634,1,0,0:0:0:0:
320,192,2779,1,0,0:0:0:0:
192,192,2923,1,0,0:0:0:0:
64,192,3067,1,0,0:0:0:0:
448,192,3067,1,0,0:0:0:0:
192,192,3211,1,0,0:0:0:0:
320,192,3356,1,0,0:0:0:0:
192,192,3500,1,0,0:0:0:0:
448,192,3500,1,0,0:0:0:0:
64,192,3644,1,0,0:0:0:0:
320,192,3788,1,0,0:0:0:0:
192,192,3933,1,0,0:0:0:0:
64,192,4077,1,0,0:0:0:0:
320,192,4077,1,0,0:0:0:0:
448,192,4221,1,0,0:0:0:0:
192,192,4221,1,0,0:0:0:0:
320,192,4365,1,0,0:0:0:0:
64,192,4437,1,0,0:0:0:0:
320,192,4509,1,0,0:0:0:0:
64,192,4582,1,0,0:0:0:0:
448,192,4654,1,0,0:0:0:0:
192,192,4726,1,0,0:0:0:0:
320,192,4798,1,0,0:0:0:0:
64,192,4870,1,0,0:0:0:0:
448,192,4942,1,0,0:0:0:0:
320,192,4978,1,0,0:0:0:0:
192,192,5014,1,0,0:0:0:0:
64,192,5050,1,0,0:0:0:0:
320,192,5086,1,0,0:0:0:0:
448,192,5086,1,0,0:0:0:0:
192,192,5159,1,0,0:0:0:0:
64,192,5159,1,0,0:0:0:0:
320,192,5231,1,0,0:0:0:0:
448,192,5231,1,0,0:0:0:0:
192,192,5303,1,0,0:0:0:0:
64,192,5375,1,0,0:0:0:0:
448,192,5375,1,0,0:0:0:0:
320,192,5375,128,0,5808:0:0:0:0:
192,192,5519,1,0,0:0:0:0:
192,192,5663,1,0,0:0:0:0:
64,192,5663,1,0,0:0:0:0:
448,192,5808,1,0,0:0:0:0:
64,192,5952,1,0,0:0:0:0:
192,192,6096,128,0,6312:0:0:0:0:
64,192,6096,1,0,0:0:0:0:
320,192,6096,1,0,0:0:0:0:
448,192,6240,1,0,0:0:0:0:
192,192,6384,1,0,0:0:0:0:
64,192,6384,128,0,6961:0:0:0:0:
320,192,6384,1,0,0:0:0:0:
448,192,6529,1,0,0:0:0:0:
192,192,6529,1,0,0:0:0:0:
320,192,6673,1,0,0:0:0:0:
192,192,6817,1,0,0:0:0:0:
320,192,6961,1,0,0:0:0:0:
448,192,6961,1,0,0:0:0:0:
192,192,7106,1,0,0:0:0:0:
320,192,7250,1,0,0:0:0:0:
64,192,7250,1,0,0:0:0:0:
192,192,7394,1,0,0:0:0:0:
448,192,7394,1,0,0:0:0:0:
320,192,7394,1,0,0:0:0:0:
320,192,7538,128,0,8259:0:0:0:0:
64,192,7538,1,0,0:0:0:0:
192,192,7538,1,0,0:0:0:0:
448,192,7683,1,0,0:0:0:0:
64,192,7827,1,0,0:0:0:0:
192,192,7971,1,0,0:0:0:0:
448,192,8115,1,0,0:0:0:0:
64,192,8259,1,0,0:0:0:0:
192,192,8332,1,0,0:0:0:0:
448,192,8404,1,0,0:0:0:0:
320,192,8476,1,0,0:0:0:0:
192,192,8548,1,0,0:0:0:0:
64,192,8620,1,0,0:0:0:0:
320,192,8692,1,0,0:0:0:0:
448,192,8764,1,0,0:0:0:0:
192,192,8836,1,0,0:0:0:0:
64,192,8836,1,0,0:0:0:0:
320,192,8909,1,0,0:0:0:0:
64,192,8981,1,0,0:0:0:0:
448,192,8981,1,0,0:0:0:0:
192,192,9053,1,0,0:0:0:0:
320,192,9125,1,0,0:0:0:0:
448,192,9125,1,0,0:0:0:0:
192,192,9197,1,0,0:0:0:0:
64,192,9269,1,0,0:0:0:0:
448,192,9269,1,0,0:0:0:0:
320,192,9341,1,0,0:0:0:0:
192,192,9413,1,0,0:0:0:0:
64,192,9413,1,0,0:0:0:0:
448,192,9449,1,0,0:0:0:0:
320,192,9485,1,0,0:0:0:0:
192,192,9522,1,0,0:0:0:0:
64,192,9558,1,0,0:0:0:0:
448,192,9594,1,0,0:0:0:0:
320,192,9630,1,0,0:0:0:0:
64,192,9666,1,0,0:0:0:0:
192,192,9702,1,0,0:0:0:0:
320,192,9738,1,0,0:0:0:0:
448,192,9774,1,0,0:0:0:0:
64,192,9810,1,0,0:0:0:0:
192,192,9846,1,0,0:0:0:0:
448,192,9882,1,0,0:0:0:0:
320,192,9918,1,0,0:0:0:0:
192,192,9954,1,0,0:0:0:0:
448,192,9990,1,0,0:0:0:0:
64,192,9990,1,0,0:0:0:0:
320,192,10134,1,0,0:0:0:0:
192,192,10279,128,0,10711:0:0:0:0:
448,192,10423,1,0,0:0:0:0:
320,192,10567,1,0,0:0:0:0:
64,192,10711,128,0,11144:0:0:0:0:
192,192,10856,1,0,0:0:0:0:
448,192,11000,1,0,0:0:0:0:
320,192,11144,128,0,11577:0:0:0:0:
192,192,11288,1,0,0:0:0:0:
64,192,11288,1,0,0:0:0:0:
448,192,11288,1,0,0:0:0:0:
192,192,11433,1,0,0:0:0:0:
448,192,11577,128,0,12009:0:0:0:0:
192,192,11721,1,0,0:0:0:0:
64,192,11721,1,0,0:0:0:0:
320,192,11721,1,0,0:0:0:0:
64,192,11865,1,0,0:0:0:0:
320,192,12009,1,0,0:0:0:0:
64,192,12009,1,0,0:0:0:0:
192,192,12009,128,0,12442:0:0:0:0:
448,192,12154,1,0,0:0:0:0:
64,192,12298,1,0,0:0:0:0:
320,192,12298,1,0,0:0:0:0:
448,192,12298,1,0,0:0:0:0:
320,192,12442,1,0,0:0:0:0:
448,192,12514,1,0,0:0:0:0:
320,192,12586,1,0,0:0:0:0:
192,192,12659,1,0,0:0:0:0:
64,192,12731,1,0,0:0:0:0:
448,192,12803,1,0,0:0:0:0:
192,192,12875,1,0,0:0:0:0:
320,192,12947,1,0,0:0:0:0:
192,192,13019,1,0,0:0:0:0:
64,192,13091,1,0,0:0:0:0:
448,192,13163,1,0,0:0:0:0:
320,192,13308,1,0,0:0:0:0:
192,192,13452,1,0,0:0:0:0:
192,192,13596,1,0,0:0:0:0:
448,192,13740,1,0,0:0:0:0:
320,192,13740,1,0,0:0:0:0:
320,192,13884,1,0,0:0:0:0:
448,192,13884,1,0,0:0:0:0:
192,192,14029,1,0,0:0:0:0:
64,192,14029,1,0,0:0:0:0:
448,192,14173,1,0,0:0:0:0:
320,192,14209,1,0,0:0:0:0:
192,192,14245,1,0,0:0:0:0:
64,192,14281,1,0,0:0:0:0:
448,192,14317,1,0,0:0:0:0:
320,192,14317,1,0,0:0:0:0:
64,192,14461,1,0,0:0:0:0:
192,192,14497,1,0,0:0:0:0:
320,192,14534,1,0,0:0:0:0:
448,192,14570,1,0,0:0:0:0:
64,192,14606,1,0,0:0:0:0:
192,192,14606,1,0,0:0:0:0:
320,192,14750,1,0,0:0:0:0:
64,192,14894,1,0,0:0:0:0:
448,192,14894,1,0,0:0:0:0:
192,192,14894,1,0,0:0:0:0:
320,192,15038,128,0,15327:0:0:0:0:
64,192,15183,1,0,0:0:0:0:
192,192,15327,128,0,15759:0:0:0:0:
448,192,15471,1,0,0:0:0:0:
320,192,15615,1,0,0:0:0:0:
64,192,15759,128,0,16192:0:0:0:0:
192,192,15904,1,0,0:0:0:0:
320,192,15904,1,0,0:0:0:0:
448,192,15904,1,0,0:0:0:0:
448,192,16048,1,0,0:0:0:0:
320,192,16192,128,0,16625:0:0:0:0:
192,192,16336,1,0,0:0:0:0:
64,192,16336,1,0,0:0:0:0:
448,192,16336,1,0,0:0:0:0:
64,192,16481,1,0,0:0:0:0:
448,192,16625,128,0,16913:0:0:0:0:
64,192,16625,1,0,0:0:0:0:
192,192,16625,1,0,0:0:0:0:
320,192,16769,1,0,0:0:0:0:
192,192,16913,1,0,0:0:0:0:
320,192,16913,1,0,0:0:0:0:
64,192,16913,1,0,0:0:0:0:
448,192,16985,1,0,0:0:0:0:
192,192,17058,1,0,0:0:0:0:
64,192,17130,1,0,0:0:0:0:
320,192,17202,1,0,0:0:0:0:
448,192,17274,1,0,0:0:0:0:
192,192,17346,1,0,0:0:0:0:
64,192,17418,1,0,0:0:0:0:
320,192,17490,1,0,0:0:0:0:
448,192,17490,1,0,0:0:0:0:
192,192,17490,1,0,0:0:0:0:
64,192,17562,1,0,0:0:0:0:
320,192,17634,1,0,0:0:0:0:
192,192,17707,1,0,0:0:0:0:
448,192,17779,1,0,0:0:0:0:
64,192,17851,1,0,0:0:0:0:
320,192,17923,1,0,0:0:0:0:
192,192,17995,1,0,0:0:0:0:
448,192,18067,1,0,0:0:0:0:
64,192,18067,1,0,0:0:0:0:
320,192,18067,1,0,0:0:0:0:
192,192,18211,1,0,0:0:0:0:
448,192,18211,1,0,0:0:0:0:
64,192,18211,128,0,18644:0:0:0:0:
320,192,18356,128,0,18933:0:0:0:0:
448,192,18933,1,0,0:0:0:0:
64,192,18933,1,0,0:0:0:0:
192,192,18933,128,0,19221:0:0:0:0:
448,192,19221,1,0,0:0:0:0:
320,192,19221,1,0,0:0:0:0:
64,192,19293,1,0,0:0:0:0:
192,192,19365,1,0,0:0:0:0:
320,192,19437,1,0,0:0:0:0:
448,192,19509,1,0,0:0:0:0:
64,192,19509,128,0,19654:0:0:0:0:
192,192,19509,1,0,0:0:0:0:
320,192,19654,128,0,19798:0:0:0:0:
192,192,19798,1,0,0:0:0:0:
448,192,19798,1,0,0:0:0:0:
64,192,19942,128,0,20086:0:0:0:0:
320,192,20086,1,0,0:0:0:0:
192,192,20086,1,0,0:0:0:0:
448,192,20231,128,0,20375:0:0:0:0:
320,192,20375,1,0,0:0:0:0:
64,192,20375,1,0,0:0:0:0:
192,192,20519,128,0,20663:0:0:0:0:
64,192,20663,1,0,0:0:0:0:
448,192,20663,1,0,0:0:0:0:
320,192,20808,128,0,20952:0:0:0:0:
192,192,20952,1,0,0:0:0:0:
448,192,20952,1,0,0:0:0:0:
64,192,21096,128,0,21240:0:0:0:0:
448,192,21240,1,0,0:0:0:0:
320,192,21240,1,0,0:0:0:0:
64,192,21312,1,0,0:0:0:0:
192,192,21384,1,0,0:0:0:0:
320,192,21457,1,0,0:0:0:0:
64,192,21529,128,0,21673:0:0:0:0:
448,192,21529,1,0,0:0:0:0:
192,192,21673,1,0,0:0:0:0:
448,192,21817,128,0,21961:0:0:0:0:
320,192,21817,1,0,0:0:0:0:
64,192,21961,128,0,22106:0:0:0:0:
320,192,22106,1,0,0:0:0:0:
192,192,22106,1,0,0:0:0:0:
448,192,22250,128,0,22394:0:0:0:0:
192,192,22394,1,0,0:0:0:0:
64,192,22394,1,0,0:0:0:0:
320,192,22538,128,0,22683:0:0:0:0:
64,192,22683,1,0,0:0:0:0:
448,192,22683,1,0,0:0:0:0:
192,192,22683,1,0,0:0:0:0:
192,192,22827,128,0,22971:0:0:0:0:
448,192,22971,1,0,0:0:0:0:
64,192,22971,1,0,0:0:0:0:
320,192,22971,1,0,0:0:0:0:
192,192,23115,1,0,0:0:0:0:
320,192,23115,1,0,0:0:0:0:
64,192,23115,128,0,23259:0:0:0:0:
448,192,23259,1,0,0:0:0:0:
192,192,23404,1,0,0:0:0:0:
320,192,23404,1,0,0:0:0:0:
64,192,23404,1,0,0:0:0:0:
448,192,23476,1,0,0:0:0:0:
192,192,23548,1,0,0:0:0:0:
320,192,23620,1,0,0:0:0:0:
448,192,23692,1,0,0:0:0:0:
64,192,23692,1,0,0:0:0:0:
192,192,23692,1,0,0:0:0:0:
320,192,23764,1,0,0:0:0:0:
448,192,23836,128,0,23981:0:0:0:0:
192,192,23981,1,0,0:0:0:0:
64,192,24125,1,0,0:0:0:0:
448,192,24125,128,0,24269:0:0:0:0:
192,192,24269,128,0,24413:0:0:0:0:
64,192,24413,1,0,0:0:0:0:
320,192,24413,1,0,0:0:0:0:
448,192,24558,128,0,24702:0:0:0:0:
192,192,24702,1,0,0:0:0:0:
320,192,24702,1,0,0:0:0:0:
64,192,24846,128,0,24990:0:0:0:0:
320,192,24990,1,0,0:0:0:0:
448,192,24990,1,0,0:0:0:0:
192,192,24990,1,0,0:0:0:0:
320,192,25134,128,0,25279:0:0:0:0:
448,192,25279,1,0,0:0:0:0:
64,192,25279,1,0,0:0:0:0:
192,192,25423,128,0,25567:0:0:0:0:
64,192,25567,1,0,0:0:0:0:
320,192,25567,1,0,0:0:0:0:
320,192,25711,1,0,0:0:0:0:
64,192,25711,128,0,25856:0:0:0:0:
192,192,25856,1,0,0:0:0:0:
448,192,25856,1,0,0:0:0:0:
448,192,26000,1,0,0:0:0:0:
192,192,26000,1,0,0:0:0:0:
64,192,26144,1,0,0:0:0:0:
320,192,26144,1,0,0:0:0:0:
448,192,26144,1,0,0:0:0:0:
192,192,26288,1,0,0:0:0:0:
320,192,26433,1,0,0:0:0:0:
192,192,26577,1,0,0:0:0:0:
64,192,26577,1,0,0:0:0:0:
448,192,26577,1,0,0:0:0:0:
320,192,26721,1,0,0:0:0:0:
448,192,26865,1,0,0:0:0:0:
64,192,27009,1,0,0:0:0:0:
192,192,27009,1,0,0:0:0:0:
320,192,27009,1,0,0:0:0:0:
448,192,27154,1,0,0:0:0:0:
192,192,27298,1,0,0:0:0:0:
64,192,27298,128,0,27442:0:0:0:0:
320,192,27370,128,0,27514:0:0:0:0:
192,192,27442,128,0,27586:0:0:0:0:
64,192,27514,128,0,27659:0:0:0:0:
448,192,27586,128,0,27731:0:0:0:0:
320,192,27659,128,0,27803:0:0:0:0:
192,192,27731,128,0,27875:0:0:0:0:
64,192,27803,128,0,27875:0:0:0:0:
320,192,27875,1,0,0:0:0:0:
448,192,27875,128,0,28019:0:0:0:0:
64,192,27947,128,0,28091:0:0:0:0:
192,192,28019,128,0,28163:0:0:0:0:
320,192,28091,128,0,28235:0:0:0:0:
448,192,28163,128,0,28308:0:0:0:0:
64,192,28163,128,0,28235:0:0:0:0:
192,192,28235,128,0,28308:0:0:0:0:
320,192,28308,128,0,28380:0:0:0:0:
448,192,28380,128,0,28452:0:0:0:0:
64,192,28452,1,0,0:0:0:0:
320,192,28452,1,0,0:0:0:0:
192,192,28452,128,0,28596:0:0:0:0:
320,192,28740,1,0,0:0:0:0:
64,192,28740,128,0,28884:0:0:0:0:
448,192,28740,1,0,0:0:0:0:
192,192,28884,128,0,29029:0:0:0:0:
320,192,28884,1,0,0:0:0:0:
448,192,29029,1,0,0:0:0:0:
64,192,29029,1,0,0:0:0:0:
192,192,29101,1,0,0:0:0:0:
320,192,29173,128,0,29317:0:0:0:0:
64,192,29173,1,0,0:0:0:0:
448,192,29317,1,0,0:0:0:0:
192,192,29317,1,0,0:0:0:0:
64,192,29389,1,0,0:0:0:0:
192,192,29461,128,0,29606:0:0:0:0:
320,192,29461,1,0,0:0:0:0:
448,192,29606,1,0,0:0:0:0:
64,192,29606,1,0,0:0:0:0:
320,192,29678,1,0,0:0:0:0:
192,192,29750,1,0,0:0:0:0:
448,192,29750,128,0,29894:0:0:0:0:
64,192,29894,1,0,0:0:0:0:
320,192,29894,1,0,0:0:0:0:
448,192,29966,1,0,0:0:0:0:
192,192,30038,1,0,0:0:0:0:
320,192,30038,128,0,30183:0:0:0:0:
64,192,30183,1,0,0:0:0:0:
448,192,30183,1,0,0:0:0:0:
192,192,30255,1,0,0:0:0:0:
320,192,30327,1,0,0:0:0:0:
64,192,30327,128,0,30471:0:0:0:0:
192,192,30471,1,0,0:0:0:0:
320,192,30471,1,0,0:0:0:0:
448,192,30471,128,0,30615:0:0:0:0:
64,192,30615,1,0,0:0:0:0:
192,192,30615,128,0,30759:0:0:0:0:
448,192,30759,1,0,0:0:0:0:
64,192,30759,1,0,0:0:0:0:
320,192,30759,128,0,30904:0:0:0:0:
64,192,31048,1,0,0:0:0:0:
192,192,31048,128,0,31192:0:0:0:0:
320,192,31048,1,0,0:0:0:0:
320,192,31192,1,0,0:0:0:0:
448,192,31192,128,0,31336:0:0:0:0:
64,192,31336,1,0,0:0:0:0:
192,192,31336,1,0,0:0:0:0:
448,192,31409,1,0,0:0:0:0:
320,192,31481,1,0,0:0:0:0:
64,192,31481,128,0,31625:0:0:0:0:
448,192,31625,1,0,0:0:0:0:
192,192,31625,1,0,0:0:0:0:
320,192,31697,1,0,0:0:0:0:
448,192,31769,128,0,31913:0:0:0:0:
64,192,31769,1,0,0:0:0:0:
320,192,31913,1,0,0:0:0:0:
64,192,31913,1,0,0:0:0:0:
192,192,31913,1,0,0:0:0:0:
448,192,32058,1,0,0:0:0:0:
320,192,32058,128,0,32202:0:0:0:0:
64,192,32202,1,0,0:0:0:0:
192,192,32202,1,0,0:0:0:0:
448,192,32202,1,0,0:0:0:0:
320,192,32346,1,0,0:0:0:0:
192,192,32346,128,0,32490:0:0:0:0:
64,192,32490,1,0,0:0:0:0:
320,192,32490,1,0,0:0:0:0:
448,192,32490,1,0,0:0:0:0:
192,192,32634,1,0,0:0:0:0:
64,192,32634,1,0,0:0:0:0:
320,192,32707,1,0,0:0:0:0:
448,192,32707,1,0,0:0:0:0:
192,192,32779,1,0,0:0:0:0:
64,192,32779,128,0,32923:0:0:0:0:
448,192,32923,1,0,0:0:0:0:
192,192,32923,1,0,0:0:0:0:
320,192,32923,128,0,33067:0:0:0:0:
64,192,33067,1,0,0:0:0:0:
448,192,33067,1,0,0:0:0:0:
192,192,33067,128,0,33211:0:0:0:0:
64,192,33211,128,0,33572:0:0:0:0:
320,192,33356,128,0,33572:0:0:0:0:
448,192,33500,128,0,33572:0:0:0:0:
64,192,33644,1,0,0:0:0:0:
320,192,33644,1,0,0:0:0:0:
448,192,33644,1,0,0:0:0:0:
192,192,33716,1,0,0:0:0:0:
64,192,33788,1,0,0:0:0:0:
320,192,33788,128,0,33933:0:0:0:0:
192,192,33933,1,0,0:0:0:0:
448,192,33933,1,0,0:0:0:0:
64,192,34005,1,0,0:0:0:0:
320,192,34077,1,0,0:0:0:0:
448,192,34077,1,0,0:0:0:0:
192,192,34077,128,0,34221:0:0:0:0:
320,192,34221,1,0,0:0:0:0:
64,192,34221,1,0,0:0:0:0:
448,192,34293,1,0,0:0:0:0:
64,192,34365,128,0,34509:0:0:0:0:
192,192,34365,1,0,0:0:0:0:
448,192,34509,1,0,0:0:0:0:
320,192,34509,1,0,0:0:0:0:
192,192,34582,1,0,0:0:0:0:
448,192,34654,128,0,34798:0:0:0:0:
64,192,34654,1,0,0:0:0:0:
320,192,34798,1,0,0:0:0:0:
192,192,34798,1,0,0:0:0:0:
64,192,34870,1,0,0:0:0:0:
320,192,34942,1,0,0:0:0:0:
448,192,34942,1,0,0:0:0:0:
192,192,34942,128,0,35086:0:0:0:0:
64,192,35086,1,0,0:0:0:0:
448,192,35086,1,0,0:0:0:0:
320,192,35086,128,0,35231:0:0:0:0:
192,192,35231,1,0,0:0:0:0:
448,192,35231,1,0,0:0:0:0:
64,192,35231,128,0,35375:0:0:0:0:
192,192,35375,1,0,0:0:0:0:
320,192,35375,1,0,0:0:0:0:
448,192,35375,128,0,35519:0:0:0:0:
192,192,35519,1,0,0:0:0:0:
320,192,35591,1,0,0:0:0:0:
448,192,35663,1,0,0:0:0:0:
64,192,35735,1,0,0:0:0:0:
192,192,35808,1,0,0:0:0:0:
320,192,35880,1,0,0:0:0:0:
448,192,35952,1,0,0:0:0:0:
64,192,35952,128,0,36529:0:0:0:0:
320,192,36024,1,0,0:0:0:0:
192,192,36096,1,0,0:0:0:0:
448,192,36168,1,0,0:0:0:0:
320,192,36240,1,0,0:0:0:0:
192,192,36312,1,0,0:0:0:0:
448,192,36384,1,0,0:0:0:0:
320,192,36457,1,0,0:0:0:0:
192,192,36529,128,0,36601:0:0:0:0:
64,192,36601,128,0,36673:0:0:0:0:
448,192,36673,1,0,0:0:0:0:
320,192,36673,128,0,36745:0:0:0:0:
64,192,36745,1,0,0:0:0:0:
192,192,36745,128,0,36817:0:0:0:0:
448,192,36817,128,0,36889:0:0:0:0:
320,192,36889,1,0,0:0:0:0:
64,192,36889,128,0,36961:0:0:0:0:
448,192,36961,1,0,0:0:0:0:
192,192,36961,128,0,37034:0:0:0:0:
320,192,37034,128,0,37106:0:0:0:0:
64,192,37106,1,0,0:0:0:0:
192,192,37106,128,0,37178:0:0:0:0:
320,192,37178,1,0,0:0:0:0:
448,192,37178,128,0,37250:0:0:0:0:
64,192,37250,128,0,37322:0:0:0:0:
448,192,37322,1,0,0:0:0:0:
192,192,37322,128,0,37394:0:0:0:0:
64,192,37394,1,0,0:0:0:0:
320,192,37394,128,0,37538:0:0:0:0:
192,192,37538,128,0,37683:0:0:0:0:
448,192,37538,1,0,0:0:0:0:
448,192,37683,128,0,37827:0:0:0:0:
192,192,37827,1,0,0:0:0:0:
320,192,37899,1,0,0:0:0:0:
64,192,37971,128,0,38115:0:0:0:0:
320,192,38115,1,0,0:0:0:0:
192,192,38187,1,0,0:0:0:0:
64,192,38259,1,0,0:0:0:0:
448,192,38259,1,0,0:0:0:0:
320,192,38259,1,0,0:0:0:0:
192,192,38476,1,0,0:0:0:0:
320,192,38476,1,0,0:0:0:0:
448,192,38620,1,0,0:0:0:0:
64,192,38692,1,0,0:0:0:0:
192,192,38692,1,0,0:0:0:0:
320,192,38764,1,0,0:0:0:0:
448,192,38836,1,0,0:0:0:0:
64,192,38836,1,0,0:0:0:0:
192,192,38836,128,0,38981:0:0:0:0:
448,192,38981,128,0,39125:0:0:0:0:
320,192,38981,1,0,0:0:0:0:
64,192,39125,1,0,0:0:0:0:
192,192,39125,1,0,0:0:0:0:
448,192,39197,1,0,0:0:0:0:
320,192,39269,128,0,39413:0:0:0:0:
192,192,39269,1,0,0:0:0:0:
448,192,39413,1,0,0:0:0:0:
64,192,39413,1,0,0:0:0:0:
320,192,39485,1,0,0:0:0:0:
192,192,39558,1,0,0:0:0:0:
64,192,39558,128,0,39702:0:0:0:0:
192,192,39702,1,0,0:0:0:0:
448,192,39702,1,0,0:0:0:0:
320,192,39702,128,0,39846:0:0:0:0:
64,192,39846,1,0,0:0:0:0:
448,192,39846,1,0,0:0:0:0:
192,192,39846,128,0,39990:0:0:0:0:
64,192,39990,1,0,0:0:0:0:
320,192,39990,1,0,0:0:0:0:
448,192,39990,128,0,40134:0:0:0:0:
320,192,40279,1,0,0:0:0:0:
64,192,40279,1,0,0:0:0:0:
192,192,40279,128,0,40423:0:0:0:0:
320,192,40423,1,0,0:0:0:0:
448,192,40423,128,0,40567:0:0:0:0:
64,192,40567,1,0,0:0:0:0:
192,192,40567,1,0,0:0:0:0:
448,192,40639,1,0,0:0:0:0:
64,192,40711,128,0,40856:0:0:0:0:
320,192,40711,1,0,0:0:0:0:
448,192,40856,1,0,0:0:0:0:
192,192,40856,1,0,0:0:0:0:
320,192,40928,1,0,0:0:0:0:
448,192,41000,128,0,41144:0:0:0:0:
64,192,41000,1,0,0:0:0:0:
320,192,41144,1,0,0:0:0:0:
64,192,41144,1,0,0:0:0:0:
192,192,41144,1,0,0:0:0:0:
448,192,41216,1,0,0:0:0:0:
192,192,41288,128,0,41433:0:0:0:0:
448,192,41433,1,0,0:0:0:0:
64,192,41505,1,0,0:0:0:0:
320,192,41577,1,0,0:0:0:0:
192,192,41649,1,0,0:0:0:0:
64,192,41721,1,0,0:0:0:0:
448,192,41721,1,0,0:0:0:0:
320,192,41721,1,0,0:0:0:0:
448,192,41865,1,0,0:0:0:0:
192,192,41865,1,0,0:0:0:0:
64,192,41937,1,0,0:0:0:0:
320,192,41937,1,0,0:0:0:0:
448,192,42009,1,0,0:0:0:0:
192,192,42009,128,0,42154:0:0:0:0:
64,192,42154,1,0,0:0:0:0:
448,192,42154,1,0,0:0:0:0:
320,192,42154,128,0,42298:0:0:0:0:
448,192,42298,1,0,0:0:0:0:
192,192,42298,1,0,0:0:0:0:
64,192,42298,128,0,42442:0:0:0:0:
448,192,42586,1,0,0:0:0:0:
192,192,42586,1,0,0:0:0:0:
320,192,42586,128,0,42731:0:0:0:0:
192,192,42731,1,0,0:0:0:0:
64,192,42731,128,0,42875:0:0:0:0:
448,192,42875,1,0,0:0:0:0:
320,192,42875,1,0,0:0:0:0:
448,192,43019,128,0,43163:0:0:0:0:
192,192,43019,1,0,0:0:0:0:
320,192,43091,1,0,0:0:0:0:
64,192,43091,1,0,0:0:0:0:
192,192,43163,1,0,0:0:0:0:
64,192,43235,1,0,0:0:0:0:
320,192,43308,128,0,43452:0:0:0:0:
448,192,43308,1,0,0:0:0:0:
192,192,43308,1,0,0:0:0:0:
192,192,43452,1,0,0:0:0:0:
448,192,43452,1,0,0:0:0:0:
64,192,43452,1,0,0:0:0:0:
64,192,43596,128,0,43740:0:0:0:0:
320,192,43596,1,0,0:0:0:0:
448,192,43668,1,0,0:0:0:0:
192,192,43668,1,0,0:0:0:0:
320,192,43740,1,0,0:0:0:0:
448,192,43812,1,0,0:0:0:0:
64,192,43884,1,0,0:0:0:0:
192,192,43884,128,0,44029:0:0:0:0:
320,192,43884,1,0,0:0:0:0:
448,192,44029,1,0,0:0:0:0:
64,192,44101,1,0,0:0:0:0:
320,192,44101,1,0,0:0:0:0:
448,192,44173,1,0,0:0:0:0:
192,192,44173,128,0,44317:0:0:0:0:
448,192,44317,1,0,0:0:0:0:
64,192,44317,1,0,0:0:0:0:
320,192,44317,128,0,44461:0:0:0:0:
192,192,44461,1,0,0:0:0:0:
448,192,44461,1,0,0:0:0:0:
64,192,44461,128,0,44606:0:0:0:0:
192,192,44606,1,0,0:0:0:0:
320,192,44606,1,0,0:0:0:0:
448,192,44606,128,0,44750:0:0:0:0:
64,192,44750,1,0,0:0:0:0:
192,192,44786,1,0,0:0:0:0:
448,192,44822,1,0,0:0:0:0:
320,192,44858,1,0,0:0:0:0:
192,192,44894,1,0,0:0:0:0:
64,192,44894,128,0,45038:0:0:0:0:
192,192,45038,128,0,45183:0:0:0:0:
320,192,45038,1,0,0:0:0:0:
448,192,45038,1,0,0:0:0:0:
64,192,45183,1,0,0:0:0:0:
448,192,45255,1,0,0:0:0:0:
320,192,45291,1,0,0:0:0:0:
192,192,45327,1,0,0:0:0:0:
64,192,45327,128,0,45471:0:0:0:0:
448,192,45471,1,0,0:0:0:0:
320,192,45507,1,0,0:0:0:0:
64,192,45543,1,0,0:0:0:0:
192,192,45579,1,0,0:0:0:0:
320,192,45615,1,0,0:0:0:0:
448,192,45615,128,0,45759:0:0:0:0:
192,192,45759,1,0,0:0:0:0:
320,192,45832,1,0,0:0:0:0:
64,192,45904,128,0,46553:0:0:0:0:
448,192,45904,1,0,0:0:0:0:
192,192,45904,1,0,0:0:0:0:
320,192,46048,128,0,46553:0:0:0:0:
192,192,46192,128,0,46625:0:0:0:0:
448,192,46481,128,0,46625:0:0:0:0:
64,192,46625,1,0,0:0:0:0:
320,192,46625,1,0,0:0:0:0:
192,192,46769,128,0,46913:0:0:0:0:
64,192,46913,1,0,0:0:0:0:
448,192,46913,1,0,0:0:0:0:
320,192,46913,128,0,48067:0:0:0:0:
192,192,47058,1,0,0:0:0:0:
448,192,47202,1,0,0:0:0:0:
64,192,47346,1,0,0:0:0:0:
192,192,47490,1,0,0:0:0:0:
448,192,47634,1,0,0:0:0:0:
64,192,47779,1,0,0:0:0:0:
192,192,47923,1,0,0:0:0:0:
448,192,48067,1,0,0:0:0:0:
192,192,48067,1,0,0:0:0:0:
64,192,48067,128,0,49221:0:0:0:0:
320,192,48211,1,0,0:0:0:0:
448,192,48356,1,0,0:0:0:0:
192,192,48500,1,0,0:0:0:0:
320,192,48644,1,0,0:0:0:0:
448,192,48788,1,0,0:0:0:0:
192,192,48933,1,0,0:0:0:0:
320,192,49077,1,0,0:0:0:0:
192,192,49221,1,0,0:0:0:0:
320,192,49221,1,0,0:0:0:0:
448,192,49221,128,0,49798:0:0:0:0:
64,192,49365,1,0,0:0:0:0:
192,192,49509,1,0,0:0:0:0:
320,192,49654,1,0,0:0:0:0:
64,192,49798,1,0,0:0:0:0:
320,192,49798,1,0,0:0:0:0:
192,192,49798,128,0,50375:0:0:0:0:
448,192,49942,1,0,0:0:0:0:
64,192,50086,1,0,0:0:0:0:
320,192,50231,1,0,0:0:0:0:
64,192,50375,1,0,0:0:0:0:
320,192,50375,1,0,0:0:0:0:
448,192,50375,1,0,0:0:0:0:
192,192,50591,1,0,0:0:0:0:
448,192,50591,1,0,0:0:0:0:
320,192,50591,1,0,0:0:0:0:
64,192,50663,1,0,0:0:0:0:
320,192,50808,1,0,0:0:0:0:
192,192,50808,1,0,0:0:0:0:
64,192,50808,1,0,0:0:0:0:
448,192,50952,1,0,0:0:0:0:
320,192,50988,1,0,0:0:0:0:
64,192,51024,1,0,0:0:0:0:
192,192,51060,1,0,0:0:0:0:
448,192,51096,1,0,0:0:0:0:
320,192,51132,1,0,0:0:0:0:
64,192,51168,1,0,0:0:0:0:
192,192,51204,1,0,0:0:0:0:
320,192,51240,1,0,0:0:0:0:
448,192,51240,128,0,51529:0:0:0:0:
320,192,51529,1,0,0:0:0:0:
192,192,51529,1,0,0:0:0:0:
64,192,51529,128,0,51817:0:0:0:0:
448,192,51817,128,0,52034:0:0:0:0:
320,192,51817,128,0,51961:0:0:0:0:
64,192,51961,128,0,52034:0:0:0:0:
320,192,52034,128,0,52106:0:0:0:0:
64,192,52106,128,0,52322:0:0:0:0:
192,192,52106,128,0,52250:0:0:0:0:
448,192,52106,1,0,0:0:0:0:
448,192,52250,128,0,52322:0:0:0:0:
192,192,52322,128,0,52394:0:0:0:0:
64,192,52394,1,0,0:0:0:0:
320,192,52394,128,0,52538:0:0:0:0:
448,192,52394,128,0,52683:0:0:0:0:
192,192,52538,128,0,52610:0:0:0:0:
320,192,52610,128,0,52683:0:0:0:0:
64,192,52683,128,0,52899:0:0:0:0:
192,192,52683,128,0,52827:0:0:0:0:
448,192,52827,128,0,52899:0:0:0:0:
192,192,52899,128,0,52971:0:0:0:0:
320,192,52971,1,0,0:0:0:0:
448,192,52971,128,0,53187:0:0:0:0:
64,192,52971,128,0,53187:0:0:0:0:
192,192,53043,128,0,53187:0:0:0:0:
320,192,53115,128,0,53259:0:0:0:0:
192,192,53259,1,0,0:0:0:0:
448,192,53259,128,0,53476:0:0:0:0:
64,192,53259,128,0,53476:0:0:0:0:
320,192,53332,128,0,53476:0:0:0:0:
192,192,53404,128,0,53548:0:0:0:0:
320,192,53548,1,0,0:0:0:0:
64,192,53548,1,0,0:0:0:0:
448,192,53548,128,0,53764:0:0:0:0:
192,192,53620,128,0,53692:0:0:0:0:
320,192,53692,128,0,53764:0:0:0:0:
192,192,53764,128,0,53836:0:0:0:0:
448,192,53836,1,0,0:0:0:0:
64,192,53836,128,0,54125:0:0:0:0:
320,192,53836,1,0,0:0:0:0:
320,192,54125,1,0,0:0:0:0:
448,192,54125,1,0,0:0:0:0:
192,192,54125,128,0,54197:0:0:0:0:
64,192,54197,128,0,54269:0:0:0:0:
320,192,54269,128,0,54341:0:0:0:0:
192,192,54341,128,0,54413:0:0:0:0:
64,192,54413,128,0,54702:0:0:0:0:
448,192,54413,128,0,54630:0:0:0:0:
320,192,54413,1,0,0:0:0:0:
192,192,54485,128,0,54630:0:0:0:0:
320,192,54558,128,0,54630:0:0:0:0:
448,192,54702,128,0,54990:0:0:0:0:
192,192,54702,1,0,0:0:0:0:
320,192,54702,128,0,54918:0:0:0:0:
64,192,54774,128,0,54918:0:0:0:0:
192,192,54846,128,0,54918:0:0:0:0:
320,192,54990,128,0,55279:0:0:0:0:
64,192,54990,1,0,0:0:0:0:
192,192,54990,128,0,55207:0:0:0:0:
448,192,55062,128,0,55207:0:0:0:0:
64,192,55134,128,0,55207:0:0:0:0:
192,192,55279,1,0,0:0:0:0:
448,192,55279,1,0,0:0:0:0:
64,192,55279,128,0,55495:0:0:0:0:
320,192,55351,128,0,55495:0:0:0:0:
192,192,55423,128,0,55567:0:0:0:0:
448,192,55567,1,0,0:0:0:0:
64,192,55567,128,0,55784:0:0:0:0:
320,192,55567,128,0,55856:0:0:0:0:
192,192,55639,128,0,55784:0:0:0:0:
448,192,55711,128,0,55784:0:0:0:0:
192,192,55856,1,0,0:0:0:0:
448,192,55856,1,0,0:0:0:0:
64,192,55856,128,0,56072:0:0:0:0:
320,192,55928,128,0,56000:0:0:0:0:
192,192,56000,128,0,56072:0:0:0:0:
320,192,56072,128,0,56144:0:0:0:0:
64,192,56144,1,0,0:0:0:0:
192,192,56144,1,0,0:0:0:0:
448,192,56144,128,0,56505:0:0:0:0:
320,192,56505,128,0,56721:0:0:0:0:
64,192,56721,1,0,0:0:0:0:
448,192,56721,1,0,0:0:0:0:
192,192,56721,128,0,56865:0:0:0:0:
320,192,56865,128,0,57009:0:0:0:0:
192,192,57009,1,0,0:0:0:0:
64,192,57009,128,0,57082:0:0:0:0:
448,192,57009,128,0,57226:0:0:0:0:
64,192,57154,128,0,57226:0:0:0:0:
320,192,57298,128,0,57370:0:0:0:0:
192,192,57298,1,0,0:0:0:0:
448,192,57298,128,0,57514:0:0:0:0:
64,192,57370,128,0,57442:0:0:0:0:
320,192,57442,128,0,57514:0:0:0:0:
192,192,57586,128,0,57659:0:0:0:0:
320,192,57586,1,0,0:0:0:0:
64,192,57586,128,0,57803:0:0:0:0:
448,192,57659,128,0,57731:0:0:0:0:
192,192,57731,128,0,57803:0:0:0:0:
64,192,57875,128,0,57947:0:0:0:0:
448,192,57875,128,0,58091:0:0:0:0:
192,192,57875,1,0,0:0:0:0:
320,192,57947,128,0,58019:0:0:0:0:
64,192,58019,128,0,58091:0:0:0:0:
192,192,58091,128,0,58163:0:0:0:0:
448,192,58163,128,0,58235:0:0:0:0:
64,192,58163,128,0,58380:0:0:0:0:
320,192,58163,1,0,0:0:0:0:
192,192,58235,128,0,58308:0:0:0:0:
448,192,58308,128,0,58380:0:0:0:0:
320,192,58380,128,0,58452:0:0:0:0:
192,192,58452,1,0,0:0:0:0:
448,192,58452,1,0,0:0:0:0:
64,192,58452,128,0,58668:0:0:0:0:
448,192,58596,128,0,58668:0:0:0:0:
320,192,58668,128,0,58740:0:0:0:0:
64,192,58740,1,0,0:0:0:0:
448,192,58740,1,0,0:0:0:0:
192,192,58740,128,0,58812:0:0:0:0:
320,192,58812,1,0,0:0:0:0:
64,192,58884,1,0,0:0:0:0:
448,192,58884,1,0,0:0:0:0:
192,192,58884,128,0,58957:0:0:0:0:
320,192,58957,128,0,59029:0:0:0:0:
64,192,59029,128,0,59101:0:0:0:0:
192,192,59101,128,0,59173:0:0:0:0:
448,192,59173,1,0,0:0:0:0:
64,192,59173,1,0,0:0:0:0:
320,192,59173,128,0,59389:0:0:0:0:
192,192,59245,128,0,59389:0:0:0:0:
64,192,59317,128,0,59389:0:0:0:0:
448,192,59389,128,0,59461:0:0:0:0:
192,192,59461,1,0,0:0:0:0:
320,192,59461,1,0,0:0:0:0:
64,192,59461,128,0,59606:0:0:0:0:
320,192,59606,128,0,59678:0:0:0:0:
192,192,59678,128,0,59750:0:0:0:0:
64,192,59750,1,0,0:0:0:0:
320,192,59750,1,0,0:0:0:0:
448,192,59750,128,0,60038:0:0:0:0:
320,192,59894,128,0,60038:0:0:0:0:
64,192,60038,128,0,60687:0:0:0:0:
320,192,60327,128,0,60687:0:0:0:0:
448,192,60471,128,0,60687:0:0:0:0:
192,192,60615,128,0,60687:0:0:0:0:
448,192,60759,1,0,0:0:0:0:
64,192,60759,1,0,0:0:0:0:
320,192,60759,128,0,61048:0:0:0:0:
192,192,60759,1,0,0:0:0:0:
64,192,60976,1,0,0:0:0:0:
448,192,61048,1,0,0:0:0:0:
320,192,61120,1,0,0:0:0:0:
64,192,61192,1,0,0:0:0:0:
192,192,61264,1,0,0:0:0:0:
64,192,61336,1,0,0:0:0:0:
320,192,61336,1,0,0:0:0:0:
448,192,61336,1,0,0:0:0:0:
64,192,61553,1,0,0:0:0:0:
320,192,61553,1,0,0:0:0:0:
448,192,61553,1,0,0:0:0:0:
448,192,61769,128,0,62058:0:0:0:0:
192,192,61769,1,0,0:0:0:0:
320,192,61769,128,0,61985:0:0:0:0:
320,192,62058,1,0,0:0:0:0:
448,192,62130,1,0,0:0:0:0:
64,192,62202,1,0,0:0:0:0:
192,192,62202,1,0,0:0:0:0:
320,192,62202,1,0,0:0:0:0:
448,192,62274,1,0,0:0:0:0:
64,192,62346,1,0,0:0:0:0:
192,192,62418,1,0,0:0:0:0:
448,192,62490,1,0,0:0:0:0:
320,192,62490,1,0,0:0:0:0:
64,192,62490,128,0,62707:0:0:0:0:
192,192,62562,128,0,62707:0:0:0:0:
320,192,62634,128,0,62779:0:0:0:0:
448,192,62707,128,0,62779:0:0:0:0:
64,192,62779,128,0,63067:0:0:0:0:
192,192,62779,1,0,0:0:0:0:
448,192,63067,128,0,63356:0:0:0:0:
320,192,63067,1,0,0:0:0:0:
192,192,63211,128,0,63356:0:0:0:0:
320,192,63356,1,0,0:0:0:0:
64,192,63428,1,0,0:0:0:0:
448,192,63500,1,0,0:0:0:0:
192,192,63500,1,0,0:0:0:0:
320,192,63572,1,0,0:0:0:0:
448,192,63644,1,0,0:0:0:0:
192,192,63644,1,0,0:0:0:0:
64,192,63644,128,0,63788:0:0:0:0:
320,192,63716,128,0,63860:0:0:0:0:
192,192,63860,1,0,0:0:0:0:
64,192,63860,128,0,64005:0:0:0:0:
448,192,63933,128,0,64077:0:0:0:0:
192,192,64077,1,0,0:0:0:0:
64,192,64077,128,0,64293:0:0:0:0:
320,192,64149,128,0,64293:0:0:0:0:
448,192,64365,1,0,0:0:0:0:
64,192,64365,1,0,0:0:0:0:
192,192,64365,128,0,64509:0:0:0:0:
320,192,64509,128,0,64654:0:0:0:0:
64,192,64654,1,0,0:0:0:0:
192,192,64654,1,0,0:0:0:0:
448,192,64654,1,0,0:0:0:0:
320,192,64726,1,0,0:0:0:0:
192,192,64798,1,0,0:0:0:0:
64,192,64798,1,0,0:0:0:0:
192,192,64870,1,0,0:0:0:0:
64,192,64870,1,0,0:0:0:0:
448,192,65014,1,0,0:0:0:0:
64,192,65014,1,0,0:0:0:0:
192,192,65014,1,0,0:0:0:0:
320,192,65086,1,0,0:0:0:0:
192,192,65159,1,0,0:0:0:0:
320,192,65231,1,0,0:0:0:0:
448,192,65231,1,0,0:0:0:0:
448,192,65303,1,0,0:0:0:0:
320,192,65303,1,0,0:0:0:0:
64,192,65375,128,0,65663:0:0:0:0:
192,192,65375,1,0,0:0:0:0:
448,192,65663,128,0,65880:0:0:0:0:
192,192,65808,128,0,65952:0:0:0:0:
64,192,65952,1,0,0:0:0:0:
320,192,65952,1,0,0:0:0:0:
448,192,65952,1,0,0:0:0:0:
64,192,66168,1,0,0:0:0:0:
320,192,66168,1,0,0:0:0:0:
448,192,66168,1,0,0:0:0:0:
64,192,66384,1,0,0:0:0:0:
192,192,66384,1,0,0:0:0:0:
448,192,66384,1,0,0:0:0:0:
64,192,66601,1,0,0:0:0:0:
192,192,66601,1,0,0:0:0:0:
448,192,66601,1,0,0:0:0:0:
192,192,66817,1,0,0:0:0:0:
64,192,66817,1,0,0:0:0:0:
320,192,66817,1,0,0:0:0:0:
192,192,66961,1,0,0:0:0:0:
64,192,66961,1,0,0:0:0:0:
320,192,66961,1,0,0:0:0:0:
320,192,67106,1,0,0:0:0:0:
448,192,67106,1,0,0:0:0:0:
192,192,67106,1,0,0:0:0:0:
320,192,67322,1,0,0:0:0:0:
448,192,67322,1,0,0:0:0:0:
192,192,67322,1,0,0:0:0:0:
64,192,67538,1,0,0:0:0:0:
320,192,67538,1,0,0:0:0:0:
448,192,67538,1,0,0:0:0:0:
320,192,67610,1,0,0:0:0:0:
192,192,67610,1,0,0:0:0:0:
64,192,67683,1,0,0:0:0:0:
192,192,67683,1,0,0:0:0:0:
448,192,67683,1,0,0:0:0:0:
64,192,67875,1,0,0:0:0:0:
192,192,67875,1,0,0:0:0:0:
448,192,67875,1,0,0:0:0:0:
64,192,68067,1,0,0:0:0:0:
448,192,68067,1,0,0:0:0:0:
320,192,68067,1,0,0:0:0:0:
64,192,68259,1,0,0:0:0:0:
448,192,68259,1,0,0:0:0:0:
320,192,68259,1,0,0:0:0:0:
192,192,68452,1,0,0:0:0:0:
64,192,68452,1,0,0:0:0:0:
448,192,68452,1,0,0:0:0:0:
64,192,68644,1,0,0:0:0:0:
192,192,68644,1,0,0:0:0:0:
448,192,68644,1,0,0:0:0:0:
64,192,68740,1,0,0:0:0:0:
192,192,68740,1,0,0:0:0:0:
320,192,68836,1,0,0:0:0:0:
448,192,68836,1,0,0:0:0:0:
320,192,68933,1,0,0:0:0:0:
448,192,68933,1,0,0:0:0:0:
192,192,69029,1,0,0:0:0:0:
64,192,69029,1,0,0:0:0:0:
64,192,69125,1,0,0:0:0:0:
192,192,69125,1,0,0:0:0:0:
320,192,69221,1,0,0:0:0:0:
448,192,69221,1,0,0:0:0:0:
320,192,69317,1,0,0:0:0:0:
448,192,69317,1,0,0:0:0:0:
64,192,69413,1,0,0:0:0:0:
192,192,69413,1,0,0:0:0:0:
448,192,69461,1,0,0:0:0:0:
320,192,69509,1,0,0:0:0:0:
64,192,69509,1,0,0:0:0:0:
192,192,69558,1,0,0:0:0:0:
320,192,69606,1,0,0:0:0:0:
448,192,69606,1,0,0:0:0:0:
64,192,69654,1,0,0:0:0:0:
192,192,69702,1,0,0:0:0:0:
448,192,69702,1,0,0:0:0:0:
320,192,69750,1,0,0:0:0:0:
64,192,69798,1,0,0:0:0:0:
192,192,69798,1,0,0:0:0:0:
448,192,69846,1,0,0:0:0:0:
64,192,69894,1,0,0:0:0:0:
320,192,69894,1,0,0:0:0:0:
192,192,69942,1,0,0:0:0:0:
320,192,69990,1,0,0:0:0:0:
448,192,69990,1,0,0:0:0:0:
64,192,71144,1,0,0:0:0:0:
192,192,71144,1,0,0:0:0:0:
320,192,71144,1,0,0:0:0:0:
448,192,71144,1,0,0:0:0:0:
320,192,71288,1,0,0:0:0:0:
192,192,71433,1,0,0:0:0:0:
64,192,71577,1,0,0:0:0:0:
320,192,71577,1,0,0:0:0:0:
448,192,71721,1,0,0:0:0:0:
64,192,71865,1,0,0:0:0:0:
448,192,72009,1,0,0:0:0:0:
192,192,72009,1,0,0:0:0:0:
320,192,72154,1,0,0:0:0:0:
64,192,72298,1,0,0:0:0:0:
448,192,72298,1,0,0:0:0:0:
192,192,72442,1,0,0:0:0:0:
320,192,72586,1,0,0:0:0:0:
64,192,72731,1,0,0:0:0:0:
192,192,72731,1,0,0:0:0:0:
320,192,72875,1,0,0:0:0:0:
64,192,73019,1,0,0:0:0:0:
448,192,73019,1,0,0:0:0:0:
192,192,73163,1,0,0:0:0:0:
320,192,73308,1,0,0:0:0:0:
448,192,73308,1,0,0:0:0:0:
64,192,73452,1,0,0:0:0:0:
192,192,73596,1,0,0:0:0:0:
448,192,73740,1,0,0:0:0:0:
64,192,73884,1,0,0:0:0:0:
320,192,73884,1,0,0:0:0:0:
192,192,74029,1,0,0:0:0:0:
320,192,74173,1,0,0:0:0:0:
448,192,74317,1,0,0:0:0:0:
192,192,74317,1,0,0:0:0:0:
320,192,74461,1,0,0:0:0:0:
64,192,74606,1,0,0:0:0:0:
192,192,74606,1,0,0:0:0:0:
448,192,74750,1,0,0:0:0:0:
320,192,74894,1,0,0:0:0:0:
64,192,75038,1,0,0:0:0:0:
192,192,75183,1,0,0:0:0:0:
320,192,75183,1,0,0:0:0:0:
448,192,75183,1,0,0:0:0:0:
64,192,75327,1,0,0:0:0:0:
192,192,75399,1,0,0:0:0:0:
320,192,75399,1,0,0:0:0:0:
448,192,75399,1,0,0:0:0:0:
64,192,75471,1,0,0:0:0:0:
192,192,75615,1,0,0:0:0:0:
320,192,75615,1,0,0:0:0:0:
448,192,75615,1,0,0:0:0:0:
64,192,75759,1,0,0:0:0:0:
320,192,75759,1,0,0:0:0:0:
448,192,75759,1,0,0:0:0:0:
192,192,75904,1,0,0:0:0:0:
64,192,76048,1,0,0:0:0:0:
448,192,76048,1,0,0:0:0:0:
320,192,76048,1,0,0:0:0:0:
192,192,76192,1,0,0:0:0:0:
448,192,76192,1,0,0:0:0:0:
320,192,76336,1,0,0:0:0:0:
192,192,76481,128,0,76625:0:0:0:0:
64,192,76625,1,0,0:0:0:0:
320,192,76625,128,0,76769:0:0:0:0:
448,192,76769,128,0,77346:0:0:0:0:
64,192,76913,1,0,0:0:0:0:
192,192,77058,1,0,0:0:0:0:
320,192,77202,1,0,0:0:0:0:
64,192,77346,128,0,77634:0:0:0:0:
320,192,77490,1,0,0:0:0:0:
192,192,77634,128,0,77779:0:0:0:0:
320,192,77779,128,0,77923:0:0:0:0:
448,192,77923,128,0,78356:0:0:0:0:
64,192,78067,1,0,0:0:0:0:
192,192,78211,1,0,0:0:0:0:
320,192,78284,1,0,0:0:0:0:
64,192,78356,128,0,78500:0:0:0:0:
192,192,78428,1,0,0:0:0:0:
320,192,78500,128,0,78933:0:0:0:0:
448,192,78572,1,0,0:0:0:0:
192,192,78644,1,0,0:0:0:0:
64,192,78716,1,0,0:0:0:0:
448,192,78788,1,0,0:0:0:0:
192,192,78860,1,0,0:0:0:0:
448,192,78933,128,0,79077:0:0:0:0:
64,192,79005,1,0,0:0:0:0:
192,192,79077,128,0,79798:0:0:0:0:
320,192,79149,1,0,0:0:0:0:
64,192,79221,1,0,0:0:0:0:
448,192,79293,1,0,0:0:0:0:
64,192,79365,1,0,0:0:0:0:
320,192,79437,1,0,0:0:0:0:
64,192,79509,1,0,0:0:0:0:
320,192,79582,1,0,0:0:0:0:
64,192,79654,1,0,0:0:0:0:
320,192,79726,1,0,0:0:0:0:
448,192,79798,1,0,0:0:0:0:
192,192,79870,1,0,0:0:0:0:
448,192,79942,1,0,0:0:0:0:
320,192,79978,1,0,0:0:0:0:
192,192,80014,1,0,0:0:0:0:
64,192,80050,1,0,0:0:0:0:
320,192,80086,1,0,0:0:0:0:
448,192,80086,1,0,0:0:0:0:
64,192,80159,1,0,0:0:0:0:
192,192,80159,1,0,0:0:0:0:
320,192,80231,1,0,0:0:0:0:
448,192,80231,1,0,0:0:0:0:
192,192,80303,1,0,0:0:0:0:
64,192,80375,1,0,0:0:0:0:
448,192,80375,1,0,0:0:0:0:
320,192,80375,128,0,80447:0:0:0:0:
192,192,80519,1,0,0:0:0:0:
320,192,80663,1,0,0:0:0:0:
64,192,80808,1,0,0:0:0:0:
448,192,80808,1,0,0:0:0:0:
192,192,80808,128,0,80880:0:0:0:0:
320,192,80952,1,0,0:0:0:0:
448,192,81096,1,0,0:0:0:0:
192,192,81240,1,0,0:0:0:0:
320,192,81240,1,0,0:0:0:0:
64,192,81240,128,0,81312:0:0:0:0:
320,192,81384,1,0,0:0:0:0:
448,192,81529,1,0,0:0:0:0:
64,192,81529,1,0,0:0:0:0:
192,192,81529,128,0,81601:0:0:0:0:
320,192,81673,1,0,0:0:0:0:
192,192,81817,1,0,0:0:0:0:
448,192,81961,1,0,0:0:0:0:
64,192,81961,1,0,0:0:0:0:
320,192,81961,128,0,82034:0:0:0:0:
192,192,82106,1,0,0:0:0:0:
448,192,82250,128,0,82322:0:0:0:0:
320,192,82394,1,0,0:0:0:0:
192,192,82394,1,0,0:0:0:0:
64,192,82538,128,0,82610:0:0:0:0:
192,192,82683,1,0,0:0:0:0:
448,192,82683,1,0,0:0:0:0:
320,192,82683,1,0,0:0:0:0:
64,192,82827,1,0,0:0:0:0:
448,192,82971,1,0,0:0:0:0:
192,192,82971,1,0,0:0:0:0:
448,192,83115,128,0,83187:0:0:0:0:
320,192,83115,1,0,0:0:0:0:
64,192,83115,1,0,0:0:0:0:
320,192,83259,1,0,0:0:0:0:
64,192,83404,1,0,0:0:0:0:
448,192,83404,1,0,0:0:0:0:
192,192,83404,1,0,0:0:0:0:
320,192,83548,128,0,83620:0:0:0:0:
320,192,83692,1,0,0:0:0:0:
448,192,83692,1,0,0:0:0:0:
64,192,83692,1,0,0:0:0:0:
192,192,83836,128,0,83909:0:0:0:0:
448,192,83981,1,0,0:0:0:0:
320,192,83981,1,0,0:0:0:0:
192,192,83981,1,0,0:0:0:0:
64,192,84125,128,0,84197:0:0:0:0:
64,192,84269,1,0,0:0:0:0:
448,192,84269,1,0,0:0:0:0:
192,192,84269,1,0,0:0:0:0:
320,192,84413,1,0,0:0:0:0:
448,192,84449,1,0,0:0:0:0:
192,192,84485,1,0,0:0:0:0:
64,192,84522,1,0,0:0:0:0:
320,192,84558,1,0,0:0:0:0:
448,192,84594,1,0,0:0:0:0:
192,192,84630,1,0,0:0:0:0:
64,192,84666,1,0,0:0:0:0:
320,192,84702,1,0,0:0:0:0:
448,192,84702,128,0,84774:0:0:0:0:
64,192,84846,1,0,0:0:0:0:
192,192,84990,1,0,0:0:0:0:
320,192,84990,1,0,0:0:0:0:
448,192,84990,128,0,85062:0:0:0:0:
192,192,85207,1,0,0:0:0:0:
320,192,85207,1,0,0:0:0:0:
448,192,85207,1,0,0:0:0:0:
320,192,85423,1,0,0:0:0:0:
448,192,85423,1,0,0:0:0:0:
192,192,85423,128,0,85495:0:0:0:0:
192,192,85639,1,0,0:0:0:0:
320,192,85639,1,0,0:0:0:0:
448,192,85639,1,0,0:0:0:0:
64,192,85711,1,0,0:0:0:0:
320,192,85856,128,0,85928:0:0:0:0:
192,192,85856,1,0,0:0:0:0:
448,192,86000,1,0,0:0:0:0:
192,192,86144,1,0,0:0:0:0:
320,192,86144,1,0,0:0:0:0:
64,192,86144,1,0,0:0:0:0:
320,192,86360,1,0,0:0:0:0:
192,192,86360,1,0,0:0:0:0:
64,192,86360,1,0,0:0:0:0:
64,192,86577,1,0,0:0:0:0:
192,192,86577,1,0,0:0:0:0:
320,192,86577,1,0,0:0:0:0:
448,192,86721,128,0,86793:0:0:0:0:
192,192,86793,1,0,0:0:0:0:
64,192,86793,1,0,0:0:0:0:
320,192,86793,1,0,0:0:0:0:
192,192,87009,1,0,0:0:0:0:
64,192,87009,1,0,0:0:0:0:
320,192,87082,1,0,0:0:0:0:
448,192,87082,1,0,0:0:0:0:
192,192,87154,1,0,0:0:0:0:
64,192,87154,1,0,0:0:0:0:
320,192,87226,1,0,0:0:0:0:
192,192,87298,1,0,0:0:0:0:
448,192,87298,1,0,0:0:0:0:
64,192,87298,128,0,87370:0:0:0:0:
64,192,87514,1,0,0:0:0:0:
192,192,87514,1,0,0:0:0:0:
448,192,87514,1,0,0:0:0:0:
64,192,87731,1,0,0:0:0:0:
448,192,87731,1,0,0:0:0:0:
192,192,87731,128,0,87803:0:0:0:0:
64,192,87947,1,0,0:0:0:0:
448,192,87947,1,0,0:0:0:0:
192,192,87947,1,0,0:0:0:0:
64,192,88163,1,0,0:0:0:0:
192,192,88163,1,0,0:0:0:0:
448,192,88163,1,0,0:0:0:0:
320,192,88235,1,0,0:0:0:0:
64,192,88308,1,0,0:0:0:0:
192,192,88308,1,0,0:0:0:0:
448,192,88308,1,0,0:0:0:0:
320,192,88380,1,0,0:0:0:0:
64,192,88452,1,0,0:0:0:0:
448,192,88452,1,0,0:0:0:0:
192,192,88452,1,0,0:0:0:0:
320,192,88524,1,0,0:0:0:0:
192,192,88596,1,0,0:0:0:0:
64,192,88668,1,0,0:0:0:0:
448,192,88740,1,0,0:0:0:0:
320,192,88740,1,0,0:0:0:0:
192,192,88812,1,0,0:0:0:0:
448,192,88884,1,0,0:0:0:0:
64,192,88884,1,0,0:0:0:0:
320,192,88884,1,0,0:0:0:0:
192,192,88957,1,0,0:0:0:0:
448,192,89029,1,0,0:0:0:0:
64,192,89029,1,0,0:0:0:0:
320,192,89101,1,0,0:0:0:0:
192,192,89173,1,0,0:0:0:0:
448,192,89245,1,0,0:0:0:0:
192,192,89317,1,0,0:0:0:0:
320,192,89317,128,0,90904:0:0:0:0:
64,192,89317,1,0,0:0:0:0:
64,192,90904,1,0,0:0:0:0:
448,192,90904,1,0,0:0:0:0:
192,192,90976,1,0,0:0:0:0:
320,192,91048,1,0,0:0:0:0:
448,192,91120,1,0,0:0:0:0:
64,192,91192,1,0,0:0:0:0:
192,192,91264,1,0,0:0:0:0:
320,192,91336,1,0,0:0:0:0:
448,192,91336,1,0,0:0:0:0:
64,192,91409,1,0,0:0:0:0:
192,192,91409,1,0,0:0:0:0:
320,192,91481,1,0,0:0:0:0:
448,192,91481,1,0,0:0:0:0:
192,192,91553,1,0,0:0:0:0:
64,192,91625,1,0,0:0:0:0:
448,192,91625,1,0,0:0:0:0:
192,192,91697,1,0,0:0:0:0:
320,192,91697,1,0,0:0:0:0:
64,192,91769,1,0,0:0:0:0:
448,192,91769,1,0,0:0:0:0:
320,192,91841,1,0,0:0:0:0:
64,192,91913,1,0,0:0:0:0:
448,192,91913,1,0,0:0:0:0:
192,192,91913,128,0,92058:0:0:0:0:
64,192,92202,128,0,92346:0:0:0:0:
192,192,92346,128,0,92490:0:0:0:0:
320,192,92346,1,0,0:0:0:0:
448,192,92346,1,0,0:0:0:0:
320,192,92562,128,0,92707:0:0:0:0:
64,192,92562,1,0,0:0:0:0:
192,192,92562,1,0,0:0:0:0:
320,192,92779,128,0,92851:0:0:0:0:
448,192,92779,1,0,0:0:0:0:
192,192,92779,1,0,0:0:0:0:
64,192,92851,1,0,0:0:0:0:
448,192,92923,128,0,93067:0:0:0:0:
320,192,92923,1,0,0:0:0:0:
192,192,92923,1,0,0:0:0:0:
64,192,92995,1,0,0:0:0:0:
192,192,93067,128,0,93211:0:0:0:0:
448,192,93211,1,0,0:0:0:0:
64,192,93211,1,0,0:0:0:0:
320,192,93284,1,0,0:0:0:0:
448,192,93356,1,0,0:0:0:0:
64,192,93356,128,0,93500:0:0:0:0:
192,192,93356,1,0,0:0:0:0:
192,192,93500,128,0,93644:0:0:0:0:
320,192,93644,1,0,0:0:0:0:
448,192,93644,1,0,0:0:0:0:
64,192,93788,128,0,93860:0:0:0:0:
192,192,93860,128,0,93933:0:0:0:0:
448,192,93933,1,0,0:0:0:0:
64,192,93933,1,0,0:0:0:0:
320,192,93933,128,0,94005:0:0:0:0:
192,192,94005,128,0,94077:0:0:0:0:
320,192,94077,128,0,94149:0:0:0:0:
448,192,94149,128,0,94221:0:0:0:0:
192,192,94221,1,0,0:0:0:0:
64,192,94221,128,0,94365:0:0:0:0:
320,192,94365,1,0,0:0:0:0:
192,192,94437,1,0,0:0:0:0:
448,192,94509,1,0,0:0:0:0:
64,192,94509,1,0,0:0:0:0:
320,192,94509,128,0,94654:0:0:0:0:
64,192,94654,128,0,94798:0:0:0:0:
192,192,94798,128,0,94942:0:0:0:0:
448,192,94798,1,0,0:0:0:0:
320,192,94942,1,0,0:0:0:0:
192,192,95014,128,0,95159:0:0:0:0:
64,192,95086,1,0,0:0:0:0:
448,192,95086,1,0,0:0:0:0:
320,192,95086,1,0,0:0:0:0:
320,192,95231,128,0,95303:0:0:0:0:
448,192,95303,128,0,95375:0:0:0:0:
64,192,95375,128,0,95519:0:0:0:0:
192,192,95375,1,0,0:0:0:0:
320,192,95519,1,0,0:0:0:0:
64,192,95591,1,0,0:0:0:0:
448,192,95591,128,0,95735:0:0:0:0:
192,192,95591,1,0,0:0:0:0:
320,192,95735,1,0,0:0:0:0:
192,192,95808,128,0,95952:0:0:0:0:
64,192,95952,1,0,0:0:0:0:
320,192,95952,128,0,96096:0:0:0:0:
192,192,96096,1,0,0:0:0:0:
448,192,96096,1,0,0:0:0:0:
64,192,96168,128,0,96240:0:0:0:0:
320,192,96240,1,0,0:0:0:0:
448,192,96240,1,0,0:0:0:0:
64,192,96312,1,0,0:0:0:0:
192,192,96312,1,0,0:0:0:0:
320,192,96384,1,0,0:0:0:0:
448,192,96384,128,0,96457:0:0:0:0:
64,192,96457,1,0,0:0:0:0:
192,192,96457,1,0,0:0:0:0:
448,192,96529,1,0,0:0:0:0:
320,192,96529,128,0,96817:0:0:0:0:
192,192,96817,1,0,0:0:0:0:
64,192,96817,1,0,0:0:0:0:
448,192,96817,128,0,96961:0:0:0:0:
320,192,96961,128,0,97106:0:0:0:0:
192,192,97106,1,0,0:0:0:0:
448,192,97106,1,0,0:0:0:0:
64,192,97178,128,0,97322:0:0:0:0:
192,192,97322,1,0,0:0:0:0:
64,192,97394,1,0,0:0:0:0:
448,192,97394,128,0,97538:0:0:0:0:
320,192,97394,1,0,0:0:0:0:
192,192,97466,1,0,0:0:0:0:
320,192,97538,128,0,97683:0:0:0:0:
448,192,97683,1,0,0:0:0:0:
64,192,97683,1,0,0:0:0:0:
192,192,97683,128,0,97827:0:0:0:0:
320,192,97827,1,0,0:0:0:0:
448,192,97899,1,0,0:0:0:0:
192,192,97971,1,0,0:0:0:0:
320,192,97971,1,0,0:0:0:0:
64,192,97971,128,0,98115:0:0:0:0:
192,192,98115,128,0,98259:0:0:0:0:
320,192,98259,1,0,0:0:0:0:
448,192,98259,128,0,98404:0:0:0:0:
64,192,98404,128,0,98476:0:0:0:0:
192,192,98476,128,0,98548:0:0:0:0:
320,192,98548,128,0,98620:0:0:0:0:
448,192,98548,1,0,0:0:0:0:
64,192,98548,1,0,0:0:0:0:
192,192,98620,128,0,98692:0:0:0:0:
320,192,98692,128,0,98764:0:0:0:0:
448,192,98764,128,0,98836:0:0:0:0:
192,192,98836,1,0,0:0:0:0:
64,192,98836,128,0,98981:0:0:0:0:
320,192,98836,1,0,0:0:0:0:
64,192,99053,1,0,0:0:0:0:
448,192,99053,1,0,0:0:0:0:
320,192,99053,128,0,99197:0:0:0:0:
192,192,99197,1,0,0:0:0:0:
64,192,99197,1,0,0:0:0:0:
320,192,99269,1,0,0:0:0:0:
448,192,99269,128,0,99341:0:0:0:0:
192,192,99341,1,0,0:0:0:0:
64,192,99413,1,0,0:0:0:0:
448,192,99413,1,0,0:0:0:0:
320,192,99413,128,0,99558:0:0:0:0:
192,192,99558,1,0,0:0:0:0:
448,192,99630,1,0,0:0:0:0:
320,192,99630,1,0,0:0:0:0:
64,192,99630,128,0,99702:0:0:0:0:
448,192,99774,1,0,0:0:0:0:
320,192,99774,1,0,0:0:0:0:
64,192,99774,128,0,99846:0:0:0:0:
192,192,99846,128,0,99918:0:0:0:0:
320,192,99918,128,0,99990:0:0:0:0:
448,192,99990,128,0,100134:0:0:0:0:
64,192,99990,1,0,0:0:0:0:
192,192,99990,1,0,0:0:0:0:
320,192,100134,1,0,0:0:0:0:
192,192,100207,1,0,0:0:0:0:
448,192,100279,1,0,0:0:0:0:
64,192,100279,128,0,100423:0:0:0:0:
320,192,100279,1,0,0:0:0:0:
192,192,100423,1,0,0:0:0:0:
320,192,100495,1,0,0:0:0:0:
64,192,100567,1,0,0:0:0:0:
448,192,100567,128,0,100711:0:0:0:0:
192,192,100567,1,0,0:0:0:0:
320,192,100711,1,0,0:0:0:0:
64,192,100784,1,0,0:0:0:0:
192,192,100784,1,0,0:0:0:0:
320,192,100856,128,0,101144:0:0:0:0:
448,192,100856,1,0,0:0:0:0:
192,192,100928,1,0,0:0:0:0:
448,192,101000,1,0,0:0:0:0:
64,192,101000,1,0,0:0:0:0:
192,192,101072,1,0,0:0:0:0:
64,192,101144,128,0,101288:0:0:0:0:
448,192,101144,1,0,0:0:0:0:
192,192,101433,128,0,101577:0:0:0:0:
448,192,101433,1,0,0:0:0:0:
320,192,101433,1,0,0:0:0:0:
320,192,101577,1,0,0:0:0:0:
448,192,101577,1,0,0:0:0:0:
64,192,101577,128,0,101721:0:0:0:0:
192,192,101721,1,0,0:0:0:0:
320,192,101793,128,0,101865:0:0:0:0:
64,192,101865,1,0,0:0:0:0:
448,192,101865,1,0,0:0:0:0:
192,192,101865,1,0,0:0:0:0:
320,192,101937,1,0,0:0:0:0:
64,192,102009,128,0,102082:0:0:0:0:
192,192,102082,1,0,0:0:0:0:
64,192,102154,1,0,0:0:0:0:
448,192,102154,1,0,0:0:0:0:
320,192,102154,128,0,102298:0:0:0:0:
64,192,102298,1,0,0:0:0:0:
192,192,102298,1,0,0:0:0:0:
448,192,102298,128,0,102442:0:0:0:0:
64,192,102586,1,0,0:0:0:0:
192,192,102586,1,0,0:0:0:0:
320,192,102586,128,0,102731:0:0:0:0:
64,192,102731,1,0,0:0:0:0:
192,192,102731,1,0,0:0:0:0:
448,192,102731,128,0,102875:0:0:0:0:
320,192,102875,1,0,0:0:0:0:
192,192,102947,1,0,0:0:0:0:
448,192,103019,128,0,103091:0:0:0:0:
320,192,103019,1,0,0:0:0:0:
64,192,103091,1,0,0:0:0:0:
192,192,103091,128,0,103163:0:0:0:0:
448,192,103163,1,0,0:0:0:0:
320,192,103163,128,0,103235:0:0:0:0:
64,192,103235,128,0,103308:0:0:0:0:
192,192,103235,1,0,0:0:0:0:
320,192,103308,1,0,0:0:0:0:
448,192,103308,128,0,103380:0:0:0:0:
192,192,103380,128,0,103452:0:0:0:0:
448,192,103452,1,0,0:0:0:0:
64,192,103452,1,0,0:0:0:0:
320,192,103452,128,0,103596:0:0:0:0:
192,192,103740,128,0,103884:0:0:0:0:
64,192,103740,1,0,0:0:0:0:
448,192,103740,1,0,0:0:0:0:
320,192,103884,128,0,104029:0:0:0:0:
64,192,103884,1,0,0:0:0:0:
448,192,103884,1,0,0:0:0:0:
192,192,104029,1,0,0:0:0:0:
64,192,104029,1,0,0:0:0:0:
448,192,104029,128,0,104173:0:0:0:0:
448,192,104245,128,0,104389:0:0:0:0:
64,192,104245,1,0,0:0:0:0:
320,192,104245,1,0,0:0:0:0:
448,192,104461,128,0,104534:0:0:0:0:
64,192,104461,1,0,0:0:0:0:
192,192,104461,1,0,0:0:0:0:
320,192,104534,128,0,104606:0:0:0:0:
192,192,104606,1,0,0:0:0:0:
64,192,104606,1,0,0:0:0:0:
448,192,104606,1,0,0:0:0:0:
320,192,104678,128,0,104822:0:0:0:0:
192,192,104750,1,0,0:0:0:0:
64,192,104822,1,0,0:0:0:0:
448,192,104822,1,0,0:0:0:0:
192,192,104894,128,0,105038:0:0:0:0:
448,192,104966,1,0,0:0:0:0:
64,192,105038,128,0,105110:0:0:0:0:
320,192,105038,1,0,0:0:0:0:
192,192,105110,128,0,105183:0:0:0:0:
448,192,105183,1,0,0:0:0:0:
64,192,105183,1,0,0:0:0:0:
320,192,105183,128,0,105327:0:0:0:0:
192,192,105255,1,0,0:0:0:0:
448,192,105327,1,0,0:0:0:0:
320,192,105399,128,0,105543:0:0:0:0:
192,192,105399,1,0,0:0:0:0:
64,192,105399,1,0,0:0:0:0:
64,192,105543,1,0,0:0:0:0:
192,192,105615,128,0,105759:0:0:0:0:
448,192,105615,1,0,0:0:0:0:
320,192,105687,1,0,0:0:0:0:
448,192,105759,1,0,0:0:0:0:
64,192,105759,128,0,105904:0:0:0:0:
320,192,105904,1,0,0:0:0:0:
192,192,105904,1,0,0:0:0:0:
448,192,106048,1,0,0:0:0:0:
192,192,106048,128,0,106192:0:0:0:0:
64,192,106048,1,0,0:0:0:0:
64,192,106192,128,0,106336:0:0:0:0:
320,192,106336,1,0,0:0:0:0:
448,192,106336,1,0,0:0:0:0:
192,192,106409,128,0,106481:0:0:0:0:
64,192,106481,1,0,0:0:0:0:
448,192,106625,1,0,0:0:0:0:
64,192,106625,128,0,106697:0:0:0:0:
192,192,106625,1,0,0:0:0:0:
320,192,106697,128,0,106769:0:0:0:0:
64,192,106769,1,0,0:0:0:0:
192,192,106769,128,0,106841:0:0:0:0:
448,192,106841,128,0,106913:0:0:0:0:
320,192,106841,1,0,0:0:0:0:
192,192,106913,1,0,0:0:0:0:
64,192,106913,128,0,106985:0:0:0:0:
320,192,106985,128,0,107058:0:0:0:0:
192,192,107058,128,0,107130:0:0:0:0:
64,192,107130,128,0,107202:0:0:0:0:
320,192,107202,1,0,0:0:0:0:
448,192,107202,128,0,107274:0:0:0:0:
192,192,107274,128,0,107346:0:0:0:0:
320,192,107346,128,0,107418:0:0:0:0:
64,192,107346,1,0,0:0:0:0:
192,192,107418,1,0,0:0:0:0:
448,192,107418,128,0,107490:0:0:0:0:
320,192,107490,1,0,0:0:0:0:
64,192,107490,128,0,107562:0:0:0:0:
192,192,107562,1,0,0:0:0:0:
448,192,107634,1,0,0:0:0:0:
320,192,107671,1,0,0:0:0:0:
192,192,107707,128,0,107779:0:0:0:0:
448,192,107779,1,0,0:0:0:0:
320,192,107779,1,0,0:0:0:0:
64,192,107851,1,0,0:0:0:0:
192,192,107851,1,0,0:0:0:0:
448,192,107923,1,0,0:0:0:0:
320,192,107923,128,0,107995:0:0:0:0:
64,192,107995,1,0,0:0:0:0:
192,192,107995,1,0,0:0:0:0:
448,192,108067,128,0,108139:0:0:0:0:
320,192,108067,1,0,0:0:0:0:
64,192,108139,1,0,0:0:0:0:
192,192,108211,1,0,0:0:0:0:
320,192,108284,128,0,108356:0:0:0:0:
64,192,108284,1,0,0:0:0:0:
448,192,108284,1,0,0:0:0:0:
192,192,108356,1,0,0:0:0:0:
320,192,108428,1,0,0:0:0:0:
64,192,108500,1,0,0:0:0:0:
192,192,108500,128,0,108572:0:0:0:0:
448,192,108500,1,0,0:0:0:0:
320,192,108572,1,0,0:0:0:0:
448,192,108644,1,0,0:0:0:0:
64,192,108716,128,0,108788:0:0:0:0:
192,192,108716,1,0,0:0:0:0:
320,192,108716,1,0,0:0:0:0:
448,192,108788,1,0,0:0:0:0:
64,192,108860,1,0,0:0:0:0:
448,192,108933,1,0,0:0:0:0:
320,192,108933,1,0,0:0:0:0:
192,192,108933,128,0,109005:0:0:0:0:
64,192,109005,128,0,109077:0:0:0:0:
192,192,109077,1,0,0:0:0:0:
448,192,109077,1,0,0:0:0:0:
320,192,109077,128,0,109149:0:0:0:0:
64,192,109149,128,0,109221:0:0:0:0:
320,192,109221,1,0,0:0:0:0:
448,192,109221,128,0,109365:0:0:0:0:
64,192,109365,1,0,0:0:0:0:
192,192,109365,1,0,0:0:0:0:
320,192,109437,1,0,0:0:0:0:
448,192,109509,1,0,0:0:0:0:
192,192,109509,128,0,109654:0:0:0:0:
64,192,109582,1,0,0:0:0:0:
320,192,109654,1,0,0:0:0:0:
192,192,109726,1,0,0:0:0:0:
448,192,109798,1,0,0:0:0:0:
320,192,109798,1,0,0:0:0:0:
64,192,109834,1,0,0:0:0:0:
192,192,109870,1,0,0:0:0:0:
448,192,109906,1,0,0:0:0:0:
320,192,109942,1,0,0:0:0:0:
64,192,109978,1,0,0:0:0:0:
192,192,110014,1,0,0:0:0:0:
448,192,110050,1,0,0:0:0:0:
320,192,110086,1,0,0:0:0:0:
64,192,110086,1,0,0:0:0:0:
192,192,110122,1,0,0:0:0:0:
448,192,110159,1,0,0:0:0:0:
320,192,110195,1,0,0:0:0:0:
64,192,110231,1,0,0:0:0:0:
192,192,110267,1,0,0:0:0:0:
448,192,110303,1,0,0:0:0:0:
320,192,110339,1,0,0:0:0:0:
64,192,110375,128,0,112538:0:0:0:0:
192,192,110375,1,0,0:0:0:0:
320,192,110519,1,0,0:0:0:0:
448,192,110663,1,0,0:0:0:0:
192,192,110808,1,0,0:0:0:0:
320,192,110952,1,0,0:0:0:0:
448,192,111096,1,0,0:0:0:0:
192,192,111240,1,0,0:0:0:0:
320,192,111384,1,0,0:0:0:0:
448,192,111529,1,0,0:0:0:0:
192,192,111673,1,0,0:0:0:0:
448,192,111817,1,0,0:0:0:0:
320,192,111961,1,0,0:0:0:0:
192,192,112106,1,0,0:0:0:0:
448,192,112250,1,0,0:0:0:0:
320,192,112394,1,0,0:0:0:0:
192,192,112538,128,0,112610:0:0:0:0:
320,192,112610,128,0,112683:0:0:0:0:
448,192,112683,128,0,112755:0:0:0:0:
320,192,112827,1,0,0:0:0:0:
192,192,112971,1,0,0:0:0:0:
320,192,113115,128,0,113187:0:0:0:0:
192,192,113259,1,0,0:0:0:0:
64,192,113404,1,0,0:0:0:0:
192,192,113548,128,0,113620:0:0:0:0:
64,192,113692,1,0,0:0:0:0:
448,192,113836,1,0,0:0:0:0:
64,192,113981,128,0,114053:0:0:0:0:
448,192,114125,1,0,0:0:0:0:
320,192,114269,1,0,0:0:0:0:
192,192,114413,128,0,114485:0:0:0:0:
64,192,114558,1,0,0:0:0:0:
448,192,114702,128,0,114774:0:0:0:0:
320,192,114846,1,0,0:0:0:0:
192,192,114990,128,0,115062:0:0:0:0:
64,192,115134,1,0,0:0:0:0:
320,192,115279,1,0,0:0:0:0:
448,192,115423,128,0,115495:0:0:0:0:
64,192,115567,1,0,0:0:0:0:
192,192,115639,1,0,0:0:0:0:
448,192,115711,1,0,0:0:0:0:
320,192,115784,1,0,0:0:0:0:
64,192,115856,128,0,115928:0:0:0:0:
192,192,115928,1,0,0:0:0:0:
448,192,116000,1,0,0:0:0:0:
320,192,116072,1,0,0:0:0:0:
64,192,116144,1,0,0:0:0:0:
192,192,116216,1,0,0:0:0:0:
320,192,116288,1,0,0:0:0:0:
64,192,116360,1,0,0:0:0:0:
448,192,116433,1,0,0:0:0:0:
192,192,116505,1,0,0:0:0:0:
64,192,116577,1,0,0:0:0:0:
320,192,116649,1,0,0:0:0:0:
448,192,116721,1,0,0:0:0:0:
64,192,116793,1,0,0:0:0:0:
320,192,116865,1,0,0:0:0:0:
192,192,116937,1,0,0:0:0:0:
448,192,117009,1,0,0:0:0:0:
320,192,117082,1,0,0:0:0:0:
64,192,117154,128,0,117226:0:0:0:0:
192,192,117226,128,0,117298:0:0:0:0:
320,192,117298,128,0,117370:0:0:0:0:
448,192,117298,1,0,0:0:0:0:
192,192,117370,1,0,0:0:0:0:
64,192,117442,1,0,0:0:0:0:
320,192,117442,1,0,0:0:0:0:
448,192,117514,1,0,0:0:0:0:
64,192,117586,1,0,0:0:0:0:
192,192,117586,1,0,0:0:0:0:
320,192,117659,1,0,0:0:0:0:
448,192,117731,1,0,0:0:0:0:
192,192,117731,1,0,0:0:0:0:
64,192,117803,1,0,0:0:0:0:
448,192,117875,1,0,0:0:0:0:
320,192,117875,1,0,0:0:0:0:
192,192,117947,1,0,0:0:0:0:
64,192,118019,1,0,0:0:0:0:
320,192,118019,1,0,0:0:0:0:
448,192,118091,1,0,0:0:0:0:
64,192,118163,1,0,0:0:0:0:
192,192,118163,1,0,0:0:0:0:
320,192,118235,1,0,0:0:0:0:
448,192,118308,1,0,0:0:0:0:
192,192,118308,1,0,0:0:0:0:
64,192,118380,1,0,0:0:0:0:
320,192,118452,1,0,0:0:0:0:
448,192,118452,128,0,118524:0:0:0:0:
192,192,118524,1,0,0:0:0:0:
64,192,118524,1,0,0:0:0:0:
320,192,118596,1,0,0:0:0:0:
448,192,118596,1,0,0:0:0:0:
192,192,118668,1,0,0:0:0:0:
64,192,118668,1,0,0:0:0:0:
320,192,118740,1,0,0:0:0:0:
448,192,118740,1,0,0:0:0:0:
192,192,118812,1,0,0:0:0:0:
64,192,118812,1,0,0:0:0:0:
448,192,118884,1,0,0:0:0:0:
320,192,118884,1,0,0:0:0:0:
64,192,118957,1,0,0:0:0:0:
192,192,118957,1,0,0:0:0:0:
320,192,119029,1,0,0:0:0:0:
448,192,119029,1,0,0:0:0:0:
192,192,119101,1,0,0:0:0:0:
64,192,119101,1,0,0:0:0:0:
320,192,119173,1,0,0:0:0:0:
448,192,119173,1,0,0:0:0:0:
192,192,119245,1,0,0:0:0:0:
64,192,119245,1,0,0:0:0:0:
448,192,119317,1,0,0:0:0:0:
320,192,119317,1,0,0:0:0:0:
192,192,119389,1,0,0:0:0:0:
64,192,119461,1,0,0:0:0:0:
320,192,119461,1,0,0:0:0:0:
448,192,119461,1,0,0:0:0:0:
