osu file format v14

[General]
AudioFilename: audio.ogg
AudioLeadIn: 0
PreviewTime: 71144
Countdown: 0
SampleSet: Normal
StackLeniency: 0.7
Mode: 1
LetterboxInBreaks: 0
WidescreenStoryboard: 1

[Editor]
DistanceSpacing: 1
BeatDivisor: 4
GridSize: 32
TimelineZoom: 2.5

[Metadata]
Title:XENOViA
TitleUnicode:XENOViA
Artist:BlackY
ArtistUnicode:BlackY
Creator:Shima Rin
Version:Dusk's Inner Oni
Source:jubeat festo
Tags:_DUSK_ -Dusk Dusk- Axer Murumoo Kuo Kyoka Akasha- Tofu1222 WAiKURO The 10th KAC KONAMI Arcade Championship FA Featured Artist Video Game Electronic Instrumental
BeatmapID:3605012
BeatmapSetID:1702342

[Difficulty]
HPDrainRate:7
CircleSize:4
OverallDifficulty:6.5
ApproachRate:9
SliderMultiplier:1.4
SliderTickRate:1

[Events]
//Background and Video events
0,0,"BG.jpg",0,50
//Break Periods
//Storyboard Layer 0 (Background)
//Storyboard Layer 1 (Fail)
//Storyboard Layer 2 (Pass)
//Storyboard Layer 3 (Foreground)
//Storyboard Layer 4 (Overlay)
//Storyboard Sound Samples

[TimingPoints]
760,288.461538461538,4,1,0,90,1,0
760,-125,4,1,0,90,0,0
4218,-121.831878344128,4,1,0,90,0,0
4362,-118.820379016754,4,1,0,90,0,0
4434,-117.369777536625,4,1,0,90,0,0
4506,-115.954167783436,4,1,0,90,0,0
4579,-114.5533379671,4,1,0,90,0,0
4651,-113.204461452916,4,1,0,90,0,0
4723,-111.886981540749,4,1,0,90,0,0
4795,-110.599814655035,4,1,0,90,0,0
4939,-108.112329366195,4,1,0,90,0,0
4987,-107.307847332031,4,1,0,90,0,0
5035,-106.515249438341,4,1,0,90,0,0
5083,-105.734274279779,4,1,0,90,0,0
5156,-104.568251858118,4,1,0,90,0,0
5228,-103.443122721023,4,1,0,90,0,0
5300,-102.34194807499,4,1,0,90,0,0
5372,-101.263970975481,4,1,0,90,0,0
6093,-91.6020432469629,4,1,0,90,0,0
6381,-88.2390434184025,4,1,0,90,0,0
7247,-79.4663972631047,4,1,0,90,0,0
7391,-78.1740564226504,4,1,0,90,0,0
7535,-76.9230769230769,4,1,0,90,0,0
8112,-125,4,1,0,90,0,0
8184,-122.645211930926,4,1,0,90,0,0
8256,-120.37750385208,4,1,0,90,0,0
8329,-118.162339299219,4,1,0,90,0,0
8401,-116.055954444169,4,1,0,90,0,0
8473,-114.023351982486,4,1,0,90,0,0
8545,-112.060721969878,4,1,0,90,0,0
8617,-110.164512338425,4,1,0,90,0,0
8689,-108.331407441645,4,1,0,90,0,0
8761,-106.558308706524,4,1,0,90,0,0
8833,-104.842317154999,4,1,0,90,0,0
8906,-103.15801056338,4,1,0,90,0,0
8978,-101.548960138648,4,1,0,90,0,0
9050,-99.9893344709898,4,1,0,90,0,0
9122,-98.4768907563025,4,1,0,90,0,0
9194,-97.0095198675497,4,1,0,90,0,0
9266,-95.5852365415987,4,1,0,90,0,0
9338,-94.2021704180064,4,1,0,90,0,0
9410,-92.858557844691,4,1,0,90,0,0
9458,-91.9839089481947,4,1,0,90,0,0
9506,-91.1255832037325,4,1,0,90,0,0
9555,-90.2657423454651,4,1,0,90,0,0
9627,-89.031339031339,4,1,0,90,0,0
9699,-87.8302417088252,4,1,0,90,0,0
9747,-87.0473537604457,4,1,0,90,0,0
9795,-86.2782992821645,4,1,0,90,0,0
9843,-85.5227148330597,4,1,0,90,0,0
9891,-84.7802495930548,4,1,0,90,0,0
9939,-84.0505648197956,4,1,0,90,0,0
9987,-83.3333333333333,4,1,0,90,0,0
10771,-100,4,1,0,90,0,0
14891,-100,4,1,0,90,0,0
15035,-98.8781551885322,4,1,0,90,0,0
15107,-98.3266191509142,4,1,0,90,0,0
15180,-97.7736692088437,4,1,0,90,0,0
15252,-97.2343522561863,4,1,0,90,0,0
15324,-96.7009523809524,4,1,0,90,0,0
15396,-96.1733727362279,4,1,0,90,0,0
15468,-95.6515185771347,4,1,0,90,0,0
15540,-95.1352972041076,4,1,0,90,0,0
15612,-94.6246179079997,4,1,0,90,0,0
15684,-94.1193919169448,4,1,0,90,0,0
15756,-93.6195323449141,4,1,0,90,0,0
15829,-93.1181217901687,4,1,0,90,0,0
15901,-92.6288133119253,4,1,0,90,0,0
15973,-92.1446202991143,4,1,0,90,0,0
16045,-91.6654629495883,4,1,0,90,0,0
16117,-91.1912631125162,4,1,0,90,0,0
16189,-90.7219442458899,4,1,0,90,0,0
16261,-90.2574313753378,4,1,0,90,0,0
16333,-89.7976510541956,4,1,0,90,0,0
16406,-89.3362426972619,4,1,0,90,0,0
16478,-88.885776314868,4,1,0,90,0,0
16550,-88.4398299770051,4,1,0,90,0,0
16622,-87.9983359911253,4,1,0,90,0,0
16694,-87.5612280096585,4,1,0,90,0,0
16766,-87.1284409967735,4,1,0,90,0,0
16838,-86.6999111961199,4,1,0,90,0,0
16910,-86.2755760995174,4,1,0,90,0,0
16982,-85.8553744165596,4,1,0,90,0,0
17055,-85.4334948842219,4,1,0,90,0,0
17127,-85.021436227224,4,1,0,90,0,0
17199,-84.6133333333333,4,1,0,90,0,0
17271,-84.2091295116773,4,1,0,90,0,0
17343,-83.8087691494981,4,1,0,90,0,0
17415,-83.4121976866456,4,1,0,90,0,0
17487,-83.0193615907902,4,1,0,90,0,0
17559,-82.6302083333333,4,1,0,90,0,0
17631,-82.2446863659927,4,1,0,90,0,0
17704,-81.8574653337633,4,1,0,90,0,0
17776,-81.4791038068948,4,1,0,90,0,0
17848,-81.1042239120711,4,1,0,90,0,0
17920,-80.7327778131162,4,1,0,90,0,0
17992,-80.3647185461914,4,1,0,90,0,0
18064,-80,4,1,0,90,0,0
19221,-100,4,1,0,90,0,0
25853,-98.2054455445545,4,1,0,90,0,0
25997,-96.4858949416342,4,1,0,90,0,0
26069,-95.6485053037608,4,1,0,90,0,0
26141,-94.8255258126195,4,1,0,90,0,0
26285,-93.2213345864662,4,1,0,90,0,0
26357,-92.4394221808015,4,1,0,90,0,0
26430,-91.6599283816565,4,1,0,90,0,0
26502,-90.9038836063696,4,1,0,90,0,0
26574,-90.1602090671515,4,1,0,90,0,0
26718,-88.7087758524315,4,1,0,90,0,0
26790,-88.000443606521,4,1,0,90,0,0
26862,-87.303333700077,4,1,0,90,0,0
26934,-86.6171815304006,4,1,0,90,0,0
27006,-85.9417307484025,4,1,0,90,0,0
27151,-84.6129238643634,4,1,0,90,0,0
27295,-76.9230769230769,4,1,0,90,0,0
27367,-78.8143696216364,4,1,0,90,0,0
27439,-80.8010082621481,4,1,0,90,0,0
27511,-82.8903893118805,4,1,0,90,0,0
27583,-85.0906945878189,4,1,0,90,0,0
27656,-87.4441160869895,4,1,0,90,0,0
27728,-89.8963932382956,4,1,0,90,0,0
27800,-92.49018193476,4,1,0,90,0,0
27872,-95.2380952380952,4,1,0,90,0,0
27944,-98.1542910606447,4,1,0,90,0,0
28016,-101.254716153374,4,1,0,90,0,0
28088,-104.557397843617,4,1,0,90,0,0
28160,-108.082794792545,4,1,0,90,0,0
28232,-111.85422118833,4,1,0,90,0,0
28305,-115.956591639871,4,1,0,90,0,0
28377,-120.308590492077,4,1,0,90,0,0
28449,-95.2380952380952,4,1,0,90,0,0
35372,-71.4285714285714,4,1,0,90,0,0
35516,-73.2955783053801,4,1,0,90,0,0
35588,-74.2661664091812,4,1,0,90,0,0
35660,-75.2628047416685,4,1,0,90,0,0
35732,-76.2865563364316,4,1,0,90,0,0
35805,-77.3533581088847,4,1,0,90,0,0
35877,-78.4351812283905,4,1,0,90,0,0
35949,-79.547693156298,4,1,0,90,0,0
36021,-80.6922185364294,4,1,0,90,0,0
36093,-81.8701593609343,4,1,0,90,0,0
36165,-83.0830006995597,4,1,0,90,0,0
36237,-84.3323169458252,4,1,0,90,0,0
36309,-85.619778635342,4,1,0,90,0,0
36381,-86.9471598983679,4,1,0,90,0,0
36454,-88.3356667833392,4,1,0,90,0,0
36526,-89.7492887624467,4,1,0,90,0,0
36598,-91.2088904951211,4,1,0,90,0,0
36670,-92.71675238795,4,1,0,90,0,0
36742,-94.2753081807994,4,1,0,90,0,0
36814,-95.8871580547113,4,1,0,90,0,0
36886,-97.5550831078469,4,1,0,90,0,0
36958,-99.2820613690008,4,1,0,90,0,0
37031,-101.096590055581,4,1,0,90,0,0
37103,-102.95242465963,4,1,0,90,0,0
37175,-104.877668692535,4,1,0,90,0,0
37247,-106.876290296967,4,1,0,90,0,0
37319,-108.952565970536,4,1,0,90,0,0
37391,-111.111111111111,4,1,0,90,0,0
37535,-111.111111111111,4,1,0,90,0,0
38473,-104.557397843617,4,1,0,90,0,0
38545,-102.550430996179,4,1,0,90,0,0
38617,-100.619060074985,4,1,0,90,0,0
38689,-98.7590928540864,4,1,0,90,0,0
38761,-96.9666414587009,4,1,0,90,0,0
38833,-95.2380952380952,4,1,0,90,0,0
46910,-95.2380952380952,4,1,0,90,0,0
48064,-91.7427302314241,4,1,0,90,0,0
49218,-88.4948512644313,4,1,0,90,0,0
49795,-86.9556479974277,4,1,0,90,0,0
50372,-85.469072521308,4,1,0,90,0,0
50588,-84.9255650091756,4,1,0,90,0,0
50805,-84.3864576019971,4,1,0,90,0,0
50949,-84.0324710634662,4,1,0,90,0,0
50997,-83.9151345900241,4,1,0,90,0,0
51045,-83.7981253389109,4,1,0,90,0,0
51093,-83.6814419432196,4,1,0,90,0,0
51141,-83.5650830436462,4,1,0,90,0,0
51189,-83.4490472884363,4,1,0,90,0,0
51237,-83.3333333333333,4,1,0,90,0,0
52103,-76.9230769230769,4,1,0,90,0,0
52151,-77.2763807555402,4,1,0,90,0,0
52199,-77.6329449763525,4,1,0,90,0,0
52247,-77.9928149264109,4,1,0,90,0,0
52319,-78.5389193604855,4,1,0,90,0,0
52391,-79.0927253496298,4,1,0,90,0,0
52439,-79.4662888180423,4,1,0,90,0,0
52487,-79.8433977933325,4,1,0,90,0,0
52535,-80.2241029920134,4,1,0,90,0,0
52607,-80.8020170488654,4,1,0,90,0,0
52680,-81.3965207925981,4,1,0,90,0,0
52728,-81.7922177884907,4,1,0,90,0,0
52776,-82.1917808219178,4,1,0,90,0,0
52824,-82.595266828939,4,1,0,90,0,0
52968,-83.8298490730553,4,1,0,90,0,0
53040,-84.4610847330001,4,1,0,90,0,0
53112,-85.1018988809037,4,1,0,90,0,0
53256,-86.4131481521111,4,1,0,90,0,0
53329,-87.0934345612975,4,1,0,90,0,0
53401,-87.7749760890357,4,1,0,90,0,0
53545,-89.1705679710273,4,1,0,90,0,0
53617,-89.8851393464518,4,1,0,90,0,0
53689,-90.6112557221075,4,1,0,90,0,0
53761,-91.3491991674961,4,1,0,90,0,0
53833,-92.0992610163306,4,1,0,90,0,0
53881,-92.6061829189982,4,1,0,90,0,0
53930,-93.1294540925759,4,1,0,90,0,0
53978,-93.6478118694775,4,1,0,90,0,0
54050,-94.436259033186,4,1,0,90,0,0
54122,-95.2380952380952,4,1,0,90,0,0
54194,-96.0536644544352,4,1,0,90,0,0
54266,-96.8833225365292,4,1,0,90,0,0
54338,-97.7274377405068,4,1,0,90,0,0
54410,-98.5863912693181,4,1,0,90,0,0
54482,-99.460577846745,4,1,0,90,0,0
54555,-100.362877168564,4,1,0,90,0,0
54699,-102.191628283646,4,1,0,90,0,0
54771,-103.131225417582,4,1,0,90,0,0
54843,-104.0882610713,4,1,0,90,0,0
54987,-106.056626569312,4,1,0,90,0,0
55059,-107.068992946916,4,1,0,90,0,0
55131,-108.100872731167,4,1,0,90,0,0
55276,-110.240519806711,4,1,0,90,0,0
55348,-111.334748683449,4,1,0,90,0,0
55420,-112.45091759726,4,1,0,90,0,0
55492,-113.589693099665,4,1,0,90,0,0
55564,-114.751769018727,4,1,0,90,0,0
55636,-115.93786786873,4,1,0,90,0,0
55708,-117.148742348197,4,1,0,90,0,0
55853,-119.665718349929,4,1,0,90,0,0
55925,-120.956146657081,4,1,0,90,0,0
55997,-122.274709302326,4,1,0,90,0,0
56069,-123.622336517267,4,1,0,90,0,0
56141,-125,4,1,0,90,0,0
56718,-76.9230769230769,4,1,0,90,0,0
56862,-78.0649983247854,4,1,0,90,0,0
56934,-78.6487679484849,4,1,0,90,0,0
57006,-79.241334205363,4,1,0,90,0,0
57082,-80,4,1,0,90,0,0
57151,-80.4622127772613,4,1,0,90,0,0
57295,-81.7124821279236,4,1,0,90,0,0
57367,-82.3523014599929,4,1,0,90,0,0
57439,-83.0022196037596,4,1,0,90,0,0
57583,-84.333324052677,4,1,0,90,0,0
57656,-85.0245614035088,4,1,0,90,0,0
57728,-85.7175198800125,4,1,0,90,0,0
57872,-87.1378844106901,4,1,0,90,0,0
57944,-87.8658660400893,4,1,0,90,0,0
58016,-88.6061137925991,4,1,0,90,0,0
58160,-90.1246689874736,4,1,0,90,0,0
58232,-90.9036343447076,4,1,0,90,0,0
58305,-91.7072875351963,4,1,0,90,0,0
58377,-92.5139733056412,4,1,0,90,0,0
58449,-93.3349767355868,4,1,0,90,0,0
58497,-93.8904559685069,4,1,0,90,0,0
58545,-94.4525866101219,4,1,0,90,0,0
58593,-95.0214888477586,4,1,0,90,0,0
58641,-95.5972857819157,4,1,0,90,0,0
58689,-96.1801035150668,4,1,0,90,0,0
58737,-96.7700712437302,4,1,0,90,0,0
58881,-98.5842148087876,4,1,0,90,0,0
58954,-99.5301153353268,4,1,0,90,0,0
59026,-100.481008459114,4,1,0,90,0,0
59098,-101.450246173427,4,1,0,90,0,0
59170,-102.438364503365,4,1,0,90,0,0
59242,-103.445920562822,4,1,0,90,0,0
59314,-104.473493601904,4,1,0,90,0,0
59386,-105.521686117401,4,1,0,90,0,0
59458,-106.591125030791,4,1,0,90,0,0
59531,-107.697777777778,4,1,0,90,0,0
59603,-108.812012788734,4,1,0,90,0,0
59675,-109.949544448074,4,1,0,90,0,0
59747,-111.111111111111,4,1,0,90,0,0
59894,-112.359550561798,4,1,0,90,0,0
60038,-113.636363636364,4,1,0,90,0,0
60327,-114.942528735632,4,1,0,90,0,0
60615,-116.279069767442,4,1,0,90,0,0
60756,-83.3333333333333,4,1,0,90,0,0
60973,-86.9674437299035,4,1,0,90,0,0
61045,-88.2442903752039,4,1,0,90,0,0
61117,-89.5591887417219,4,1,0,90,0,0
61189,-90.9138655462185,4,1,0,90,0,0
61333,-93.75,4,1,0,90,0,0
61478,-96.790427197495,4,1,0,90,0,0
61550,-98.3746305978632,4,1,0,90,0,0
61694,-101.703877790834,4,1,0,90,0,0
61766,-103.454458522591,4,1,0,90,0,0
61910,-107.142857142857,4,1,0,90,0,0
62055,-111.13251155624,4,1,0,90,0,0
62127,-113.226059654631,4,1,0,90,0,0
62199,-115.4,4,1,0,90,0,0
62271,-117.659053833605,4,1,0,90,0,0
62343,-120.008319467554,4,1,0,90,0,0
62415,-122.453310696095,4,1,0,90,0,0
62487,-125,4,1,0,90,0,0
63064,-76.9230769230769,4,1,0,90,0,0
63353,-80.8151545922476,4,1,0,90,0,0
63425,-81.8468740026242,4,1,0,90,0,0
63497,-82.9052767699989,4,1,0,90,0,0
63641,-85.1063829787234,4,1,0,90,0,0
63689,-85.8662896685144,4,1,0,90,0,0
63737,-86.6398888847179,4,1,0,90,0,0
63785,-87.4275540740179,4,1,0,90,0,0
63857,-88.6362763546987,4,1,0,90,0,0
63905,-89.4608318151866,4,1,0,90,0,0
63953,-90.300872491099,4,1,0,90,0,0
64001,-91.1568387377069,4,1,0,90,0,0
64002,-91.1748439598641,4,1,0,90,0,0
64074,-92.49018193476,4,1,0,90,0,0
64218,-95.2380952380952,4,1,0,90,0,0
64290,-96.6742062494764,4,1,0,90,0,0
64362,-98.1542910606447,4,1,0,90,0,0
64434,-99.6804007946791,4,1,0,90,0,0
64506,-101.254716153374,4,1,0,90,0,0
64651,-104.581086592052,4,1,0,90,0,0
64795,-108.108108108108,4,1,0,90,0,0
64867,-109.962361236838,4,1,0,90,0,0
65011,-113.86846909073,4,1,0,90,0,0
65083,-115.927469988447,4,1,0,90,0,0
65156,-118.092509209988,4,1,0,90,0,0
65228,-120.308590492077,4,1,0,90,0,0
65300,-122.609434764131,4,1,0,90,0,0
65372,-125,4,1,0,90,0,0
66165,-119.410929737402,4,1,0,90,0,0
66381,-114.30027173913,4,1,0,90,0,0
66529,-112.359550561798,4,1,0,90,0,0
66598,-109.588297554753,4,1,0,90,0,0
66814,-105.268646210798,4,1,0,90,0,0
66958,-102.5732212259,4,1,0,90,0,0
67103,-99.9950472983012,4,1,0,90,0,0
67319,-96.3861173437724,4,1,0,90,0,0
67535,-93.0286135557296,4,1,0,90,0,0
67607,-91.9608289683443,4,1,0,90,0,0
67680,-90.9029513068143,4,1,0,90,0,0
67872,-88.2333661094723,4,1,0,90,0,0
68064,-85.7161052028275,4,1,0,90,0,0
68256,-83.3384929725714,4,1,0,90,0,0
68449,-81.0778250742912,4,1,0,90,0,0
68641,-78.9473684210526,4,1,0,90,0,0
68737,-77.9235816287148,4,1,0,90,0,0
68833,-76.926007772613,4,1,0,90,0,0
68930,-75.9436534953264,4,1,0,90,0,0
69026,-74.9958211838122,4,1,0,90,0,0
69122,-74.0713565073833,4,1,0,90,0,0
69218,-73.1694058383315,4,1,0,90,0,0
69314,-72.289156626506,4,1,0,90,0,0
69410,-71.4298349578108,4,1,0,90,0,0
69459,-70.9990505327566,4,1,0,90,0,0
69507,-70.582066072365,4,1,0,90,0,0
69555,-70.1699509957252,4,1,0,90,0,0
69603,-69.7626205037836,4,1,0,90,0,0
69651,-69.3599917551273,4,1,0,90,0,0
69699,-68.9619838098166,4,1,0,90,0,0
69747,-68.5685175751401,4,1,0,90,0,0
69795,-68.1795157532165,4,1,0,90,0,0
69843,-67.7949027903697,4,1,0,90,0,0
69891,-67.414604828208,4,1,0,90,0,0
69939,-67.0385496563403,4,1,0,90,0,0
69987,-66.6666666666667,4,1,0,90,0,0
71144,-125,4,1,0,90,0,0
75180,-90.9090909090909,4,1,0,90,0,0
75396,-97.5527235818202,4,1,0,90,0,0
75612,-105.243946952184,4,1,0,90,0,0
75756,-111.082573519969,4,1,0,90,0,0
76045,-125,4,1,0,90,0,0
78281,-122.418962493636,4,1,0,90,0,0
78353,-119.975605699396,4,1,0,90,0,0
78425,-117.627874109909,4,1,0,90,0,0
78497,-115.37026176894,4,1,0,90,0,0
78569,-113.197677459852,4,1,0,90,0,0
78641,-111.105406376752,4,1,0,90,0,0
78713,-109.089075969149,4,1,0,90,0,0
78785,-107.144625439422,4,1,0,90,0,0
78857,-105.268278445298,4,1,0,90,0,0
78930,-103.431794283529,4,1,0,90,0,0
79002,-101.682172728127,4,1,0,90,0,0
79074,-99.9907587099159,4,1,0,90,0,0
79146,-98.3546950277247,4,1,0,90,0,0
79218,-96.7713084697254,4,1,0,90,0,0
79290,-95.2380952380952,4,1,0,90,0,0
79362,-93.7527077376311,4,1,0,90,0,0
79434,-92.312942581691,4,1,0,90,0,0
79506,-90.916729686581,4,1,0,90,0,0
79579,-89.5435925021724,4,1,0,90,0,0
79651,-88.2292983242957,4,1,0,90,0,0
79723,-86.9530276851368,4,1,0,90,0,0
79795,-85.7131540381035,4,1,0,90,0,0
79939,-83.3365425347557,4,1,0,90,0,0
79987,-82.5733582630595,4,1,0,90,0,0
80035,-81.8240254093092,4,1,0,90,0,0
80083,-81.088170270169,4,1,0,90,0,0
80156,-79.9940854650303,4,1,0,90,0,0
80228,-78.9435283817306,4,1,0,90,0,0
80300,-77.9202074031399,4,1,0,90,0,0
80372,-76.9230769230769,4,1,0,90,0,0
80808,-125,4,1,0,90,0,0
81240,-120.481927710843,4,1,0,90,0,0
81526,-118.713115783306,4,1,0,90,0,0
81958,-115.240326665493,4,1,0,90,0,0
82247,-113.028346749555,4,1,0,90,0,0
82391,-111.957580063683,4,1,0,90,0,0
82535,-110.906910664477,4,1,0,90,0,0
82680,-109.868684390616,4,1,0,90,0,0
82968,-107.863146018989,4,1,0,90,0,0
83112,-106.887585262603,4,1,0,90,0,0
83401,-104.981986872625,4,1,0,90,0,0
83545,-104.057623636453,4,1,0,90,0,0
83689,-103.149396305096,4,1,0,90,0,0
83978,-101.373649284582,4,1,0,90,0,0
84122,-100.511475719669,4,1,0,90,0,0
84266,-99.6638438923832,4,1,0,90,0,0
84410,-98.8303889798715,4,1,0,90,0,0
84458,-98.5556597982325,4,1,0,90,0,0
84506,-98.2824537694769,4,1,0,90,0,0
84555,-98.0051139112206,4,1,0,90,0,0
84603,-97.734947508672,4,1,0,90,0,0
84651,-97.4662665231037,4,1,0,90,0,0
84699,-97.1990587375203,4,1,0,90,0,0
84987,-95.6260816794408,4,1,0,90,0,0
85204,-94.4741137153452,4,1,0,90,0,0
85276,-94.0980017030312,4,1,0,90,0,0
85420,-93.3546907742438,4,1,0,90,0,0
85564,-92.6230311210772,4,1,0,90,0,0
85636,-92.2614852483546,4,1,0,90,0,0
85853,-91.1887002743484,4,1,0,90,0,0
86141,-89.8028537656197,4,1,0,90,0,0
86357,-88.7908005676601,4,1,0,90,0,0
86430,-88.4539018888323,4,1,0,90,0,0
86574,-87.7967745596748,4,1,0,90,0,0
86718,-87.1493388776796,4,1,0,90,0,0
86790,-86.8291886486321,4,1,0,90,0,0
87006,-85.8826972960425,4,1,0,90,0,0
87079,-85.5674664628628,4,1,0,90,0,0
87151,-85.2588124486483,4,1,0,90,0,0
87223,-84.9523771490186,4,1,0,90,0,0
87295,-84.6481367262888,4,1,0,90,0,0
87511,-83.7483514104053,4,1,0,90,0,0
87583,-83.4526588336831,4,1,0,90,0,0
87728,-82.8634588604205,4,1,0,90,0,0
87872,-82.2864989797596,4,1,0,90,0,0
87944,-82.0010215193655,4,1,0,90,0,0
88088,-81.4359681108655,4,1,0,90,0,0
88160,-81.1563516361937,4,1,0,90,0,0
88232,-80.878648759113,4,1,0,90,0,0
88305,-80.5990224680787,4,1,0,90,0,0
88449,-80.0530613780905,4,1,0,90,0,0
88521,-79.7828451412069,4,1,0,90,0,0
88593,-79.514446977909,4,1,0,90,0,0
88665,-79.2478486011251,4,1,0,90,0,0
88737,-78.9830319682174,4,1,0,90,0,0
88809,-78.7199792769123,4,1,0,90,0,0
88881,-78.4586729613101,4,1,0,90,0,0
88954,-78.1955025409633,4,1,0,90,0,0
89026,-77.9376608626359,4,1,0,90,0,0
89098,-77.681514008965,4,1,0,90,0,0
89170,-77.4270453242582,4,1,0,90,0,0
89242,-77.1742383703529,4,1,0,90,0,0
89314,-76.9230769230769,4,1,0,90,0,0
89353,-14.2857142857143,4,1,0,50,0,0
89570,-125,4,1,0,50,0,0
90651,-125,4,1,0,90,0,0
90901,-119.914791915623,4,1,0,90,0,0
90973,-117.540410882164,4,1,0,90,0,0
91045,-115.25823237418,4,1,0,90,0,0
91117,-113.06298803727,4,1,0,90,0,0
91189,-110.94980338618,4,1,0,90,0,0
91261,-108.914161672408,4,1,0,90,0,0
91333,-106.951871657754,4,1,0,90,0,0
91381,-105.682494619717,4,1,0,90,0,0
91430,-104.417379974303,4,1,0,90,0,0
91478,-103.207111810686,4,1,0,90,0,0
91550,-101.443414968618,4,1,0,90,0,0
91622,-99.7389846329363,4,1,0,90,0,0
91694,-98.0908828179454,4,1,0,90,0,0
91766,-96.4963625721214,4,1,0,90,0,0
91838,-94.952852699656,4,1,0,90,0,0
91910,-93.4579439252336,4,1,0,90,0,0
93356,-93.4579439252336,4,1,0,90,0,1
106189,-92.7941394078074,4,1,0,90,0,1
106261,-92.4657607429742,4,1,0,90,0,1
106333,-92.1396980066565,4,1,0,90,0,1
106406,-91.8114459825331,4,1,0,90,0,1
106550,-91.170744452217,4,1,0,90,0,1
106622,-90.8537353546382,4,1,0,90,0,1
106694,-90.5389231580445,4,1,0,90,0,1
106766,-90.2262851042179,4,1,0,90,0,1
106838,-89.9157987482025,4,1,0,90,0,1
106910,-89.6074419529328,4,1,0,90,0,1
106982,-89.3011928839724,4,1,0,90,0,1
107055,-88.9928201078115,4,1,0,90,0,1
107127,-88.6907507045862,4,1,0,90,0,1
107199,-88.3907250000511,4,1,0,90,0,1
107271,-88.0927223236771,4,1,0,90,0,1
107343,-87.7967222827554,4,1,0,90,0,1
107415,-87.5027047577447,4,1,0,90,0,1
107487,-87.2106498977134,4,1,0,90,0,1
107559,-86.9205381158713,4,1,0,90,0,1
107631,-86.6323500851908,4,1,0,90,0,1
107680,-86.4373124727823,4,1,0,90,0,1
107728,-86.2471048319906,4,1,0,90,0,1
107776,-86.0577324672535,4,1,0,90,0,1
107848,-85.7752280665586,4,1,0,90,0,1
107920,-85.494572369071,4,1,0,90,0,1
107992,-85.2157472871576,4,1,0,90,0,1
108064,-84.9387349683762,4,1,0,90,0,1
108136,-84.6635177916655,4,1,0,90,0,1
108208,-84.3900783636087,4,1,0,90,0,1
108281,-84.1146385131129,4,1,0,90,0,1
108425,-83.5765429404186,4,1,0,90,0,1
108497,-83.310068638871,4,1,0,90,0,1
108569,-83.0452881826958,4,1,0,90,0,1
108641,-82.7821854726543,4,1,0,90,0,1
108713,-82.5207446128848,4,1,0,90,0,1
108785,-82.2609499077012,4,1,0,90,0,1
108857,-82.0027858584519,4,1,0,90,0,1
108930,-81.7426852859388,4,1,0,90,0,1
109002,-81.4877589453861,4,1,0,90,0,1
109074,-81.2344177104923,4,1,0,90,0,1
109146,-80.982646843043,4,1,0,90,0,1
109218,-80.7324317869723,4,1,0,90,0,1
109290,-80.4837581655581,4,1,0,90,0,1
109362,-80.2366117786679,4,1,0,90,0,1
109434,-79.9909786000562,4,1,0,90,0,1
109506,-79.746844774711,4,1,0,90,0,1
109579,-79.5008368992653,4,1,0,90,0,1
109651,-79.2596812394331,4,1,0,90,0,1
109723,-79.0199841850459,4,1,0,90,0,1
109795,-78.7817325426636,4,1,0,90,0,1
109843,-78.6236946776828,4,1,0,90,0,1
109891,-78.4662895980937,4,1,0,90,0,1
109939,-78.30951351097,4,1,0,90,0,1
110011,-78.0755205185066,4,1,0,90,0,1
110083,-77.8429217271162,4,1,0,90,0,1
110131,-77.6886242811513,4,1,0,90,0,1
110180,-77.5317419646153,4,1,0,90,0,1
110228,-77.3786744587785,4,1,0,90,0,1
110276,-77.2262101509543,4,1,0,90,0,1
110324,-77.0743454825919,4,1,0,90,0,1
110375,-76.9230769230769,4,1,0,90,0,0
111529,-153.846153846154,4,1,0,70,0,0
112535,-142.857142857143,4,1,0,70,0,0
112583,-142.013169500913,4,1,0,70,0,0
112631,-141.179109651896,4,1,0,70,0,0
112680,-140.337718675883,4,1,0,70,0,0
113112,-133.332049380814,4,1,0,70,0,0
113545,-126.978595403606,4,1,0,70,0,0
113836,-123.456790123457,4,1,0,70,0,0
113978,-121.203102295208,4,1,0,70,0,0
114410,-115.941786270536,4,1,0,70,0,0
114699,-112.669867361055,4,1,0,70,0,0
114987,-109.587956880313,4,1,0,70,0,0
115420,-105.259156771221,4,1,0,70,0,0
115853,-101.25934268455,4,1,0,70,0,0
116141,-98.7631425025322,4,1,0,70,0,0
116213,-98.158204426548,4,1,0,70,0,0
116285,-97.5606318963938,4,1,0,70,0,0
116357,-96.9702912050201,4,1,0,70,0,0
116430,-96.3790007099999,4,1,0,70,0,0
116502,-95.8028313244676,4,1,0,70,0,0
116574,-95.2335098700048,4,1,0,70,0,0
116646,-94.6709149835218,4,1,0,70,0,0
116718,-94.1149281529113,4,1,0,70,0,0
116790,-93.5654336338203,4,1,0,70,0,0
116862,-93.0223183693213,4,1,0,70,0,0
116934,-92.4854719123639,4,1,0,70,0,0
117006,-91.9547863508972,4,1,0,70,0,0
117079,-91.4229118520964,4,1,0,70,0,0
117151,-90.9043160838794,4,1,0,70,0,0
117223,-90.3915705910771,4,1,0,70,0,0
117295,-89.8845769335636,4,1,0,70,0,0
117367,-89.3832388674422,4,1,0,70,0,0
117439,-88.8874622841369,4,1,0,70,0,0
117511,-88.3971551514997,4,1,0,70,0,0
117583,-87.9122274568566,4,1,0,70,0,0
117656,-87.425966383371,4,1,0,70,0,0
117728,-86.9516070284731,4,1,0,70,0,0
117800,-86.4823674907247,4,1,0,70,0,0
117872,-86.0181653268392,4,1,0,70,0,0
117944,-85.558919854168,4,1,0,70,0,0
118016,-85.1045521039497,4,1,0,70,0,0
118088,-84.6549847760428,4,1,0,70,0,0
118160,-84.2101421950834,4,1,0,70,0,0
118232,-83.7699502680203,4,1,0,70,0,0
118305,-83.3283181473502,4,1,0,70,0,0
118377,-82.8972734783806,4,1,0,70,0,0
118449,-82.4706653165763,4,1,0,70,0,0
118521,-82.0484255188025,4,1,0,70,0,0
118593,-81.6304873303541,4,1,0,70,0,0
118665,-81.216785349773,4,1,0,70,0,0
118737,-80.80725549473,4,1,0,70,0,0
118809,-80.4018349689333,4,1,0,70,0,0
118881,-80.0004622300288,4,1,0,70,0,0
118954,-79.5975855130785,4,1,0,70,0,0
119026,-79.2041827313602,4,1,0,70,0,0
119098,-78.8146495292524,4,1,0,70,0,0
119170,-78.4289290933602,4,1,0,70,0,0
119242,-78.0469657170558,4,1,0,70,0,0
119314,-77.6687047736579,4,1,0,70,0,0
119386,-77.2940926903882,4,1,0,70,0,0
119458,-76.9230769230769,4,1,0,70,0,0

[HitObjects]
256,192,760,5,0,0:0:0:0:
256,192,1192,1,0,0:0:0:0:
256,192,1625,1,8,0:0:0:0:
256,192,2058,1,8,0:0:0:0:
256,192,3067,1,8,0:0:0:0:
256,192,3500,1,0,0:0:0:0:
256,192,4077,1,0,0:0:0:0:
256,192,4221,1,8,0:0:0:0:
256,192,4365,1,0,0:0:0:0:
256,192,4437,1,8,0:0:0:0:
256,192,4509,1,0,0:0:0:0:
256,192,4582,1,8,0:0:0:0:
256,192,4654,1,0,0:0:0:0:
256,192,4726,1,0,0:0:0:0:
256,192,4798,1,8,0:0:0:0:
256,192,4942,1,0,0:0:0:0:
256,192,4990,1,0,0:0:0:0:
256,192,5038,1,0,0:0:0:0:
256,192,5086,1,8,0:0:0:0:
256,192,5159,1,8,0:0:0:0:
256,192,5231,1,8,0:0:0:0:
256,192,5303,1,8,0:0:0:0:
256,192,5375,1,4,0:0:0:0:
256,192,6096,1,4,0:0:0:0:
256,192,6384,1,4,0:0:0:0:
256,192,7250,1,0,0:0:0:0:
256,192,7394,1,8,0:0:0:0:
256,192,7538,1,4,0:0:0:0:
256,192,8115,1,0,0:0:0:0:
256,192,8187,1,0,0:0:0:0:
256,192,8259,1,8,0:0:0:0:
256,192,8332,1,0,0:0:0:0:
256,192,8404,1,0,0:0:0:0:
256,192,8476,1,0,0:0:0:0:
256,192,8548,1,8,0:0:0:0:
256,192,8620,1,0,0:0:0:0:
256,192,8692,1,8,0:0:0:0:
256,192,8764,1,8,0:0:0:0:
256,192,8836,1,0,0:0:0:0:
256,192,8909,1,0,0:0:0:0:
256,192,8981,1,8,0:0:0:0:
256,192,9053,1,0,0:0:0:0:
256,192,9125,1,0,0:0:0:0:
256,192,9197,1,0,0:0:0:0:
256,192,9269,1,8,0:0:0:0:
256,192,9341,1,8,0:0:0:0:
256,192,9413,1,0,0:0:0:0:
256,192,9461,1,0,0:0:0:0:
256,192,9509,1,0,0:0:0:0:
256,192,9558,1,8,0:0:0:0:
256,192,9630,1,0,0:0:0:0:
256,192,9702,1,8,0:0:0:0:
256,192,9750,1,8,0:0:0:0:
256,192,9798,1,8,0:0:0:0:
256,192,9846,1,8,0:0:0:0:
256,192,9894,1,8,0:0:0:0:
256,192,9942,1,8,0:0:0:0:
256,192,9990,1,0,0:0:0:0:
256,192,11288,1,4,0:0:0:0:
256,192,11721,1,4,0:0:0:0:
256,192,12009,1,4,0:0:0:0:
256,192,12298,1,4,0:0:0:0:
256,192,12442,1,8,0:0:0:0:
256,192,12514,1,8,0:0:0:0:
256,192,12586,1,8,0:0:0:0:
256,192,12659,1,0,0:0:0:0:
256,192,12731,1,0,0:0:0:0:
256,192,12803,1,0,0:0:0:0:
256,192,12875,1,8,0:0:0:0:
256,192,12947,1,8,0:0:0:0:
256,192,13019,1,0,0:0:0:0:
256,192,13091,1,0,0:0:0:0:
256,192,13163,1,8,0:0:0:0:
256,192,13235,1,0,0:0:0:0:
256,192,13308,1,8,0:0:0:0:
256,192,13380,1,8,0:0:0:0:
256,192,13452,1,0,0:0:0:0:
256,192,13524,1,8,0:0:0:0:
256,192,13596,1,0,0:0:0:0:
256,192,13668,1,0,0:0:0:0:
256,192,13740,1,8,0:0:0:0:
256,192,13812,1,0,0:0:0:0:
256,192,13884,1,8,0:0:0:0:
256,192,13957,1,8,0:0:0:0:
256,192,14029,1,0,0:0:0:0:
256,192,14173,1,8,0:0:0:0:
256,192,14221,1,8,0:0:0:0:
256,192,14269,1,8,0:0:0:0:
256,192,14317,1,0,0:0:0:0:
256,192,14389,1,0,0:0:0:0:
256,192,14461,1,8,0:0:0:0:
256,192,14509,1,8,0:0:0:0:
256,192,14558,1,8,0:0:0:0:
256,192,14606,1,0,0:0:0:0:
256,192,14894,5,4,0:0:0:0:
256,192,15038,1,0,0:0:0:0:
256,192,15110,1,0,0:0:0:0:
256,192,15183,1,8,0:0:0:0:
256,192,15255,1,8,0:0:0:0:
256,192,15327,1,0,0:0:0:0:
256,192,15399,1,8,0:0:0:0:
256,192,15471,1,0,0:0:0:0:
256,192,15543,1,0,0:0:0:0:
256,192,15615,1,8,0:0:0:0:
256,192,15687,1,0,0:0:0:0:
256,192,15759,1,8,0:0:0:0:
256,192,15832,1,8,0:0:0:0:
256,192,15904,1,0,0:0:0:0:
256,192,15976,1,8,0:0:0:0:
256,192,16048,1,0,0:0:0:0:
256,192,16120,1,0,0:0:0:0:
256,192,16192,1,8,0:0:0:0:
256,192,16264,1,8,0:0:0:0:
256,192,16336,1,0,0:0:0:0:
256,192,16409,1,0,0:0:0:0:
256,192,16481,1,0,0:0:0:0:
256,192,16553,1,0,0:0:0:0:
256,192,16625,1,8,0:0:0:0:
256,192,16697,1,8,0:0:0:0:
256,192,16769,1,8,0:0:0:0:
256,192,16841,1,8,0:0:0:0:
256,192,16913,1,0,0:0:0:0:
256,192,16985,1,0,0:0:0:0:
256,192,17058,1,8,0:0:0:0:
256,192,17130,1,8,0:0:0:0:
256,192,17202,1,0,0:0:0:0:
256,192,17274,1,8,0:0:0:0:
256,192,17346,1,0,0:0:0:0:
256,192,17418,1,8,0:0:0:0:
256,192,17490,1,0,0:0:0:0:
256,192,17562,1,0,0:0:0:0:
256,192,17634,1,8,0:0:0:0:
256,192,17707,1,8,0:0:0:0:
256,192,17779,1,0,0:0:0:0:
256,192,17851,1,8,0:0:0:0:
256,192,17923,1,8,0:0:0:0:
256,192,17995,1,8,0:0:0:0:
256,192,18067,1,4,0:0:0:0:
256,192,18211,1,4,0:0:0:0:
256,192,18356,12,0,18933,0:0:0:0:
256,192,19221,5,0,0:0:0:0:
256,192,19269,1,0,0:0:0:0:
256,192,19317,1,0,0:0:0:0:
256,192,19365,1,0,0:0:0:0:
256,192,19509,1,12,0:0:0:0:
256,192,19726,1,8,0:0:0:0:
256,192,19798,1,0,0:0:0:0:
256,192,19942,1,8,0:0:0:0:
256,192,20086,1,0,0:0:0:0:
256,192,20159,1,0,0:0:0:0:
256,192,20231,1,8,0:0:0:0:
256,192,20375,1,0,0:0:0:0:
256,192,20519,1,8,0:0:0:0:
256,192,20663,1,0,0:0:0:0:
256,192,20735,1,8,0:0:0:0:
256,192,20808,1,8,0:0:0:0:
256,192,20952,1,0,0:0:0:0:
256,192,21096,1,8,0:0:0:0:
256,192,21240,1,0,0:0:0:0:
256,192,21312,1,0,0:0:0:0:
256,192,21384,1,8,0:0:0:0:
256,192,21457,1,8,0:0:0:0:
256,192,21529,1,0,0:0:0:0:
256,192,21673,1,8,0:0:0:0:
256,192,21817,1,0,0:0:0:0:
256,192,21889,1,8,0:0:0:0:
256,192,21961,1,8,0:0:0:0:
256,192,22034,1,8,0:0:0:0:
256,192,22106,1,0,0:0:0:0:
256,192,22178,1,8,0:0:0:0:
256,192,22250,1,0,0:0:0:0:
256,192,22322,1,0,0:0:0:0:
256,192,22394,1,8,0:0:0:0:
256,192,22466,1,0,0:0:0:0:
256,192,22538,1,8,0:0:0:0:
256,192,22610,1,8,0:0:0:0:
256,192,22683,1,0,0:0:0:0:
256,192,22755,1,8,0:0:0:0:
256,192,22827,1,8,0:0:0:0:
256,192,22899,1,8,0:0:0:0:
256,192,22971,1,0,0:0:0:0:
256,192,23043,1,8,0:0:0:0:
256,192,23115,1,0,0:0:0:0:
256,192,23187,1,8,0:0:0:0:
256,192,23332,1,8,0:0:0:0:
256,192,23404,1,0,0:0:0:0:
256,192,23476,1,8,0:0:0:0:
256,192,23620,1,8,0:0:0:0:
256,192,23692,1,0,0:0:0:0:
256,192,23764,1,0,0:0:0:0:
256,192,23836,1,8,0:0:0:0:
256,192,24125,1,4,0:0:0:0:
256,192,24269,1,8,0:0:0:0:
256,192,24413,1,0,0:0:0:0:
256,192,24485,1,0,0:0:0:0:
256,192,24558,1,8,0:0:0:0:
256,192,24702,1,0,0:0:0:0:
256,192,24846,1,8,0:0:0:0:
256,192,24918,1,8,0:0:0:0:
256,192,24990,1,0,0:0:0:0:
256,192,25062,1,8,0:0:0:0:
256,192,25207,1,8,0:0:0:0:
256,192,25279,1,0,0:0:0:0:
256,192,25351,1,0,0:0:0:0:
256,192,25423,1,8,0:0:0:0:
256,192,25495,1,8,0:0:0:0:
256,192,25567,1,0,0:0:0:0:
256,192,25711,1,0,0:0:0:0:
256,192,25856,1,8,0:0:0:0:
256,192,26000,1,8,0:0:0:0:
256,192,26072,1,8,0:0:0:0:
256,192,26144,1,4,0:0:0:0:
256,192,26288,1,0,0:0:0:0:
256,192,26360,1,8,0:0:0:0:
256,192,26433,1,0,0:0:0:0:
256,192,26505,1,0,0:0:0:0:
256,192,26577,1,12,0:0:0:0:
256,192,26721,1,0,0:0:0:0:
256,192,26793,1,0,0:0:0:0:
256,192,26865,1,8,0:0:0:0:
256,192,26937,1,0,0:0:0:0:
256,192,27009,1,12,0:0:0:0:
256,192,27154,1,0,0:0:0:0:
256,192,27298,5,8,0:0:0:0:
256,192,27370,1,8,0:0:0:0:
256,192,27442,1,0,0:0:0:0:
256,192,27514,1,0,0:0:0:0:
256,192,27586,1,8,0:0:0:0:
256,192,27659,1,8,0:0:0:0:
256,192,27731,1,0,0:0:0:0:
256,192,27803,1,8,0:0:0:0:
256,192,27875,1,8,0:0:0:0:
256,192,27947,1,0,0:0:0:0:
256,192,28019,1,0,0:0:0:0:
256,192,28091,1,0,0:0:0:0:
256,192,28163,1,8,0:0:0:0:
256,192,28235,1,0,0:0:0:0:
256,192,28308,1,8,0:0:0:0:
256,192,28380,1,8,0:0:0:0:
256,192,28452,5,4,0:0:0:0:
256,192,28668,1,8,0:0:0:0:
256,192,28740,1,0,0:0:0:0:
256,192,28884,1,8,0:0:0:0:
256,192,29029,1,0,0:0:0:0:
256,192,29101,1,0,0:0:0:0:
256,192,29173,1,8,0:0:0:0:
256,192,29317,1,0,0:0:0:0:
256,192,29461,1,8,0:0:0:0:
256,192,29606,1,0,0:0:0:0:
256,192,29678,1,0,0:0:0:0:
256,192,29750,1,8,0:0:0:0:
256,192,29822,1,8,0:0:0:0:
256,192,29894,1,0,0:0:0:0:
256,192,30038,1,8,0:0:0:0:
256,192,30183,1,0,0:0:0:0:
256,192,30327,1,0,0:0:0:0:
256,192,30399,1,0,0:0:0:0:
256,192,30471,1,8,0:0:0:0:
256,192,30543,1,0,0:0:0:0:
256,192,30615,1,8,0:0:0:0:
256,192,30759,1,0,0:0:0:0:
256,192,30976,1,8,0:0:0:0:
256,192,31048,1,0,0:0:0:0:
256,192,31192,1,8,0:0:0:0:
256,192,31336,1,0,0:0:0:0:
256,192,31409,1,0,0:0:0:0:
256,192,31481,1,0,0:0:0:0:
256,192,31625,1,8,0:0:0:0:
256,192,31769,1,0,0:0:0:0:
256,192,31913,1,8,0:0:0:0:
256,192,31985,1,8,0:0:0:0:
256,192,32058,1,0,0:0:0:0:
256,192,32130,1,0,0:0:0:0:
256,192,32202,1,8,0:0:0:0:
256,192,32346,1,0,0:0:0:0:
256,192,32490,1,8,0:0:0:0:
256,192,32634,1,0,0:0:0:0:
256,192,32707,1,8,0:0:0:0:
256,192,32851,1,0,0:0:0:0:
256,192,32923,1,8,0:0:0:0:
256,192,33067,1,0,0:0:0:0:
256,192,33644,1,4,0:0:0:0:
256,192,33788,1,8,0:0:0:0:
256,192,33860,1,8,0:0:0:0:
256,192,33933,1,0,0:0:0:0:
256,192,34077,1,0,0:0:0:0:
256,192,34221,1,8,0:0:0:0:
256,192,34365,1,0,0:0:0:0:
256,192,34437,1,0,0:0:0:0:
256,192,34509,1,8,0:0:0:0:
256,192,34582,1,8,0:0:0:0:
256,192,34654,1,0,0:0:0:0:
256,192,34798,1,8,0:0:0:0:
256,192,34870,1,0,0:0:0:0:
256,192,34942,1,0,0:0:0:0:
256,192,35086,1,8,0:0:0:0:
256,192,35231,1,0,0:0:0:0:
256,192,35375,1,12,0:0:0:0:
256,192,35519,1,0,0:0:0:0:
256,192,35591,1,0,0:0:0:0:
256,192,35663,1,8,0:0:0:0:
256,192,35735,1,0,0:0:0:0:
256,192,35808,1,8,0:0:0:0:
256,192,35880,1,8,0:0:0:0:
256,192,35952,1,0,0:0:0:0:
256,192,36024,1,8,0:0:0:0:
256,192,36096,1,0,0:0:0:0:
256,192,36168,1,0,0:0:0:0:
256,192,36240,1,8,0:0:0:0:
256,192,36312,1,8,0:0:0:0:
256,192,36384,1,8,0:0:0:0:
256,192,36457,1,0,0:0:0:0:
256,192,36529,1,8,0:0:0:0:
256,192,36601,1,8,0:0:0:0:
256,192,36673,1,0,0:0:0:0:
256,192,36745,1,0,0:0:0:0:
256,192,36817,1,8,0:0:0:0:
256,192,36889,1,0,0:0:0:0:
256,192,36961,1,0,0:0:0:0:
256,192,37034,1,0,0:0:0:0:
256,192,37106,1,8,0:0:0:0:
256,192,37178,1,0,0:0:0:0:
256,192,37250,1,8,0:0:0:0:
256,192,37322,1,8,0:0:0:0:
256,192,37394,1,4,0:0:0:0:
256,192,37538,1,4,0:0:0:0:
256,192,38259,1,0,0:0:0:0:
256,192,38476,1,0,0:0:0:0:
256,192,38548,1,8,0:0:0:0:
256,192,38620,1,8,0:0:0:0:
256,192,38692,1,0,0:0:0:0:
256,192,38764,1,8,0:0:0:0:
256,192,38836,1,4,0:0:0:0:
256,192,38981,1,8,0:0:0:0:
256,192,39053,1,8,0:0:0:0:
256,192,39125,1,0,0:0:0:0:
256,192,39269,1,8,0:0:0:0:
256,192,39413,1,0,0:0:0:0:
256,192,39485,1,0,0:0:0:0:
256,192,39558,1,8,0:0:0:0:
256,192,39630,1,8,0:0:0:0:
256,192,39702,1,0,0:0:0:0:
256,192,39846,1,8,0:0:0:0:
256,192,39990,1,0,0:0:0:0:
256,192,40062,1,8,0:0:0:0:
256,192,40207,1,8,0:0:0:0:
256,192,40279,1,0,0:0:0:0:
256,192,40351,1,0,0:0:0:0:
256,192,40423,1,8,0:0:0:0:
256,192,40567,1,0,0:0:0:0:
256,192,40639,1,0,0:0:0:0:
256,192,40711,1,0,0:0:0:0:
256,192,40856,1,8,0:0:0:0:
256,192,40928,1,0,0:0:0:0:
256,192,41000,1,0,0:0:0:0:
256,192,41144,1,12,0:0:0:0:
256,192,41288,1,0,0:0:0:0:
256,192,41360,1,0,0:0:0:0:
256,192,41433,1,8,0:0:0:0:
256,192,41505,1,0,0:0:0:0:
256,192,41577,1,8,0:0:0:0:
256,192,41649,1,8,0:0:0:0:
256,192,41721,1,0,0:0:0:0:
256,192,41865,1,8,0:0:0:0:
256,192,41937,1,0,0:0:0:0:
256,192,42009,1,8,0:0:0:0:
256,192,42154,1,0,0:0:0:0:
256,192,42298,1,12,0:0:0:0:
256,192,42514,1,0,0:0:0:0:
256,192,42586,1,8,0:0:0:0:
256,192,42731,1,8,0:0:0:0:
256,192,42875,1,0,0:0:0:0:
256,192,42947,1,8,0:0:0:0:
256,192,43019,1,8,0:0:0:0:
256,192,43091,1,0,0:0:0:0:
256,192,43235,1,8,0:0:0:0:
256,192,43308,1,0,0:0:0:0:
256,192,43380,1,8,0:0:0:0:
256,192,43452,1,0,0:0:0:0:
256,192,43524,1,0,0:0:0:0:
256,192,43596,1,8,0:0:0:0:
256,192,43668,1,0,0:0:0:0:
256,192,43740,1,0,0:0:0:0:
256,192,43812,1,8,0:0:0:0:
256,192,43884,1,0,0:0:0:0:
256,192,43957,1,8,0:0:0:0:
256,192,44029,1,8,0:0:0:0:
256,192,44101,1,0,0:0:0:0:
256,192,44245,1,8,0:0:0:0:
256,192,44317,1,0,0:0:0:0:
256,192,44389,1,0,0:0:0:0:
256,192,44461,1,8,0:0:0:0:
256,192,44534,1,8,0:0:0:0:
256,192,44606,1,0,0:0:0:0:
256,192,44750,1,8,0:0:0:0:
256,192,44822,1,8,0:0:0:0:
256,192,44894,1,0,0:0:0:0:
256,192,44966,1,0,0:0:0:0:
256,192,45038,1,8,0:0:0:0:
256,192,45183,1,0,0:0:0:0:
256,192,45255,1,8,0:0:0:0:
256,192,45327,1,0,0:0:0:0:
256,192,45471,1,8,0:0:0:0:
256,192,45519,1,8,0:0:0:0:
256,192,45567,1,8,0:0:0:0:
256,192,45615,1,0,0:0:0:0:
256,192,45759,1,0,0:0:0:0:
256,192,45832,1,0,0:0:0:0:
256,192,45904,1,8,0:0:0:0:
256,192,46048,1,8,0:0:0:0:
256,192,46192,1,0,0:0:0:0:
256,192,46481,1,8,0:0:0:0:
256,192,46769,1,8,0:0:0:0:
256,192,46913,1,4,0:0:0:0:
256,192,48067,1,0,0:0:0:0:
256,192,49221,1,0,0:0:0:0:
256,192,49798,1,0,0:0:0:0:
256,192,50375,1,0,0:0:0:0:
256,192,50591,1,0,0:0:0:0:
256,192,50808,1,0,0:0:0:0:
256,192,50952,1,0,0:0:0:0:
256,192,51000,1,0,0:0:0:0:
256,192,51048,1,0,0:0:0:0:
256,192,51096,1,0,0:0:0:0:
256,192,51144,1,0,0:0:0:0:
256,192,51192,1,0,0:0:0:0:
256,192,51240,1,8,0:0:0:0:
256,192,51529,1,8,0:0:0:0:
256,192,51577,1,8,0:0:0:0:
256,192,51625,1,8,0:0:0:0:
256,192,51673,1,0,0:0:0:0:
256,192,51721,1,0,0:0:0:0:
256,192,51769,1,0,0:0:0:0:
256,192,51817,1,8,0:0:0:0:
256,192,51853,1,8,0:0:0:0:
256,192,51961,1,8,0:0:0:0:
256,192,51997,1,8,0:0:0:0:
256,192,52106,1,0,0:0:0:0:
256,192,52154,1,0,0:0:0:0:
256,192,52202,1,0,0:0:0:0:
256,192,52250,1,8,0:0:0:0:
256,192,52394,1,0,0:0:0:0:
256,192,52442,1,8,0:0:0:0:
256,192,52490,1,8,0:0:0:0:
256,192,52538,1,0,0:0:0:0:
256,192,52683,1,8,0:0:0:0:
256,192,52731,1,8,0:0:0:0:
256,192,52779,1,8,0:0:0:0:
256,192,52827,1,0,0:0:0:0:
256,192,52971,1,0,0:0:0:0:
256,192,53043,1,0,0:0:0:0:
256,192,53115,1,8,0:0:0:0:
256,192,53259,1,0,0:0:0:0:
256,192,53332,1,8,0:0:0:0:
256,192,53404,1,8,0:0:0:0:
256,192,53548,1,0,0:0:0:0:
256,192,53620,1,8,0:0:0:0:
256,192,53692,1,0,0:0:0:0:
256,192,53764,1,0,0:0:0:0:
256,192,53836,1,8,0:0:0:0:
256,192,53884,1,0,0:0:0:0:
256,192,53933,1,0,0:0:0:0:
256,192,53981,1,8,0:0:0:0:
256,192,54053,1,8,0:0:0:0:
256,192,54125,1,0,0:0:0:0:
256,192,54197,1,8,0:0:0:0:
256,192,54269,1,8,0:0:0:0:
256,192,54341,1,8,0:0:0:0:
256,192,54413,1,0,0:0:0:0:
256,192,54485,1,0,0:0:0:0:
256,192,54558,1,8,0:0:0:0:
256,192,54702,1,0,0:0:0:0:
256,192,54774,1,8,0:0:0:0:
256,192,54846,1,8,0:0:0:0:
256,192,54990,1,0,0:0:0:0:
256,192,55062,1,8,0:0:0:0:
256,192,55134,1,0,0:0:0:0:
256,192,55279,1,8,0:0:0:0:
256,192,55351,1,0,0:0:0:0:
256,192,55423,1,8,0:0:0:0:
256,192,55495,1,8,0:0:0:0:
256,192,55567,1,0,0:0:0:0:
256,192,55639,1,8,0:0:0:0:
256,192,55711,1,8,0:0:0:0:
256,192,55856,1,0,0:0:0:0:
256,192,55928,1,8,0:0:0:0:
256,192,56000,1,8,0:0:0:0:
256,192,56072,1,8,0:0:0:0:
256,192,56144,1,0,0:0:0:0:
256,192,56721,1,4,0:0:0:0:
256,192,56865,1,8,0:0:0:0:
256,192,56937,1,8,0:0:0:0:
256,192,57009,1,0,0:0:0:0:
256,192,57082,1,0,0:0:0:0:
256,192,57154,1,8,0:0:0:0:
256,192,57298,1,0,0:0:0:0:
256,192,57370,1,8,0:0:0:0:
256,192,57442,1,0,0:0:0:0:
256,192,57586,1,0,0:0:0:0:
256,192,57659,1,0,0:0:0:0:
256,192,57731,1,8,0:0:0:0:
256,192,57875,1,0,0:0:0:0:
256,192,57947,1,8,0:0:0:0:
256,192,58019,1,8,0:0:0:0:
256,192,58163,1,0,0:0:0:0:
256,192,58235,1,0,0:0:0:0:
256,192,58308,1,8,0:0:0:0:
256,192,58380,1,8,0:0:0:0:
256,192,58452,1,0,0:0:0:0:
256,192,58500,1,0,0:0:0:0:
256,192,58548,1,0,0:0:0:0:
256,192,58596,1,8,0:0:0:0:
256,192,58644,1,8,0:0:0:0:
256,192,58692,1,8,0:0:0:0:
256,192,58740,1,0,0:0:0:0:
256,192,58884,1,0,0:0:0:0:
256,192,58957,1,0,0:0:0:0:
256,192,59029,1,8,0:0:0:0:
256,192,59101,1,8,0:0:0:0:
256,192,59173,1,0,0:0:0:0:
256,192,59245,1,8,0:0:0:0:
256,192,59317,1,8,0:0:0:0:
256,192,59389,1,8,0:0:0:0:
256,192,59461,1,0,0:0:0:0:
256,192,59534,1,8,0:0:0:0:
256,192,59606,1,0,0:0:0:0:
256,192,59678,1,0,0:0:0:0:
256,192,59750,1,8,0:0:0:0:
256,192,59894,1,0,0:0:0:0:
256,192,60038,1,8,0:0:0:0:
256,192,60327,1,0,0:0:0:0:
256,192,60615,1,8,0:0:0:0:
256,192,60759,5,4,0:0:0:0:
256,192,60976,1,8,0:0:0:0:
256,192,61048,1,8,0:0:0:0:
256,192,61120,1,8,0:0:0:0:
256,192,61192,1,0,0:0:0:0:
256,192,61336,1,0,0:0:0:0:
256,192,61481,1,8,0:0:0:0:
256,192,61553,1,0,0:0:0:0:
256,192,61697,1,0,0:0:0:0:
256,192,61769,1,8,0:0:0:0:
256,192,61913,1,0,0:0:0:0:
256,192,62058,1,8,0:0:0:0:
256,192,62130,1,8,0:0:0:0:
256,192,62202,1,0,0:0:0:0:
256,192,62274,1,8,0:0:0:0:
256,192,62346,1,0,0:0:0:0:
256,192,62418,1,0,0:0:0:0:
256,192,62490,1,8,0:0:0:0:
256,192,63067,1,4,0:0:0:0:
256,192,63356,1,8,0:0:0:0:
256,192,63428,1,8,0:0:0:0:
256,192,63500,5,0,0:0:0:0:
256,192,63644,5,8,0:0:0:0:
256,192,63692,1,8,0:0:0:0:
256,192,63740,1,0,0:0:0:0:
256,192,63788,1,0,0:0:0:0:
256,192,63860,5,8,0:0:0:0:
256,192,63908,1,8,0:0:0:0:
256,192,63956,1,0,0:0:0:0:
256,192,64004,1,0,0:0:0:0:
256,192,64077,1,8,0:0:0:0:
256,192,64221,1,0,0:0:0:0:
256,192,64293,1,0,0:0:0:0:
256,192,64365,1,8,0:0:0:0:
256,192,64437,1,8,0:0:0:0:
256,192,64509,1,0,0:0:0:0:
256,192,64654,1,0,0:0:0:0:
256,192,64798,1,8,0:0:0:0:
256,192,64870,1,8,0:0:0:0:
256,192,65014,1,0,0:0:0:0:
256,192,65086,1,0,0:0:0:0:
256,192,65159,1,0,0:0:0:0:
256,192,65231,1,8,0:0:0:0:
256,192,65303,1,8,0:0:0:0:
256,192,65375,1,4,0:0:0:0:
256,192,65663,1,8,0:0:0:0:
256,192,65808,1,8,0:0:0:0:
256,192,65952,5,0,0:0:0:0:
256,192,66168,1,0,0:0:0:0:
256,192,66384,1,0,0:0:0:0:
256,192,66601,1,0,0:0:0:0:
256,192,66817,1,0,0:0:0:0:
256,192,66961,1,0,0:0:0:0:
256,192,67106,1,0,0:0:0:0:
256,192,67322,1,0,0:0:0:0:
256,192,67538,1,0,0:0:0:0:
256,192,67610,1,0,0:0:0:0:
256,192,67683,1,0,0:0:0:0:
256,192,67875,1,0,0:0:0:0:
256,192,68067,1,0,0:0:0:0:
256,192,68259,1,0,0:0:0:0:
256,192,68452,1,0,0:0:0:0:
256,192,68644,1,0,0:0:0:0:
256,192,68740,1,0,0:0:0:0:
256,192,68836,5,0,0:0:0:0:
256,192,68933,1,0,0:0:0:0:
256,192,69029,1,0,0:0:0:0:
256,192,69125,1,0,0:0:0:0:
256,192,69221,1,0,0:0:0:0:
256,192,69317,1,0,0:0:0:0:
256,192,69413,1,8,0:0:0:0:
256,192,69461,1,8,0:0:0:0:
256,192,69509,1,0,0:0:0:0:
256,192,69558,1,0,0:0:0:0:
256,192,69606,1,8,0:0:0:0:
256,192,69654,1,8,0:0:0:0:
256,192,69702,1,0,0:0:0:0:
256,192,69750,1,0,0:0:0:0:
256,192,69798,1,8,0:0:0:0:
256,192,69846,1,8,0:0:0:0:
256,192,69894,1,0,0:0:0:0:
256,192,69942,1,0,0:0:0:0:
256,192,69990,1,8,0:0:0:0:
256,192,71144,5,12,0:0:0:0:
256,192,71577,1,8,0:0:0:0:
256,192,72009,1,8,0:0:0:0:
256,192,72298,1,0,0:0:0:0:
256,192,72731,1,0,0:0:0:0:
256,192,73019,1,0,0:0:0:0:
256,192,73308,1,8,0:0:0:0:
256,192,73884,1,8,0:0:0:0:
256,192,74317,1,8,0:0:0:0:
256,192,74606,1,8,0:0:0:0:
256,192,75183,1,4,0:0:0:0:
256,192,75399,1,4,0:0:0:0:
256,192,75615,1,4,0:0:0:0:
256,192,75759,1,8,0:0:0:0:
256,192,76048,1,4,0:0:0:0:
256,192,76192,1,8,0:0:0:0:
256,192,76625,1,8,0:0:0:0:
256,192,78211,1,8,0:0:0:0:
256,192,78284,1,8,0:0:0:0:
256,192,78356,1,0,0:0:0:0:
256,192,78428,1,8,0:0:0:0:
256,192,78500,1,0,0:0:0:0:
256,192,78572,1,8,0:0:0:0:
256,192,78644,1,0,0:0:0:0:
256,192,78716,1,0,0:0:0:0:
256,192,78788,1,8,0:0:0:0:
256,192,78860,1,8,0:0:0:0:
256,192,78933,1,0,0:0:0:0:
256,192,79005,1,0,0:0:0:0:
256,192,79077,1,8,0:0:0:0:
256,192,79149,1,8,0:0:0:0:
256,192,79221,1,8,0:0:0:0:
256,192,79293,1,0,0:0:0:0:
256,192,79365,1,0,0:0:0:0:
256,192,79437,1,8,0:0:0:0:
256,192,79509,1,0,0:0:0:0:
256,192,79582,1,8,0:0:0:0:
256,192,79654,1,0,0:0:0:0:
256,192,79726,1,0,0:0:0:0:
256,192,79798,1,8,0:0:0:0:
256,192,79942,1,0,0:0:0:0:
256,192,79990,1,0,0:0:0:0:
256,192,80038,1,0,0:0:0:0:
256,192,80086,1,8,0:0:0:0:
256,192,80159,1,8,0:0:0:0:
256,192,80231,1,8,0:0:0:0:
256,192,80303,1,8,0:0:0:0:
256,192,80375,1,4,0:0:0:0:
256,192,80808,1,0,0:0:0:0:
256,192,81240,1,0,0:0:0:0:
256,192,81529,1,0,0:0:0:0:
256,192,81961,1,0,0:0:0:0:
256,192,82250,1,8,0:0:0:0:
256,192,82394,1,0,0:0:0:0:
256,192,82538,1,8,0:0:0:0:
256,192,82683,1,4,0:0:0:0:
256,192,82971,1,8,0:0:0:0:
256,192,83115,1,4,0:0:0:0:
256,192,83404,1,4,0:0:0:0:
256,192,83548,1,8,0:0:0:0:
256,192,83692,1,4,0:0:0:0:
256,192,83981,1,4,0:0:0:0:
256,192,84125,1,8,0:0:0:0:
256,192,84269,1,4,0:0:0:0:
256,192,84413,1,0,0:0:0:0:
256,192,84461,1,0,0:0:0:0:
256,192,84509,1,0,0:0:0:0:
256,192,84558,1,0,0:0:0:0:
256,192,84606,1,0,0:0:0:0:
256,192,84654,1,0,0:0:0:0:
256,192,84702,1,8,0:0:0:0:
256,192,84990,1,4,0:0:0:0:
256,192,85207,1,0,0:0:0:0:
256,192,85279,1,8,0:0:0:0:
256,192,85423,1,0,0:0:0:0:
256,192,85567,1,8,0:0:0:0:
256,192,85639,1,0,0:0:0:0:
256,192,85856,1,8,0:0:0:0:
256,192,86144,1,4,0:0:0:0:
256,192,86360,1,0,0:0:0:0:
256,192,86433,1,8,0:0:0:0:
256,192,86577,1,0,0:0:0:0:
256,192,86721,1,8,0:0:0:0:
256,192,86793,1,0,0:0:0:0:
256,192,87009,1,8,0:0:0:0:
256,192,87082,1,8,0:0:0:0:
256,192,87154,1,8,0:0:0:0:
256,192,87226,1,8,0:0:0:0:
256,192,87298,1,4,0:0:0:0:
256,192,87514,1,0,0:0:0:0:
256,192,87586,1,8,0:0:0:0:
256,192,87731,1,0,0:0:0:0:
256,192,87875,1,8,0:0:0:0:
256,192,87947,1,0,0:0:0:0:
256,192,88091,1,0,0:0:0:0:
256,192,88163,1,8,0:0:0:0:
256,192,88235,1,0,0:0:0:0:
256,192,88308,1,8,0:0:0:0:
256,192,88452,1,0,0:0:0:0:
256,192,88524,1,8,0:0:0:0:
256,192,88596,1,8,0:0:0:0:
256,192,88668,1,0,0:0:0:0:
256,192,88740,1,8,0:0:0:0:
256,192,88812,1,8,0:0:0:0:
256,192,88884,1,0,0:0:0:0:
256,192,88957,1,0,0:0:0:0:
256,192,89029,1,0,0:0:0:0:
256,192,89101,1,8,0:0:0:0:
256,192,89173,1,0,0:0:0:0:
256,192,89245,1,0,0:0:0:0:
256,192,89317,1,12,0:0:0:0:
256,192,89389,12,0,90615,0:0:0:0:
256,192,90759,5,0,0:0:0:0:
256,192,90904,5,8,0:0:0:0:
256,192,90976,1,8,0:0:0:0:
256,192,91048,1,0,0:0:0:0:
256,192,91120,1,0,0:0:0:0:
256,192,91192,1,8,0:0:0:0:
256,192,91264,1,0,0:0:0:0:
256,192,91336,1,8,0:0:0:0:
256,192,91384,1,8,0:0:0:0:
256,192,91433,1,8,0:0:0:0:
256,192,91481,1,0,0:0:0:0:
256,192,91553,1,0,0:0:0:0:
256,192,91625,1,8,0:0:0:0:
256,192,91697,1,0,0:0:0:0:
256,192,91769,1,8,0:0:0:0:
256,192,91841,1,8,0:0:0:0:
256,192,91913,1,4,0:0:0:0:
256,192,92346,1,4,0:0:0:0:
256,192,92562,1,4,0:0:0:0:
256,192,92779,1,4,0:0:0:0:
256,192,92923,1,4,0:0:0:0:
256,192,93211,1,0,0:0:0:0:
256,192,93284,1,0,0:0:0:0:
256,192,93356,1,12,0:0:0:0:
256,192,93500,1,8,0:0:0:0:
256,192,93644,1,0,0:0:0:0:
256,192,93788,1,8,0:0:0:0:
256,192,93860,1,8,0:0:0:0:
256,192,93933,1,0,0:0:0:0:
256,192,94005,1,8,0:0:0:0:
256,192,94077,1,8,0:0:0:0:
256,192,94149,1,8,0:0:0:0:
256,192,94221,1,0,0:0:0:0:
256,192,94365,1,8,0:0:0:0:
256,192,94437,1,0,0:0:0:0:
256,192,94509,1,0,0:0:0:0:
256,192,94654,1,8,0:0:0:0:
256,192,94798,1,0,0:0:0:0:
256,192,94942,1,0,0:0:0:0:
256,192,95014,1,8,0:0:0:0:
256,192,95086,1,0,0:0:0:0:
256,192,95159,1,8,0:0:0:0:
256,192,95231,1,8,0:0:0:0:
256,192,95303,1,8,0:0:0:0:
256,192,95375,1,0,0:0:0:0:
256,192,95519,1,8,0:0:0:0:
256,192,95591,1,0,0:0:0:0:
256,192,95735,1,0,0:0:0:0:
256,192,95808,1,8,0:0:0:0:
256,192,95952,1,0,0:0:0:0:
256,192,96096,1,0,0:0:0:0:
256,192,96168,1,8,0:0:0:0:
256,192,96240,1,0,0:0:0:0:
256,192,96312,1,0,0:0:0:0:
256,192,96384,1,0,0:0:0:0:
256,192,96457,1,0,0:0:0:0:
256,192,96529,1,8,0:0:0:0:
256,192,96817,1,4,0:0:0:0:
256,192,96961,1,8,0:0:0:0:
256,192,97034,1,8,0:0:0:0:
256,192,97106,1,0,0:0:0:0:
256,192,97178,1,8,0:0:0:0:
256,192,97322,1,8,0:0:0:0:
256,192,97394,1,0,0:0:0:0:
256,192,97538,1,8,0:0:0:0:
256,192,97610,1,8,0:0:0:0:
256,192,97683,1,0,0:0:0:0:
256,192,97827,1,0,0:0:0:0:
256,192,97899,1,0,0:0:0:0:
256,192,97971,1,8,0:0:0:0:
256,192,98043,1,0,0:0:0:0:
256,192,98115,1,8,0:0:0:0:
256,192,98259,1,0,0:0:0:0:
256,192,98404,1,8,0:0:0:0:
256,192,98476,1,8,0:0:0:0:
256,192,98548,1,0,0:0:0:0:
256,192,98620,1,8,0:0:0:0:
256,192,98692,1,0,0:0:0:0:
256,192,98764,1,0,0:0:0:0:
256,192,98836,1,8,0:0:0:0:
256,192,98981,1,8,0:0:0:0:
256,192,99053,1,0,0:0:0:0:
256,192,99197,1,8,0:0:0:0:
256,192,99269,1,0,0:0:0:0:
256,192,99341,1,0,0:0:0:0:
256,192,99413,1,8,0:0:0:0:
256,192,99558,1,0,0:0:0:0:
256,192,99630,1,8,0:0:0:0:
256,192,99774,1,0,0:0:0:0:
256,192,99846,1,8,0:0:0:0:
256,192,99918,1,8,0:0:0:0:
256,192,99990,1,0,0:0:0:0:
256,192,100134,1,0,0:0:0:0:
256,192,100207,1,0,0:0:0:0:
256,192,100279,1,8,0:0:0:0:
256,192,100423,1,8,0:0:0:0:
256,192,100495,1,8,0:0:0:0:
256,192,100567,1,0,0:0:0:0:
256,192,100711,1,0,0:0:0:0:
256,192,100784,1,0,0:0:0:0:
256,192,100856,1,8,0:0:0:0:
256,192,100928,1,8,0:0:0:0:
256,192,101000,1,8,0:0:0:0:
256,192,101072,1,8,0:0:0:0:
256,192,101433,1,4,0:0:0:0:
256,192,101577,1,4,0:0:0:0:
256,192,101793,1,8,0:0:0:0:
256,192,101865,1,0,0:0:0:0:
256,192,102009,1,8,0:0:0:0:
256,192,102154,1,0,0:0:0:0:
256,192,102298,1,0,0:0:0:0:
256,192,102442,1,8,0:0:0:0:
256,192,102514,1,8,0:0:0:0:
256,192,102586,1,0,0:0:0:0:
256,192,102731,1,0,0:0:0:0:
256,192,102875,1,8,0:0:0:0:
256,192,103019,1,0,0:0:0:0:
256,192,103067,1,8,0:0:0:0:
256,192,103115,1,8,0:0:0:0:
256,192,103163,1,0,0:0:0:0:
256,192,103235,1,8,0:0:0:0:
256,192,103308,1,0,0:0:0:0:
256,192,103380,1,0,0:0:0:0:
256,192,103452,1,8,0:0:0:0:
256,192,103740,1,4,0:0:0:0:
256,192,103884,1,4,0:0:0:0:
256,192,104029,1,8,0:0:0:0:
256,192,104173,1,0,0:0:0:0:
256,192,104245,1,8,0:0:0:0:
256,192,104317,1,8,0:0:0:0:
256,192,104461,1,0,0:0:0:0:
256,192,104534,1,8,0:0:0:0:
256,192,104606,1,0,0:0:0:0:
256,192,104678,1,8,0:0:0:0:
256,192,104822,1,0,0:0:0:0:
256,192,104894,1,8,0:0:0:0:
256,192,105038,1,0,0:0:0:0:
256,192,105110,1,0,0:0:0:0:
256,192,105183,1,8,0:0:0:0:
256,192,105255,1,0,0:0:0:0:
256,192,105327,1,0,0:0:0:0:
256,192,105399,1,8,0:0:0:0:
256,192,105471,1,8,0:0:0:0:
256,192,105543,1,0,0:0:0:0:
256,192,105615,1,8,0:0:0:0:
256,192,105687,1,8,0:0:0:0:
256,192,105759,1,0,0:0:0:0:
256,192,105904,1,0,0:0:0:0:
256,192,106048,1,12,0:0:0:0:
256,192,106192,1,8,0:0:0:0:
256,192,106264,1,0,0:0:0:0:
256,192,106336,1,0,0:0:0:0:
256,192,106409,1,8,0:0:0:0:
256,192,106553,1,0,0:0:0:0:
256,192,106625,1,8,0:0:0:0:
256,192,106697,1,0,0:0:0:0:
256,192,106769,1,8,0:0:0:0:
256,192,106841,1,8,0:0:0:0:
256,192,106913,1,0,0:0:0:0:
256,192,106985,1,8,0:0:0:0:
256,192,107058,1,0,0:0:0:0:
256,192,107130,1,0,0:0:0:0:
256,192,107202,1,8,0:0:0:0:
256,192,107274,1,0,0:0:0:0:
256,192,107346,1,0,0:0:0:0:
256,192,107418,1,0,0:0:0:0:
256,192,107490,1,8,0:0:0:0:
256,192,107562,1,8,0:0:0:0:
256,192,107634,1,0,0:0:0:0:
256,192,107683,1,0,0:0:0:0:
256,192,107731,1,0,0:0:0:0:
256,192,107779,1,8,0:0:0:0:
256,192,107851,1,0,0:0:0:0:
256,192,107923,1,0,0:0:0:0:
256,192,107995,1,8,0:0:0:0:
256,192,108067,1,0,0:0:0:0:
256,192,108139,1,8,0:0:0:0:
256,192,108211,1,8,0:0:0:0:
256,192,108284,1,0,0:0:0:0:
256,192,108356,1,8,0:0:0:0:
256,192,108428,1,8,0:0:0:0:
256,192,108500,1,0,0:0:0:0:
256,192,108572,1,8,0:0:0:0:
256,192,108644,1,8,0:0:0:0:
256,192,108716,1,0,0:0:0:0:
256,192,108788,1,8,0:0:0:0:
256,192,108860,1,8,0:0:0:0:
256,192,108933,1,0,0:0:0:0:
256,192,109005,1,0,0:0:0:0:
256,192,109077,1,8,0:0:0:0:
256,192,109149,1,8,0:0:0:0:
256,192,109221,1,0,0:0:0:0:
256,192,109293,1,8,0:0:0:0:
256,192,109365,1,0,0:0:0:0:
256,192,109437,1,8,0:0:0:0:
256,192,109509,1,0,0:0:0:0:
256,192,109582,1,0,0:0:0:0:
256,192,109654,1,8,0:0:0:0:
256,192,109726,1,0,0:0:0:0:
256,192,109798,1,8,0:0:0:0:
256,192,109846,1,8,0:0:0:0:
256,192,109894,1,8,0:0:0:0:
256,192,109942,1,0,0:0:0:0:
256,192,110014,1,0,0:0:0:0:
256,192,110086,1,8,0:0:0:0:
256,192,110134,1,8,0:0:0:0:
256,192,110183,1,8,0:0:0:0:
256,192,110231,1,8,0:0:0:0:
256,192,110279,1,8,0:0:0:0:
256,192,110327,1,8,0:0:0:0:
256,192,110375,1,0,0:0:0:0:
256,192,112538,1,0,0:0:0:0:
256,192,112586,1,0,0:0:0:0:
256,192,112634,1,0,0:0:0:0:
256,192,112683,1,8,0:0:0:0:
256,192,113115,1,8,0:0:0:0:
256,192,113548,1,8,0:0:0:0:
256,192,113981,1,0,0:0:0:0:
256,192,114413,1,0,0:0:0:0:
256,192,114702,1,8,0:0:0:0:
256,192,114990,1,0,0:0:0:0:
256,192,115423,1,8,0:0:0:0:
256,192,115856,1,0,0:0:0:0:
256,192,116144,1,0,0:0:0:0:
256,192,116216,1,0,0:0:0:0:
256,192,116288,1,0,0:0:0:0:
256,192,116360,1,0,0:0:0:0:
256,192,116433,1,8,0:0:0:0:
256,192,116505,1,0,0:0:0:0:
256,192,116577,1,0,0:0:0:0:
256,192,116649,1,0,0:0:0:0:
256,192,116721,1,8,0:0:0:0:
256,192,116793,1,0,0:0:0:0:
256,192,116865,1,8,0:0:0:0:
256,192,116937,1,0,0:0:0:0:
256,192,117009,1,0,0:0:0:0:
256,192,117082,1,0,0:0:0:0:
256,192,117154,1,8,0:0:0:0:
256,192,117226,1,0,0:0:0:0:
256,192,117298,1,0,0:0:0:0:
256,192,117370,1,0,0:0:0:0:
256,192,117442,1,8,0:0:0:0:
256,192,117514,1,0,0:0:0:0:
256,192,117586,1,8,0:0:0:0:
256,192,117659,1,0,0:0:0:0:
256,192,117731,1,0,0:0:0:0:
256,192,117803,1,0,0:0:0:0:
256,192,117875,1,8,0:0:0:0:
256,192,117947,1,0,0:0:0:0:
256,192,118019,1,8,0:0:0:0:
256,192,118091,1,0,0:0:0:0:
256,192,118163,1,0,0:0:0:0:
256,192,118235,1,0,0:0:0:0:
256,192,118308,1,8,0:0:0:0:
256,192,118380,1,0,0:0:0:0:
256,192,118452,1,8,0:0:0:0:
256,192,118524,1,8,0:0:0:0:
256,192,118596,1,0,0:0:0:0:
256,192,118668,1,0,0:0:0:0:
256,192,118740,1,8,0:0:0:0:
256,192,118812,1,0,0:0:0:0:
256,192,118884,1,8,0:0:0:0:
256,192,118957,1,0,0:0:0:0:
256,192,119029,1,0,0:0:0:0:
256,192,119101,1,0,0:0:0:0:
256,192,119173,1,8,0:0:0:0:
256,192,119245,1,8,0:0:0:0:
256,192,119317,1,0,0:0:0:0:
256,192,119389,1,0,0:0:0:0:
256,192,119461,1,12,0:0:0:0:
