osu file format v14

[General]
AudioFilename: audio.mp3
AudioLeadIn: 0
PreviewTime: 200578
Countdown: 0
SampleSet: Soft
StackLeniency: 0.7
Mode: 3
LetterboxInBreaks: 0
SpecialStyle: 0
WidescreenStoryboard: 0

[Editor]
DistanceSpacing: 1
BeatDivisor: 8
GridSize: 4
TimelineZoom: 2.1

[Metadata]
Title:Vestige
TitleUnicode:Vestige
Artist:BlackY
ArtistUnicode:BlackY
Creator:cherrychou
Version:EverLasting
Source:
Tags:The Unattended instrumental electronic trance renaissance artcore piano #ffffff Records HXN-001 / 002 M3-49 M3-2022春 spring
BeatmapID:4351046
BeatmapSetID:2077955

[Difficulty]
HPDrainRate:8.2
CircleSize:4
OverallDifficulty:7.6
ApproachRate:5
SliderMultiplier:1.4
SliderTickRate:1

[Events]
//Background and Video events
0,0,"bg.jpg",0,0
//Break Periods
//Storyboard Layer 0 (Background)
//Storyboard Layer 1 (Fail)
//Storyboard Layer 2 (Pass)
//Storyboard Layer 3 (Foreground)
//Storyboard Layer 4 (Overlay)
//Storyboard Sound Samples

[TimingPoints]
1093,375,4,2,1,15,1,0
65593,-100,4,2,1,15,0,1
91093,-100,4,2,1,15,0,0
203593,-100,4,2,1,15,0,1
251593,-100,4,2,1,15,0,0

[HitObjects]
448,192,1093,5,0,0:0:0:0:
320,192,1093,1,0,0:0:0:0:
64,192,1843,1,0,0:0:0:0:
192,192,2569,1,0,0:0:0:0:
448,192,2593,1,0,0:0:0:0:
320,192,3343,1,0,0:0:0:0:
64,192,4093,1,0,0:0:0:0:
448,192,4093,1,0,0:0:0:0:
320,192,4843,1,0,0:0:0:0:
192,192,5593,1,0,0:0:0:0:
448,192,5593,1,0,0:0:0:0:
64,192,6343,1,0,0:0:0:0:
320,192,7093,1,0,0:0:0:0:
448,192,7093,1,0,0:0:0:0:
64,192,7843,1,0,0:0:0:0:
448,192,8593,1,0,0:0:0:0:
192,192,8593,1,0,0:0:0:0:
320,192,9343,1,0,0:0:0:0:
320,192,10093,1,0,0:0:0:0:
448,192,10093,1,0,0:0:0:0:
192,192,10843,1,0,0:0:0:0:
448,192,11593,1,0,0:0:0:0:
192,192,11593,1,0,0:0:0:0:
64,192,12343,1,0,0:0:0:0:
320,192,13468,128,0,14593:0:0:0:0:
64,192,14593,1,0,0:0:0:0:
192,192,14593,1,0,0:0:0:0:
448,192,14593,128,0,14780:0:0:0:0:
192,192,14780,1,0,0:0:0:0:
320,192,14874,1,0,0:0:0:0:
64,192,14874,1,0,0:0:0:0:
448,192,14968,128,0,15155:0:0:0:0:
192,192,15061,1,0,0:0:0:0:
320,192,15155,1,0,0:0:0:0:
448,192,15249,1,0,0:0:0:0:
64,192,15343,1,0,0:0:0:0:
320,192,15343,128,0,15530:0:0:0:0:
448,192,15530,1,0,0:0:0:0:
64,192,15718,1,0,0:0:0:0:
320,192,15718,128,0,15905:0:0:0:0:
192,192,15905,1,0,0:0:0:0:
448,192,16093,1,0,0:0:0:0:
320,192,16093,1,0,0:0:0:0:
192,192,16093,128,0,16280:0:0:0:0:
448,192,16280,1,0,0:0:0:0:
64,192,16374,1,0,0:0:0:0:
320,192,16374,1,0,0:0:0:0:
192,192,16468,128,0,16655:0:0:0:0:
448,192,16561,1,0,0:0:0:0:
320,192,16655,1,0,0:0:0:0:
192,192,16749,1,0,0:0:0:0:
448,192,16843,1,0,0:0:0:0:
320,192,16843,128,0,17030:0:0:0:0:
192,192,16936,1,0,0:0:0:0:
64,192,16936,1,0,0:0:0:0:
448,192,17030,1,0,0:0:0:0:
448,192,17218,1,0,0:0:0:0:
320,192,17218,128,0,17405:0:0:0:0:
64,192,17405,1,0,0:0:0:0:
192,192,17499,1,0,0:0:0:0:
448,192,17593,1,0,0:0:0:0:
320,192,17593,1,0,0:0:0:0:
64,192,17593,128,0,17780:0:0:0:0:
320,192,17780,1,0,0:0:0:0:
192,192,17874,1,0,0:0:0:0:
448,192,17874,1,0,0:0:0:0:
64,192,17968,128,0,18155:0:0:0:0:
320,192,18061,1,0,0:0:0:0:
192,192,18155,128,0,18249:0:0:0:0:
64,192,18249,1,0,0:0:0:0:
448,192,18343,1,0,0:0:0:0:
192,192,18343,128,0,18530:0:0:0:0:
64,192,18530,128,0,18624:0:0:0:0:
320,192,18624,128,0,18718:0:0:0:0:
448,192,18718,1,0,0:0:0:0:
192,192,18718,128,0,18905:0:0:0:0:
448,192,18905,128,0,18999:0:0:0:0:
320,192,18905,128,0,18999:0:0:0:0:
192,192,18999,1,0,0:0:0:0:
64,192,19093,1,0,0:0:0:0:
448,192,19093,1,0,0:0:0:0:
320,192,19093,128,0,19280:0:0:0:0:
64,192,19280,1,0,0:0:0:0:
448,192,19374,1,0,0:0:0:0:
192,192,19374,1,0,0:0:0:0:
320,192,19468,128,0,19655:0:0:0:0:
64,192,19561,1,0,0:0:0:0:
448,192,19655,128,0,19749:0:0:0:0:
192,192,19655,1,0,0:0:0:0:
320,192,19749,1,0,0:0:0:0:
448,192,19843,128,0,20030:0:0:0:0:
64,192,19843,1,0,0:0:0:0:
192,192,19936,1,0,0:0:0:0:
320,192,20030,128,0,20124:0:0:0:0:
64,192,20124,128,0,20218:0:0:0:0:
192,192,20218,1,0,0:0:0:0:
448,192,20218,128,0,20405:0:0:0:0:
320,192,20311,1,0,0:0:0:0:
192,192,20405,128,0,20499:0:0:0:0:
64,192,20405,128,0,20499:0:0:0:0:
448,192,20499,1,0,0:0:0:0:
320,192,20593,1,0,0:0:0:0:
192,192,20593,1,0,0:0:0:0:
64,192,20593,128,0,20780:0:0:0:0:
320,192,20780,1,0,0:0:0:0:
192,192,20874,1,0,0:0:0:0:
448,192,20874,1,0,0:0:0:0:
64,192,20968,128,0,21155:0:0:0:0:
320,192,21061,1,0,0:0:0:0:
192,192,21155,128,0,21249:0:0:0:0:
64,192,21249,1,0,0:0:0:0:
448,192,21343,1,0,0:0:0:0:
192,192,21343,128,0,21530:0:0:0:0:
64,192,21530,128,0,21624:0:0:0:0:
320,192,21624,128,0,21718:0:0:0:0:
448,192,21718,1,0,0:0:0:0:
192,192,21718,128,0,21905:0:0:0:0:
448,192,21905,128,0,21999:0:0:0:0:
320,192,21905,128,0,21999:0:0:0:0:
192,192,22093,1,0,0:0:0:0:
64,192,22093,1,0,0:0:0:0:
320,192,22093,128,0,22280:0:0:0:0:
64,192,22280,1,0,0:0:0:0:
448,192,22374,1,0,0:0:0:0:
192,192,22374,1,0,0:0:0:0:
320,192,22468,128,0,22655:0:0:0:0:
64,192,22561,1,0,0:0:0:0:
192,192,22655,128,0,22749:0:0:0:0:
320,192,22749,1,0,0:0:0:0:
64,192,22843,1,0,0:0:0:0:
192,192,22843,128,0,23030:0:0:0:0:
320,192,22936,1,0,0:0:0:0:
448,192,22936,1,0,0:0:0:0:
64,192,23030,128,0,23124:0:0:0:0:
320,192,23124,128,0,23218:0:0:0:0:
64,192,23218,1,0,0:0:0:0:
192,192,23218,128,0,23405:0:0:0:0:
448,192,23405,128,0,23499:0:0:0:0:
320,192,23405,128,0,23499:0:0:0:0:
192,192,23499,1,0,0:0:0:0:
320,192,23593,1,0,0:0:0:0:
64,192,23593,1,0,0:0:0:0:
448,192,23593,128,0,23780:0:0:0:0:
192,192,23780,1,0,0:0:0:0:
320,192,23874,1,0,0:0:0:0:
64,192,23874,1,0,0:0:0:0:
448,192,23968,128,0,24155:0:0:0:0:
192,192,24061,1,0,0:0:0:0:
320,192,24155,128,0,24249:0:0:0:0:
448,192,24249,1,0,0:0:0:0:
64,192,24343,1,0,0:0:0:0:
320,192,24343,128,0,24530:0:0:0:0:
448,192,24530,128,0,24624:0:0:0:0:
192,192,24624,128,0,24718:0:0:0:0:
64,192,24718,1,0,0:0:0:0:
320,192,24718,128,0,24905:0:0:0:0:
64,192,24905,128,0,24999:0:0:0:0:
192,192,24905,128,0,24999:0:0:0:0:
320,192,24999,1,0,0:0:0:0:
448,192,25093,1,0,0:0:0:0:
64,192,25093,1,0,0:0:0:0:
192,192,25093,128,0,25280:0:0:0:0:
448,192,25280,1,0,0:0:0:0:
64,192,25374,1,0,0:0:0:0:
320,192,25374,1,0,0:0:0:0:
192,192,25468,128,0,25655:0:0:0:0:
448,192,25561,1,0,0:0:0:0:
64,192,25655,128,0,25749:0:0:0:0:
320,192,25655,1,0,0:0:0:0:
192,192,25749,1,0,0:0:0:0:
64,192,25843,128,0,26030:0:0:0:0:
448,192,25843,1,0,0:0:0:0:
320,192,25936,1,0,0:0:0:0:
192,192,26030,128,0,26124:0:0:0:0:
448,192,26124,128,0,26218:0:0:0:0:
320,192,26218,1,0,0:0:0:0:
64,192,26218,128,0,26405:0:0:0:0:
192,192,26311,128,0,26405:0:0:0:0:
320,192,26405,128,0,26499:0:0:0:0:
448,192,26405,128,0,26499:0:0:0:0:
64,192,26499,128,0,26593:0:0:0:0:
448,192,26593,1,0,0:0:0:0:
320,192,26593,1,0,0:0:0:0:
192,192,26593,1,0,0:0:0:0:
448,192,26686,1,0,0:0:0:0:
320,192,26780,1,0,0:0:0:0:
192,192,26874,1,0,0:0:0:0:
320,192,26968,1,0,0:0:0:0:
64,192,26968,1,0,0:0:0:0:
448,192,26968,1,0,0:0:0:0:
320,192,27061,1,0,0:0:0:0:
192,192,27155,1,0,0:0:0:0:
64,192,27249,1,0,0:0:0:0:
192,192,27343,1,0,0:0:0:0:
448,192,27343,1,0,0:0:0:0:
320,192,27343,1,0,0:0:0:0:
448,192,27436,1,0,0:0:0:0:
192,192,27530,1,0,0:0:0:0:
320,192,27624,1,0,0:0:0:0:
192,192,27718,1,0,0:0:0:0:
448,192,27718,1,0,0:0:0:0:
64,192,27718,1,0,0:0:0:0:
64,192,27811,1,0,0:0:0:0:
320,192,27905,1,0,0:0:0:0:
448,192,27999,1,0,0:0:0:0:
320,192,28093,1,0,0:0:0:0:
192,192,28093,1,0,0:0:0:0:
64,192,28093,1,0,0:0:0:0:
192,192,28186,1,0,0:0:0:0:
448,192,28280,1,0,0:0:0:0:
320,192,28374,1,0,0:0:0:0:
64,192,28468,1,0,0:0:0:0:
192,192,28468,1,0,0:0:0:0:
448,192,28468,1,0,0:0:0:0:
64,192,28561,1,0,0:0:0:0:
320,192,28655,1,0,0:0:0:0:
192,192,28749,1,0,0:0:0:0:
320,192,28843,1,0,0:0:0:0:
448,192,28843,1,0,0:0:0:0:
64,192,28843,1,0,0:0:0:0:
448,192,28936,1,0,0:0:0:0:
320,192,29030,1,0,0:0:0:0:
192,192,29124,1,0,0:0:0:0:
448,192,29218,1,0,0:0:0:0:
320,192,29218,1,0,0:0:0:0:
64,192,29218,1,0,0:0:0:0:
320,192,29311,1,0,0:0:0:0:
192,192,29405,1,0,0:0:0:0:
448,192,29499,1,0,0:0:0:0:
192,192,29593,1,0,0:0:0:0:
320,192,29593,1,0,0:0:0:0:
64,192,29593,1,0,0:0:0:0:
64,192,29686,1,0,0:0:0:0:
192,192,29780,1,0,0:0:0:0:
320,192,29874,1,0,0:0:0:0:
192,192,29968,1,0,0:0:0:0:
448,192,29968,1,0,0:0:0:0:
64,192,29968,1,0,0:0:0:0:
192,192,30061,1,0,0:0:0:0:
320,192,30155,1,0,0:0:0:0:
448,192,30249,1,0,0:0:0:0:
320,192,30343,1,0,0:0:0:0:
64,192,30343,1,0,0:0:0:0:
192,192,30343,1,0,0:0:0:0:
64,192,30436,1,0,0:0:0:0:
320,192,30530,1,0,0:0:0:0:
192,192,30624,1,0,0:0:0:0:
320,192,30718,1,0,0:0:0:0:
64,192,30718,1,0,0:0:0:0:
448,192,30718,1,0,0:0:0:0:
448,192,30811,1,0,0:0:0:0:
192,192,30905,1,0,0:0:0:0:
64,192,30999,1,0,0:0:0:0:
192,192,31093,1,0,0:0:0:0:
320,192,31093,1,0,0:0:0:0:
448,192,31093,1,0,0:0:0:0:
320,192,31186,1,0,0:0:0:0:
64,192,31280,1,0,0:0:0:0:
192,192,31374,1,0,0:0:0:0:
448,192,31468,1,0,0:0:0:0:
320,192,31468,1,0,0:0:0:0:
64,192,31468,1,0,0:0:0:0:
448,192,31561,1,0,0:0:0:0:
192,192,31655,1,0,0:0:0:0:
320,192,31749,1,0,0:0:0:0:
192,192,31843,1,0,0:0:0:0:
64,192,31843,1,0,0:0:0:0:
448,192,31843,1,0,0:0:0:0:
64,192,31936,1,0,0:0:0:0:
192,192,32030,1,0,0:0:0:0:
320,192,32124,1,0,0:0:0:0:
64,192,32218,1,0,0:0:0:0:
192,192,32218,1,0,0:0:0:0:
448,192,32218,1,0,0:0:0:0:
192,192,32311,1,0,0:0:0:0:
320,192,32405,1,0,0:0:0:0:
64,192,32499,1,0,0:0:0:0:
320,192,32593,1,0,0:0:0:0:
192,192,32593,1,0,0:0:0:0:
448,192,32593,1,0,0:0:0:0:
448,192,32686,1,0,0:0:0:0:
64,192,32780,1,0,0:0:0:0:
192,192,32780,1,0,0:0:0:0:
320,192,32874,1,0,0:0:0:0:
448,192,32968,1,0,0:0:0:0:
64,192,32968,1,0,0:0:0:0:
192,192,32968,1,0,0:0:0:0:
192,192,33061,1,0,0:0:0:0:
320,192,33155,1,0,0:0:0:0:
448,192,33155,1,0,0:0:0:0:
64,192,33249,1,0,0:0:0:0:
192,192,33343,1,0,0:0:0:0:
448,192,33343,1,0,0:0:0:0:
320,192,33343,1,0,0:0:0:0:
320,192,33436,1,0,0:0:0:0:
192,192,33530,1,0,0:0:0:0:
64,192,33530,1,0,0:0:0:0:
448,192,33624,1,0,0:0:0:0:
192,192,33718,1,0,0:0:0:0:
64,192,33718,1,0,0:0:0:0:
320,192,33718,1,0,0:0:0:0:
320,192,33811,1,0,0:0:0:0:
192,192,33905,1,0,0:0:0:0:
64,192,33905,1,0,0:0:0:0:
448,192,33999,1,0,0:0:0:0:
320,192,34093,1,0,0:0:0:0:
64,192,34093,1,0,0:0:0:0:
192,192,34093,1,0,0:0:0:0:
64,192,34186,1,0,0:0:0:0:
448,192,34280,1,0,0:0:0:0:
320,192,34280,1,0,0:0:0:0:
192,192,34374,1,0,0:0:0:0:
64,192,34468,1,0,0:0:0:0:
448,192,34468,1,0,0:0:0:0:
320,192,34468,1,0,0:0:0:0:
320,192,34561,1,0,0:0:0:0:
64,192,34655,1,0,0:0:0:0:
192,192,34655,1,0,0:0:0:0:
448,192,34749,1,0,0:0:0:0:
64,192,34843,1,0,0:0:0:0:
320,192,34843,1,0,0:0:0:0:
192,192,34843,1,0,0:0:0:0:
192,192,34936,1,0,0:0:0:0:
448,192,35030,1,0,0:0:0:0:
320,192,35030,1,0,0:0:0:0:
64,192,35124,1,0,0:0:0:0:
192,192,35218,1,0,0:0:0:0:
448,192,35218,1,0,0:0:0:0:
320,192,35218,1,0,0:0:0:0:
192,192,35311,1,0,0:0:0:0:
448,192,35405,1,0,0:0:0:0:
320,192,35405,1,0,0:0:0:0:
64,192,35499,1,0,0:0:0:0:
192,192,35593,1,0,0:0:0:0:
320,192,35593,1,0,0:0:0:0:
448,192,35593,1,0,0:0:0:0:
448,192,35686,1,0,0:0:0:0:
320,192,35780,1,0,0:0:0:0:
192,192,35874,1,0,0:0:0:0:
320,192,35968,1,0,0:0:0:0:
448,192,35968,1,0,0:0:0:0:
320,192,36061,1,0,0:0:0:0:
192,192,36155,1,0,0:0:0:0:
64,192,36249,1,0,0:0:0:0:
448,192,36343,1,0,0:0:0:0:
320,192,36343,1,0,0:0:0:0:
448,192,36436,1,0,0:0:0:0:
320,192,36530,1,0,0:0:0:0:
192,192,36624,1,0,0:0:0:0:
320,192,36718,1,0,0:0:0:0:
448,192,36718,1,0,0:0:0:0:
320,192,36811,1,0,0:0:0:0:
192,192,36905,1,0,0:0:0:0:
448,192,36999,1,0,0:0:0:0:
192,192,37093,1,0,0:0:0:0:
64,192,37093,1,0,0:0:0:0:
64,192,37186,1,0,0:0:0:0:
192,192,37280,1,0,0:0:0:0:
448,192,37280,1,0,0:0:0:0:
320,192,37374,1,0,0:0:0:0:
192,192,37468,1,0,0:0:0:0:
64,192,37468,1,0,0:0:0:0:
192,192,37561,1,0,0:0:0:0:
320,192,37655,1,0,0:0:0:0:
64,192,37655,1,0,0:0:0:0:
448,192,37749,1,0,0:0:0:0:
192,192,37843,1,0,0:0:0:0:
64,192,37843,1,0,0:0:0:0:
64,192,37936,1,0,0:0:0:0:
448,192,38030,1,0,0:0:0:0:
192,192,38030,1,0,0:0:0:0:
448,192,38124,1,0,0:0:0:0:
192,192,38218,1,0,0:0:0:0:
64,192,38218,1,0,0:0:0:0:
192,192,38311,1,0,0:0:0:0:
320,192,38405,1,0,0:0:0:0:
64,192,38405,1,0,0:0:0:0:
320,192,38499,1,0,0:0:0:0:
448,192,38593,128,0,40093:0:0:0:0:
64,192,38593,1,0,0:0:0:0:
192,192,38593,1,0,0:0:0:0:
64,192,38968,128,0,39061:0:0:0:0:
192,192,39061,128,0,39155:0:0:0:0:
320,192,39155,128,0,39249:0:0:0:0:
192,192,39249,1,0,0:0:0:0:
320,192,39343,128,0,39436:0:0:0:0:
64,192,39343,1,0,0:0:0:0:
192,192,39436,128,0,39530:0:0:0:0:
64,192,39530,128,0,39624:0:0:0:0:
192,192,39624,1,0,0:0:0:0:
64,192,39718,128,0,39811:0:0:0:0:
320,192,39718,1,0,0:0:0:0:
192,192,39811,128,0,39905:0:0:0:0:
320,192,39905,128,0,39999:0:0:0:0:
192,192,39999,1,0,0:0:0:0:
320,192,40093,128,0,40280:0:0:0:0:
64,192,40093,1,0,0:0:0:0:
448,192,40186,128,0,40280:0:0:0:0:
192,192,40280,128,0,40468:0:0:0:0:
64,192,40280,1,0,0:0:0:0:
320,192,40374,128,0,40468:0:0:0:0:
64,192,40468,128,0,40561:0:0:0:0:
448,192,40468,1,0,0:0:0:0:
320,192,40561,128,0,40749:0:0:0:0:
192,192,40561,1,0,0:0:0:0:
64,192,40655,128,0,40843:0:0:0:0:
448,192,40655,128,0,40749:0:0:0:0:
192,192,40749,128,0,40843:0:0:0:0:
320,192,40843,128,0,41030:0:0:0:0:
448,192,40843,1,0,0:0:0:0:
192,192,40936,128,0,41030:0:0:0:0:
448,192,41030,128,0,41124:0:0:0:0:
64,192,41030,1,0,0:0:0:0:
192,192,41124,128,0,41218:0:0:0:0:
320,192,41124,1,0,0:0:0:0:
64,192,41218,128,0,41311:0:0:0:0:
448,192,41218,1,0,0:0:0:0:
320,192,41280,1,0,0:0:0:0:
192,192,41343,1,0,0:0:0:0:
448,192,41405,1,0,0:0:0:0:
64,192,41405,1,0,0:0:0:0:
320,192,41468,1,0,0:0:0:0:
192,192,41530,1,0,0:0:0:0:
64,192,41593,1,0,0:0:0:0:
320,192,41593,128,0,41686:0:0:0:0:
448,192,41593,128,0,41780:0:0:0:0:
192,192,41686,1,0,0:0:0:0:
320,192,41780,1,0,0:0:0:0:
64,192,41780,1,0,0:0:0:0:
448,192,41874,1,0,0:0:0:0:
192,192,41968,1,0,0:0:0:0:
320,192,41968,1,0,0:0:0:0:
64,192,41968,1,0,0:0:0:0:
448,192,42061,1,0,0:0:0:0:
192,192,42155,1,0,0:0:0:0:
64,192,42155,1,0,0:0:0:0:
320,192,42249,1,0,0:0:0:0:
448,192,42343,1,0,0:0:0:0:
64,192,42343,128,0,42436:0:0:0:0:
192,192,42343,128,0,42530:0:0:0:0:
320,192,42436,1,0,0:0:0:0:
64,192,42530,1,0,0:0:0:0:
448,192,42530,1,0,0:0:0:0:
192,192,42624,1,0,0:0:0:0:
64,192,42718,1,0,0:0:0:0:
320,192,42718,1,0,0:0:0:0:
448,192,42718,1,0,0:0:0:0:
192,192,42811,1,0,0:0:0:0:
320,192,42905,1,0,0:0:0:0:
448,192,42905,1,0,0:0:0:0:
64,192,42999,1,0,0:0:0:0:
448,192,43093,1,0,0:0:0:0:
192,192,43093,128,0,43186:0:0:0:0:
320,192,43093,128,0,43280:0:0:0:0:
64,192,43186,1,0,0:0:0:0:
192,192,43280,1,0,0:0:0:0:
448,192,43280,1,0,0:0:0:0:
320,192,43374,1,0,0:0:0:0:
192,192,43468,1,0,0:0:0:0:
64,192,43468,1,0,0:0:0:0:
448,192,43468,1,0,0:0:0:0:
320,192,43561,1,0,0:0:0:0:
192,192,43655,1,0,0:0:0:0:
64,192,43655,1,0,0:0:0:0:
448,192,43749,1,0,0:0:0:0:
320,192,43843,1,0,0:0:0:0:
64,192,43843,128,0,43936:0:0:0:0:
192,192,43843,128,0,44030:0:0:0:0:
448,192,43936,1,0,0:0:0:0:
320,192,44030,1,0,0:0:0:0:
64,192,44030,1,0,0:0:0:0:
192,192,44124,1,0,0:0:0:0:
64,192,44218,1,0,0:0:0:0:
320,192,44218,1,0,0:0:0:0:
448,192,44218,1,0,0:0:0:0:
192,192,44311,1,0,0:0:0:0:
64,192,44405,1,0,0:0:0:0:
448,192,44405,1,0,0:0:0:0:
320,192,44499,1,0,0:0:0:0:
448,192,44593,1,0,0:0:0:0:
192,192,44593,128,0,44686:0:0:0:0:
64,192,44593,128,0,44780:0:0:0:0:
320,192,44686,1,0,0:0:0:0:
192,192,44780,1,0,0:0:0:0:
448,192,44780,1,0,0:0:0:0:
64,192,44874,1,0,0:0:0:0:
320,192,44968,1,0,0:0:0:0:
192,192,44968,1,0,0:0:0:0:
448,192,44968,1,0,0:0:0:0:
64,192,45061,1,0,0:0:0:0:
320,192,45155,1,0,0:0:0:0:
448,192,45155,1,0,0:0:0:0:
192,192,45249,1,0,0:0:0:0:
64,192,45343,1,0,0:0:0:0:
448,192,45343,128,0,45436:0:0:0:0:
320,192,45343,128,0,45530:0:0:0:0:
192,192,45436,1,0,0:0:0:0:
448,192,45530,1,0,0:0:0:0:
64,192,45530,1,0,0:0:0:0:
320,192,45624,1,0,0:0:0:0:
448,192,45718,1,0,0:0:0:0:
192,192,45718,1,0,0:0:0:0:
64,192,45718,1,0,0:0:0:0:
320,192,45811,1,0,0:0:0:0:
192,192,45905,1,0,0:0:0:0:
64,192,45905,1,0,0:0:0:0:
448,192,45999,1,0,0:0:0:0:
64,192,46093,1,0,0:0:0:0:
320,192,46093,128,0,46186:0:0:0:0:
192,192,46093,128,0,46280:0:0:0:0:
448,192,46186,1,0,0:0:0:0:
320,192,46280,1,0,0:0:0:0:
64,192,46280,1,0,0:0:0:0:
192,192,46374,1,0,0:0:0:0:
320,192,46468,1,0,0:0:0:0:
448,192,46468,1,0,0:0:0:0:
64,192,46468,1,0,0:0:0:0:
192,192,46561,1,0,0:0:0:0:
320,192,46655,1,0,0:0:0:0:
448,192,46655,1,0,0:0:0:0:
64,192,46749,1,0,0:0:0:0:
192,192,46843,1,0,0:0:0:0:
448,192,46843,128,0,46936:0:0:0:0:
320,192,46843,128,0,47030:0:0:0:0:
64,192,46936,1,0,0:0:0:0:
192,192,47030,1,0,0:0:0:0:
448,192,47030,1,0,0:0:0:0:
320,192,47124,1,0,0:0:0:0:
448,192,47218,1,0,0:0:0:0:
192,192,47218,1,0,0:0:0:0:
64,192,47218,1,0,0:0:0:0:
192,192,47311,1,0,0:0:0:0:
448,192,47405,1,0,0:0:0:0:
64,192,47405,1,0,0:0:0:0:
320,192,47405,1,0,0:0:0:0:
320,192,47499,1,0,0:0:0:0:
64,192,47593,128,0,47686:0:0:0:0:
192,192,47593,128,0,47780:0:0:0:0:
448,192,47593,1,0,0:0:0:0:
320,192,47686,1,0,0:0:0:0:
64,192,47780,1,0,0:0:0:0:
448,192,47780,1,0,0:0:0:0:
192,192,47874,1,0,0:0:0:0:
64,192,47968,1,0,0:0:0:0:
320,192,47968,1,0,0:0:0:0:
448,192,47968,1,0,0:0:0:0:
192,192,48061,1,0,0:0:0:0:
320,192,48155,1,0,0:0:0:0:
64,192,48155,1,0,0:0:0:0:
448,192,48249,1,0,0:0:0:0:
64,192,48343,1,0,0:0:0:0:
192,192,48343,128,0,48436:0:0:0:0:
320,192,48343,128,0,48530:0:0:0:0:
448,192,48436,1,0,0:0:0:0:
192,192,48530,1,0,0:0:0:0:
64,192,48530,1,0,0:0:0:0:
320,192,48624,1,0,0:0:0:0:
192,192,48718,1,0,0:0:0:0:
64,192,48718,1,0,0:0:0:0:
448,192,48718,1,0,0:0:0:0:
320,192,48811,1,0,0:0:0:0:
192,192,48905,1,0,0:0:0:0:
448,192,48905,1,0,0:0:0:0:
64,192,48999,1,0,0:0:0:0:
192,192,49093,1,0,0:0:0:0:
320,192,49093,128,0,49186:0:0:0:0:
448,192,49093,128,0,49280:0:0:0:0:
64,192,49186,1,0,0:0:0:0:
192,192,49280,1,0,0:0:0:0:
320,192,49280,1,0,0:0:0:0:
448,192,49374,1,0,0:0:0:0:
320,192,49468,1,0,0:0:0:0:
192,192,49468,1,0,0:0:0:0:
64,192,49468,1,0,0:0:0:0:
448,192,49561,1,0,0:0:0:0:
64,192,49655,1,0,0:0:0:0:
320,192,49655,1,0,0:0:0:0:
192,192,49749,1,0,0:0:0:0:
64,192,49843,1,0,0:0:0:0:
320,192,49843,128,0,50030:0:0:0:0:
448,192,49843,128,0,49936:0:0:0:0:
192,192,49936,1,0,0:0:0:0:
64,192,50030,1,0,0:0:0:0:
448,192,50030,1,0,0:0:0:0:
320,192,50124,1,0,0:0:0:0:
192,192,50218,1,0,0:0:0:0:
448,192,50218,1,0,0:0:0:0:
64,192,50218,1,0,0:0:0:0:
320,192,50311,1,0,0:0:0:0:
448,192,50405,1,0,0:0:0:0:
192,192,50405,1,0,0:0:0:0:
64,192,50499,1,0,0:0:0:0:
448,192,50593,1,0,0:0:0:0:
192,192,50593,128,0,50780:0:0:0:0:
320,192,50593,128,0,50686:0:0:0:0:
64,192,50686,1,0,0:0:0:0:
320,192,50780,1,0,0:0:0:0:
448,192,50780,1,0,0:0:0:0:
192,192,50874,1,0,0:0:0:0:
64,192,50968,5,0,0:0:0:0:
448,192,50968,1,0,0:0:0:0:
320,192,50968,1,0,0:0:0:0:
192,192,51061,1,0,0:0:0:0:
64,192,51155,1,0,0:0:0:0:
320,192,51155,1,0,0:0:0:0:
448,192,51249,1,0,0:0:0:0:
64,192,51343,128,0,51530:0:0:0:0:
192,192,51343,128,0,51436:0:0:0:0:
320,192,51343,1,0,0:0:0:0:
448,192,51436,1,0,0:0:0:0:
192,192,51530,1,0,0:0:0:0:
320,192,51530,1,0,0:0:0:0:
64,192,51624,1,0,0:0:0:0:
448,192,51718,1,0,0:0:0:0:
192,192,51718,1,0,0:0:0:0:
320,192,51718,1,0,0:0:0:0:
64,192,51811,1,0,0:0:0:0:
448,192,51905,1,0,0:0:0:0:
192,192,51905,1,0,0:0:0:0:
320,192,51999,1,0,0:0:0:0:
64,192,52093,128,0,52280:0:0:0:0:
192,192,52093,128,0,52186:0:0:0:0:
448,192,52093,1,0,0:0:0:0:
320,192,52186,1,0,0:0:0:0:
448,192,52233,1,0,0:0:0:0:
192,192,52280,1,0,0:0:0:0:
320,192,52327,1,0,0:0:0:0:
64,192,52374,1,0,0:0:0:0:
192,192,52421,1,0,0:0:0:0:
320,192,52468,128,0,52530:0:0:0:0:
448,192,52499,128,0,52593:0:0:0:0:
192,192,52593,128,0,52655:0:0:0:0:
320,192,52624,128,0,52718:0:0:0:0:
64,192,52718,128,0,52780:0:0:0:0:
192,192,52749,128,0,52843:0:0:0:0:
320,192,52843,128,0,53030:0:0:0:0:
448,192,52843,128,0,52936:0:0:0:0:
64,192,52843,1,0,0:0:0:0:
192,192,52936,128,0,53124:0:0:0:0:
448,192,53030,1,0,0:0:0:0:
64,192,53030,128,0,53124:0:0:0:0:
320,192,53124,1,0,0:0:0:0:
448,192,53218,1,0,0:0:0:0:
64,192,53218,1,0,0:0:0:0:
192,192,53218,1,0,0:0:0:0:
192,192,53311,1,0,0:0:0:0:
320,192,53405,1,0,0:0:0:0:
448,192,53405,1,0,0:0:0:0:
64,192,53405,1,0,0:0:0:0:
320,192,53499,1,0,0:0:0:0:
192,192,53593,128,0,53686:0:0:0:0:
64,192,53593,128,0,53780:0:0:0:0:
448,192,53593,128,0,53686:0:0:0:0:
320,192,53686,128,0,53780:0:0:0:0:
448,192,53780,1,0,0:0:0:0:
192,192,53780,128,0,53874:0:0:0:0:
64,192,53874,128,0,53968:0:0:0:0:
320,192,53968,1,0,0:0:0:0:
192,192,53968,1,0,0:0:0:0:
448,192,53968,1,0,0:0:0:0:
64,192,54061,1,0,0:0:0:0:
320,192,54155,1,0,0:0:0:0:
448,192,54155,1,0,0:0:0:0:
192,192,54249,1,0,0:0:0:0:
448,192,54343,128,0,54436:0:0:0:0:
320,192,54343,128,0,54530:0:0:0:0:
64,192,54343,128,0,54436:0:0:0:0:
192,192,54436,128,0,54530:0:0:0:0:
64,192,54530,1,0,0:0:0:0:
448,192,54530,128,0,54624:0:0:0:0:
320,192,54624,128,0,54718:0:0:0:0:
448,192,54718,1,0,0:0:0:0:
192,192,54718,1,0,0:0:0:0:
64,192,54718,1,0,0:0:0:0:
320,192,54811,1,0,0:0:0:0:
192,192,54905,1,0,0:0:0:0:
64,192,54905,1,0,0:0:0:0:
448,192,54999,1,0,0:0:0:0:
320,192,55093,128,0,55186:0:0:0:0:
192,192,55093,128,0,55280:0:0:0:0:
64,192,55093,128,0,55186:0:0:0:0:
448,192,55186,128,0,55280:0:0:0:0:
64,192,55280,1,0,0:0:0:0:
320,192,55280,128,0,55374:0:0:0:0:
192,192,55374,128,0,55468:0:0:0:0:
320,192,55468,1,0,0:0:0:0:
448,192,55468,1,0,0:0:0:0:
64,192,55468,1,0,0:0:0:0:
192,192,55561,1,0,0:0:0:0:
320,192,55655,1,0,0:0:0:0:
448,192,55655,1,0,0:0:0:0:
64,192,55749,1,0,0:0:0:0:
448,192,55843,128,0,55936:0:0:0:0:
320,192,55843,128,0,56030:0:0:0:0:
192,192,55843,128,0,55936:0:0:0:0:
64,192,55936,128,0,56030:0:0:0:0:
448,192,56030,1,0,0:0:0:0:
192,192,56030,128,0,56124:0:0:0:0:
320,192,56124,128,0,56218:0:0:0:0:
448,192,56218,1,0,0:0:0:0:
192,192,56218,1,0,0:0:0:0:
64,192,56218,1,0,0:0:0:0:
320,192,56311,1,0,0:0:0:0:
448,192,56405,1,0,0:0:0:0:
64,192,56405,1,0,0:0:0:0:
192,192,56499,1,0,0:0:0:0:
320,192,56593,128,0,56686:0:0:0:0:
448,192,56593,128,0,56780:0:0:0:0:
64,192,56593,128,0,56686:0:0:0:0:
192,192,56686,128,0,56780:0:0:0:0:
64,192,56780,1,0,0:0:0:0:
320,192,56780,128,0,56874:0:0:0:0:
448,192,56874,128,0,56968:0:0:0:0:
192,192,56968,1,0,0:0:0:0:
320,192,56968,1,0,0:0:0:0:
64,192,56968,1,0,0:0:0:0:
448,192,57061,1,0,0:0:0:0:
192,192,57155,1,0,0:0:0:0:
64,192,57155,1,0,0:0:0:0:
320,192,57249,1,0,0:0:0:0:
64,192,57343,128,0,57436:0:0:0:0:
192,192,57343,128,0,57530:0:0:0:0:
448,192,57343,128,0,57436:0:0:0:0:
320,192,57436,128,0,57530:0:0:0:0:
448,192,57530,1,0,0:0:0:0:
64,192,57530,128,0,57624:0:0:0:0:
192,192,57624,128,0,57718:0:0:0:0:
64,192,57718,1,0,0:0:0:0:
320,192,57718,1,0,0:0:0:0:
448,192,57718,1,0,0:0:0:0:
192,192,57811,1,0,0:0:0:0:
320,192,57905,1,0,0:0:0:0:
448,192,57905,1,0,0:0:0:0:
64,192,57999,1,0,0:0:0:0:
192,192,58093,128,0,58186:0:0:0:0:
320,192,58093,128,0,58280:0:0:0:0:
448,192,58093,128,0,58186:0:0:0:0:
64,192,58186,128,0,58280:0:0:0:0:
448,192,58280,1,0,0:0:0:0:
192,192,58280,128,0,58374:0:0:0:0:
320,192,58374,128,0,58468:0:0:0:0:
192,192,58468,1,0,0:0:0:0:
64,192,58468,1,0,0:0:0:0:
448,192,58468,1,0,0:0:0:0:
320,192,58561,1,0,0:0:0:0:
192,192,58655,1,0,0:0:0:0:
64,192,58655,1,0,0:0:0:0:
448,192,58749,1,0,0:0:0:0:
64,192,58843,128,0,58936:0:0:0:0:
192,192,58843,128,0,59030:0:0:0:0:
320,192,58843,128,0,58936:0:0:0:0:
448,192,58936,128,0,59030:0:0:0:0:
64,192,59030,1,0,0:0:0:0:
320,192,59030,128,0,59124:0:0:0:0:
192,192,59124,128,0,59218:0:0:0:0:
64,192,59218,1,0,0:0:0:0:
320,192,59218,1,0,0:0:0:0:
448,192,59218,1,0,0:0:0:0:
320,192,59311,1,0,0:0:0:0:
64,192,59405,1,0,0:0:0:0:
448,192,59405,1,0,0:0:0:0:
192,192,59405,1,0,0:0:0:0:
192,192,59499,1,0,0:0:0:0:
448,192,59593,128,0,59686:0:0:0:0:
320,192,59593,128,0,59780:0:0:0:0:
64,192,59593,128,0,59686:0:0:0:0:
192,192,59686,128,0,59780:0:0:0:0:
64,192,59780,1,0,0:0:0:0:
448,192,59780,128,0,59874:0:0:0:0:
320,192,59874,128,0,59968:0:0:0:0:
448,192,59968,1,0,0:0:0:0:
192,192,59968,1,0,0:0:0:0:
64,192,59968,1,0,0:0:0:0:
320,192,60061,1,0,0:0:0:0:
192,192,60155,1,0,0:0:0:0:
448,192,60155,1,0,0:0:0:0:
64,192,60249,1,0,0:0:0:0:
320,192,60343,128,0,60436:0:0:0:0:
192,192,60343,128,0,60530:0:0:0:0:
448,192,60343,128,0,60436:0:0:0:0:
64,192,60436,128,0,60530:0:0:0:0:
448,192,60530,1,0,0:0:0:0:
320,192,60530,128,0,60624:0:0:0:0:
192,192,60624,128,0,60718:0:0:0:0:
320,192,60718,1,0,0:0:0:0:
448,192,60718,1,0,0:0:0:0:
64,192,60718,1,0,0:0:0:0:
192,192,60811,1,0,0:0:0:0:
320,192,60905,1,0,0:0:0:0:
64,192,60905,1,0,0:0:0:0:
448,192,60999,1,0,0:0:0:0:
192,192,61093,128,0,61186:0:0:0:0:
64,192,61093,128,0,61280:0:0:0:0:
320,192,61093,128,0,61186:0:0:0:0:
448,192,61186,128,0,61280:0:0:0:0:
320,192,61280,1,0,0:0:0:0:
192,192,61280,128,0,61374:0:0:0:0:
64,192,61374,128,0,61468:0:0:0:0:
192,192,61468,1,0,0:0:0:0:
320,192,61468,1,0,0:0:0:0:
448,192,61468,1,0,0:0:0:0:
64,192,61561,1,0,0:0:0:0:
448,192,61655,1,0,0:0:0:0:
192,192,61655,1,0,0:0:0:0:
320,192,61749,1,0,0:0:0:0:
192,192,61843,128,0,62030:0:0:0:0:
64,192,61843,128,0,61936:0:0:0:0:
448,192,61843,128,0,61936:0:0:0:0:
320,192,61936,128,0,62030:0:0:0:0:
448,192,62030,1,0,0:0:0:0:
64,192,62030,128,0,62124:0:0:0:0:
192,192,62124,128,0,62218:0:0:0:0:
320,192,62218,1,0,0:0:0:0:
64,192,62218,1,0,0:0:0:0:
448,192,62218,1,0,0:0:0:0:
192,192,62311,1,0,0:0:0:0:
64,192,62405,1,0,0:0:0:0:
320,192,62405,1,0,0:0:0:0:
448,192,62499,1,0,0:0:0:0:
320,192,62593,128,0,62780:0:0:0:0:
192,192,62593,128,0,62686:0:0:0:0:
64,192,62593,128,0,62686:0:0:0:0:
448,192,62686,128,0,62780:0:0:0:0:
64,192,62780,1,0,0:0:0:0:
192,192,62780,128,0,62874:0:0:0:0:
320,192,62874,128,0,62968:0:0:0:0:
448,192,62968,5,0,0:0:0:0:
64,192,62968,1,0,0:0:0:0:
192,192,62968,1,0,0:0:0:0:
320,192,63061,1,0,0:0:0:0:
192,192,63155,1,0,0:0:0:0:
64,192,63155,1,0,0:0:0:0:
448,192,63249,1,0,0:0:0:0:
320,192,63249,1,0,0:0:0:0:
448,192,63343,128,0,63530:0:0:0:0:
320,192,63343,128,0,63436:0:0:0:0:
192,192,63343,128,0,63436:0:0:0:0:
64,192,63436,128,0,63530:0:0:0:0:
192,192,63530,1,0,0:0:0:0:
320,192,63530,128,0,63624:0:0:0:0:
448,192,63624,128,0,63718:0:0:0:0:
64,192,63718,1,0,0:0:0:0:
320,192,63718,1,0,0:0:0:0:
192,192,63718,1,0,0:0:0:0:
448,192,63811,1,0,0:0:0:0:
64,192,63905,1,0,0:0:0:0:
320,192,63905,1,0,0:0:0:0:
192,192,63999,1,0,0:0:0:0:
64,192,64093,5,0,0:0:0:0:
320,192,64093,128,0,64280:0:0:0:0:
448,192,64093,1,0,0:0:0:0:
192,192,64186,128,0,64374:0:0:0:0:
64,192,64280,1,0,0:0:0:0:
448,192,64280,128,0,64468:0:0:0:0:
320,192,64374,128,0,64561:0:0:0:0:
192,192,64468,128,0,64655:0:0:0:0:
64,192,64561,128,0,64749:0:0:0:0:
320,192,64655,128,0,64749:0:0:0:0:
192,192,64749,128,0,64843:0:0:0:0:
448,192,64749,1,0,0:0:0:0:
64,192,64843,1,0,0:0:0:0:
320,192,64843,1,0,0:0:0:0:
448,192,64843,1,0,0:0:0:0:
192,192,64936,1,0,0:0:0:0:
320,192,65030,1,0,0:0:0:0:
448,192,65030,1,0,0:0:0:0:
64,192,65030,1,0,0:0:0:0:
320,192,65124,1,0,0:0:0:0:
192,192,65218,1,0,0:0:0:0:
64,192,65218,1,0,0:0:0:0:
448,192,65218,1,0,0:0:0:0:
320,192,65311,1,0,0:0:0:0:
192,192,65405,1,0,0:0:0:0:
64,192,65405,1,0,0:0:0:0:
448,192,65405,1,0,0:0:0:0:
192,192,65499,1,0,0:0:0:0:
320,192,65593,128,0,65780:0:0:0:0:
448,192,65593,128,0,65686:0:0:0:0:
64,192,65593,1,0,0:0:0:0:
192,192,65686,1,0,0:0:0:0:
64,192,65780,1,0,0:0:0:0:
448,192,65780,1,0,0:0:0:0:
192,192,65874,128,0,66061:0:0:0:0:
320,192,65874,128,0,65968:0:0:0:0:
64,192,65968,1,0,0:0:0:0:
448,192,65968,1,0,0:0:0:0:
320,192,66061,1,0,0:0:0:0:
64,192,66155,128,0,66343:0:0:0:0:
192,192,66155,128,0,66249:0:0:0:0:
320,192,66249,1,0,0:0:0:0:
448,192,66343,1,0,0:0:0:0:
192,192,66343,1,0,0:0:0:0:
64,192,66436,1,0,0:0:0:0:
320,192,66530,128,0,66718:0:0:0:0:
448,192,66530,128,0,66624:0:0:0:0:
192,192,66624,1,0,0:0:0:0:
448,192,66718,1,0,0:0:0:0:
64,192,66718,1,0,0:0:0:0:
320,192,66811,1,0,0:0:0:0:
64,192,66905,1,0,0:0:0:0:
192,192,66905,1,0,0:0:0:0:
448,192,66999,1,0,0:0:0:0:
320,192,67093,1,0,0:0:0:0:
64,192,67093,128,0,67186:0:0:0:0:
192,192,67093,128,0,67280:0:0:0:0:
448,192,67186,1,0,0:0:0:0:
64,192,67280,1,0,0:0:0:0:
320,192,67280,1,0,0:0:0:0:
192,192,67374,1,0,0:0:0:0:
64,192,67468,1,0,0:0:0:0:
320,192,67468,1,0,0:0:0:0:
448,192,67468,1,0,0:0:0:0:
192,192,67561,1,0,0:0:0:0:
448,192,67655,1,0,0:0:0:0:
320,192,67655,1,0,0:0:0:0:
64,192,67749,1,0,0:0:0:0:
192,192,67843,1,0,0:0:0:0:
320,192,67843,128,0,67936:0:0:0:0:
448,192,67843,128,0,68030:0:0:0:0:
64,192,67936,1,0,0:0:0:0:
320,192,68030,1,0,0:0:0:0:
192,192,68030,1,0,0:0:0:0:
448,192,68124,1,0,0:0:0:0:
192,192,68218,1,0,0:0:0:0:
64,192,68218,1,0,0:0:0:0:
320,192,68218,1,0,0:0:0:0:
448,192,68311,1,0,0:0:0:0:
192,192,68405,1,0,0:0:0:0:
64,192,68405,1,0,0:0:0:0:
320,192,68499,1,0,0:0:0:0:
64,192,68593,128,0,68780:0:0:0:0:
192,192,68593,128,0,68686:0:0:0:0:
448,192,68593,1,0,0:0:0:0:
320,192,68686,1,0,0:0:0:0:
192,192,68780,1,0,0:0:0:0:
448,192,68780,1,0,0:0:0:0:
64,192,68874,1,0,0:0:0:0:
320,192,68968,1,0,0:0:0:0:
192,192,68968,1,0,0:0:0:0:
448,192,68968,1,0,0:0:0:0:
64,192,69061,1,0,0:0:0:0:
192,192,69155,128,0,69343:0:0:0:0:
320,192,69155,128,0,69249:0:0:0:0:
448,192,69249,1,0,0:0:0:0:
320,192,69343,1,0,0:0:0:0:
64,192,69343,1,0,0:0:0:0:
192,192,69436,1,0,0:0:0:0:
320,192,69530,1,0,0:0:0:0:
448,192,69530,1,0,0:0:0:0:
64,192,69624,1,0,0:0:0:0:
192,192,69718,1,0,0:0:0:0:
320,192,69718,128,0,69811:0:0:0:0:
448,192,69718,128,0,69905:0:0:0:0:
64,192,69811,1,0,0:0:0:0:
192,192,69905,128,0,69999:0:0:0:0:
320,192,69905,128,0,70093:0:0:0:0:
448,192,69999,1,0,0:0:0:0:
64,192,70093,1,0,0:0:0:0:
192,192,70093,1,0,0:0:0:0:
320,192,70186,1,0,0:0:0:0:
448,192,70280,1,0,0:0:0:0:
192,192,70280,1,0,0:0:0:0:
64,192,70374,1,0,0:0:0:0:
320,192,70468,128,0,70561:0:0:0:0:
448,192,70468,128,0,70655:0:0:0:0:
192,192,70468,1,0,0:0:0:0:
64,192,70561,1,0,0:0:0:0:
320,192,70655,1,0,0:0:0:0:
192,192,70655,1,0,0:0:0:0:
448,192,70749,1,0,0:0:0:0:
64,192,70843,128,0,70936:0:0:0:0:
192,192,70843,128,0,71030:0:0:0:0:
320,192,70843,1,0,0:0:0:0:
448,192,70936,1,0,0:0:0:0:
64,192,71030,1,0,0:0:0:0:
320,192,71030,1,0,0:0:0:0:
192,192,71124,1,0,0:0:0:0:
64,192,71218,1,0,0:0:0:0:
448,192,71218,1,0,0:0:0:0:
320,192,71218,1,0,0:0:0:0:
320,192,71311,1,0,0:0:0:0:
192,192,71405,1,0,0:0:0:0:
64,192,71405,1,0,0:0:0:0:
448,192,71405,1,0,0:0:0:0:
64,192,71499,1,0,0:0:0:0:
320,192,71593,128,0,71686:0:0:0:0:
192,192,71593,1,0,0:0:0:0:
448,192,71593,128,0,71780:0:0:0:0:
64,192,71686,128,0,71780:0:0:0:0:
192,192,71780,128,0,71874:0:0:0:0:
320,192,71780,1,0,0:0:0:0:
448,192,71874,128,0,71968:0:0:0:0:
192,192,71968,128,0,72061:0:0:0:0:
64,192,71968,1,0,0:0:0:0:
320,192,71968,128,0,72155:0:0:0:0:
448,192,72061,128,0,72155:0:0:0:0:
64,192,72155,128,0,72249:0:0:0:0:
192,192,72155,1,0,0:0:0:0:
320,192,72249,128,0,72343:0:0:0:0:
64,192,72343,128,0,72436:0:0:0:0:
192,192,72343,128,0,72530:0:0:0:0:
448,192,72343,1,0,0:0:0:0:
320,192,72436,128,0,72530:0:0:0:0:
64,192,72530,128,0,72718:0:0:0:0:
448,192,72530,128,0,72624:0:0:0:0:
192,192,72624,128,0,72718:0:0:0:0:
320,192,72718,128,0,72811:0:0:0:0:
448,192,72718,128,0,72905:0:0:0:0:
64,192,72811,128,0,72905:0:0:0:0:
320,192,72905,128,0,73093:0:0:0:0:
192,192,72905,128,0,72999:0:0:0:0:
448,192,72999,128,0,73186:0:0:0:0:
64,192,73093,128,0,73186:0:0:0:0:
192,192,73093,128,0,73280:0:0:0:0:
320,192,73186,128,0,73374:0:0:0:0:
448,192,73280,128,0,73374:0:0:0:0:
64,192,73280,128,0,73468:0:0:0:0:
192,192,73374,128,0,73561:0:0:0:0:
320,192,73468,128,0,73561:0:0:0:0:
448,192,73468,128,0,73655:0:0:0:0:
64,192,73561,128,0,73655:0:0:0:0:
192,192,73655,128,0,73749:0:0:0:0:
320,192,73655,128,0,73843:0:0:0:0:
448,192,73749,128,0,73843:0:0:0:0:
64,192,73843,128,0,73936:0:0:0:0:
192,192,73843,128,0,74030:0:0:0:0:
448,192,73936,128,0,74030:0:0:0:0:
64,192,74030,1,0,0:0:0:0:
320,192,74030,128,0,74124:0:0:0:0:
192,192,74124,128,0,74218:0:0:0:0:
448,192,74218,128,0,74405:0:0:0:0:
320,192,74218,128,0,74311:0:0:0:0:
64,192,74218,1,0,0:0:0:0:
192,192,74311,128,0,74405:0:0:0:0:
64,192,74405,128,0,74499:0:0:0:0:
320,192,74405,1,0,0:0:0:0:
448,192,74499,128,0,74593:0:0:0:0:
192,192,74593,128,0,74686:0:0:0:0:
320,192,74593,1,0,0:0:0:0:
64,192,74593,128,0,74780:0:0:0:0:
448,192,74686,128,0,74780:0:0:0:0:
320,192,74780,128,0,74874:0:0:0:0:
192,192,74780,1,0,0:0:0:0:
64,192,74874,128,0,74968:0:0:0:0:
320,192,74968,128,0,75061:0:0:0:0:
448,192,74968,1,0,0:0:0:0:
192,192,74968,128,0,75155:0:0:0:0:
64,192,75061,128,0,75155:0:0:0:0:
448,192,75155,128,0,75249:0:0:0:0:
320,192,75155,1,0,0:0:0:0:
192,192,75249,128,0,75343:0:0:0:0:
448,192,75343,128,0,75436:0:0:0:0:
320,192,75343,128,0,75530:0:0:0:0:
64,192,75343,1,0,0:0:0:0:
192,192,75436,128,0,75530:0:0:0:0:
448,192,75530,128,0,75718:0:0:0:0:
64,192,75530,128,0,75624:0:0:0:0:
320,192,75624,128,0,75718:0:0:0:0:
192,192,75718,128,0,75811:0:0:0:0:
64,192,75718,128,0,75905:0:0:0:0:
448,192,75811,128,0,75905:0:0:0:0:
192,192,75905,128,0,76093:0:0:0:0:
320,192,75905,128,0,75999:0:0:0:0:
64,192,75999,128,0,76186:0:0:0:0:
448,192,76093,128,0,76186:0:0:0:0:
320,192,76093,128,0,76280:0:0:0:0:
192,192,76186,128,0,76374:0:0:0:0:
64,192,76280,128,0,76374:0:0:0:0:
448,192,76280,128,0,76468:0:0:0:0:
320,192,76374,128,0,76561:0:0:0:0:
192,192,76468,128,0,76655:0:0:0:0:
64,192,76561,128,0,76749:0:0:0:0:
448,192,76655,128,0,76749:0:0:0:0:
192,192,76749,1,0,0:0:0:0:
320,192,76749,1,0,0:0:0:0:
320,192,76843,1,0,0:0:0:0:
64,192,76843,1,0,0:0:0:0:
448,192,76843,1,0,0:0:0:0:
192,192,76936,1,0,0:0:0:0:
320,192,77030,1,0,0:0:0:0:
64,192,77030,1,0,0:0:0:0:
448,192,77030,1,0,0:0:0:0:
192,192,77124,1,0,0:0:0:0:
320,192,77218,1,0,0:0:0:0:
64,192,77218,1,0,0:0:0:0:
448,192,77218,1,0,0:0:0:0:
320,192,77311,1,0,0:0:0:0:
192,192,77405,1,0,0:0:0:0:
64,192,77405,1,0,0:0:0:0:
448,192,77405,1,0,0:0:0:0:
320,192,77499,1,0,0:0:0:0:
64,192,77593,128,0,77780:0:0:0:0:
448,192,77593,128,0,77686:0:0:0:0:
192,192,77686,1,0,0:0:0:0:
320,192,77733,1,0,0:0:0:0:
448,192,77780,1,0,0:0:0:0:
192,192,77827,1,0,0:0:0:0:
320,192,77874,1,0,0:0:0:0:
64,192,77921,1,0,0:0:0:0:
192,192,77968,1,0,0:0:0:0:
320,192,77968,1,0,0:0:0:0:
448,192,77968,1,0,0:0:0:0:
64,192,78061,1,0,0:0:0:0:
448,192,78155,128,0,78343:0:0:0:0:
320,192,78155,128,0,78249:0:0:0:0:
192,192,78249,1,0,0:0:0:0:
64,192,78343,1,0,0:0:0:0:
320,192,78343,1,0,0:0:0:0:
448,192,78436,1,0,0:0:0:0:
192,192,78530,128,0,78718:0:0:0:0:
64,192,78530,128,0,78624:0:0:0:0:
320,192,78624,1,0,0:0:0:0:
64,192,78718,1,0,0:0:0:0:
448,192,78718,1,0,0:0:0:0:
192,192,78811,1,0,0:0:0:0:
448,192,78905,1,0,0:0:0:0:
320,192,78905,1,0,0:0:0:0:
64,192,78999,1,0,0:0:0:0:
192,192,79093,1,0,0:0:0:0:
448,192,79093,128,0,79186:0:0:0:0:
320,192,79093,128,0,79280:0:0:0:0:
64,192,79186,1,0,0:0:0:0:
448,192,79280,1,0,0:0:0:0:
192,192,79280,1,0,0:0:0:0:
320,192,79374,1,0,0:0:0:0:
448,192,79468,1,0,0:0:0:0:
192,192,79468,1,0,0:0:0:0:
64,192,79468,1,0,0:0:0:0:
320,192,79561,1,0,0:0:0:0:
64,192,79655,1,0,0:0:0:0:
192,192,79655,1,0,0:0:0:0:
448,192,79749,1,0,0:0:0:0:
320,192,79843,1,0,0:0:0:0:
192,192,79843,128,0,79936:0:0:0:0:
64,192,79843,128,0,80030:0:0:0:0:
448,192,79936,1,0,0:0:0:0:
192,192,80030,1,0,0:0:0:0:
320,192,80030,1,0,0:0:0:0:
64,192,80124,1,0,0:0:0:0:
320,192,80218,1,0,0:0:0:0:
448,192,80218,1,0,0:0:0:0:
192,192,80218,1,0,0:0:0:0:
64,192,80311,1,0,0:0:0:0:
320,192,80405,1,0,0:0:0:0:
448,192,80405,1,0,0:0:0:0:
192,192,80499,1,0,0:0:0:0:
448,192,80593,128,0,80780:0:0:0:0:
320,192,80593,128,0,80686:0:0:0:0:
64,192,80593,1,0,0:0:0:0:
192,192,80686,1,0,0:0:0:0:
320,192,80780,1,0,0:0:0:0:
64,192,80780,1,0,0:0:0:0:
448,192,80874,1,0,0:0:0:0:
192,192,80968,1,0,0:0:0:0:
320,192,80968,1,0,0:0:0:0:
64,192,80968,1,0,0:0:0:0:
448,192,81061,1,0,0:0:0:0:
320,192,81155,128,0,81343:0:0:0:0:
192,192,81155,128,0,81249:0:0:0:0:
64,192,81249,1,0,0:0:0:0:
192,192,81343,1,0,0:0:0:0:
448,192,81343,1,0,0:0:0:0:
320,192,81436,1,0,0:0:0:0:
192,192,81530,1,0,0:0:0:0:
64,192,81530,1,0,0:0:0:0:
448,192,81624,1,0,0:0:0:0:
320,192,81718,1,0,0:0:0:0:
192,192,81718,128,0,81811:0:0:0:0:
64,192,81718,128,0,81905:0:0:0:0:
448,192,81811,1,0,0:0:0:0:
320,192,81905,128,0,81999:0:0:0:0:
192,192,81905,128,0,82093:0:0:0:0:
64,192,81999,1,0,0:0:0:0:
448,192,82093,1,0,0:0:0:0:
320,192,82093,1,0,0:0:0:0:
192,192,82186,1,0,0:0:0:0:
64,192,82280,1,0,0:0:0:0:
320,192,82280,1,0,0:0:0:0:
448,192,82374,1,0,0:0:0:0:
192,192,82468,128,0,82561:0:0:0:0:
64,192,82468,128,0,82655:0:0:0:0:
320,192,82468,1,0,0:0:0:0:
448,192,82561,1,0,0:0:0:0:
192,192,82655,1,0,0:0:0:0:
320,192,82655,1,0,0:0:0:0:
64,192,82749,1,0,0:0:0:0:
448,192,82843,128,0,82936:0:0:0:0:
320,192,82843,128,0,83030:0:0:0:0:
192,192,82843,1,0,0:0:0:0:
64,192,82936,1,0,0:0:0:0:
448,192,83030,1,0,0:0:0:0:
192,192,83030,1,0,0:0:0:0:
320,192,83124,1,0,0:0:0:0:
448,192,83218,1,0,0:0:0:0:
64,192,83218,1,0,0:0:0:0:
192,192,83218,1,0,0:0:0:0:
192,192,83311,1,0,0:0:0:0:
320,192,83405,1,0,0:0:0:0:
448,192,83405,1,0,0:0:0:0:
64,192,83405,1,0,0:0:0:0:
448,192,83499,1,0,0:0:0:0:
320,192,83593,1,0,0:0:0:0:
64,192,83593,128,0,83780:0:0:0:0:
192,192,83593,128,0,83686:0:0:0:0:
448,192,83686,1,0,0:0:0:0:
320,192,83780,1,0,0:0:0:0:
192,192,83780,1,0,0:0:0:0:
64,192,83874,1,0,0:0:0:0:
192,192,83968,1,0,0:0:0:0:
448,192,83968,1,0,0:0:0:0:
320,192,83968,1,0,0:0:0:0:
64,192,84061,1,0,0:0:0:0:
192,192,84155,1,0,0:0:0:0:
448,192,84155,1,0,0:0:0:0:
320,192,84249,1,0,0:0:0:0:
448,192,84343,1,0,0:0:0:0:
192,192,84343,128,0,84436:0:0:0:0:
64,192,84343,128,0,84530:0:0:0:0:
320,192,84436,1,0,0:0:0:0:
448,192,84530,1,0,0:0:0:0:
192,192,84530,1,0,0:0:0:0:
320,192,84624,128,0,84718:0:0:0:0:
64,192,84624,128,0,84811:0:0:0:0:
448,192,84718,1,0,0:0:0:0:
192,192,84718,1,0,0:0:0:0:
320,192,84811,1,0,0:0:0:0:
448,192,84905,128,0,84999:0:0:0:0:
64,192,84905,128,0,85093:0:0:0:0:
192,192,84999,1,0,0:0:0:0:
448,192,85093,128,0,85280:0:0:0:0:
320,192,85093,128,0,85186:0:0:0:0:
64,192,85186,1,0,0:0:0:0:
192,192,85280,1,0,0:0:0:0:
320,192,85280,1,0,0:0:0:0:
448,192,85374,1,0,0:0:0:0:
320,192,85468,1,0,0:0:0:0:
64,192,85468,1,0,0:0:0:0:
192,192,85468,1,0,0:0:0:0:
448,192,85561,1,0,0:0:0:0:
320,192,85655,1,0,0:0:0:0:
64,192,85655,1,0,0:0:0:0:
192,192,85749,1,0,0:0:0:0:
64,192,85843,1,0,0:0:0:0:
320,192,85843,128,0,85936:0:0:0:0:
448,192,85843,128,0,86030:0:0:0:0:
192,192,85936,1,0,0:0:0:0:
64,192,86030,1,0,0:0:0:0:
320,192,86030,1,0,0:0:0:0:
192,192,86124,128,0,86218:0:0:0:0:
448,192,86124,128,0,86311:0:0:0:0:
64,192,86218,1,0,0:0:0:0:
320,192,86218,1,0,0:0:0:0:
192,192,86311,1,0,0:0:0:0:
448,192,86405,128,0,86593:0:0:0:0:
64,192,86405,128,0,86499:0:0:0:0:
320,192,86499,1,0,0:0:0:0:
64,192,86593,128,0,86686:0:0:0:0:
192,192,86593,128,0,86686:0:0:0:0:
448,192,86686,1,0,0:0:0:0:
192,192,86780,1,0,0:0:0:0:
64,192,86780,1,0,0:0:0:0:
320,192,86780,1,0,0:0:0:0:
192,192,86874,1,0,0:0:0:0:
64,192,86968,1,0,0:0:0:0:
320,192,86968,1,0,0:0:0:0:
448,192,86968,1,0,0:0:0:0:
192,192,87061,1,0,0:0:0:0:
448,192,87155,128,0,87249:0:0:0:0:
320,192,87155,1,0,0:0:0:0:
64,192,87155,1,0,0:0:0:0:
320,192,87249,128,0,87343:0:0:0:0:
448,192,87343,1,0,0:0:0:0:
192,192,87343,128,0,87436:0:0:0:0:
64,192,87343,128,0,87436:0:0:0:0:
320,192,87436,1,0,0:0:0:0:
448,192,87530,1,0,0:0:0:0:
64,192,87530,1,0,0:0:0:0:
192,192,87530,1,0,0:0:0:0:
64,192,87624,1,0,0:0:0:0:
320,192,87718,128,0,87811:0:0:0:0:
448,192,87718,128,0,87811:0:0:0:0:
192,192,87718,1,0,0:0:0:0:
64,192,87811,1,0,0:0:0:0:
192,192,87905,128,0,88093:0:0:0:0:
448,192,87905,1,0,0:0:0:0:
320,192,87905,128,0,87999:0:0:0:0:
64,192,87999,128,0,88186:0:0:0:0:
320,192,88093,128,0,88186:0:0:0:0:
448,192,88093,128,0,88280:0:0:0:0:
192,192,88186,128,0,88374:0:0:0:0:
64,192,88280,128,0,88374:0:0:0:0:
320,192,88280,128,0,88468:0:0:0:0:
448,192,88374,128,0,88561:0:0:0:0:
64,192,88468,128,0,88561:0:0:0:0:
192,192,88468,128,0,88655:0:0:0:0:
320,192,88561,128,0,88749:0:0:0:0:
64,192,88655,128,0,88749:0:0:0:0:
448,192,88655,128,0,88749:0:0:0:0:
192,192,88749,128,0,88843:0:0:0:0:
64,192,88843,1,0,0:0:0:0:
320,192,88843,128,0,88936:0:0:0:0:
448,192,88843,128,0,88936:0:0:0:0:
192,192,88936,1,0,0:0:0:0:
64,192,89030,1,0,0:0:0:0:
448,192,89030,1,0,0:0:0:0:
320,192,89030,1,0,0:0:0:0:
320,192,89124,1,0,0:0:0:0:
448,192,89218,1,0,0:0:0:0:
64,192,89218,1,0,0:0:0:0:
192,192,89218,1,0,0:0:0:0:
320,192,89311,1,0,0:0:0:0:
448,192,89405,1,0,0:0:0:0:
192,192,89405,1,0,0:0:0:0:
64,192,89405,1,0,0:0:0:0:
320,192,89499,1,0,0:0:0:0:
64,192,89499,128,0,89593:0:0:0:0:
192,192,89593,1,0,0:0:0:0:
448,192,89593,128,0,89686:0:0:0:0:
320,192,89593,128,0,89686:0:0:0:0:
64,192,89686,128,0,89874:0:0:0:0:
448,192,89780,1,0,0:0:0:0:
320,192,89780,1,0,0:0:0:0:
320,192,89874,128,0,89968:0:0:0:0:
192,192,89968,128,0,90061:0:0:0:0:
64,192,89968,128,0,90061:0:0:0:0:
448,192,89968,1,0,0:0:0:0:
320,192,90061,128,0,90249:0:0:0:0:
64,192,90155,1,0,0:0:0:0:
192,192,90155,1,0,0:0:0:0:
192,192,90249,128,0,90343:0:0:0:0:
320,192,90343,128,0,90436:0:0:0:0:
448,192,90343,128,0,90436:0:0:0:0:
64,192,90343,1,0,0:0:0:0:
192,192,90436,128,0,90624:0:0:0:0:
320,192,90530,1,0,0:0:0:0:
448,192,90530,1,0,0:0:0:0:
448,192,90624,128,0,90718:0:0:0:0:
64,192,90718,128,0,90811:0:0:0:0:
192,192,90718,128,0,90811:0:0:0:0:
320,192,90718,1,0,0:0:0:0:
448,192,90811,128,0,90999:0:0:0:0:
192,192,90905,1,0,0:0:0:0:
64,192,90905,1,0,0:0:0:0:
64,192,90999,128,0,91093:0:0:0:0:
448,192,91093,128,0,91186:0:0:0:0:
320,192,91093,128,0,91280:0:0:0:0:
192,192,91093,128,0,91374:0:0:0:0:
64,192,91186,128,0,91374:0:0:0:0:
448,192,91280,128,0,91561:0:0:0:0:
320,192,91374,128,0,91468:0:0:0:0:
192,192,91468,128,0,91749:0:0:0:0:
64,192,91468,128,0,91655:0:0:0:0:
320,192,91561,128,0,91749:0:0:0:0:
448,192,91655,128,0,91749:0:0:0:0:
64,192,91749,128,0,91843:0:0:0:0:
320,192,91843,1,0,0:0:0:0:
448,192,91843,1,0,0:0:0:0:
192,192,91889,1,0,0:0:0:0:
64,192,91936,1,0,0:0:0:0:
320,192,91983,1,0,0:0:0:0:
192,192,92030,1,0,0:0:0:0:
64,192,92077,1,0,0:0:0:0:
448,192,92124,1,0,0:0:0:0:
320,192,92171,1,0,0:0:0:0:
192,192,92218,1,0,0:0:0:0:
64,192,92264,1,0,0:0:0:0:
448,192,92311,1,0,0:0:0:0:
320,192,92358,1,0,0:0:0:0:
192,192,92405,1,0,0:0:0:0:
448,192,92452,1,0,0:0:0:0:
320,192,92499,1,0,0:0:0:0:
192,192,92546,1,0,0:0:0:0:
448,192,92593,128,0,92686:0:0:0:0:
64,192,92593,128,0,92780:0:0:0:0:
320,192,92593,1,0,0:0:0:0:
448,192,92780,1,0,0:0:0:0:
448,192,92874,128,0,92968:0:0:0:0:
192,192,92874,128,0,93061:0:0:0:0:
320,192,92968,1,0,0:0:0:0:
64,192,92968,1,0,0:0:0:0:
448,192,93155,128,0,93249:0:0:0:0:
320,192,93155,128,0,93343:0:0:0:0:
448,192,93343,1,0,0:0:0:0:
64,192,93343,128,0,93436:0:0:0:0:
192,192,93343,128,0,93530:0:0:0:0:
320,192,93530,1,0,0:0:0:0:
64,192,93530,128,0,93624:0:0:0:0:
320,192,93624,128,0,93718:0:0:0:0:
64,192,93718,1,0,0:0:0:0:
192,192,93718,128,0,93905:0:0:0:0:
448,192,93718,1,0,0:0:0:0:
320,192,93905,128,0,93999:0:0:0:0:
448,192,93905,128,0,93999:0:0:0:0:
320,192,94093,128,0,94280:0:0:0:0:
64,192,94093,1,0,0:0:0:0:
192,192,94093,1,0,0:0:0:0:
448,192,94280,1,0,0:0:0:0:
192,192,94280,128,0,94374:0:0:0:0:
448,192,94374,128,0,94468:0:0:0:0:
64,192,94468,1,0,0:0:0:0:
192,192,94468,1,0,0:0:0:0:
320,192,94468,128,0,94655:0:0:0:0:
64,192,94655,128,0,94749:0:0:0:0:
192,192,94655,128,0,94749:0:0:0:0:
448,192,94843,1,0,0:0:0:0:
192,192,94843,128,0,95030:0:0:0:0:
64,192,94843,1,0,0:0:0:0:
320,192,95030,1,0,0:0:0:0:
64,192,95030,128,0,95124:0:0:0:0:
320,192,95124,128,0,95218:0:0:0:0:
192,192,95218,128,0,95405:0:0:0:0:
64,192,95218,1,0,0:0:0:0:
448,192,95218,1,0,0:0:0:0:
320,192,95405,128,0,95499:0:0:0:0:
448,192,95405,128,0,95499:0:0:0:0:
192,192,95593,1,0,0:0:0:0:
64,192,95593,1,0,0:0:0:0:
448,192,95593,128,0,95780:0:0:0:0:
320,192,95780,1,0,0:0:0:0:
64,192,95780,128,0,95874:0:0:0:0:
320,192,95874,128,0,95968:0:0:0:0:
192,192,95968,1,0,0:0:0:0:
448,192,95968,128,0,96155:0:0:0:0:
64,192,95968,1,0,0:0:0:0:
192,192,96155,128,0,96249:0:0:0:0:
64,192,96155,128,0,96249:0:0:0:0:
448,192,96343,1,0,0:0:0:0:
64,192,96343,1,0,0:0:0:0:
320,192,96343,128,0,96530:0:0:0:0:
192,192,96530,1,0,0:0:0:0:
448,192,96530,128,0,96624:0:0:0:0:
192,192,96624,128,0,96718:0:0:0:0:
448,192,96718,1,0,0:0:0:0:
320,192,96718,128,0,96905:0:0:0:0:
64,192,96718,1,0,0:0:0:0:
192,192,96905,128,0,96999:0:0:0:0:
64,192,96905,128,0,96999:0:0:0:0:
192,192,97093,128,0,97280:0:0:0:0:
448,192,97093,1,0,0:0:0:0:
320,192,97093,1,0,0:0:0:0:
64,192,97280,1,0,0:0:0:0:
320,192,97280,128,0,97374:0:0:0:0:
64,192,97374,128,0,97468:0:0:0:0:
448,192,97468,1,0,0:0:0:0:
320,192,97468,1,0,0:0:0:0:
192,192,97468,128,0,97655:0:0:0:0:
448,192,97655,128,0,97749:0:0:0:0:
320,192,97655,128,0,97749:0:0:0:0:
320,192,97843,1,0,0:0:0:0:
64,192,97843,128,0,98030:0:0:0:0:
448,192,97843,1,0,0:0:0:0:
192,192,98030,1,0,0:0:0:0:
448,192,98030,128,0,98124:0:0:0:0:
192,192,98124,128,0,98218:0:0:0:0:
320,192,98218,1,0,0:0:0:0:
64,192,98218,128,0,98405:0:0:0:0:
448,192,98218,1,0,0:0:0:0:
320,192,98405,128,0,98499:0:0:0:0:
448,192,98405,128,0,98499:0:0:0:0:
320,192,98593,1,0,0:0:0:0:
64,192,98593,128,0,98686:0:0:0:0:
448,192,98593,128,0,98780:0:0:0:0:
64,192,98780,1,0,0:0:0:0:
320,192,98780,1,0,0:0:0:0:
192,192,98780,1,0,0:0:0:0:
64,192,98874,128,0,98968:0:0:0:0:
320,192,98874,128,0,99061:0:0:0:0:
192,192,98968,1,0,0:0:0:0:
448,192,98968,1,0,0:0:0:0:
320,192,99155,1,0,0:0:0:0:
64,192,99155,128,0,99249:0:0:0:0:
192,192,99155,128,0,99343:0:0:0:0:
64,192,99343,1,0,0:0:0:0:
448,192,99343,128,0,99436:0:0:0:0:
320,192,99343,128,0,99530:0:0:0:0:
64,192,99530,1,0,0:0:0:0:
192,192,99530,1,0,0:0:0:0:
448,192,99530,128,0,99624:0:0:0:0:
192,192,99624,128,0,99718:0:0:0:0:
448,192,99718,1,0,0:0:0:0:
320,192,99718,128,0,99905:0:0:0:0:
64,192,99718,1,0,0:0:0:0:
448,192,99905,1,0,0:0:0:0:
192,192,99905,128,0,99999:0:0:0:0:
64,192,99905,128,0,99999:0:0:0:0:
192,192,100093,128,0,100280:0:0:0:0:
448,192,100093,1,0,0:0:0:0:
320,192,100093,1,0,0:0:0:0:
448,192,100280,1,0,0:0:0:0:
64,192,100280,1,0,0:0:0:0:
320,192,100280,128,0,100374:0:0:0:0:
64,192,100374,128,0,100468:0:0:0:0:
448,192,100468,1,0,0:0:0:0:
320,192,100468,1,0,0:0:0:0:
192,192,100468,128,0,100655:0:0:0:0:
64,192,100655,1,0,0:0:0:0:
448,192,100655,128,0,100749:0:0:0:0:
320,192,100655,128,0,100749:0:0:0:0:
192,192,100843,1,0,0:0:0:0:
64,192,100843,1,0,0:0:0:0:
320,192,100843,128,0,101030:0:0:0:0:
64,192,101030,1,0,0:0:0:0:
192,192,101030,1,0,0:0:0:0:
448,192,101030,128,0,101124:0:0:0:0:
192,192,101124,128,0,101218:0:0:0:0:
64,192,101218,1,0,0:0:0:0:
320,192,101218,128,0,101405:0:0:0:0:
448,192,101218,1,0,0:0:0:0:
448,192,101405,1,0,0:0:0:0:
192,192,101405,128,0,101499:0:0:0:0:
64,192,101405,128,0,101499:0:0:0:0:
320,192,101593,1,0,0:0:0:0:
64,192,101593,128,0,101780:0:0:0:0:
448,192,101593,1,0,0:0:0:0:
192,192,101686,128,0,101874:0:0:0:0:
320,192,101780,128,0,101968:0:0:0:0:
64,192,101874,128,0,102061:0:0:0:0:
448,192,101968,128,0,102155:0:0:0:0:
192,192,101968,1,0,0:0:0:0:
320,192,102061,128,0,102249:0:0:0:0:
192,192,102155,128,0,102343:0:0:0:0:
64,192,102249,128,0,102436:0:0:0:0:
320,192,102343,128,0,102436:0:0:0:0:
448,192,102343,128,0,102530:0:0:0:0:
192,192,102436,128,0,102624:0:0:0:0:
64,192,102530,128,0,102624:0:0:0:0:
320,192,102530,128,0,102718:0:0:0:0:
448,192,102624,128,0,102811:0:0:0:0:
192,192,102718,128,0,102811:0:0:0:0:
64,192,102718,128,0,102905:0:0:0:0:
320,192,102811,128,0,102999:0:0:0:0:
448,192,102905,128,0,102999:0:0:0:0:
192,192,102905,128,0,104499:0:0:0:0:
64,192,102999,128,0,104499:0:0:0:0:
448,192,103093,128,0,104499:0:0:0:0:
320,192,103843,128,0,104499:0:0:0:0:
192,192,104593,128,0,104827:0:0:0:0:
64,192,104593,128,0,104874:0:0:0:0:
448,192,104593,128,0,104733:0:0:0:0:
320,192,104593,128,0,104780:0:0:0:0:
448,192,104780,1,0,0:0:0:0:
320,192,104827,1,0,0:0:0:0:
192,192,104874,128,0,104968:0:0:0:0:
64,192,104921,128,0,105014:0:0:0:0:
320,192,104968,128,0,105061:0:0:0:0:
192,192,105014,128,0,105108:0:0:0:0:
448,192,105061,128,0,105155:0:0:0:0:
320,192,105108,128,0,105202:0:0:0:0:
64,192,105155,1,0,0:0:0:0:
192,192,105202,1,0,0:0:0:0:
320,192,105249,1,0,0:0:0:0:
448,192,105296,1,0,0:0:0:0:
192,192,105343,1,0,0:0:0:0:
64,192,105343,128,0,106030:0:0:0:0:
448,192,105499,1,0,0:0:0:0:
320,192,105530,1,0,0:0:0:0:
448,192,105624,1,0,0:0:0:0:
320,192,105655,1,0,0:0:0:0:
448,192,105749,1,0,0:0:0:0:
320,192,105780,1,0,0:0:0:0:
448,192,105874,1,0,0:0:0:0:
320,192,105905,1,0,0:0:0:0:
448,192,105999,1,0,0:0:0:0:
320,192,106030,1,0,0:0:0:0:
64,192,106093,128,0,106780:0:0:0:0:
192,192,106093,1,0,0:0:0:0:
448,192,106249,1,0,0:0:0:0:
320,192,106280,1,0,0:0:0:0:
448,192,106374,1,0,0:0:0:0:
320,192,106405,1,0,0:0:0:0:
448,192,106499,1,0,0:0:0:0:
320,192,106530,1,0,0:0:0:0:
448,192,106624,1,0,0:0:0:0:
320,192,106655,1,0,0:0:0:0:
448,192,106749,1,0,0:0:0:0:
320,192,106780,1,0,0:0:0:0:
64,192,106843,1,0,0:0:0:0:
192,192,106843,1,0,0:0:0:0:
448,192,106905,1,0,0:0:0:0:
320,192,106936,1,0,0:0:0:0:
64,192,106968,128,0,107030:0:0:0:0:
192,192,106999,128,0,107093:0:0:0:0:
448,192,107030,128,0,107155:0:0:0:0:
64,192,107155,1,0,0:0:0:0:
192,192,107186,1,0,0:0:0:0:
448,192,107218,128,0,107280:0:0:0:0:
320,192,107249,128,0,107343:0:0:0:0:
64,192,107280,128,0,107405:0:0:0:0:
448,192,107405,1,0,0:0:0:0:
320,192,107436,1,0,0:0:0:0:
192,192,107468,1,0,0:0:0:0:
64,192,107499,1,0,0:0:0:0:
448,192,107593,128,0,107780:0:0:0:0:
320,192,107593,128,0,107733:0:0:0:0:
192,192,107593,128,0,107686:0:0:0:0:
64,192,107686,128,0,107780:0:0:0:0:
192,192,107733,128,0,107827:0:0:0:0:
320,192,107780,128,0,107874:0:0:0:0:
448,192,107827,128,0,107921:0:0:0:0:
64,192,107874,1,0,0:0:0:0:
192,192,107921,1,0,0:0:0:0:
448,192,107968,1,0,0:0:0:0:
64,192,108014,128,0,108108:0:0:0:0:
192,192,108061,128,0,108155:0:0:0:0:
320,192,108108,1,0,0:0:0:0:
448,192,108155,1,0,0:0:0:0:
192,192,108202,128,0,108296:0:0:0:0:
320,192,108249,128,0,108343:0:0:0:0:
448,192,108296,1,0,0:0:0:0:
192,192,108343,1,0,0:0:0:0:
64,192,108343,128,0,108999:0:0:0:0:
448,192,108530,128,0,108624:0:0:0:0:
320,192,108553,128,0,108671:0:0:0:0:
192,192,108577,128,0,108718:0:0:0:0:
448,192,108764,128,0,108858:0:0:0:0:
320,192,108811,128,0,108905:0:0:0:0:
448,192,108952,128,0,109046:0:0:0:0:
320,192,108999,128,0,109093:0:0:0:0:
192,192,109093,1,0,0:0:0:0:
64,192,109093,128,0,109749:0:0:0:0:
448,192,109280,128,0,109374:0:0:0:0:
320,192,109303,128,0,109421:0:0:0:0:
192,192,109327,128,0,109468:0:0:0:0:
448,192,109514,128,0,109608:0:0:0:0:
320,192,109561,128,0,109655:0:0:0:0:
448,192,109702,128,0,109796:0:0:0:0:
320,192,109749,128,0,109843:0:0:0:0:
192,192,109843,1,0,0:0:0:0:
64,192,109843,1,0,0:0:0:0:
448,192,109905,1,0,0:0:0:0:
320,192,109936,1,0,0:0:0:0:
192,192,109968,1,0,0:0:0:0:
64,192,109999,1,0,0:0:0:0:
448,192,110030,1,0,0:0:0:0:
320,192,110093,1,0,0:0:0:0:
192,192,110155,1,0,0:0:0:0:
448,192,110218,128,0,110405:0:0:0:0:
320,192,110249,128,0,110374:0:0:0:0:
192,192,110280,128,0,110343:0:0:0:0:
64,192,110405,1,0,0:0:0:0:
192,192,110436,1,0,0:0:0:0:
320,192,110468,1,0,0:0:0:0:
448,192,110499,1,0,0:0:0:0:
320,192,110593,128,0,110686:0:0:0:0:
192,192,110593,128,0,110733:0:0:0:0:
64,192,110593,128,0,110780:0:0:0:0:
448,192,110686,128,0,110780:0:0:0:0:
320,192,110733,128,0,110827:0:0:0:0:
192,192,110780,128,0,110874:0:0:0:0:
64,192,110827,128,0,110921:0:0:0:0:
448,192,110874,1,0,0:0:0:0:
320,192,110921,1,0,0:0:0:0:
192,192,110968,128,0,111030:0:0:0:0:
64,192,110999,128,0,111093:0:0:0:0:
320,192,111093,128,0,111155:0:0:0:0:
192,192,111124,128,0,111218:0:0:0:0:
64,192,111155,1,0,0:0:0:0:
448,192,111218,128,0,111280:0:0:0:0:
320,192,111249,128,0,111343:0:0:0:0:
192,192,111280,1,0,0:0:0:0:
448,192,111343,128,0,111999:0:0:0:0:
64,192,111343,1,0,0:0:0:0:
320,192,111436,128,0,111530:0:0:0:0:
64,192,111483,128,0,111577:0:0:0:0:
320,192,111624,128,0,111718:0:0:0:0:
192,192,111647,128,0,111764:0:0:0:0:
64,192,111671,128,0,111811:0:0:0:0:
320,192,111858,128,0,111952:0:0:0:0:
192,192,111882,128,0,111999:0:0:0:0:
64,192,111905,128,0,112046:0:0:0:0:
192,192,112093,1,0,0:0:0:0:
448,192,112093,128,0,112749:0:0:0:0:
320,192,112186,128,0,112280:0:0:0:0:
64,192,112233,128,0,112327:0:0:0:0:
320,192,112374,128,0,112468:0:0:0:0:
192,192,112397,128,0,112514:0:0:0:0:
64,192,112421,128,0,112561:0:0:0:0:
320,192,112608,128,0,112702:0:0:0:0:
192,192,112632,128,0,112749:0:0:0:0:
64,192,112655,128,0,112796:0:0:0:0:
320,192,112843,1,0,0:0:0:0:
448,192,112843,1,0,0:0:0:0:
64,192,112889,1,0,0:0:0:0:
192,192,112936,1,0,0:0:0:0:
320,192,112983,1,0,0:0:0:0:
64,192,113030,128,0,113124:0:0:0:0:
448,192,113030,1,0,0:0:0:0:
192,192,113077,128,0,113218:0:0:0:0:
320,192,113124,128,0,113311:0:0:0:0:
448,192,113194,128,0,113405:0:0:0:0:
64,192,113218,1,0,0:0:0:0:
192,192,113311,1,0,0:0:0:0:
64,192,113358,1,0,0:0:0:0:
320,192,113405,1,0,0:0:0:0:
192,192,113452,1,0,0:0:0:0:
448,192,113499,1,0,0:0:0:0:
64,192,113593,128,0,113843:0:0:0:0:
192,192,113593,128,0,113780:0:0:0:0:
320,192,113593,128,0,113718:0:0:0:0:
448,192,113718,1,0,0:0:0:0:
320,192,113780,1,0,0:0:0:0:
192,192,113843,1,0,0:0:0:0:
64,192,113905,1,0,0:0:0:0:
448,192,113968,128,0,114093:0:0:0:0:
320,192,114030,1,0,0:0:0:0:
192,192,114093,1,0,0:0:0:0:
448,192,114155,1,0,0:0:0:0:
320,192,114218,1,0,0:0:0:0:
192,192,114280,1,0,0:0:0:0:
64,192,114343,128,0,114468:0:0:0:0:
448,192,114343,128,0,114593:0:0:0:0:
320,192,114343,128,0,114530:0:0:0:0:
192,192,114468,1,0,0:0:0:0:
64,192,114530,1,0,0:0:0:0:
320,192,114593,1,0,0:0:0:0:
448,192,114655,1,0,0:0:0:0:
192,192,114718,128,0,114843:0:0:0:0:
320,192,114780,1,0,0:0:0:0:
448,192,114843,1,0,0:0:0:0:
192,192,114905,1,0,0:0:0:0:
320,192,114968,1,0,0:0:0:0:
64,192,115030,1,0,0:0:0:0:
192,192,115093,128,0,115218:0:0:0:0:
320,192,115093,128,0,115280:0:0:0:0:
448,192,115093,128,0,115343:0:0:0:0:
64,192,115218,1,0,0:0:0:0:
192,192,115280,1,0,0:0:0:0:
320,192,115343,1,0,0:0:0:0:
448,192,115405,1,0,0:0:0:0:
64,192,115468,128,0,115593:0:0:0:0:
192,192,115530,1,0,0:0:0:0:
320,192,115593,1,0,0:0:0:0:
64,192,115655,1,0,0:0:0:0:
192,192,115718,1,0,0:0:0:0:
320,192,115780,1,0,0:0:0:0:
448,192,115843,128,0,115968:0:0:0:0:
64,192,115843,128,0,116093:0:0:0:0:
192,192,115843,128,0,116030:0:0:0:0:
320,192,115968,1,0,0:0:0:0:
448,192,116030,1,0,0:0:0:0:
192,192,116093,1,0,0:0:0:0:
320,192,116124,1,0,0:0:0:0:
448,192,116155,1,0,0:0:0:0:
64,192,116218,128,0,116343:0:0:0:0:
320,192,116311,1,0,0:0:0:0:
64,192,116405,1,0,0:0:0:0:
192,192,116452,1,0,0:0:0:0:
320,192,116499,1,0,0:0:0:0:
448,192,116546,1,0,0:0:0:0:
192,192,116593,128,0,116780:0:0:0:0:
64,192,116593,128,0,116686:0:0:0:0:
320,192,116593,1,0,0:0:0:0:
320,192,116874,128,0,117061:0:0:0:0:
64,192,116874,128,0,116968:0:0:0:0:
448,192,116968,1,0,0:0:0:0:
192,192,117061,128,0,117155:0:0:0:0:
64,192,117108,128,0,117202:0:0:0:0:
448,192,117155,1,0,0:0:0:0:
320,192,117202,1,0,0:0:0:0:
192,192,117249,1,0,0:0:0:0:
64,192,117296,1,0,0:0:0:0:
448,192,117343,128,0,118030:0:0:0:0:
320,192,117343,1,0,0:0:0:0:
64,192,117468,128,0,117561:0:0:0:0:
320,192,117499,128,0,117624:0:0:0:0:
64,192,117624,1,0,0:0:0:0:
192,192,117655,1,0,0:0:0:0:
64,192,117749,1,0,0:0:0:0:
192,192,117780,1,0,0:0:0:0:
64,192,117874,128,0,117968:0:0:0:0:
320,192,117905,128,0,118030:0:0:0:0:
320,192,118093,1,0,0:0:0:0:
448,192,118093,128,0,118780:0:0:0:0:
64,192,118218,128,0,118311:0:0:0:0:
320,192,118249,128,0,118374:0:0:0:0:
64,192,118374,1,0,0:0:0:0:
192,192,118405,1,0,0:0:0:0:
64,192,118499,1,0,0:0:0:0:
192,192,118530,1,0,0:0:0:0:
64,192,118624,128,0,118718:0:0:0:0:
320,192,118655,128,0,118780:0:0:0:0:
320,192,118843,1,0,0:0:0:0:
448,192,118843,1,0,0:0:0:0:
64,192,118905,1,0,0:0:0:0:
192,192,118936,1,0,0:0:0:0:
448,192,118968,128,0,119030:0:0:0:0:
320,192,118999,128,0,119093:0:0:0:0:
64,192,119030,128,0,119155:0:0:0:0:
448,192,119155,1,0,0:0:0:0:
320,192,119186,1,0,0:0:0:0:
64,192,119218,128,0,119280:0:0:0:0:
192,192,119249,128,0,119343:0:0:0:0:
448,192,119280,128,0,119405:0:0:0:0:
64,192,119405,1,0,0:0:0:0:
192,192,119436,1,0,0:0:0:0:
320,192,119468,1,0,0:0:0:0:
448,192,119499,1,0,0:0:0:0:
64,192,119593,128,0,119780:0:0:0:0:
192,192,119593,128,0,119733:0:0:0:0:
320,192,119593,128,0,119686:0:0:0:0:
448,192,119686,128,0,119780:0:0:0:0:
320,192,119733,128,0,119827:0:0:0:0:
192,192,119780,128,0,119874:0:0:0:0:
64,192,119827,128,0,119921:0:0:0:0:
448,192,119874,1,0,0:0:0:0:
320,192,119921,1,0,0:0:0:0:
64,192,119968,1,0,0:0:0:0:
320,192,120014,128,0,120085:0:0:0:0:
448,192,120038,128,0,120155:0:0:0:0:
192,192,120155,128,0,120225:0:0:0:0:
64,192,120155,1,0,0:0:0:0:
320,192,120178,128,0,120296:0:0:0:0:
64,192,120296,128,0,120366:0:0:0:0:
192,192,120319,128,0,120436:0:0:0:0:
320,192,120343,1,0,0:0:0:0:
448,192,120343,128,0,120999:0:0:0:0:
64,192,120530,128,0,120624:0:0:0:0:
192,192,120553,128,0,120671:0:0:0:0:
320,192,120577,128,0,120718:0:0:0:0:
64,192,120764,128,0,120858:0:0:0:0:
192,192,120811,128,0,120905:0:0:0:0:
64,192,120952,128,0,121046:0:0:0:0:
192,192,120999,128,0,121093:0:0:0:0:
320,192,121093,1,0,0:0:0:0:
448,192,121093,128,0,121749:0:0:0:0:
64,192,121280,128,0,121374:0:0:0:0:
192,192,121303,128,0,121421:0:0:0:0:
320,192,121327,128,0,121468:0:0:0:0:
64,192,121514,128,0,121608:0:0:0:0:
192,192,121561,128,0,121655:0:0:0:0:
64,192,121702,128,0,121796:0:0:0:0:
192,192,121749,128,0,121843:0:0:0:0:
320,192,121843,1,0,0:0:0:0:
448,192,121843,1,0,0:0:0:0:
64,192,121936,1,0,0:0:0:0:
192,192,121968,1,0,0:0:0:0:
320,192,121999,128,0,122061:0:0:0:0:
448,192,122030,128,0,122124:0:0:0:0:
192,192,122093,128,0,122155:0:0:0:0:
64,192,122124,128,0,122218:0:0:0:0:
448,192,122186,128,0,122249:0:0:0:0:
320,192,122218,128,0,122311:0:0:0:0:
64,192,122280,128,0,122343:0:0:0:0:
192,192,122311,128,0,122405:0:0:0:0:
448,192,122374,1,0,0:0:0:0:
320,192,122405,1,0,0:0:0:0:
64,192,122436,1,0,0:0:0:0:
192,192,122468,1,0,0:0:0:0:
448,192,122593,128,0,122686:0:0:0:0:
192,192,122593,128,0,122780:0:0:0:0:
320,192,122593,128,0,122733:0:0:0:0:
448,192,122780,128,0,122905:0:0:0:0:
192,192,122843,128,0,122968:0:0:0:0:
64,192,122905,128,0,123030:0:0:0:0:
448,192,122968,128,0,123061:0:0:0:0:
320,192,123014,128,0,123108:0:0:0:0:
192,192,123061,128,0,123155:0:0:0:0:
64,192,123108,128,0,123202:0:0:0:0:
448,192,123155,1,0,0:0:0:0:
320,192,123202,1,0,0:0:0:0:
192,192,123249,1,0,0:0:0:0:
448,192,123296,1,0,0:0:0:0:
320,192,123343,1,0,0:0:0:0:
64,192,123389,1,0,0:0:0:0:
448,192,123436,1,0,0:0:0:0:
192,192,123483,1,0,0:0:0:0:
64,192,123530,1,0,0:0:0:0:
320,192,123577,1,0,0:0:0:0:
192,192,123624,1,0,0:0:0:0:
64,192,123671,1,0,0:0:0:0:
448,192,123718,1,0,0:0:0:0:
320,192,123718,1,0,0:0:0:0:
64,192,123843,128,0,123905:0:0:0:0:
192,192,123874,128,0,123968:0:0:0:0:
448,192,123968,128,0,124030:0:0:0:0:
320,192,123999,128,0,124093:0:0:0:0:
448,192,124093,1,0,0:0:0:0:
64,192,124093,128,0,124749:0:0:0:0:
192,192,124186,128,0,124280:0:0:0:0:
448,192,124233,128,0,124327:0:0:0:0:
192,192,124374,128,0,124468:0:0:0:0:
320,192,124397,128,0,124514:0:0:0:0:
448,192,124421,128,0,124561:0:0:0:0:
192,192,124608,128,0,124702:0:0:0:0:
320,192,124632,128,0,124749:0:0:0:0:
448,192,124655,128,0,124796:0:0:0:0:
192,192,124843,1,0,0:0:0:0:
64,192,124843,1,0,0:0:0:0:
448,192,124889,1,0,0:0:0:0:
320,192,124936,1,0,0:0:0:0:
192,192,124983,1,0,0:0:0:0:
448,192,125030,128,0,125124:0:0:0:0:
64,192,125030,1,0,0:0:0:0:
320,192,125077,128,0,125218:0:0:0:0:
192,192,125124,128,0,125311:0:0:0:0:
64,192,125194,128,0,125405:0:0:0:0:
448,192,125218,1,0,0:0:0:0:
320,192,125311,1,0,0:0:0:0:
448,192,125358,1,0,0:0:0:0:
192,192,125405,1,0,0:0:0:0:
320,192,125452,1,0,0:0:0:0:
64,192,125499,1,0,0:0:0:0:
192,192,125593,128,0,125718:0:0:0:0:
320,192,125593,128,0,125780:0:0:0:0:
448,192,125593,128,0,125843:0:0:0:0:
64,192,125718,1,0,0:0:0:0:
192,192,125780,1,0,0:0:0:0:
320,192,125843,1,0,0:0:0:0:
448,192,125905,1,0,0:0:0:0:
64,192,125968,128,0,126093:0:0:0:0:
192,192,126030,1,0,0:0:0:0:
320,192,126093,1,0,0:0:0:0:
64,192,126155,1,0,0:0:0:0:
192,192,126218,1,0,0:0:0:0:
320,192,126280,1,0,0:0:0:0:
192,192,126343,128,0,126530:0:0:0:0:
64,192,126343,128,0,126593:0:0:0:0:
448,192,126343,128,0,126468:0:0:0:0:
320,192,126468,1,0,0:0:0:0:
448,192,126530,1,0,0:0:0:0:
192,192,126593,1,0,0:0:0:0:
64,192,126655,1,0,0:0:0:0:
320,192,126718,128,0,126843:0:0:0:0:
192,192,126780,1,0,0:0:0:0:
64,192,126843,1,0,0:0:0:0:
320,192,126905,1,0,0:0:0:0:
192,192,126968,1,0,0:0:0:0:
448,192,127030,1,0,0:0:0:0:
64,192,127093,128,0,127343:0:0:0:0:
192,192,127093,128,0,127280:0:0:0:0:
320,192,127093,128,0,127218:0:0:0:0:
448,192,127218,1,0,0:0:0:0:
320,192,127280,1,0,0:0:0:0:
192,192,127343,1,0,0:0:0:0:
64,192,127405,1,0,0:0:0:0:
448,192,127468,128,0,127593:0:0:0:0:
320,192,127530,1,0,0:0:0:0:
192,192,127593,1,0,0:0:0:0:
448,192,127655,1,0,0:0:0:0:
320,192,127718,1,0,0:0:0:0:
192,192,127780,1,0,0:0:0:0:
448,192,127843,1,0,0:0:0:0:
64,192,127843,128,0,127968:0:0:0:0:
64,192,128030,1,0,0:0:0:0:
320,192,128030,1,0,0:0:0:0:
192,192,128124,1,0,0:0:0:0:
64,192,128218,1,0,0:0:0:0:
448,192,128218,128,0,128343:0:0:0:0:
320,192,128311,1,0,0:0:0:0:
448,192,128405,1,0,0:0:0:0:
192,192,128405,1,0,0:0:0:0:
64,192,128499,1,0,0:0:0:0:
320,192,128593,128,0,128686:0:0:0:0:
448,192,128593,128,0,128780:0:0:0:0:
192,192,128593,1,0,0:0:0:0:
64,192,128780,128,0,128968:0:0:0:0:
192,192,128780,128,0,128874:0:0:0:0:
320,192,128968,1,0,0:0:0:0:
448,192,128968,1,0,0:0:0:0:
64,192,129030,1,0,0:0:0:0:
320,192,129093,1,0,0:0:0:0:
64,192,129155,1,0,0:0:0:0:
320,192,129218,1,0,0:0:0:0:
64,192,129280,1,0,0:0:0:0:
448,192,129343,128,0,129468:0:0:0:0:
320,192,129343,1,0,0:0:0:0:
192,192,129343,1,0,0:0:0:0:
192,192,129468,1,0,0:0:0:0:
448,192,129530,1,0,0:0:0:0:
320,192,129593,1,0,0:0:0:0:
64,192,129655,1,0,0:0:0:0:
192,192,129718,1,0,0:0:0:0:
448,192,129718,128,0,129843:0:0:0:0:
320,192,129780,1,0,0:0:0:0:
192,192,129843,1,0,0:0:0:0:
448,192,129905,1,0,0:0:0:0:
320,192,129968,1,0,0:0:0:0:
192,192,130030,1,0,0:0:0:0:
64,192,130093,1,0,0:0:0:0:
320,192,130093,128,0,130218:0:0:0:0:
448,192,130093,1,0,0:0:0:0:
64,192,130218,1,0,0:0:0:0:
320,192,130280,1,0,0:0:0:0:
192,192,130343,1,0,0:0:0:0:
448,192,130405,1,0,0:0:0:0:
64,192,130468,1,0,0:0:0:0:
320,192,130468,128,0,130593:0:0:0:0:
192,192,130530,1,0,0:0:0:0:
64,192,130593,1,0,0:0:0:0:
320,192,130655,1,0,0:0:0:0:
448,192,130718,1,0,0:0:0:0:
192,192,130780,1,0,0:0:0:0:
64,192,130843,128,0,130968:0:0:0:0:
448,192,130843,1,0,0:0:0:0:
320,192,130843,1,0,0:0:0:0:
320,192,130968,1,0,0:0:0:0:
64,192,131030,1,0,0:0:0:0:
192,192,131093,1,0,0:0:0:0:
448,192,131155,1,0,0:0:0:0:
320,192,131218,1,0,0:0:0:0:
64,192,131218,128,0,131343:0:0:0:0:
192,192,131280,1,0,0:0:0:0:
320,192,131343,1,0,0:0:0:0:
64,192,131405,1,0,0:0:0:0:
192,192,131468,1,0,0:0:0:0:
320,192,131530,1,0,0:0:0:0:
64,192,131593,1,0,0:0:0:0:
448,192,131593,1,0,0:0:0:0:
192,192,131593,128,0,131718:0:0:0:0:
448,192,131718,1,0,0:0:0:0:
192,192,131780,1,0,0:0:0:0:
320,192,131843,1,0,0:0:0:0:
448,192,131874,128,0,131968:0:0:0:0:
64,192,131905,1,0,0:0:0:0:
192,192,131968,128,0,132093:0:0:0:0:
320,192,132030,1,0,0:0:0:0:
448,192,132093,1,0,0:0:0:0:
64,192,132155,128,0,132249:0:0:0:0:
192,192,132218,1,0,0:0:0:0:
320,192,132280,1,0,0:0:0:0:
448,192,132343,128,0,132468:0:0:0:0:
64,192,132343,1,0,0:0:0:0:
192,192,132343,1,0,0:0:0:0:
192,192,132468,1,0,0:0:0:0:
448,192,132530,1,0,0:0:0:0:
320,192,132593,1,0,0:0:0:0:
64,192,132655,1,0,0:0:0:0:
192,192,132718,1,0,0:0:0:0:
448,192,132718,128,0,132843:0:0:0:0:
320,192,132780,1,0,0:0:0:0:
192,192,132843,1,0,0:0:0:0:
448,192,132905,1,0,0:0:0:0:
320,192,132968,1,0,0:0:0:0:
192,192,133030,1,0,0:0:0:0:
64,192,133093,1,0,0:0:0:0:
320,192,133093,128,0,133218:0:0:0:0:
448,192,133093,1,0,0:0:0:0:
64,192,133218,1,0,0:0:0:0:
320,192,133280,1,0,0:0:0:0:
192,192,133343,1,0,0:0:0:0:
448,192,133405,1,0,0:0:0:0:
64,192,133468,1,0,0:0:0:0:
320,192,133468,128,0,133593:0:0:0:0:
192,192,133530,1,0,0:0:0:0:
64,192,133593,1,0,0:0:0:0:
320,192,133655,1,0,0:0:0:0:
448,192,133718,1,0,0:0:0:0:
192,192,133780,1,0,0:0:0:0:
64,192,133843,128,0,133968:0:0:0:0:
448,192,133843,1,0,0:0:0:0:
320,192,133843,1,0,0:0:0:0:
320,192,133968,1,0,0:0:0:0:
64,192,134030,1,0,0:0:0:0:
192,192,134093,1,0,0:0:0:0:
448,192,134155,1,0,0:0:0:0:
320,192,134218,1,0,0:0:0:0:
64,192,134218,128,0,134343:0:0:0:0:
192,192,134280,1,0,0:0:0:0:
320,192,134343,1,0,0:0:0:0:
64,192,134405,1,0,0:0:0:0:
192,192,134468,1,0,0:0:0:0:
320,192,134530,1,0,0:0:0:0:
192,192,134593,128,0,134655:0:0:0:0:
64,192,134593,128,0,134655:0:0:0:0:
448,192,134593,1,0,0:0:0:0:
64,192,134718,128,0,134780:0:0:0:0:
320,192,134718,128,0,134780:0:0:0:0:
448,192,134843,128,0,134905:0:0:0:0:
192,192,134843,128,0,134905:0:0:0:0:
448,192,134968,1,0,0:0:0:0:
64,192,134968,128,0,135030:0:0:0:0:
192,192,134968,128,0,135030:0:0:0:0:
64,192,135093,128,0,135155:0:0:0:0:
320,192,135093,128,0,135155:0:0:0:0:
192,192,135218,128,0,135280:0:0:0:0:
448,192,135218,128,0,135280:0:0:0:0:
64,192,135343,128,0,135468:0:0:0:0:
448,192,135343,1,0,0:0:0:0:
320,192,135343,1,0,0:0:0:0:
320,192,135468,1,0,0:0:0:0:
64,192,135530,1,0,0:0:0:0:
192,192,135593,1,0,0:0:0:0:
448,192,135655,1,0,0:0:0:0:
320,192,135718,1,0,0:0:0:0:
64,192,135718,128,0,135843:0:0:0:0:
192,192,135780,1,0,0:0:0:0:
320,192,135843,1,0,0:0:0:0:
64,192,135905,1,0,0:0:0:0:
192,192,135968,1,0,0:0:0:0:
320,192,136030,1,0,0:0:0:0:
448,192,136093,1,0,0:0:0:0:
192,192,136093,128,0,136218:0:0:0:0:
64,192,136093,1,0,0:0:0:0:
448,192,136218,1,0,0:0:0:0:
192,192,136280,1,0,0:0:0:0:
320,192,136343,1,0,0:0:0:0:
64,192,136405,1,0,0:0:0:0:
448,192,136468,1,0,0:0:0:0:
192,192,136468,128,0,136593:0:0:0:0:
320,192,136530,1,0,0:0:0:0:
448,192,136593,1,0,0:0:0:0:
192,192,136655,1,0,0:0:0:0:
64,192,136718,1,0,0:0:0:0:
320,192,136780,1,0,0:0:0:0:
448,192,136843,128,0,136968:0:0:0:0:
64,192,136843,1,0,0:0:0:0:
192,192,136843,1,0,0:0:0:0:
192,192,136968,1,0,0:0:0:0:
448,192,137030,1,0,0:0:0:0:
320,192,137093,1,0,0:0:0:0:
64,192,137155,1,0,0:0:0:0:
192,192,137218,1,0,0:0:0:0:
448,192,137218,128,0,137343:0:0:0:0:
320,192,137280,1,0,0:0:0:0:
192,192,137343,1,0,0:0:0:0:
448,192,137405,1,0,0:0:0:0:
320,192,137468,1,0,0:0:0:0:
192,192,137530,1,0,0:0:0:0:
448,192,137593,1,0,0:0:0:0:
64,192,137593,1,0,0:0:0:0:
320,192,137593,128,0,137718:0:0:0:0:
64,192,137718,1,0,0:0:0:0:
320,192,137780,1,0,0:0:0:0:
192,192,137843,1,0,0:0:0:0:
64,192,137874,128,0,137968:0:0:0:0:
448,192,137905,1,0,0:0:0:0:
320,192,137968,128,0,138093:0:0:0:0:
192,192,138030,1,0,0:0:0:0:
64,192,138093,1,0,0:0:0:0:
448,192,138155,128,0,138249:0:0:0:0:
320,192,138218,1,0,0:0:0:0:
192,192,138280,1,0,0:0:0:0:
64,192,138343,128,0,138468:0:0:0:0:
448,192,138343,1,0,0:0:0:0:
320,192,138343,1,0,0:0:0:0:
320,192,138468,1,0,0:0:0:0:
64,192,138530,1,0,0:0:0:0:
192,192,138593,1,0,0:0:0:0:
448,192,138655,1,0,0:0:0:0:
320,192,138718,1,0,0:0:0:0:
64,192,138718,128,0,138843:0:0:0:0:
192,192,138780,1,0,0:0:0:0:
320,192,138843,1,0,0:0:0:0:
64,192,138905,1,0,0:0:0:0:
192,192,138968,1,0,0:0:0:0:
320,192,139030,1,0,0:0:0:0:
448,192,139093,1,0,0:0:0:0:
192,192,139093,128,0,139218:0:0:0:0:
64,192,139093,1,0,0:0:0:0:
448,192,139218,1,0,0:0:0:0:
192,192,139280,1,0,0:0:0:0:
320,192,139343,1,0,0:0:0:0:
64,192,139405,1,0,0:0:0:0:
320,192,139468,1,0,0:0:0:0:
448,192,139468,1,0,0:0:0:0:
64,192,139561,1,0,0:0:0:0:
192,192,139561,1,0,0:0:0:0:
320,192,139655,1,0,0:0:0:0:
448,192,139655,1,0,0:0:0:0:
64,192,139718,1,0,0:0:0:0:
320,192,139780,1,0,0:0:0:0:
448,192,139843,128,0,139968:0:0:0:0:
64,192,139843,1,0,0:0:0:0:
192,192,139843,1,0,0:0:0:0:
192,192,139968,1,0,0:0:0:0:
448,192,140030,1,0,0:0:0:0:
320,192,140093,1,0,0:0:0:0:
64,192,140155,1,0,0:0:0:0:
192,192,140218,1,0,0:0:0:0:
448,192,140218,128,0,140343:0:0:0:0:
320,192,140280,1,0,0:0:0:0:
192,192,140343,1,0,0:0:0:0:
448,192,140405,1,0,0:0:0:0:
320,192,140468,1,0,0:0:0:0:
192,192,140530,1,0,0:0:0:0:
64,192,140593,1,0,0:0:0:0:
320,192,140593,128,0,140686:0:0:0:0:
448,192,140639,128,0,140733:0:0:0:0:
192,192,140686,128,0,140780:0:0:0:0:
64,192,140733,128,0,140827:0:0:0:0:
320,192,140780,1,0,0:0:0:0:
448,192,140827,1,0,0:0:0:0:
192,192,140874,1,0,0:0:0:0:
64,192,140921,1,0,0:0:0:0:
320,192,140968,128,0,141093:0:0:0:0:
448,192,141030,128,0,141155:0:0:0:0:
192,192,141093,1,0,0:0:0:0:
320,192,141155,1,0,0:0:0:0:
64,192,141155,128,0,141343:0:0:0:0:
448,192,141343,1,0,0:0:0:0:
320,192,141343,1,0,0:0:0:0:
192,192,141343,1,0,0:0:0:0:
64,192,141436,1,0,0:0:0:0:
320,192,141530,1,0,0:0:0:0:
192,192,141624,1,0,0:0:0:0:
448,192,141718,1,0,0:0:0:0:
320,192,141780,1,0,0:0:0:0:
64,192,141843,1,0,0:0:0:0:
192,192,141905,1,0,0:0:0:0:
320,192,141968,1,0,0:0:0:0:
64,192,142030,1,0,0:0:0:0:
192,192,142093,1,0,0:0:0:0:
448,192,142155,1,0,0:0:0:0:
320,192,142218,1,0,0:0:0:0:
192,192,142280,1,0,0:0:0:0:
448,192,142343,1,0,0:0:0:0:
320,192,142405,1,0,0:0:0:0:
64,192,142468,1,0,0:0:0:0:
192,192,142514,1,0,0:0:0:0:
320,192,142561,1,0,0:0:0:0:
448,192,142608,1,0,0:0:0:0:
64,192,142655,1,0,0:0:0:0:
192,192,142702,1,0,0:0:0:0:
320,192,142749,1,0,0:0:0:0:
64,192,142796,1,0,0:0:0:0:
192,192,142843,1,0,0:0:0:0:
448,192,142889,1,0,0:0:0:0:
64,192,142936,1,0,0:0:0:0:
320,192,142983,1,0,0:0:0:0:
448,192,143030,1,0,0:0:0:0:
192,192,143077,1,0,0:0:0:0:
320,192,143124,1,0,0:0:0:0:
448,192,143171,1,0,0:0:0:0:
64,192,143218,1,0,0:0:0:0:
192,192,143218,1,0,0:0:0:0:
320,192,143280,1,0,0:0:0:0:
192,192,143343,1,0,0:0:0:0:
448,192,143405,1,0,0:0:0:0:
320,192,143468,1,0,0:0:0:0:
192,192,143530,1,0,0:0:0:0:
448,192,143593,1,0,0:0:0:0:
64,192,143593,1,0,0:0:0:0:
320,192,143593,128,0,143718:0:0:0:0:
64,192,143718,1,0,0:0:0:0:
320,192,143780,1,0,0:0:0:0:
192,192,143843,1,0,0:0:0:0:
64,192,143874,128,0,143999:0:0:0:0:
448,192,143905,1,0,0:0:0:0:
320,192,143968,128,0,144093:0:0:0:0:
192,192,144030,1,0,0:0:0:0:
64,192,144093,1,0,0:0:0:0:
448,192,144155,128,0,144280:0:0:0:0:
320,192,144218,1,0,0:0:0:0:
192,192,144280,1,0,0:0:0:0:
64,192,144343,128,0,144468:0:0:0:0:
448,192,144343,1,0,0:0:0:0:
320,192,144343,1,0,0:0:0:0:
320,192,144468,1,0,0:0:0:0:
64,192,144530,1,0,0:0:0:0:
192,192,144593,1,0,0:0:0:0:
448,192,144655,1,0,0:0:0:0:
320,192,144718,1,0,0:0:0:0:
64,192,144718,128,0,144843:0:0:0:0:
192,192,144780,1,0,0:0:0:0:
320,192,144843,1,0,0:0:0:0:
64,192,144905,1,0,0:0:0:0:
192,192,144968,1,0,0:0:0:0:
320,192,145030,1,0,0:0:0:0:
448,192,145093,1,0,0:0:0:0:
192,192,145093,128,0,145218:0:0:0:0:
64,192,145093,1,0,0:0:0:0:
448,192,145218,1,0,0:0:0:0:
192,192,145280,1,0,0:0:0:0:
320,192,145343,1,0,0:0:0:0:
64,192,145405,1,0,0:0:0:0:
448,192,145468,1,0,0:0:0:0:
192,192,145468,128,0,145593:0:0:0:0:
320,192,145530,1,0,0:0:0:0:
448,192,145593,1,0,0:0:0:0:
192,192,145655,1,0,0:0:0:0:
64,192,145718,1,0,0:0:0:0:
320,192,145780,1,0,0:0:0:0:
448,192,145843,128,0,145968:0:0:0:0:
64,192,145843,1,0,0:0:0:0:
192,192,145843,1,0,0:0:0:0:
192,192,145968,1,0,0:0:0:0:
448,192,146030,1,0,0:0:0:0:
320,192,146077,1,0,0:0:0:0:
192,192,146124,1,0,0:0:0:0:
448,192,146171,1,0,0:0:0:0:
320,192,146218,1,0,0:0:0:0:
64,192,146264,1,0,0:0:0:0:
448,192,146311,1,0,0:0:0:0:
192,192,146358,1,0,0:0:0:0:
64,192,146405,1,0,0:0:0:0:
320,192,146452,1,0,0:0:0:0:
192,192,146499,1,0,0:0:0:0:
64,192,146546,1,0,0:0:0:0:
320,192,146593,128,0,146655:0:0:0:0:
448,192,146593,128,0,146655:0:0:0:0:
448,192,146718,128,0,146780:0:0:0:0:
192,192,146718,128,0,146780:0:0:0:0:
64,192,146843,128,0,146905:0:0:0:0:
320,192,146843,128,0,146905:0:0:0:0:
64,192,146968,1,0,0:0:0:0:
448,192,146968,128,0,147030:0:0:0:0:
320,192,146968,128,0,147030:0:0:0:0:
448,192,147093,128,0,147155:0:0:0:0:
192,192,147093,128,0,147155:0:0:0:0:
320,192,147218,128,0,147280:0:0:0:0:
64,192,147218,128,0,147280:0:0:0:0:
448,192,147343,128,0,147468:0:0:0:0:
64,192,147343,1,0,0:0:0:0:
192,192,147343,1,0,0:0:0:0:
192,192,147468,1,0,0:0:0:0:
448,192,147530,1,0,0:0:0:0:
320,192,147593,1,0,0:0:0:0:
64,192,147655,1,0,0:0:0:0:
192,192,147718,1,0,0:0:0:0:
448,192,147718,128,0,147843:0:0:0:0:
320,192,147780,1,0,0:0:0:0:
192,192,147843,1,0,0:0:0:0:
448,192,147905,1,0,0:0:0:0:
320,192,147968,1,0,0:0:0:0:
192,192,148030,1,0,0:0:0:0:
64,192,148093,1,0,0:0:0:0:
320,192,148093,128,0,148218:0:0:0:0:
448,192,148093,1,0,0:0:0:0:
64,192,148218,1,0,0:0:0:0:
320,192,148280,1,0,0:0:0:0:
192,192,148343,1,0,0:0:0:0:
448,192,148405,1,0,0:0:0:0:
64,192,148468,1,0,0:0:0:0:
320,192,148468,128,0,148593:0:0:0:0:
192,192,148530,1,0,0:0:0:0:
64,192,148593,1,0,0:0:0:0:
320,192,148655,1,0,0:0:0:0:
448,192,148718,1,0,0:0:0:0:
192,192,148780,1,0,0:0:0:0:
64,192,148843,128,0,148968:0:0:0:0:
448,192,148843,1,0,0:0:0:0:
320,192,148843,1,0,0:0:0:0:
320,192,148968,1,0,0:0:0:0:
64,192,149030,1,0,0:0:0:0:
448,192,149093,1,0,0:0:0:0:
320,192,149155,1,0,0:0:0:0:
64,192,149218,1,0,0:0:0:0:
192,192,149218,1,0,0:0:0:0:
448,192,149280,1,0,0:0:0:0:
192,192,149343,1,0,0:0:0:0:
448,192,149405,1,0,0:0:0:0:
192,192,149468,1,0,0:0:0:0:
448,192,149530,1,0,0:0:0:0:
64,192,149593,128,0,149780:0:0:0:0:
192,192,149593,1,0,0:0:0:0:
320,192,149593,1,0,0:0:0:0:
448,192,149874,128,0,150061:0:0:0:0:
192,192,150155,128,0,150343:0:0:0:0:
448,192,150343,128,0,152499:0:0:0:0:
320,192,150343,128,0,152499:0:0:0:0:
64,192,151093,128,0,152499:0:0:0:0:
320,192,152593,1,0,0:0:0:0:
192,192,152593,128,0,153718:0:0:0:0:
64,192,152593,1,0,0:0:0:0:
448,192,152593,1,0,0:0:0:0:
64,192,153343,128,0,154468:0:0:0:0:
448,192,154093,128,0,155218:0:0:0:0:
192,192,154843,128,0,155968:0:0:0:0:
448,192,155593,128,0,156718:0:0:0:0:
320,192,156343,128,0,157468:0:0:0:0:
64,192,157093,128,0,158218:0:0:0:0:
192,192,157843,128,0,158968:0:0:0:0:
320,192,158593,128,0,159718:0:0:0:0:
448,192,159343,128,0,160468:0:0:0:0:
64,192,160093,128,0,161218:0:0:0:0:
320,192,160843,128,0,161968:0:0:0:0:
64,192,161593,128,0,162718:0:0:0:0:
448,192,162343,128,0,163468:0:0:0:0:
192,192,163093,128,0,164218:0:0:0:0:
64,192,163843,128,0,164968:0:0:0:0:
192,192,164593,1,0,0:0:0:0:
448,192,164593,128,0,164780:0:0:0:0:
320,192,164780,1,0,0:0:0:0:
448,192,164968,128,0,165155:0:0:0:0:
192,192,165155,1,0,0:0:0:0:
320,192,165343,128,0,165530:0:0:0:0:
64,192,165343,1,0,0:0:0:0:
192,192,165530,1,0,0:0:0:0:
320,192,165718,128,0,165905:0:0:0:0:
448,192,165905,1,0,0:0:0:0:
192,192,166069,1,0,0:0:0:0:
64,192,166093,128,0,166280:0:0:0:0:
320,192,166280,1,0,0:0:0:0:
64,192,166468,128,0,166655:0:0:0:0:
448,192,166655,1,0,0:0:0:0:
192,192,166843,128,0,167030:0:0:0:0:
64,192,166843,1,0,0:0:0:0:
448,192,167030,1,0,0:0:0:0:
192,192,167218,128,0,167405:0:0:0:0:
320,192,167405,1,0,0:0:0:0:
64,192,167593,128,0,167780:0:0:0:0:
448,192,167593,1,0,0:0:0:0:
192,192,167780,1,0,0:0:0:0:
64,192,167968,128,0,168155:0:0:0:0:
320,192,168155,1,0,0:0:0:0:
448,192,168343,1,0,0:0:0:0:
192,192,168343,128,0,168530:0:0:0:0:
320,192,168530,1,0,0:0:0:0:
192,192,168718,128,0,168905:0:0:0:0:
64,192,168905,1,0,0:0:0:0:
192,192,169093,1,0,0:0:0:0:
320,192,169093,128,0,169280:0:0:0:0:
64,192,169280,1,0,0:0:0:0:
320,192,169468,128,0,169655:0:0:0:0:
192,192,169655,1,0,0:0:0:0:
320,192,169843,1,0,0:0:0:0:
448,192,169843,128,0,170030:0:0:0:0:
192,192,170030,1,0,0:0:0:0:
448,192,170218,128,0,170405:0:0:0:0:
320,192,170405,1,0,0:0:0:0:
64,192,170593,128,0,170780:0:0:0:0:
448,192,170593,1,0,0:0:0:0:
192,192,170780,1,0,0:0:0:0:
64,192,170968,128,0,171155:0:0:0:0:
320,192,171155,1,0,0:0:0:0:
448,192,171343,1,0,0:0:0:0:
192,192,171343,128,0,171530:0:0:0:0:
320,192,171530,1,0,0:0:0:0:
192,192,171718,128,0,171905:0:0:0:0:
64,192,171905,1,0,0:0:0:0:
448,192,172093,128,0,172280:0:0:0:0:
320,192,172093,1,0,0:0:0:0:
192,192,172280,1,0,0:0:0:0:
448,192,172468,128,0,172655:0:0:0:0:
64,192,172655,1,0,0:0:0:0:
448,192,172843,1,0,0:0:0:0:
320,192,172843,128,0,173030:0:0:0:0:
64,192,173030,1,0,0:0:0:0:
320,192,173218,128,0,173405:0:0:0:0:
192,192,173405,1,0,0:0:0:0:
64,192,173593,1,0,0:0:0:0:
448,192,173593,128,0,173780:0:0:0:0:
320,192,173780,1,0,0:0:0:0:
448,192,173968,128,0,174155:0:0:0:0:
64,192,174155,1,0,0:0:0:0:
448,192,174249,1,0,0:0:0:0:
320,192,174249,1,0,0:0:0:0:
192,192,174343,1,0,0:0:0:0:
448,192,174343,128,0,174530:0:0:0:0:
320,192,174343,128,0,174530:0:0:0:0:
192,192,174530,128,0,174718:0:0:0:0:
320,192,174718,1,0,0:0:0:0:
64,192,174718,128,0,174905:0:0:0:0:
448,192,174905,128,0,175093:0:0:0:0:
320,192,175093,1,0,0:0:0:0:
64,192,175093,128,0,175280:0:0:0:0:
192,192,175093,128,0,175280:0:0:0:0:
320,192,175280,128,0,175468:0:0:0:0:
192,192,175468,1,0,0:0:0:0:
448,192,175468,128,0,175655:0:0:0:0:
64,192,175655,128,0,175843:0:0:0:0:
192,192,175843,1,0,0:0:0:0:
320,192,175843,128,0,176218:0:0:0:0:
448,192,175843,128,0,176030:0:0:0:0:
192,192,176030,128,0,176405:0:0:0:0:
448,192,176218,128,0,176405:0:0:0:0:
64,192,176218,128,0,176405:0:0:0:0:
320,192,176405,128,0,176593:0:0:0:0:
192,192,176593,128,0,176686:0:0:0:0:
64,192,176593,128,0,176686:0:0:0:0:
448,192,176593,128,0,176780:0:0:0:0:
320,192,176686,1,0,0:0:0:0:
192,192,176780,1,0,0:0:0:0:
64,192,176874,1,0,0:0:0:0:
192,192,176968,1,0,0:0:0:0:
448,192,176968,128,0,177155:0:0:0:0:
320,192,177061,1,0,0:0:0:0:
64,192,177155,128,0,177249:0:0:0:0:
192,192,177155,128,0,177249:0:0:0:0:
448,192,177249,1,0,0:0:0:0:
64,192,177343,1,0,0:0:0:0:
192,192,177343,128,0,177530:0:0:0:0:
320,192,177436,1,0,0:0:0:0:
448,192,177530,1,0,0:0:0:0:
64,192,177624,1,0,0:0:0:0:
448,192,177718,128,0,177811:0:0:0:0:
320,192,177718,128,0,177811:0:0:0:0:
192,192,177718,128,0,177905:0:0:0:0:
64,192,177811,1,0,0:0:0:0:
448,192,177905,1,0,0:0:0:0:
192,192,177999,1,0,0:0:0:0:
64,192,178093,1,0,0:0:0:0:
320,192,178093,128,0,178280:0:0:0:0:
448,192,178186,1,0,0:0:0:0:
64,192,178280,128,0,178374:0:0:0:0:
192,192,178280,128,0,178374:0:0:0:0:
448,192,178374,1,0,0:0:0:0:
64,192,178468,1,0,0:0:0:0:
320,192,178468,128,0,178655:0:0:0:0:
192,192,178561,1,0,0:0:0:0:
448,192,178655,1,0,0:0:0:0:
64,192,178749,1,0,0:0:0:0:
448,192,178843,128,0,178936:0:0:0:0:
320,192,178843,128,0,178936:0:0:0:0:
192,192,178843,128,0,179030:0:0:0:0:
64,192,178936,1,0,0:0:0:0:
448,192,179030,1,0,0:0:0:0:
320,192,179124,1,0,0:0:0:0:
448,192,179218,128,0,179311:0:0:0:0:
64,192,179218,128,0,179311:0:0:0:0:
192,192,179218,128,0,179405:0:0:0:0:
320,192,179311,1,0,0:0:0:0:
64,192,179405,1,0,0:0:0:0:
192,192,179499,1,0,0:0:0:0:
320,192,179593,128,0,179686:0:0:0:0:
448,192,179593,128,0,179686:0:0:0:0:
64,192,179593,128,0,179780:0:0:0:0:
192,192,179686,1,0,0:0:0:0:
320,192,179780,1,0,0:0:0:0:
448,192,179874,1,0,0:0:0:0:
320,192,179968,1,0,0:0:0:0:
64,192,179968,128,0,180155:0:0:0:0:
192,192,180061,1,0,0:0:0:0:
320,192,180155,128,0,180249:0:0:0:0:
448,192,180155,128,0,180249:0:0:0:0:
64,192,180249,1,0,0:0:0:0:
320,192,180343,1,0,0:0:0:0:
192,192,180343,128,0,180530:0:0:0:0:
448,192,180436,1,0,0:0:0:0:
320,192,180530,1,0,0:0:0:0:
64,192,180624,1,0,0:0:0:0:
320,192,180718,128,0,180811:0:0:0:0:
448,192,180718,128,0,180811:0:0:0:0:
192,192,180718,128,0,180905:0:0:0:0:
64,192,180811,1,0,0:0:0:0:
320,192,180905,128,0,180999:0:0:0:0:
448,192,180905,128,0,180999:0:0:0:0:
192,192,180999,1,0,0:0:0:0:
320,192,181093,128,0,181186:0:0:0:0:
448,192,181093,128,0,181186:0:0:0:0:
64,192,181093,128,0,181186:0:0:0:0:
192,192,181186,1,0,0:0:0:0:
64,192,181280,128,0,181468:0:0:0:0:
320,192,181280,128,0,181374:0:0:0:0:
448,192,181280,128,0,181374:0:0:0:0:
192,192,181374,1,0,0:0:0:0:
448,192,181468,1,0,0:0:0:0:
320,192,181561,1,0,0:0:0:0:
448,192,181655,128,0,181749:0:0:0:0:
192,192,181655,128,0,181749:0:0:0:0:
64,192,181655,128,0,181749:0:0:0:0:
320,192,181749,1,0,0:0:0:0:
448,192,181843,128,0,182030:0:0:0:0:
64,192,181843,128,0,181936:0:0:0:0:
192,192,181843,128,0,181936:0:0:0:0:
320,192,181936,1,0,0:0:0:0:
64,192,182030,1,0,0:0:0:0:
192,192,182124,1,0,0:0:0:0:
64,192,182218,1,0,0:0:0:0:
320,192,182218,128,0,182311:0:0:0:0:
448,192,182218,128,0,182311:0:0:0:0:
192,192,182311,1,0,0:0:0:0:
64,192,182405,1,0,0:0:0:0:
320,192,182405,128,0,182499:0:0:0:0:
448,192,182405,128,0,182499:0:0:0:0:
192,192,182499,1,0,0:0:0:0:
320,192,182593,128,0,182686:0:0:0:0:
448,192,182593,128,0,182686:0:0:0:0:
64,192,182593,128,0,182780:0:0:0:0:
192,192,182686,1,0,0:0:0:0:
320,192,182780,1,0,0:0:0:0:
448,192,182874,1,0,0:0:0:0:
320,192,182968,1,0,0:0:0:0:
64,192,182968,128,0,183155:0:0:0:0:
192,192,183061,1,0,0:0:0:0:
448,192,183155,128,0,183249:0:0:0:0:
320,192,183155,128,0,183249:0:0:0:0:
64,192,183249,1,0,0:0:0:0:
448,192,183343,1,0,0:0:0:0:
320,192,183343,128,0,183530:0:0:0:0:
192,192,183436,1,0,0:0:0:0:
64,192,183530,1,0,0:0:0:0:
448,192,183624,1,0,0:0:0:0:
64,192,183718,128,0,183811:0:0:0:0:
192,192,183718,128,0,183811:0:0:0:0:
320,192,183718,128,0,183905:0:0:0:0:
448,192,183811,1,0,0:0:0:0:
64,192,183905,1,0,0:0:0:0:
320,192,183999,1,0,0:0:0:0:
448,192,184093,1,0,0:0:0:0:
192,192,184093,128,0,184280:0:0:0:0:
64,192,184186,1,0,0:0:0:0:
448,192,184280,128,0,184374:0:0:0:0:
320,192,184280,128,0,184374:0:0:0:0:
64,192,184374,1,0,0:0:0:0:
448,192,184468,1,0,0:0:0:0:
192,192,184468,128,0,184655:0:0:0:0:
320,192,184561,1,0,0:0:0:0:
64,192,184655,1,0,0:0:0:0:
448,192,184749,1,0,0:0:0:0:
64,192,184843,128,0,184936:0:0:0:0:
192,192,184843,128,0,184936:0:0:0:0:
320,192,184843,128,0,185030:0:0:0:0:
448,192,184936,1,0,0:0:0:0:
64,192,185030,1,0,0:0:0:0:
192,192,185124,1,0,0:0:0:0:
64,192,185218,128,0,185311:0:0:0:0:
448,192,185218,128,0,185311:0:0:0:0:
320,192,185218,128,0,185405:0:0:0:0:
192,192,185311,1,0,0:0:0:0:
448,192,185405,1,0,0:0:0:0:
320,192,185499,1,0,0:0:0:0:
192,192,185593,128,0,185686:0:0:0:0:
64,192,185593,128,0,185686:0:0:0:0:
448,192,185593,128,0,185780:0:0:0:0:
320,192,185686,128,0,185874:0:0:0:0:
64,192,185780,128,0,185968:0:0:0:0:
448,192,185874,128,0,185968:0:0:0:0:
320,192,185968,128,0,186061:0:0:0:0:
192,192,186061,128,0,186155:0:0:0:0:
320,192,186155,128,0,186249:0:0:0:0:
64,192,186155,128,0,186343:0:0:0:0:
448,192,186155,128,0,186249:0:0:0:0:
192,192,186249,128,0,186436:0:0:0:0:
448,192,186343,128,0,186530:0:0:0:0:
64,192,186436,128,0,186530:0:0:0:0:
192,192,186530,128,0,186624:0:0:0:0:
320,192,186624,128,0,186718:0:0:0:0:
448,192,186718,128,0,186905:0:0:0:0:
192,192,186718,128,0,186811:0:0:0:0:
64,192,186718,128,0,186811:0:0:0:0:
320,192,186811,128,0,186999:0:0:0:0:
64,192,186905,128,0,186999:0:0:0:0:
192,192,186999,128,0,187093:0:0:0:0:
320,192,187093,128,0,187186:0:0:0:0:
448,192,187093,128,0,187186:0:0:0:0:
64,192,187093,128,0,187186:0:0:0:0:
192,192,187186,128,0,187280:0:0:0:0:
64,192,187280,128,0,187468:0:0:0:0:
320,192,187280,128,0,187374:0:0:0:0:
448,192,187280,128,0,187374:0:0:0:0:
192,192,187374,128,0,187561:0:0:0:0:
448,192,187468,128,0,187561:0:0:0:0:
320,192,187561,128,0,187655:0:0:0:0:
64,192,187655,128,0,187749:0:0:0:0:
192,192,187655,128,0,187749:0:0:0:0:
448,192,187655,128,0,187749:0:0:0:0:
320,192,187749,128,0,187843:0:0:0:0:
448,192,187843,128,0,188030:0:0:0:0:
64,192,187843,128,0,187936:0:0:0:0:
192,192,187843,128,0,187936:0:0:0:0:
320,192,187936,128,0,188124:0:0:0:0:
64,192,188030,128,0,188124:0:0:0:0:
192,192,188124,128,0,188218:0:0:0:0:
64,192,188218,128,0,188405:0:0:0:0:
448,192,188218,128,0,188311:0:0:0:0:
320,192,188218,128,0,188311:0:0:0:0:
192,192,188311,128,0,188499:0:0:0:0:
448,192,188405,128,0,188499:0:0:0:0:
320,192,188499,128,0,188593:0:0:0:0:
64,192,188593,128,0,188780:0:0:0:0:
448,192,188593,1,0,0:0:0:0:
192,192,188593,1,0,0:0:0:0:
320,192,188686,128,0,188874:0:0:0:0:
448,192,188780,128,0,188874:0:0:0:0:
64,192,188874,128,0,188968:0:0:0:0:
320,192,188968,128,0,189155:0:0:0:0:
192,192,188968,1,0,0:0:0:0:
448,192,188968,1,0,0:0:0:0:
64,192,189061,128,0,189249:0:0:0:0:
192,192,189155,128,0,189249:0:0:0:0:
320,192,189249,128,0,189343:0:0:0:0:
192,192,189343,1,0,0:0:0:0:
448,192,189343,128,0,189530:0:0:0:0:
64,192,189343,1,0,0:0:0:0:
320,192,189436,128,0,189624:0:0:0:0:
64,192,189530,128,0,189624:0:0:0:0:
448,192,189624,128,0,189718:0:0:0:0:
320,192,189718,128,0,189905:0:0:0:0:
192,192,189718,1,0,0:0:0:0:
64,192,189718,1,0,0:0:0:0:
448,192,189811,128,0,189999:0:0:0:0:
64,192,189905,128,0,189999:0:0:0:0:
320,192,189999,128,0,190093:0:0:0:0:
64,192,190093,128,0,190280:0:0:0:0:
448,192,190093,1,0,0:0:0:0:
192,192,190093,1,0,0:0:0:0:
320,192,190186,128,0,190374:0:0:0:0:
448,192,190280,128,0,190374:0:0:0:0:
64,192,190374,128,0,190468:0:0:0:0:
192,192,190468,128,0,190655:0:0:0:0:
320,192,190468,1,0,0:0:0:0:
448,192,190468,1,0,0:0:0:0:
64,192,190561,128,0,190749:0:0:0:0:
448,192,190655,128,0,190749:0:0:0:0:
192,192,190749,128,0,190843:0:0:0:0:
448,192,190843,128,0,191030:0:0:0:0:
320,192,190843,1,0,0:0:0:0:
64,192,190843,1,0,0:0:0:0:
192,192,190936,128,0,191124:0:0:0:0:
64,192,191030,128,0,191124:0:0:0:0:
448,192,191124,128,0,191218:0:0:0:0:
192,192,191218,128,0,191405:0:0:0:0:
320,192,191218,1,0,0:0:0:0:
64,192,191218,1,0,0:0:0:0:
448,192,191311,128,0,191499:0:0:0:0:
320,192,191405,128,0,191499:0:0:0:0:
192,192,191499,128,0,191593:0:0:0:0:
320,192,191593,1,0,0:0:0:0:
64,192,191593,1,0,0:0:0:0:
448,192,191593,128,0,191780:0:0:0:0:
192,192,191686,128,0,191874:0:0:0:0:
64,192,191780,128,0,191874:0:0:0:0:
448,192,191874,128,0,191968:0:0:0:0:
192,192,191968,128,0,192155:0:0:0:0:
320,192,191968,1,0,0:0:0:0:
64,192,191968,1,0,0:0:0:0:
448,192,192061,128,0,192249:0:0:0:0:
320,192,192155,128,0,192249:0:0:0:0:
192,192,192249,128,0,192343:0:0:0:0:
320,192,192343,1,0,0:0:0:0:
64,192,192343,128,0,192530:0:0:0:0:
448,192,192343,1,0,0:0:0:0:
192,192,192436,128,0,192624:0:0:0:0:
448,192,192530,128,0,192624:0:0:0:0:
64,192,192624,128,0,192718:0:0:0:0:
192,192,192718,128,0,192905:0:0:0:0:
320,192,192718,1,0,0:0:0:0:
448,192,192718,1,0,0:0:0:0:
64,192,192811,128,0,192999:0:0:0:0:
448,192,192905,128,0,192999:0:0:0:0:
192,192,192999,128,0,193093:0:0:0:0:
448,192,193093,128,0,193280:0:0:0:0:
64,192,193093,1,0,0:0:0:0:
320,192,193093,1,0,0:0:0:0:
192,192,193186,128,0,193374:0:0:0:0:
64,192,193280,128,0,193374:0:0:0:0:
448,192,193374,128,0,193468:0:0:0:0:
320,192,193468,128,0,193655:0:0:0:0:
192,192,193468,1,0,0:0:0:0:
64,192,193468,1,0,0:0:0:0:
448,192,193561,128,0,193749:0:0:0:0:
64,192,193655,128,0,193749:0:0:0:0:
320,192,193749,128,0,193843:0:0:0:0:
64,192,193843,128,0,194030:0:0:0:0:
192,192,193843,1,0,0:0:0:0:
448,192,193843,1,0,0:0:0:0:
320,192,193936,128,0,194124:0:0:0:0:
448,192,194030,128,0,194124:0:0:0:0:
64,192,194124,128,0,194218:0:0:0:0:
320,192,194218,128,0,194405:0:0:0:0:
192,192,194218,1,0,0:0:0:0:
448,192,194218,1,0,0:0:0:0:
64,192,194311,128,0,194499:0:0:0:0:
192,192,194405,128,0,194499:0:0:0:0:
320,192,194499,128,0,194593:0:0:0:0:
64,192,194593,128,0,194686:0:0:0:0:
192,192,194593,128,0,194686:0:0:0:0:
448,192,194593,1,0,0:0:0:0:
320,192,194686,128,0,194874:0:0:0:0:
64,192,194780,1,0,0:0:0:0:
192,192,194780,1,0,0:0:0:0:
64,192,194874,128,0,194968:0:0:0:0:
192,192,194968,1,0,0:0:0:0:
448,192,194968,128,0,195061:0:0:0:0:
320,192,194968,128,0,195061:0:0:0:0:
64,192,195061,128,0,195249:0:0:0:0:
448,192,195155,1,0,0:0:0:0:
320,192,195155,1,0,0:0:0:0:
320,192,195249,128,0,195343:0:0:0:0:
448,192,195343,1,0,0:0:0:0:
64,192,195343,128,0,195436:0:0:0:0:
192,192,195343,128,0,195436:0:0:0:0:
320,192,195436,128,0,195624:0:0:0:0:
64,192,195530,1,0,0:0:0:0:
192,192,195530,1,0,0:0:0:0:
192,192,195624,128,0,195718:0:0:0:0:
64,192,195718,1,0,0:0:0:0:
448,192,195718,128,0,195811:0:0:0:0:
320,192,195718,128,0,195811:0:0:0:0:
192,192,195811,128,0,195999:0:0:0:0:
448,192,195905,1,0,0:0:0:0:
320,192,195905,1,0,0:0:0:0:
448,192,195999,128,0,196093:0:0:0:0:
192,192,196093,128,0,196186:0:0:0:0:
64,192,196093,128,0,196186:0:0:0:0:
320,192,196093,1,0,0:0:0:0:
448,192,196186,128,0,196374:0:0:0:0:
64,192,196280,1,0,0:0:0:0:
192,192,196280,1,0,0:0:0:0:
192,192,196374,128,0,196468:0:0:0:0:
64,192,196468,1,0,0:0:0:0:
448,192,196468,128,0,196561:0:0:0:0:
320,192,196468,128,0,196561:0:0:0:0:
192,192,196561,128,0,196749:0:0:0:0:
448,192,196655,1,0,0:0:0:0:
320,192,196655,1,0,0:0:0:0:
448,192,196749,128,0,196843:0:0:0:0:
192,192,196843,128,0,196936:0:0:0:0:
64,192,196843,128,0,196936:0:0:0:0:
320,192,196843,1,0,0:0:0:0:
448,192,196936,128,0,197124:0:0:0:0:
64,192,197030,1,0,0:0:0:0:
192,192,197030,1,0,0:0:0:0:
64,192,197124,128,0,197218:0:0:0:0:
448,192,197218,128,0,197311:0:0:0:0:
320,192,197218,128,0,197311:0:0:0:0:
192,192,197218,1,0,0:0:0:0:
64,192,197311,128,0,197499:0:0:0:0:
448,192,197405,1,0,0:0:0:0:
320,192,197405,1,0,0:0:0:0:
448,192,197499,128,0,197593:0:0:0:0:
320,192,197593,1,0,0:0:0:0:
192,192,197593,1,0,0:0:0:0:
64,192,197593,1,0,0:0:0:0:
64,192,197686,1,0,0:0:0:0:
192,192,197780,1,0,0:0:0:0:
320,192,197874,1,0,0:0:0:0:
192,192,197968,1,0,0:0:0:0:
64,192,197968,1,0,0:0:0:0:
192,192,198061,1,0,0:0:0:0:
320,192,198155,1,0,0:0:0:0:
448,192,198249,1,0,0:0:0:0:
64,192,198343,1,0,0:0:0:0:
192,192,198343,1,0,0:0:0:0:
320,192,198343,1,0,0:0:0:0:
64,192,198436,1,0,0:0:0:0:
192,192,198530,1,0,0:0:0:0:
320,192,198624,1,0,0:0:0:0:
192,192,198718,1,0,0:0:0:0:
64,192,198718,1,0,0:0:0:0:
192,192,198811,1,0,0:0:0:0:
320,192,198905,1,0,0:0:0:0:
64,192,198999,1,0,0:0:0:0:
320,192,199093,1,0,0:0:0:0:
448,192,199093,1,0,0:0:0:0:
192,192,199093,1,0,0:0:0:0:
448,192,199186,1,0,0:0:0:0:
320,192,199280,1,0,0:0:0:0:
64,192,199280,1,0,0:0:0:0:
192,192,199374,1,0,0:0:0:0:
320,192,199468,1,0,0:0:0:0:
448,192,199468,1,0,0:0:0:0:
320,192,199561,1,0,0:0:0:0:
192,192,199655,1,0,0:0:0:0:
448,192,199655,1,0,0:0:0:0:
64,192,199749,1,0,0:0:0:0:
320,192,199843,1,0,0:0:0:0:
448,192,199843,1,0,0:0:0:0:
192,192,199843,1,0,0:0:0:0:
448,192,199936,1,0,0:0:0:0:
64,192,200030,1,0,0:0:0:0:
320,192,200030,1,0,0:0:0:0:
64,192,200124,1,0,0:0:0:0:
320,192,200218,1,0,0:0:0:0:
448,192,200218,1,0,0:0:0:0:
320,192,200311,1,0,0:0:0:0:
192,192,200405,1,0,0:0:0:0:
448,192,200405,1,0,0:0:0:0:
192,192,200499,1,0,0:0:0:0:
64,192,200593,128,0,202093:0:0:0:0:
320,192,200593,1,0,0:0:0:0:
448,192,200593,1,0,0:0:0:0:
448,192,200968,128,0,201061:0:0:0:0:
320,192,201061,128,0,201155:0:0:0:0:
192,192,201155,128,0,201249:0:0:0:0:
320,192,201249,1,0,0:0:0:0:
192,192,201343,128,0,201436:0:0:0:0:
448,192,201343,1,0,0:0:0:0:
320,192,201436,128,0,201530:0:0:0:0:
448,192,201530,128,0,201624:0:0:0:0:
320,192,201624,1,0,0:0:0:0:
448,192,201718,128,0,201811:0:0:0:0:
192,192,201718,1,0,0:0:0:0:
320,192,201811,128,0,201905:0:0:0:0:
192,192,201905,128,0,201999:0:0:0:0:
320,192,201999,1,0,0:0:0:0:
192,192,202093,128,0,202280:0:0:0:0:
448,192,202093,1,0,0:0:0:0:
64,192,202186,128,0,202280:0:0:0:0:
320,192,202280,128,0,202468:0:0:0:0:
448,192,202280,1,0,0:0:0:0:
192,192,202374,128,0,202468:0:0:0:0:
64,192,202468,5,0,0:0:0:0:
448,192,202468,128,0,202561:0:0:0:0:
192,192,202561,128,0,202749:0:0:0:0:
320,192,202561,1,0,0:0:0:0:
448,192,202655,128,0,202843:0:0:0:0:
64,192,202655,128,0,202749:0:0:0:0:
320,192,202749,128,0,202843:0:0:0:0:
192,192,202843,128,0,203030:0:0:0:0:
64,192,202843,1,0,0:0:0:0:
320,192,202936,128,0,203030:0:0:0:0:
64,192,203030,128,0,203124:0:0:0:0:
448,192,203030,1,0,0:0:0:0:
320,192,203124,128,0,203218:0:0:0:0:
192,192,203124,1,0,0:0:0:0:
448,192,203218,128,0,203311:0:0:0:0:
64,192,203218,1,0,0:0:0:0:
192,192,203280,1,0,0:0:0:0:
320,192,203343,1,0,0:0:0:0:
64,192,203405,1,0,0:0:0:0:
448,192,203405,1,0,0:0:0:0:
192,192,203468,1,0,0:0:0:0:
320,192,203530,1,0,0:0:0:0:
448,192,203593,1,0,0:0:0:0:
64,192,203593,1,0,0:0:0:0:
192,192,203593,1,0,0:0:0:0:
64,192,203686,1,0,0:0:0:0:
192,192,203733,1,0,0:0:0:0:
320,192,203780,1,0,0:0:0:0:
448,192,203827,1,0,0:0:0:0:
192,192,203874,1,0,0:0:0:0:
448,192,203968,1,0,0:0:0:0:
64,192,203968,1,0,0:0:0:0:
320,192,203968,1,0,0:0:0:0:
320,192,204061,1,0,0:0:0:0:
192,192,204108,1,0,0:0:0:0:
64,192,204155,1,0,0:0:0:0:
448,192,204202,1,0,0:0:0:0:
192,192,204249,1,0,0:0:0:0:
320,192,204343,1,0,0:0:0:0:
64,192,204343,1,0,0:0:0:0:
448,192,204343,1,0,0:0:0:0:
448,192,204436,1,0,0:0:0:0:
320,192,204483,1,0,0:0:0:0:
192,192,204530,1,0,0:0:0:0:
64,192,204577,1,0,0:0:0:0:
320,192,204624,1,0,0:0:0:0:
64,192,204718,1,0,0:0:0:0:
448,192,204718,1,0,0:0:0:0:
192,192,204718,1,0,0:0:0:0:
192,192,204811,1,0,0:0:0:0:
320,192,204858,1,0,0:0:0:0:
448,192,204905,1,0,0:0:0:0:
64,192,204952,1,0,0:0:0:0:
320,192,204999,1,0,0:0:0:0:
448,192,205093,128,0,205186:0:0:0:0:
64,192,205093,1,0,0:0:0:0:
192,192,205093,1,0,0:0:0:0:
64,192,205186,128,0,205374:0:0:0:0:
448,192,205280,1,0,0:0:0:0:
192,192,205280,128,0,205374:0:0:0:0:
448,192,205374,128,0,205561:0:0:0:0:
320,192,205468,128,0,205561:0:0:0:0:
192,192,205468,1,0,0:0:0:0:
64,192,205468,1,0,0:0:0:0:
192,192,205561,128,0,205749:0:0:0:0:
64,192,205655,128,0,205749:0:0:0:0:
320,192,205655,1,0,0:0:0:0:
320,192,205749,128,0,205936:0:0:0:0:
192,192,205843,128,0,205936:0:0:0:0:
448,192,205843,1,0,0:0:0:0:
64,192,205843,1,0,0:0:0:0:
448,192,205936,128,0,206124:0:0:0:0:
64,192,206030,1,0,0:0:0:0:
320,192,206030,128,0,206124:0:0:0:0:
64,192,206124,128,0,206311:0:0:0:0:
448,192,206218,1,0,0:0:0:0:
320,192,206218,1,0,0:0:0:0:
192,192,206218,128,0,206311:0:0:0:0:
320,192,206311,128,0,206499:0:0:0:0:
192,192,206405,1,0,0:0:0:0:
448,192,206405,128,0,206499:0:0:0:0:
192,192,206499,128,0,206593:0:0:0:0:
64,192,206593,1,0,0:0:0:0:
448,192,206593,1,0,0:0:0:0:
320,192,206593,1,0,0:0:0:0:
448,192,206686,1,0,0:0:0:0:
320,192,206733,1,0,0:0:0:0:
192,192,206780,1,0,0:0:0:0:
64,192,206827,1,0,0:0:0:0:
320,192,206874,1,0,0:0:0:0:
64,192,206968,1,0,0:0:0:0:
448,192,206968,1,0,0:0:0:0:
192,192,206968,1,0,0:0:0:0:
192,192,207061,1,0,0:0:0:0:
320,192,207108,1,0,0:0:0:0:
448,192,207155,1,0,0:0:0:0:
64,192,207202,1,0,0:0:0:0:
320,192,207249,1,0,0:0:0:0:
448,192,207343,1,0,0:0:0:0:
192,192,207343,1,0,0:0:0:0:
64,192,207343,1,0,0:0:0:0:
64,192,207436,1,0,0:0:0:0:
192,192,207483,1,0,0:0:0:0:
320,192,207530,1,0,0:0:0:0:
448,192,207577,1,0,0:0:0:0:
192,192,207624,1,0,0:0:0:0:
448,192,207718,1,0,0:0:0:0:
64,192,207718,1,0,0:0:0:0:
320,192,207718,1,0,0:0:0:0:
320,192,207811,1,0,0:0:0:0:
192,192,207858,1,0,0:0:0:0:
64,192,207905,1,0,0:0:0:0:
448,192,207952,1,0,0:0:0:0:
192,192,207999,1,0,0:0:0:0:
64,192,208093,128,0,208186:0:0:0:0:
448,192,208093,1,0,0:0:0:0:
320,192,208093,1,0,0:0:0:0:
448,192,208186,128,0,208374:0:0:0:0:
64,192,208280,1,0,0:0:0:0:
320,192,208280,128,0,208374:0:0:0:0:
64,192,208374,128,0,208561:0:0:0:0:
192,192,208468,128,0,208561:0:0:0:0:
320,192,208468,1,0,0:0:0:0:
448,192,208468,1,0,0:0:0:0:
320,192,208561,128,0,208749:0:0:0:0:
448,192,208655,128,0,208749:0:0:0:0:
192,192,208655,1,0,0:0:0:0:
192,192,208749,128,0,208936:0:0:0:0:
320,192,208843,128,0,208936:0:0:0:0:
64,192,208843,1,0,0:0:0:0:
448,192,208843,1,0,0:0:0:0:
64,192,208936,128,0,209124:0:0:0:0:
448,192,209030,1,0,0:0:0:0:
192,192,209030,128,0,209124:0:0:0:0:
448,192,209124,128,0,209311:0:0:0:0:
320,192,209218,128,0,209311:0:0:0:0:
64,192,209218,1,0,0:0:0:0:
192,192,209218,1,0,0:0:0:0:
64,192,209311,128,0,209499:0:0:0:0:
192,192,209405,128,0,209499:0:0:0:0:
448,192,209405,1,0,0:0:0:0:
320,192,209405,1,0,0:0:0:0:
448,192,209499,128,0,209593:0:0:0:0:
192,192,209593,1,0,0:0:0:0:
64,192,209593,1,0,0:0:0:0:
320,192,209593,1,0,0:0:0:0:
64,192,209686,1,0,0:0:0:0:
192,192,209733,1,0,0:0:0:0:
448,192,209780,1,0,0:0:0:0:
320,192,209827,1,0,0:0:0:0:
64,192,209874,1,0,0:0:0:0:
192,192,209968,1,0,0:0:0:0:
320,192,209968,1,0,0:0:0:0:
448,192,209968,1,0,0:0:0:0:
192,192,210061,1,0,0:0:0:0:
448,192,210108,1,0,0:0:0:0:
320,192,210155,1,0,0:0:0:0:
192,192,210202,1,0,0:0:0:0:
64,192,210249,1,0,0:0:0:0:
448,192,210343,1,0,0:0:0:0:
320,192,210343,1,0,0:0:0:0:
192,192,210343,1,0,0:0:0:0:
448,192,210436,1,0,0:0:0:0:
320,192,210483,1,0,0:0:0:0:
64,192,210530,1,0,0:0:0:0:
192,192,210577,1,0,0:0:0:0:
448,192,210624,1,0,0:0:0:0:
192,192,210718,1,0,0:0:0:0:
320,192,210718,1,0,0:0:0:0:
64,192,210718,1,0,0:0:0:0:
320,192,210811,1,0,0:0:0:0:
64,192,210858,1,0,0:0:0:0:
192,192,210905,1,0,0:0:0:0:
320,192,210952,1,0,0:0:0:0:
448,192,210999,1,0,0:0:0:0:
192,192,211093,1,0,0:0:0:0:
320,192,211093,1,0,0:0:0:0:
64,192,211093,128,0,211186:0:0:0:0:
192,192,211186,128,0,211374:0:0:0:0:
64,192,211280,1,0,0:0:0:0:
320,192,211280,128,0,211374:0:0:0:0:
448,192,211374,128,0,211561:0:0:0:0:
192,192,211468,1,0,0:0:0:0:
64,192,211468,1,0,0:0:0:0:
320,192,211468,128,0,211561:0:0:0:0:
192,192,211561,128,0,211749:0:0:0:0:
320,192,211655,1,0,0:0:0:0:
64,192,211655,128,0,211749:0:0:0:0:
320,192,211749,128,0,211936:0:0:0:0:
448,192,211843,1,0,0:0:0:0:
64,192,211843,1,0,0:0:0:0:
192,192,211843,128,0,211936:0:0:0:0:
448,192,211936,128,0,212124:0:0:0:0:
64,192,212030,1,0,0:0:0:0:
320,192,212030,128,0,212124:0:0:0:0:
64,192,212124,128,0,212311:0:0:0:0:
320,192,212218,128,0,212311:0:0:0:0:
192,192,212218,1,0,0:0:0:0:
448,192,212218,1,0,0:0:0:0:
448,192,212311,128,0,212499:0:0:0:0:
64,192,212405,128,0,212499:0:0:0:0:
192,192,212405,1,0,0:0:0:0:
192,192,212499,128,0,212593:0:0:0:0:
448,192,212593,1,0,0:0:0:0:
320,192,212593,1,0,0:0:0:0:
64,192,212593,1,0,0:0:0:0:
448,192,212686,1,0,0:0:0:0:
320,192,212733,1,0,0:0:0:0:
64,192,212780,1,0,0:0:0:0:
192,192,212827,1,0,0:0:0:0:
448,192,212874,1,0,0:0:0:0:
192,192,212968,1,0,0:0:0:0:
320,192,212968,1,0,0:0:0:0:
64,192,212968,1,0,0:0:0:0:
320,192,213061,1,0,0:0:0:0:
64,192,213108,1,0,0:0:0:0:
192,192,213155,1,0,0:0:0:0:
320,192,213202,1,0,0:0:0:0:
448,192,213249,1,0,0:0:0:0:
64,192,213343,1,0,0:0:0:0:
192,192,213343,1,0,0:0:0:0:
320,192,213343,1,0,0:0:0:0:
64,192,213436,1,0,0:0:0:0:
192,192,213483,1,0,0:0:0:0:
448,192,213530,1,0,0:0:0:0:
320,192,213577,1,0,0:0:0:0:
64,192,213624,1,0,0:0:0:0:
320,192,213718,1,0,0:0:0:0:
448,192,213718,1,0,0:0:0:0:
192,192,213718,1,0,0:0:0:0:
192,192,213811,1,0,0:0:0:0:
448,192,213858,1,0,0:0:0:0:
320,192,213905,1,0,0:0:0:0:
192,192,213952,1,0,0:0:0:0:
64,192,213999,1,0,0:0:0:0:
320,192,214093,1,0,0:0:0:0:
192,192,214093,1,0,0:0:0:0:
448,192,214093,128,0,214186:0:0:0:0:
320,192,214186,128,0,214374:0:0:0:0:
448,192,214280,1,0,0:0:0:0:
192,192,214280,128,0,214374:0:0:0:0:
64,192,214374,128,0,214561:0:0:0:0:
320,192,214468,1,0,0:0:0:0:
448,192,214468,1,0,0:0:0:0:
192,192,214468,128,0,214561:0:0:0:0:
320,192,214561,128,0,214655:0:0:0:0:
192,192,214655,1,0,0:0:0:0:
448,192,214655,128,0,214749:0:0:0:0:
320,192,214749,1,0,0:0:0:0:
192,192,214749,128,0,214936:0:0:0:0:
448,192,214843,128,0,214936:0:0:0:0:
64,192,214843,1,0,0:0:0:0:
320,192,214843,128,0,214936:0:0:0:0:
64,192,214936,128,0,215124:0:0:0:0:
192,192,215030,1,0,0:0:0:0:
320,192,215030,1,0,0:0:0:0:
448,192,215030,1,0,0:0:0:0:
320,192,215124,128,0,215218:0:0:0:0:
192,192,215218,128,0,215311:0:0:0:0:
64,192,215218,128,0,215311:0:0:0:0:
448,192,215218,1,0,0:0:0:0:
448,192,215311,128,0,215499:0:0:0:0:
64,192,215405,1,0,0:0:0:0:
192,192,215405,1,0,0:0:0:0:
320,192,215405,1,0,0:0:0:0:
192,192,215499,128,0,215593:0:0:0:0:
448,192,215593,128,0,215780:0:0:0:0:
64,192,215593,128,0,215686:0:0:0:0:
192,192,215686,1,0,0:0:0:0:
320,192,215733,1,0,0:0:0:0:
64,192,215780,1,0,0:0:0:0:
192,192,215827,1,0,0:0:0:0:
320,192,215874,1,0,0:0:0:0:
448,192,215921,1,0,0:0:0:0:
64,192,215968,1,0,0:0:0:0:
192,192,215968,1,0,0:0:0:0:
192,192,216061,1,0,0:0:0:0:
320,192,216108,1,0,0:0:0:0:
448,192,216155,1,0,0:0:0:0:
64,192,216202,1,0,0:0:0:0:
320,192,216249,1,0,0:0:0:0:
192,192,216343,1,0,0:0:0:0:
448,192,216343,1,0,0:0:0:0:
64,192,216343,1,0,0:0:0:0:
64,192,216436,1,0,0:0:0:0:
192,192,216483,1,0,0:0:0:0:
320,192,216530,1,0,0:0:0:0:
448,192,216577,1,0,0:0:0:0:
192,192,216624,1,0,0:0:0:0:
448,192,216718,1,0,0:0:0:0:
64,192,216718,1,0,0:0:0:0:
320,192,216718,1,0,0:0:0:0:
320,192,216811,1,0,0:0:0:0:
192,192,216858,1,0,0:0:0:0:
64,192,216905,1,0,0:0:0:0:
448,192,216952,1,0,0:0:0:0:
192,192,216999,1,0,0:0:0:0:
64,192,217093,128,0,217186:0:0:0:0:
448,192,217093,1,0,0:0:0:0:
320,192,217093,1,0,0:0:0:0:
448,192,217186,128,0,217374:0:0:0:0:
64,192,217280,1,0,0:0:0:0:
320,192,217280,128,0,217374:0:0:0:0:
64,192,217374,128,0,217561:0:0:0:0:
192,192,217468,128,0,217561:0:0:0:0:
320,192,217468,1,0,0:0:0:0:
448,192,217468,1,0,0:0:0:0:
320,192,217561,128,0,217749:0:0:0:0:
448,192,217655,128,0,217749:0:0:0:0:
192,192,217655,1,0,0:0:0:0:
192,192,217749,128,0,217936:0:0:0:0:
320,192,217843,128,0,217936:0:0:0:0:
64,192,217843,1,0,0:0:0:0:
448,192,217843,1,0,0:0:0:0:
64,192,217936,128,0,218124:0:0:0:0:
448,192,218030,1,0,0:0:0:0:
192,192,218030,128,0,218124:0:0:0:0:
448,192,218124,128,0,218311:0:0:0:0:
64,192,218218,1,0,0:0:0:0:
192,192,218218,1,0,0:0:0:0:
320,192,218218,128,0,218311:0:0:0:0:
192,192,218311,128,0,218499:0:0:0:0:
320,192,218405,1,0,0:0:0:0:
64,192,218405,128,0,218499:0:0:0:0:
320,192,218499,128,0,218593:0:0:0:0:
448,192,218593,1,0,0:0:0:0:
64,192,218593,1,0,0:0:0:0:
192,192,218593,1,0,0:0:0:0:
64,192,218686,1,0,0:0:0:0:
192,192,218733,1,0,0:0:0:0:
320,192,218780,1,0,0:0:0:0:
448,192,218827,1,0,0:0:0:0:
192,192,218874,1,0,0:0:0:0:
448,192,218968,1,0,0:0:0:0:
64,192,218968,1,0,0:0:0:0:
320,192,218968,1,0,0:0:0:0:
320,192,219061,1,0,0:0:0:0:
192,192,219108,1,0,0:0:0:0:
64,192,219155,1,0,0:0:0:0:
448,192,219202,1,0,0:0:0:0:
192,192,219249,1,0,0:0:0:0:
64,192,219343,1,0,0:0:0:0:
320,192,219343,1,0,0:0:0:0:
448,192,219343,1,0,0:0:0:0:
448,192,219436,1,0,0:0:0:0:
320,192,219483,1,0,0:0:0:0:
192,192,219530,1,0,0:0:0:0:
64,192,219577,1,0,0:0:0:0:
320,192,219624,1,0,0:0:0:0:
64,192,219718,1,0,0:0:0:0:
448,192,219718,1,0,0:0:0:0:
192,192,219718,1,0,0:0:0:0:
192,192,219811,1,0,0:0:0:0:
320,192,219858,1,0,0:0:0:0:
448,192,219905,1,0,0:0:0:0:
64,192,219952,1,0,0:0:0:0:
320,192,219999,1,0,0:0:0:0:
448,192,220093,128,0,220186:0:0:0:0:
64,192,220093,1,0,0:0:0:0:
192,192,220093,1,0,0:0:0:0:
64,192,220186,128,0,220374:0:0:0:0:
448,192,220280,1,0,0:0:0:0:
192,192,220280,128,0,220374:0:0:0:0:
448,192,220374,128,0,220561:0:0:0:0:
320,192,220468,128,0,220561:0:0:0:0:
192,192,220468,1,0,0:0:0:0:
64,192,220468,1,0,0:0:0:0:
192,192,220561,128,0,220749:0:0:0:0:
64,192,220655,128,0,220749:0:0:0:0:
320,192,220655,1,0,0:0:0:0:
320,192,220749,128,0,220936:0:0:0:0:
192,192,220843,128,0,220936:0:0:0:0:
448,192,220843,1,0,0:0:0:0:
64,192,220843,1,0,0:0:0:0:
448,192,220936,128,0,221124:0:0:0:0:
64,192,221030,1,0,0:0:0:0:
320,192,221030,128,0,221124:0:0:0:0:
64,192,221124,128,0,221311:0:0:0:0:
192,192,221218,128,0,221311:0:0:0:0:
448,192,221218,1,0,0:0:0:0:
320,192,221218,1,0,0:0:0:0:
448,192,221311,128,0,221499:0:0:0:0:
320,192,221405,128,0,221499:0:0:0:0:
64,192,221405,1,0,0:0:0:0:
192,192,221405,1,0,0:0:0:0:
64,192,221499,128,0,221593:0:0:0:0:
320,192,221593,1,0,0:0:0:0:
448,192,221593,1,0,0:0:0:0:
192,192,221593,1,0,0:0:0:0:
448,192,221686,1,0,0:0:0:0:
320,192,221733,1,0,0:0:0:0:
64,192,221780,1,0,0:0:0:0:
192,192,221827,1,0,0:0:0:0:
448,192,221874,1,0,0:0:0:0:
320,192,221968,1,0,0:0:0:0:
192,192,221968,1,0,0:0:0:0:
64,192,221968,1,0,0:0:0:0:
320,192,222061,1,0,0:0:0:0:
64,192,222108,1,0,0:0:0:0:
192,192,222155,1,0,0:0:0:0:
320,192,222202,1,0,0:0:0:0:
448,192,222249,1,0,0:0:0:0:
64,192,222343,1,0,0:0:0:0:
192,192,222343,1,0,0:0:0:0:
320,192,222343,1,0,0:0:0:0:
64,192,222436,1,0,0:0:0:0:
192,192,222483,1,0,0:0:0:0:
448,192,222530,1,0,0:0:0:0:
320,192,222577,1,0,0:0:0:0:
64,192,222624,1,0,0:0:0:0:
320,192,222718,1,0,0:0:0:0:
192,192,222718,1,0,0:0:0:0:
448,192,222718,1,0,0:0:0:0:
192,192,222811,1,0,0:0:0:0:
448,192,222858,1,0,0:0:0:0:
320,192,222905,1,0,0:0:0:0:
192,192,222952,1,0,0:0:0:0:
64,192,222999,1,0,0:0:0:0:
320,192,223093,1,0,0:0:0:0:
192,192,223093,1,0,0:0:0:0:
448,192,223093,128,0,223186:0:0:0:0:
320,192,223186,128,0,223374:0:0:0:0:
192,192,223280,128,0,223374:0:0:0:0:
448,192,223280,1,0,0:0:0:0:
64,192,223374,128,0,223561:0:0:0:0:
320,192,223468,1,0,0:0:0:0:
448,192,223468,1,0,0:0:0:0:
192,192,223468,128,0,223561:0:0:0:0:
320,192,223561,128,0,223749:0:0:0:0:
192,192,223655,1,0,0:0:0:0:
448,192,223655,128,0,223749:0:0:0:0:
192,192,223749,128,0,223936:0:0:0:0:
64,192,223843,1,0,0:0:0:0:
448,192,223843,1,0,0:0:0:0:
320,192,223843,128,0,223936:0:0:0:0:
64,192,223936,128,0,224124:0:0:0:0:
448,192,224030,1,0,0:0:0:0:
192,192,224030,128,0,224124:0:0:0:0:
448,192,224124,128,0,224311:0:0:0:0:
192,192,224218,128,0,224311:0:0:0:0:
320,192,224218,1,0,0:0:0:0:
64,192,224218,1,0,0:0:0:0:
64,192,224311,128,0,224499:0:0:0:0:
320,192,224405,1,0,0:0:0:0:
448,192,224405,128,0,224499:0:0:0:0:
320,192,224499,128,0,224593:0:0:0:0:
64,192,224593,1,0,0:0:0:0:
192,192,224593,1,0,0:0:0:0:
448,192,224593,1,0,0:0:0:0:
64,192,224686,1,0,0:0:0:0:
192,192,224733,1,0,0:0:0:0:
448,192,224780,1,0,0:0:0:0:
320,192,224827,1,0,0:0:0:0:
64,192,224874,1,0,0:0:0:0:
320,192,224968,1,0,0:0:0:0:
192,192,224968,1,0,0:0:0:0:
448,192,224968,1,0,0:0:0:0:
192,192,225061,1,0,0:0:0:0:
448,192,225108,1,0,0:0:0:0:
320,192,225155,1,0,0:0:0:0:
192,192,225202,1,0,0:0:0:0:
64,192,225249,1,0,0:0:0:0:
448,192,225343,1,0,0:0:0:0:
320,192,225343,1,0,0:0:0:0:
192,192,225343,1,0,0:0:0:0:
448,192,225436,1,0,0:0:0:0:
320,192,225483,1,0,0:0:0:0:
64,192,225530,1,0,0:0:0:0:
192,192,225577,1,0,0:0:0:0:
448,192,225624,1,0,0:0:0:0:
192,192,225718,1,0,0:0:0:0:
64,192,225718,1,0,0:0:0:0:
320,192,225718,1,0,0:0:0:0:
320,192,225811,1,0,0:0:0:0:
64,192,225858,1,0,0:0:0:0:
192,192,225905,1,0,0:0:0:0:
320,192,225952,1,0,0:0:0:0:
448,192,225999,1,0,0:0:0:0:
320,192,226093,128,0,226280:0:0:0:0:
192,192,226093,1,0,0:0:0:0:
64,192,226093,1,0,0:0:0:0:
448,192,226186,128,0,226374:0:0:0:0:
192,192,226280,128,0,226468:0:0:0:0:
320,192,226374,128,0,226561:0:0:0:0:
448,192,226468,128,0,226655:0:0:0:0:
64,192,226468,1,0,0:0:0:0:
64,192,226561,128,0,226749:0:0:0:0:
192,192,226655,128,0,226749:0:0:0:0:
320,192,226655,1,0,0:0:0:0:
320,192,226749,128,0,226843:0:0:0:0:
64,192,226843,1,0,0:0:0:0:
192,192,226843,1,0,0:0:0:0:
448,192,226843,1,0,0:0:0:0:
192,192,226936,128,0,227030:0:0:0:0:
448,192,227030,1,0,0:0:0:0:
64,192,227030,1,0,0:0:0:0:
320,192,227030,1,0,0:0:0:0:
320,192,227124,128,0,227218:0:0:0:0:
448,192,227218,1,0,0:0:0:0:
64,192,227218,1,0,0:0:0:0:
192,192,227218,1,0,0:0:0:0:
320,192,227311,1,0,0:0:0:0:
448,192,227311,1,0,0:0:0:0:
320,192,227405,1,0,0:0:0:0:
192,192,227405,1,0,0:0:0:0:
64,192,227499,1,0,0:0:0:0:
192,192,227499,1,0,0:0:0:0:
448,192,227593,1,0,0:0:0:0:
64,192,227593,1,0,0:0:0:0:
320,192,227593,1,0,0:0:0:0:
320,192,227686,128,0,227780:0:0:0:0:
192,192,227733,128,0,227827:0:0:0:0:
64,192,227780,128,0,227874:0:0:0:0:
448,192,227827,1,0,0:0:0:0:
320,192,227874,1,0,0:0:0:0:
64,192,227968,128,0,228061:0:0:0:0:
192,192,227968,128,0,228061:0:0:0:0:
448,192,227968,1,0,0:0:0:0:
320,192,228061,128,0,228249:0:0:0:0:
64,192,228155,128,0,228249:0:0:0:0:
448,192,228155,128,0,228249:0:0:0:0:
192,192,228249,128,0,228343:0:0:0:0:
64,192,228343,1,0,0:0:0:0:
448,192,228343,1,0,0:0:0:0:
320,192,228343,1,0,0:0:0:0:
448,192,228436,128,0,228530:0:0:0:0:
192,192,228483,128,0,228577:0:0:0:0:
64,192,228530,128,0,228624:0:0:0:0:
320,192,228577,1,0,0:0:0:0:
448,192,228624,1,0,0:0:0:0:
64,192,228718,128,0,228811:0:0:0:0:
192,192,228718,128,0,228811:0:0:0:0:
320,192,228718,1,0,0:0:0:0:
448,192,228811,128,0,228999:0:0:0:0:
64,192,228905,128,0,228999:0:0:0:0:
192,192,228905,128,0,228999:0:0:0:0:
320,192,228999,128,0,229093:0:0:0:0:
192,192,229093,1,0,0:0:0:0:
448,192,229093,1,0,0:0:0:0:
64,192,229093,128,0,229233:0:0:0:0:
192,192,229186,128,0,229280:0:0:0:0:
320,192,229233,128,0,229327:0:0:0:0:
448,192,229280,128,0,229374:0:0:0:0:
64,192,229327,1,0,0:0:0:0:
192,192,229374,1,0,0:0:0:0:
448,192,229468,128,0,229561:0:0:0:0:
64,192,229468,1,0,0:0:0:0:
320,192,229468,128,0,229655:0:0:0:0:
192,192,229561,128,0,229702:0:0:0:0:
448,192,229655,128,0,229749:0:0:0:0:
64,192,229655,128,0,229749:0:0:0:0:
320,192,229749,128,0,229843:0:0:0:0:
192,192,229843,128,0,229983:0:0:0:0:
448,192,229843,1,0,0:0:0:0:
64,192,229843,1,0,0:0:0:0:
64,192,229936,128,0,230030:0:0:0:0:
320,192,229983,128,0,230077:0:0:0:0:
448,192,230030,128,0,230124:0:0:0:0:
192,192,230077,1,0,0:0:0:0:
64,192,230124,1,0,0:0:0:0:
448,192,230218,128,0,230311:0:0:0:0:
320,192,230218,128,0,230405:0:0:0:0:
192,192,230218,1,0,0:0:0:0:
64,192,230311,128,0,230452:0:0:0:0:
448,192,230405,128,0,230499:0:0:0:0:
192,192,230405,128,0,230499:0:0:0:0:
320,192,230499,128,0,230593:0:0:0:0:
64,192,230593,1,0,0:0:0:0:
192,192,230593,1,0,0:0:0:0:
448,192,230593,1,0,0:0:0:0:
192,192,230686,128,0,230780:0:0:0:0:
320,192,230733,128,0,230827:0:0:0:0:
448,192,230780,128,0,230874:0:0:0:0:
64,192,230827,1,0,0:0:0:0:
192,192,230874,1,0,0:0:0:0:
448,192,230968,128,0,231061:0:0:0:0:
320,192,230968,128,0,231061:0:0:0:0:
64,192,230968,1,0,0:0:0:0:
192,192,231061,128,0,231249:0:0:0:0:
448,192,231155,128,0,231249:0:0:0:0:
64,192,231155,128,0,231249:0:0:0:0:
320,192,231249,128,0,231343:0:0:0:0:
448,192,231343,1,0,0:0:0:0:
64,192,231343,1,0,0:0:0:0:
192,192,231343,1,0,0:0:0:0:
64,192,231436,128,0,231530:0:0:0:0:
320,192,231483,128,0,231577:0:0:0:0:
448,192,231530,128,0,231624:0:0:0:0:
192,192,231577,1,0,0:0:0:0:
64,192,231624,1,0,0:0:0:0:
448,192,231718,128,0,231811:0:0:0:0:
320,192,231718,128,0,231811:0:0:0:0:
192,192,231718,1,0,0:0:0:0:
64,192,231811,128,0,231999:0:0:0:0:
448,192,231905,128,0,231999:0:0:0:0:
320,192,231905,128,0,231999:0:0:0:0:
192,192,231999,128,0,232093:0:0:0:0:
320,192,232093,1,0,0:0:0:0:
64,192,232093,1,0,0:0:0:0:
448,192,232093,128,0,232233:0:0:0:0:
320,192,232186,128,0,232280:0:0:0:0:
192,192,232233,128,0,232327:0:0:0:0:
64,192,232280,128,0,232374:0:0:0:0:
448,192,232327,1,0,0:0:0:0:
320,192,232374,1,0,0:0:0:0:
64,192,232468,128,0,232561:0:0:0:0:
448,192,232468,1,0,0:0:0:0:
192,192,232468,128,0,232655:0:0:0:0:
320,192,232561,128,0,232702:0:0:0:0:
448,192,232655,128,0,232749:0:0:0:0:
64,192,232655,128,0,232749:0:0:0:0:
192,192,232749,128,0,232843:0:0:0:0:
448,192,232843,1,0,0:0:0:0:
64,192,232843,1,0,0:0:0:0:
320,192,232843,128,0,232983:0:0:0:0:
448,192,232936,128,0,233030:0:0:0:0:
192,192,232983,128,0,233077:0:0:0:0:
64,192,233030,128,0,233124:0:0:0:0:
320,192,233077,1,0,0:0:0:0:
448,192,233124,1,0,0:0:0:0:
320,192,233218,128,0,233311:0:0:0:0:
192,192,233218,1,0,0:0:0:0:
64,192,233218,1,0,0:0:0:0:
64,192,233311,1,0,0:0:0:0:
192,192,233405,128,0,233499:0:0:0:0:
320,192,233405,1,0,0:0:0:0:
448,192,233405,1,0,0:0:0:0:
448,192,233499,1,0,0:0:0:0:
64,192,233593,1,0,0:0:0:0:
320,192,233593,1,0,0:0:0:0:
192,192,233593,1,0,0:0:0:0:
192,192,233686,128,0,233780:0:0:0:0:
320,192,233733,128,0,233827:0:0:0:0:
448,192,233780,128,0,233874:0:0:0:0:
64,192,233827,1,0,0:0:0:0:
192,192,233874,1,0,0:0:0:0:
448,192,233968,128,0,234061:0:0:0:0:
320,192,233968,128,0,234061:0:0:0:0:
64,192,233968,1,0,0:0:0:0:
192,192,234061,128,0,234249:0:0:0:0:
448,192,234155,128,0,234249:0:0:0:0:
64,192,234155,128,0,234249:0:0:0:0:
320,192,234249,128,0,234343:0:0:0:0:
448,192,234343,1,0,0:0:0:0:
64,192,234343,1,0,0:0:0:0:
192,192,234343,1,0,0:0:0:0:
64,192,234436,128,0,234530:0:0:0:0:
320,192,234483,128,0,234577:0:0:0:0:
448,192,234530,128,0,234624:0:0:0:0:
192,192,234577,1,0,0:0:0:0:
64,192,234624,1,0,0:0:0:0:
448,192,234718,128,0,234811:0:0:0:0:
320,192,234718,128,0,234811:0:0:0:0:
192,192,234718,1,0,0:0:0:0:
64,192,234811,128,0,234999:0:0:0:0:
448,192,234905,128,0,234999:0:0:0:0:
320,192,234905,128,0,234999:0:0:0:0:
192,192,234999,128,0,235093:0:0:0:0:
320,192,235093,1,0,0:0:0:0:
64,192,235093,1,0,0:0:0:0:
448,192,235093,128,0,235233:0:0:0:0:
320,192,235186,128,0,235280:0:0:0:0:
192,192,235233,128,0,235327:0:0:0:0:
64,192,235280,128,0,235374:0:0:0:0:
448,192,235327,1,0,0:0:0:0:
320,192,235374,1,0,0:0:0:0:
64,192,235468,128,0,235561:0:0:0:0:
448,192,235468,1,0,0:0:0:0:
192,192,235468,128,0,235655:0:0:0:0:
320,192,235561,128,0,235702:0:0:0:0:
448,192,235655,128,0,235749:0:0:0:0:
64,192,235655,128,0,235749:0:0:0:0:
192,192,235749,128,0,235843:0:0:0:0:
448,192,235843,1,0,0:0:0:0:
64,192,235843,1,0,0:0:0:0:
320,192,235843,128,0,235983:0:0:0:0:
448,192,235936,128,0,236030:0:0:0:0:
192,192,235983,128,0,236077:0:0:0:0:
64,192,236030,128,0,236124:0:0:0:0:
320,192,236077,1,0,0:0:0:0:
448,192,236124,1,0,0:0:0:0:
64,192,236218,128,0,236311:0:0:0:0:
320,192,236218,1,0,0:0:0:0:
192,192,236218,128,0,236405:0:0:0:0:
448,192,236311,128,0,236452:0:0:0:0:
64,192,236405,128,0,236499:0:0:0:0:
320,192,236405,128,0,236499:0:0:0:0:
192,192,236499,128,0,236593:0:0:0:0:
448,192,236593,1,0,0:0:0:0:
64,192,236593,1,0,0:0:0:0:
320,192,236593,1,0,0:0:0:0:
320,192,236686,128,0,236780:0:0:0:0:
192,192,236733,128,0,236827:0:0:0:0:
64,192,236780,128,0,236874:0:0:0:0:
448,192,236827,1,0,0:0:0:0:
320,192,236874,1,0,0:0:0:0:
448,192,236968,1,0,0:0:0:0:
192,192,236968,128,0,237061:0:0:0:0:
64,192,236968,128,0,237061:0:0:0:0:
320,192,237061,128,0,237249:0:0:0:0:
64,192,237155,128,0,237249:0:0:0:0:
192,192,237155,128,0,237249:0:0:0:0:
448,192,237249,128,0,237343:0:0:0:0:
320,192,237343,1,0,0:0:0:0:
64,192,237343,1,0,0:0:0:0:
192,192,237343,1,0,0:0:0:0:
192,192,237436,128,0,237530:0:0:0:0:
320,192,237483,128,0,237577:0:0:0:0:
448,192,237530,128,0,237624:0:0:0:0:
64,192,237577,1,0,0:0:0:0:
192,192,237624,1,0,0:0:0:0:
64,192,237718,1,0,0:0:0:0:
320,192,237718,128,0,237811:0:0:0:0:
448,192,237718,128,0,237811:0:0:0:0:
192,192,237811,128,0,237999:0:0:0:0:
448,192,237905,128,0,237999:0:0:0:0:
320,192,237905,128,0,237999:0:0:0:0:
64,192,237999,128,0,238093:0:0:0:0:
448,192,238093,1,0,0:0:0:0:
320,192,238093,1,0,0:0:0:0:
192,192,238093,128,0,238280:0:0:0:0:
64,192,238186,128,0,238374:0:0:0:0:
320,192,238280,128,0,238468:0:0:0:0:
192,192,238374,128,0,238561:0:0:0:0:
64,192,238468,128,0,238655:0:0:0:0:
448,192,238468,1,0,0:0:0:0:
448,192,238561,128,0,238749:0:0:0:0:
320,192,238655,128,0,238749:0:0:0:0:
192,192,238655,1,0,0:0:0:0:
192,192,238749,128,0,238843:0:0:0:0:
448,192,238843,1,0,0:0:0:0:
64,192,238843,1,0,0:0:0:0:
320,192,238843,1,0,0:0:0:0:
64,192,238936,128,0,239030:0:0:0:0:
320,192,239030,1,0,0:0:0:0:
448,192,239030,1,0,0:0:0:0:
192,192,239030,1,0,0:0:0:0:
320,192,239124,128,0,239218:0:0:0:0:
64,192,239218,1,0,0:0:0:0:
192,192,239218,1,0,0:0:0:0:
448,192,239218,1,0,0:0:0:0:
192,192,239311,128,0,239405:0:0:0:0:
64,192,239405,1,0,0:0:0:0:
448,192,239405,1,0,0:0:0:0:
320,192,239405,1,0,0:0:0:0:
448,192,239499,128,0,239593:0:0:0:0:
320,192,239593,1,0,0:0:0:0:
192,192,239593,1,0,0:0:0:0:
64,192,239593,1,0,0:0:0:0:
192,192,239686,128,0,239780:0:0:0:0:
320,192,239733,128,0,239827:0:0:0:0:
448,192,239780,128,0,239874:0:0:0:0:
64,192,239827,1,0,0:0:0:0:
192,192,239874,1,0,0:0:0:0:
320,192,239968,1,0,0:0:0:0:
448,192,239968,1,0,0:0:0:0:
64,192,239968,1,0,0:0:0:0:
64,192,240061,128,0,240155:0:0:0:0:
320,192,240108,128,0,240202:0:0:0:0:
448,192,240155,128,0,240249:0:0:0:0:
192,192,240202,1,0,0:0:0:0:
64,192,240249,1,0,0:0:0:0:
192,192,240343,1,0,0:0:0:0:
320,192,240343,1,0,0:0:0:0:
448,192,240343,1,0,0:0:0:0:
320,192,240436,128,0,240530:0:0:0:0:
192,192,240483,128,0,240577:0:0:0:0:
64,192,240530,128,0,240624:0:0:0:0:
448,192,240577,1,0,0:0:0:0:
320,192,240624,1,0,0:0:0:0:
192,192,240718,1,0,0:0:0:0:
64,192,240718,1,0,0:0:0:0:
448,192,240718,1,0,0:0:0:0:
448,192,240811,128,0,240905:0:0:0:0:
192,192,240858,128,0,240952:0:0:0:0:
64,192,240905,128,0,240999:0:0:0:0:
320,192,240952,1,0,0:0:0:0:
448,192,240999,1,0,0:0:0:0:
320,192,241093,1,0,0:0:0:0:
192,192,241093,1,0,0:0:0:0:
64,192,241093,128,0,241233:0:0:0:0:
192,192,241186,128,0,241280:0:0:0:0:
320,192,241233,128,0,241327:0:0:0:0:
448,192,241280,128,0,241374:0:0:0:0:
64,192,241327,1,0,0:0:0:0:
192,192,241374,1,0,0:0:0:0:
64,192,241468,1,0,0:0:0:0:
448,192,241468,1,0,0:0:0:0:
320,192,241468,128,0,241608:0:0:0:0:
448,192,241561,128,0,241655:0:0:0:0:
192,192,241608,128,0,241702:0:0:0:0:
64,192,241655,128,0,241749:0:0:0:0:
320,192,241702,1,0,0:0:0:0:
448,192,241749,1,0,0:0:0:0:
320,192,241843,1,0,0:0:0:0:
64,192,241843,1,0,0:0:0:0:
192,192,241843,128,0,241983:0:0:0:0:
64,192,241936,128,0,242030:0:0:0:0:
320,192,241983,128,0,242077:0:0:0:0:
448,192,242030,128,0,242124:0:0:0:0:
192,192,242077,1,0,0:0:0:0:
64,192,242124,1,0,0:0:0:0:
448,192,242218,1,0,0:0:0:0:
320,192,242218,128,0,242358:0:0:0:0:
192,192,242218,1,0,0:0:0:0:
192,192,242311,128,0,242405:0:0:0:0:
64,192,242358,128,0,242452:0:0:0:0:
448,192,242405,128,0,242499:0:0:0:0:
320,192,242452,1,0,0:0:0:0:
192,192,242499,1,0,0:0:0:0:
320,192,242593,1,0,0:0:0:0:
448,192,242593,1,0,0:0:0:0:
64,192,242593,1,0,0:0:0:0:
320,192,242686,128,0,242780:0:0:0:0:
192,192,242733,128,0,242827:0:0:0:0:
64,192,242780,128,0,242874:0:0:0:0:
448,192,242827,1,0,0:0:0:0:
320,192,242874,1,0,0:0:0:0:
192,192,242968,1,0,0:0:0:0:
64,192,242968,1,0,0:0:0:0:
448,192,242968,1,0,0:0:0:0:
448,192,243061,128,0,243155:0:0:0:0:
192,192,243108,128,0,243202:0:0:0:0:
64,192,243155,128,0,243249:0:0:0:0:
320,192,243202,1,0,0:0:0:0:
448,192,243249,1,0,0:0:0:0:
320,192,243343,1,0,0:0:0:0:
192,192,243343,1,0,0:0:0:0:
64,192,243343,1,0,0:0:0:0:
192,192,243436,128,0,243530:0:0:0:0:
320,192,243483,128,0,243577:0:0:0:0:
448,192,243530,128,0,243624:0:0:0:0:
64,192,243577,1,0,0:0:0:0:
192,192,243624,1,0,0:0:0:0:
320,192,243718,1,0,0:0:0:0:
448,192,243718,1,0,0:0:0:0:
64,192,243718,1,0,0:0:0:0:
64,192,243811,128,0,243905:0:0:0:0:
320,192,243858,128,0,243952:0:0:0:0:
448,192,243905,128,0,243999:0:0:0:0:
192,192,243952,1,0,0:0:0:0:
64,192,243999,1,0,0:0:0:0:
192,192,244093,1,0,0:0:0:0:
320,192,244093,1,0,0:0:0:0:
448,192,244093,128,0,244233:0:0:0:0:
320,192,244186,128,0,244280:0:0:0:0:
192,192,244233,128,0,244327:0:0:0:0:
64,192,244280,128,0,244374:0:0:0:0:
448,192,244327,1,0,0:0:0:0:
320,192,244374,1,0,0:0:0:0:
448,192,244468,1,0,0:0:0:0:
64,192,244468,1,0,0:0:0:0:
192,192,244468,128,0,244608:0:0:0:0:
64,192,244561,128,0,244655:0:0:0:0:
320,192,244608,128,0,244702:0:0:0:0:
448,192,244655,128,0,244749:0:0:0:0:
192,192,244702,1,0,0:0:0:0:
64,192,244749,1,0,0:0:0:0:
192,192,244843,1,0,0:0:0:0:
448,192,244843,1,0,0:0:0:0:
320,192,244843,128,0,244983:0:0:0:0:
448,192,244936,128,0,245030:0:0:0:0:
192,192,244983,128,0,245077:0:0:0:0:
64,192,245030,128,0,245124:0:0:0:0:
320,192,245077,1,0,0:0:0:0:
448,192,245124,1,0,0:0:0:0:
64,192,245218,1,0,0:0:0:0:
192,192,245218,1,0,0:0:0:0:
320,192,245218,1,0,0:0:0:0:
64,192,245311,128,0,245405:0:0:0:0:
448,192,245405,1,0,0:0:0:0:
320,192,245405,1,0,0:0:0:0:
192,192,245405,1,0,0:0:0:0:
448,192,245499,128,0,245593:0:0:0:0:
320,192,245593,1,0,0:0:0:0:
192,192,245593,1,0,0:0:0:0:
64,192,245593,1,0,0:0:0:0:
64,192,245686,128,0,245780:0:0:0:0:
192,192,245733,128,0,245827:0:0:0:0:
448,192,245780,1,0,0:0:0:0:
320,192,245780,128,0,245874:0:0:0:0:
64,192,245827,1,0,0:0:0:0:
192,192,245874,1,0,0:0:0:0:
320,192,245968,1,0,0:0:0:0:
64,192,245968,128,0,246155:0:0:0:0:
448,192,245968,1,0,0:0:0:0:
320,192,246061,128,0,246249:0:0:0:0:
192,192,246155,128,0,246249:0:0:0:0:
448,192,246155,128,0,246249:0:0:0:0:
64,192,246249,128,0,246343:0:0:0:0:
448,192,246343,1,0,0:0:0:0:
192,192,246343,1,0,0:0:0:0:
320,192,246343,1,0,0:0:0:0:
448,192,246436,128,0,246530:0:0:0:0:
320,192,246483,128,0,246577:0:0:0:0:
192,192,246530,128,0,246624:0:0:0:0:
64,192,246530,1,0,0:0:0:0:
448,192,246577,1,0,0:0:0:0:
320,192,246624,1,0,0:0:0:0:
192,192,246718,1,0,0:0:0:0:
448,192,246718,128,0,246905:0:0:0:0:
64,192,246718,1,0,0:0:0:0:
192,192,246811,128,0,246999:0:0:0:0:
320,192,246905,128,0,246999:0:0:0:0:
64,192,246905,128,0,246999:0:0:0:0:
448,192,246999,128,0,247093:0:0:0:0:
192,192,247093,1,0,0:0:0:0:
320,192,247093,1,0,0:0:0:0:
64,192,247093,128,0,247233:0:0:0:0:
192,192,247186,128,0,247280:0:0:0:0:
320,192,247233,128,0,247327:0:0:0:0:
448,192,247280,128,0,247374:0:0:0:0:
64,192,247280,1,0,0:0:0:0:
192,192,247327,1,0,0:0:0:0:
320,192,247374,1,0,0:0:0:0:
192,192,247468,128,0,247655:0:0:0:0:
64,192,247468,128,0,247561:0:0:0:0:
448,192,247468,128,0,247561:0:0:0:0:
320,192,247561,128,0,247702:0:0:0:0:
448,192,247655,128,0,247749:0:0:0:0:
64,192,247655,128,0,247749:0:0:0:0:
192,192,247749,128,0,247843:0:0:0:0:
320,192,247843,1,0,0:0:0:0:
448,192,247843,128,0,247983:0:0:0:0:
64,192,247843,1,0,0:0:0:0:
320,192,247936,128,0,248030:0:0:0:0:
192,192,247983,128,0,248077:0:0:0:0:
64,192,248030,128,0,248124:0:0:0:0:
448,192,248030,1,0,0:0:0:0:
320,192,248077,1,0,0:0:0:0:
192,192,248124,1,0,0:0:0:0:
448,192,248218,128,0,248311:0:0:0:0:
320,192,248218,128,0,248405:0:0:0:0:
64,192,248218,128,0,248311:0:0:0:0:
192,192,248311,128,0,248452:0:0:0:0:
64,192,248405,128,0,248499:0:0:0:0:
448,192,248405,128,0,248499:0:0:0:0:
320,192,248499,128,0,248593:0:0:0:0:
64,192,248593,1,0,0:0:0:0:
192,192,248593,1,0,0:0:0:0:
448,192,248593,1,0,0:0:0:0:
192,192,248686,128,0,248874:0:0:0:0:
64,192,248780,128,0,248874:0:0:0:0:
448,192,248780,1,0,0:0:0:0:
320,192,248780,1,0,0:0:0:0:
320,192,248874,128,0,249061:0:0:0:0:
448,192,248968,1,0,0:0:0:0:
192,192,248968,128,0,249061:0:0:0:0:
64,192,248968,1,0,0:0:0:0:
448,192,249061,128,0,249249:0:0:0:0:
64,192,249155,1,0,0:0:0:0:
192,192,249155,1,0,0:0:0:0:
320,192,249155,128,0,249249:0:0:0:0:
192,192,249249,128,0,249436:0:0:0:0:
64,192,249343,128,0,249436:0:0:0:0:
320,192,249343,1,0,0:0:0:0:
448,192,249343,1,0,0:0:0:0:
320,192,249436,128,0,249624:0:0:0:0:
64,192,249530,1,0,0:0:0:0:
192,192,249530,1,0,0:0:0:0:
448,192,249530,128,0,249624:0:0:0:0:
192,192,249624,128,0,249811:0:0:0:0:
64,192,249718,1,0,0:0:0:0:
448,192,249718,1,0,0:0:0:0:
320,192,249718,128,0,249811:0:0:0:0:
64,192,249811,128,0,249999:0:0:0:0:
448,192,249905,1,0,0:0:0:0:
320,192,249905,1,0,0:0:0:0:
192,192,249905,128,0,249999:0:0:0:0:
320,192,249999,128,0,250093:0:0:0:0:
448,192,250093,1,0,0:0:0:0:
64,192,250093,128,0,250186:0:0:0:0:
192,192,250093,128,0,250280:0:0:0:0:
320,192,250186,128,0,250374:0:0:0:0:
64,192,250280,128,0,250468:0:0:0:0:
192,192,250374,128,0,250468:0:0:0:0:
448,192,250468,128,0,250561:0:0:0:0:
320,192,250468,128,0,250655:0:0:0:0:
192,192,250561,128,0,250749:0:0:0:0:
448,192,250655,128,0,250843:0:0:0:0:
320,192,250749,128,0,250843:0:0:0:0:
64,192,250843,128,0,250936:0:0:0:0:
192,192,250843,128,0,251030:0:0:0:0:
320,192,250936,128,0,251218:0:0:0:0:
448,192,251030,128,0,251124:0:0:0:0:
64,192,251030,128,0,251124:0:0:0:0:
192,192,251124,128,0,251405:0:0:0:0:
448,192,251218,128,0,251311:0:0:0:0:
64,192,251218,128,0,251311:0:0:0:0:
320,192,251311,128,0,251499:0:0:0:0:
64,192,251405,128,0,251499:0:0:0:0:
448,192,251405,128,0,251499:0:0:0:0:
192,192,251499,128,0,251593:0:0:0:0:
320,192,251593,128,0,251686:0:0:0:0:
64,192,251593,1,0,0:0:0:0:
448,192,251593,128,0,251874:0:0:0:0:
192,192,251686,128,0,251780:0:0:0:0:
320,192,251780,128,0,251874:0:0:0:0:
64,192,251874,128,0,251968:0:0:0:0:
192,192,251968,128,0,252061:0:0:0:0:
448,192,251968,128,0,252155:0:0:0:0:
320,192,252061,128,0,252155:0:0:0:0:
192,192,252155,128,0,252249:0:0:0:0:
448,192,252249,128,0,252343:0:0:0:0:
64,192,252343,128,0,252436:0:0:0:0:
320,192,252343,128,0,252624:0:0:0:0:
192,192,252436,128,0,252530:0:0:0:0:
448,192,252530,128,0,252624:0:0:0:0:
192,192,252624,128,0,252718:0:0:0:0:
64,192,252718,128,0,252811:0:0:0:0:
320,192,252718,128,0,252905:0:0:0:0:
448,192,252811,128,0,252905:0:0:0:0:
192,192,252905,128,0,252999:0:0:0:0:
320,192,252999,128,0,253093:0:0:0:0:
64,192,253093,128,0,253186:0:0:0:0:
192,192,253093,128,0,253374:0:0:0:0:
448,192,253186,128,0,253280:0:0:0:0:
320,192,253280,128,0,253374:0:0:0:0:
64,192,253374,128,0,253468:0:0:0:0:
320,192,253468,128,0,253561:0:0:0:0:
192,192,253468,128,0,253655:0:0:0:0:
448,192,253561,128,0,253655:0:0:0:0:
64,192,253655,128,0,253749:0:0:0:0:
192,192,253749,128,0,253843:0:0:0:0:
448,192,253843,128,0,253936:0:0:0:0:
320,192,253843,128,0,254124:0:0:0:0:
64,192,253936,128,0,254030:0:0:0:0:
192,192,254030,128,0,254124:0:0:0:0:
448,192,254124,128,0,254218:0:0:0:0:
192,192,254218,128,0,254311:0:0:0:0:
320,192,254218,128,0,254405:0:0:0:0:
64,192,254311,128,0,254405:0:0:0:0:
448,192,254405,128,0,254499:0:0:0:0:
320,192,254499,128,0,254593:0:0:0:0:
192,192,254593,128,0,254686:0:0:0:0:
64,192,254593,128,0,254874:0:0:0:0:
320,192,254686,128,0,254780:0:0:0:0:
192,192,254780,128,0,254874:0:0:0:0:
448,192,254874,128,0,254968:0:0:0:0:
320,192,254968,128,0,255061:0:0:0:0:
64,192,254968,128,0,255155:0:0:0:0:
192,192,255061,128,0,255155:0:0:0:0:
320,192,255155,128,0,255249:0:0:0:0:
64,192,255249,128,0,255343:0:0:0:0:
448,192,255343,128,0,255436:0:0:0:0:
192,192,255343,128,0,255624:0:0:0:0:
320,192,255436,128,0,255530:0:0:0:0:
64,192,255530,128,0,255624:0:0:0:0:
320,192,255624,128,0,255718:0:0:0:0:
448,192,255718,128,0,255811:0:0:0:0:
192,192,255718,128,0,255905:0:0:0:0:
64,192,255811,128,0,255905:0:0:0:0:
320,192,255905,128,0,255999:0:0:0:0:
192,192,255999,128,0,256093:0:0:0:0:
448,192,256093,128,0,256186:0:0:0:0:
320,192,256093,128,0,256374:0:0:0:0:
64,192,256186,128,0,256280:0:0:0:0:
192,192,256280,128,0,256374:0:0:0:0:
448,192,256374,128,0,256468:0:0:0:0:
192,192,256468,128,0,256561:0:0:0:0:
320,192,256468,128,0,256655:0:0:0:0:
64,192,256561,128,0,256655:0:0:0:0:
448,192,256655,128,0,256749:0:0:0:0:
320,192,256749,128,0,256843:0:0:0:0:
448,192,256843,128,0,257124:0:0:0:0:
64,192,256843,128,0,256936:0:0:0:0:
192,192,256936,128,0,257030:0:0:0:0:
320,192,257030,128,0,257124:0:0:0:0:
64,192,257124,128,0,257218:0:0:0:0:
192,192,257218,128,0,257311:0:0:0:0:
448,192,257218,128,0,257405:0:0:0:0:
320,192,257311,128,0,257405:0:0:0:0:
64,192,257405,128,0,257499:0:0:0:0:
448,192,257499,128,0,257593:0:0:0:0:
192,192,257593,128,0,257686:0:0:0:0:
64,192,257593,128,0,257874:0:0:0:0:
320,192,257686,1,0,0:0:0:0:
192,192,257780,1,0,0:0:0:0:
448,192,257874,1,0,0:0:0:0:
320,192,257968,128,0,258061:0:0:0:0:
64,192,257968,128,0,258155:0:0:0:0:
192,192,258061,1,0,0:0:0:0:
320,192,258155,1,0,0:0:0:0:
64,192,258249,1,0,0:0:0:0:
448,192,258343,128,0,258436:0:0:0:0:
192,192,258343,128,0,258624:0:0:0:0:
320,192,258436,1,0,0:0:0:0:
64,192,258530,1,0,0:0:0:0:
320,192,258624,1,0,0:0:0:0:
448,192,258718,128,0,258811:0:0:0:0:
192,192,258718,128,0,258905:0:0:0:0:
64,192,258811,1,0,0:0:0:0:
320,192,258905,1,0,0:0:0:0:
192,192,258999,1,0,0:0:0:0:
448,192,259093,128,0,259186:0:0:0:0:
320,192,259093,128,0,259374:0:0:0:0:
64,192,259186,1,0,0:0:0:0:
192,192,259280,1,0,0:0:0:0:
448,192,259374,1,0,0:0:0:0:
192,192,259468,128,0,259561:0:0:0:0:
320,192,259468,128,0,259655:0:0:0:0:
64,192,259561,1,0,0:0:0:0:
448,192,259655,1,0,0:0:0:0:
320,192,259749,1,0,0:0:0:0:
64,192,259843,128,0,259936:0:0:0:0:
192,192,259843,128,0,260124:0:0:0:0:
448,192,259936,1,0,0:0:0:0:
320,192,260030,1,0,0:0:0:0:
64,192,260124,1,0,0:0:0:0:
320,192,260218,128,0,260311:0:0:0:0:
192,192,260218,128,0,260405:0:0:0:0:
448,192,260311,1,0,0:0:0:0:
64,192,260405,1,0,0:0:0:0:
192,192,260499,1,0,0:0:0:0:
320,192,260593,128,0,260686:0:0:0:0:
448,192,260593,128,0,260874:0:0:0:0:
192,192,260686,1,0,0:0:0:0:
320,192,260780,1,0,0:0:0:0:
64,192,260874,1,0,0:0:0:0:
192,192,260968,128,0,261061:0:0:0:0:
448,192,260968,128,0,261155:0:0:0:0:
320,192,261061,1,0,0:0:0:0:
192,192,261155,1,0,0:0:0:0:
448,192,261249,1,0,0:0:0:0:
64,192,261343,128,0,261436:0:0:0:0:
320,192,261343,128,0,261624:0:0:0:0:
192,192,261436,1,0,0:0:0:0:
448,192,261530,1,0,0:0:0:0:
192,192,261624,1,0,0:0:0:0:
64,192,261718,128,0,261811:0:0:0:0:
320,192,261718,128,0,261905:0:0:0:0:
448,192,261811,1,0,0:0:0:0:
192,192,261905,1,0,0:0:0:0:
320,192,261999,1,0,0:0:0:0:
64,192,262093,128,0,262186:0:0:0:0:
192,192,262093,128,0,262374:0:0:0:0:
448,192,262186,1,0,0:0:0:0:
320,192,262280,1,0,0:0:0:0:
64,192,262374,1,0,0:0:0:0:
320,192,262468,128,0,262561:0:0:0:0:
192,192,262468,128,0,262655:0:0:0:0:
448,192,262561,1,0,0:0:0:0:
64,192,262655,1,0,0:0:0:0:
192,192,262749,1,0,0:0:0:0:
64,192,262843,128,0,263124:0:0:0:0:
448,192,262843,128,0,262936:0:0:0:0:
320,192,262936,1,0,0:0:0:0:
192,192,263030,1,0,0:0:0:0:
448,192,263124,1,0,0:0:0:0:
320,192,263218,128,0,263311:0:0:0:0:
64,192,263218,128,0,263405:0:0:0:0:
192,192,263311,1,0,0:0:0:0:
448,192,263405,1,0,0:0:0:0:
192,192,263499,1,0,0:0:0:0:
64,192,263593,1,0,0:0:0:0:
320,192,263593,128,0,269593:0:0:0:0:
448,192,263593,128,0,269593:0:0:0:0:
