osu file format v14

[General]
AudioFilename: audio.mp3
AudioLeadIn: 0
PreviewTime: 83204
Countdown: 0
SampleSet: Normal
StackLeniency: 0.7
Mode: 2
LetterboxInBreaks: 0
WidescreenStoryboard: 1

[Editor]
Bookmarks: 3204,14804,16004,32004,44804,57604,70404,83204,96004,108804,121604,134404,147204,160004,172804,185604,198404,211204,224004,236804,252804,262404
DistanceSpacing: 1.2
BeatDivisor: 4
GridSize: 4
TimelineZoom: 1.800001

[Metadata]
Title:ULT!MATE END
TitleUnicode:ULT!MATE END
Artist:BlackY
ArtistUnicode:BlackY
Creator:Deif
Version:Hyperion's Platter
Source:
Tags:autofanboy alienflybot afb Hanikawa Kurose Hanikawa_Kurose Hanik AutoLS Nosuri -MomoX Jemzuu AJamez JierYagtama JeirYagtama Stardust Prism Stardustprism Stardust_Prism Mafumafu Regraz JBHyperion JBH Hyperion 050 bigh zonda bighzonda WAiKURO BEATFLOOR ULTIMATE Featured Artist Mappers' Guild MPG cmwc 2021 cmwc2021 cmwc'21 osu!catch mapping world cup RENAISSANCE SPEEDCORE Electronic Instrumental
BeatmapID:3435221
BeatmapSetID:1618360

[Difficulty]
HPDrainRate:3
CircleSize:3
OverallDifficulty:8.2
ApproachRate:8.2
SliderMultiplier:0.85
SliderTickRate:1

[Events]
//Background and Video events
0,0,"BG.jpg",0,0
//Break Periods
2,70604,75204
2,110604,114484
2,147604,152004
2,237004,238404
//Storyboard Layer 0 (Background)
//Storyboard Layer 1 (Fail)
//Storyboard Layer 2 (Pass)
//Storyboard Layer 3 (Foreground)
//Storyboard Layer 4 (Overlay)
//Storyboard Sound Samples
Sample,3204,0,"LR_NBell_C5.wav",30
Sample,4804,0,"LR_NBell_G#4.wav",30
Sample,6404,0,"LR_NBell_A#4.wav",30
Sample,8004,0,"LR_NBell_G#4.wav",30
Sample,9604,0,"LR_NBell_C5.wav",30
Sample,11204,0,"LR_NBell_G#4.wav",30
Sample,12804,0,"LR_NBell_A#4.wav",30
Sample,14404,0,"LR_NBell_G#4.wav",30
Sample,16004,0,"LR_NBell_C5.wav",40
Sample,17604,0,"LR_NBell_G#4.wav",40
Sample,19204,0,"LR_NBell_A#4.wav",40
Sample,20804,0,"LR_NBell_G#4.wav",40
Sample,22404,0,"LR_NBell_A#4.wav",40
Sample,25604,0,"LR_NBell_G#4.wav",40
Sample,30204,0,"aaaaaaaaaa.mp3",75

[TimingPoints]
3204,200,4,2,0,40,1,0
3204,-200,4,2,0,40,0,0
3337,-100,4,2,0,10,0,0
4804,-100,4,2,0,40,0,0
6404,-200,4,2,0,40,0,0
6537,-100,4,2,0,10,0,0
8004,-100,4,2,0,40,0,0
9604,-133.333333333333,4,2,0,40,0,0
9870,-133.333333333333,4,3,0,20,0,0
10137,-133.333333333333,4,2,0,40,0,0
10270,-133.333333333333,4,3,0,20,0,0
10537,-133.333333333333,4,2,0,40,0,0
10670,-133.333333333333,4,3,0,20,0,0
10804,-133.333333333333,4,2,0,40,0,0
10937,-133.333333333333,4,3,0,20,0,0
11070,-133.333333333333,4,2,0,40,0,0
11337,-133.333333333333,4,3,0,20,0,0
11604,-133.333333333333,4,2,0,40,0,0
11737,-133.333333333333,4,3,0,20,0,0
12004,-133.333333333333,4,2,0,40,0,0
12137,-133.333333333333,4,3,0,20,0,0
12271,-133.333333333333,4,2,0,40,0,0
12404,-133.333333333333,4,3,0,20,0,0
12537,-133.333333333333,4,2,0,20,0,0
12670,-133.333333333333,4,2,0,30,0,0
12804,-133.333333333333,4,2,0,40,0,0
13070,-133.333333333333,4,3,0,20,0,0
13337,-133.333333333333,4,2,0,40,0,0
13470,-133.333333333333,4,3,0,20,0,0
13737,-133.333333333333,4,2,0,40,0,0
13870,-133.333333333333,4,3,0,20,0,0
14004,-133.333333333333,4,2,0,40,0,0
14137,-133.333333333333,4,3,0,20,0,0
14270,-133.333333333333,4,2,0,40,0,0
14537,-133.333333333333,4,3,0,20,0,0
14804,-133.333333333333,4,2,0,40,0,0
14937,-133.333333333333,4,3,0,20,0,0
15204,-133.333333333333,4,2,0,40,0,0
15337,-133.333333333333,4,3,0,20,0,0
15471,-133.333333333333,4,2,0,40,0,0
15604,-133.333333333333,4,3,0,20,0,0
15737,-133.333333333333,4,2,0,20,0,0
15870,-133.333333333333,4,2,0,30,0,0
16004,-100,4,2,51,50,0,0
16137,-100,4,2,0,50,0,0
16270,-100,4,3,0,30,0,0
16537,-100,4,2,0,50,0,0
16670,-100,4,3,0,30,0,0
16937,-100,4,2,0,50,0,0
17070,-100,4,3,0,30,0,0
17204,-100,4,2,0,50,0,0
17337,-100,4,3,0,30,0,0
17470,-100,4,2,0,50,0,0
17737,-100,4,3,0,30,0,0
18004,-100,4,2,0,50,0,0
18137,-100,4,3,0,30,0,0
18404,-100,4,2,0,50,0,0
18537,-100,4,3,0,30,0,0
18671,-100,4,2,0,50,0,0
18804,-100,4,3,0,30,0,0
18937,-100,4,2,0,30,0,0
19070,-100,4,2,0,40,0,0
19204,-100,4,2,0,50,0,0
19470,-100,4,3,0,30,0,0
19737,-100,4,2,0,50,0,0
19870,-100,4,3,0,30,0,0
20137,-100,4,2,0,50,0,0
20270,-100,4,3,0,30,0,0
20404,-100,4,2,0,50,0,0
20537,-100,4,3,0,30,0,0
20670,-100,4,2,0,50,0,0
20937,-100,4,3,0,30,0,0
21204,-100,4,2,0,50,0,0
21337,-100,4,3,0,30,0,0
21604,-100,4,2,0,50,0,0
21737,-100,4,3,0,30,0,0
21871,-100,4,2,0,50,0,0
22004,-100,4,3,0,20,0,0
22137,-100,4,2,0,30,0,0
22270,-100,4,2,0,40,0,0
22537,-100,4,3,0,30,0,0
22804,-100,4,2,0,50,0,0
22937,-100,4,3,0,30,0,0
23204,-100,4,2,0,50,0,0
23337,-100,4,3,0,30,0,0
23604,-100,4,2,0,50,0,0
23737,-100,4,3,0,30,0,0
24004,-100,4,2,0,50,0,0
24137,-100,4,2,0,30,0,0
24270,-100,4,3,0,30,0,0
24537,-100,4,2,0,50,0,0
24670,-100,4,3,0,30,0,0
24937,-100,4,2,0,50,0,0
25070,-100,4,3,0,30,0,0
25337,-100,4,2,0,50,0,0
25737,-100,4,3,0,30,0,0
26004,-100,4,2,0,50,0,0
26137,-100,4,3,0,30,0,0
26404,-100,4,2,0,50,0,0
26537,-100,4,3,0,30,0,0
26804,-100,4,2,0,50,0,0
26937,-100,4,3,0,30,0,0
27204,-100,4,2,0,50,0,0
27337,-100,4,2,0,30,0,0
27470,-100,4,3,0,30,0,0
27737,-100,4,2,0,50,0,0
28004,-100,4,3,0,30,0,0
28270,-100,4,2,0,50,0,0
28537,-100,4,3,0,30,0,0
28804,-100,4,2,51,25,0,0
29004,-100,4,2,0,25,0,0
29204,-100,4,2,0,50,0,0
29404,-100,4,2,0,25,0,0
29604,-100,4,2,0,50,0,0
29804,-100,4,2,0,25,0,0
30004,-100,4,2,0,50,0,0
30204,-100,4,2,0,25,0,0
30404,-100,4,2,0,50,0,0
30604,-100,4,2,0,25,0,0
30804,-100,4,2,0,50,0,0
31004,-100,4,2,0,25,0,0
31204,-100,4,2,0,50,0,0
31404,-100,4,2,0,25,0,0
31604,-100,4,2,51,60,0,0
32004,-100,4,1,51,60,0,1
32204,-100,4,1,0,50,0,1
32304,-100,4,1,51,60,0,1
32604,-100,4,1,0,50,0,1
32704,-100,4,1,51,60,0,1
33004,-100,4,1,0,50,0,1
33104,-100,4,1,51,60,0,1
33404,-100,4,1,0,50,0,1
33504,-100,4,1,51,45,0,1
33604,-100,4,1,51,60,0,1
33804,-100,4,1,0,50,0,1
33904,-100,4,1,51,60,0,1
34204,-100,4,1,0,50,0,1
34304,-100,4,1,51,60,0,1
34604,-100,4,1,0,50,0,1
34704,-100,4,1,51,60,0,1
34904,-100,4,2,0,45,0,1
34954,-100,4,1,51,60,0,1
35104,-100,4,2,0,45,0,1
35154,-100,4,1,51,60,0,1
35404,-100,4,1,0,50,0,1
35504,-100,4,1,51,60,0,1
35804,-100,4,1,0,50,0,1
35904,-100,4,1,51,60,0,1
36204,-100,4,1,0,50,0,1
36304,-100,4,1,51,60,0,1
36604,-100,4,1,0,50,0,1
36704,-100,4,1,51,45,0,1
36804,-100,4,1,51,60,0,1
37004,-100,4,1,0,50,0,1
37104,-100,4,1,51,60,0,1
37404,-100,4,1,0,50,0,1
37504,-100,4,1,51,60,0,1
37904,-100,4,2,0,45,0,1
37954,-100,4,1,51,60,0,1
38104,-100,4,2,0,45,0,1
38154,-100,4,1,51,60,0,1
39004,-100,4,1,0,50,0,1
39104,-100,4,1,51,60,0,1
39404,-100,4,1,0,50,0,1
39504,-100,4,1,51,60,0,1
39804,-100,4,1,0,50,0,1
39904,-100,4,1,51,45,0,1
40004,-100,4,1,51,60,0,1
40204,-100,4,1,0,50,0,1
40304,-100,4,1,51,60,0,1
40604,-100,4,1,0,50,0,1
40704,-100,4,1,51,60,0,1
41004,-100,4,1,0,50,0,1
41104,-100,4,1,51,60,0,1
41304,-100,4,2,0,45,0,1
41354,-100,4,1,51,60,0,1
41504,-100,4,2,0,45,0,1
41554,-100,4,1,51,60,0,1
41604,-100,4,1,51,50,0,1
41804,-100,4,1,0,50,0,1
41904,-100,4,1,51,60,0,1
42204,-100,4,1,0,50,0,1
42304,-100,4,1,51,60,0,1
42604,-100,4,1,0,50,0,1
42704,-100,4,1,51,60,0,1
43004,-100,4,1,0,50,0,1
43104,-100,4,1,51,60,0,1
44004,-100,4,2,0,50,0,0
44804,-100,4,3,51,50,0,1
45004,-100,4,3,51,50,0,0
50604,-100,4,2,0,50,0,0
50804,-100,4,2,0,60,0,0
51004,-100,4,2,0,50,0,0
51204,-100,4,3,51,50,0,0
56404,-80,4,3,51,50,0,0
56804,-100,4,2,0,50,0,0
57604,-100,4,3,51,50,0,0
58504,-100,4,3,51,40,0,0
58604,-100,4,3,51,50,0,0
58704,-100,4,3,51,30,0,0
58804,-100,4,3,51,50,0,0
60104,-100,4,3,51,40,0,0
60204,-100,4,3,51,50,0,0
60304,-100,4,3,51,30,0,0
60404,-100,4,3,51,50,0,0
61704,-100,4,3,51,40,0,0
61804,-100,4,3,51,50,0,0
61904,-100,4,3,51,30,0,0
62004,-100,4,3,51,50,0,0
64904,-100,4,3,51,40,0,0
65004,-100,4,3,51,50,0,0
65104,-100,4,3,51,30,0,0
65204,-100,4,3,51,50,0,0
66504,-100,4,3,51,40,0,0
66604,-100,4,3,51,50,0,0
66704,-100,4,3,51,30,0,0
66804,-100,4,3,51,50,0,0
68804,-100,4,3,51,30,0,0
68870,-100,4,1,51,35,0,0
69204,-100,4,1,51,40,0,0
69604,-100,4,1,51,45,0,0
70004,-100,4,1,51,50,0,0
70404,-100,4,3,51,50,0,0
70604,-100,4,2,52,50,0,0
73504,-100,4,1,51,30,0,0
73604,-100,4,2,52,55,0,0
75104,-100,4,1,51,30,0,0
75204,-100,4,2,52,60,0,0
76804,-100,4,2,53,50,0,0
78404,-100,4,2,53,55,0,0
80004,-100,4,2,53,60,0,0
81604,-100,4,2,0,60,0,0
81804,-100,4,2,0,30,0,0
82004,-100,4,2,0,80,0,0
82204,-100,4,2,0,40,0,0
83204,-100,4,1,52,60,0,1
83304,-100,4,1,51,60,0,1
83404,-100,4,1,52,60,0,1
83704,-100,4,1,51,60,0,1
83804,-100,4,1,52,60,0,1
83904,-100,4,1,51,60,0,1
84004,-100,4,1,52,60,0,1
84104,-100,4,1,0,60,0,1
84404,-100,4,1,0,50,0,1
84504,-100,4,1,51,60,0,1
84604,-100,4,1,0,40,0,1
84704,-100,4,1,51,60,0,1
84804,-100,4,1,52,60,0,1
84904,-100,4,1,51,60,0,1
85004,-100,4,1,52,60,0,1
85304,-100,4,1,51,60,0,1
85404,-100,4,1,52,60,0,1
85504,-100,4,1,51,60,0,1
85604,-100,4,1,52,60,0,1
85704,-100,4,1,51,60,0,1
85804,-100,4,1,52,60,0,1
85904,-100,4,1,51,60,0,1
86004,-100,4,1,0,40,0,1
86104,-100,4,1,51,60,0,1
86204,-100,4,1,0,50,0,1
86304,-100,4,1,51,60,0,1
86404,-100,4,1,52,60,0,1
86504,-100,4,1,51,60,0,1
86604,-100,4,1,52,60,0,1
86904,-100,4,1,51,60,0,1
87004,-100,4,1,52,60,0,1
87104,-100,4,1,51,60,0,1
87204,-100,4,1,52,60,0,1
87304,-100,4,1,0,60,0,1
87604,-100,4,1,0,50,0,1
87704,-100,4,1,51,60,0,1
87804,-100,4,1,0,40,0,1
87904,-100,4,1,51,60,0,1
88004,-100,4,1,52,60,0,1
88104,-100,4,1,51,60,0,1
88204,-100,4,1,52,60,0,1
88504,-100,4,1,51,60,0,1
88604,-100,4,1,52,60,0,1
88704,-100,4,1,51,60,0,1
88804,-100,4,1,52,60,0,1
88904,-100,4,1,0,60,0,1
89004,-100,4,1,51,60,0,1
89104,-100,4,1,0,60,0,1
89204,-100,4,1,51,60,0,1
89304,-100,4,1,0,60,0,1
89404,-100,4,1,51,60,0,1
89604,-100,4,1,52,60,0,1
90104,-100,4,1,51,60,0,1
90204,-100,4,1,52,60,0,1
90304,-100,4,1,51,60,0,1
90404,-100,4,1,52,60,0,1
90504,-100,4,1,0,60,0,1
90804,-100,4,1,0,50,0,1
90904,-100,4,1,51,60,0,1
91004,-100,4,1,0,40,0,1
91104,-100,4,1,51,60,0,1
91204,-100,4,1,52,60,0,1
91704,-100,4,1,51,60,0,1
91804,-100,4,1,52,60,0,1
91904,-100,4,1,51,60,0,1
92004,-100,4,1,52,60,0,1
92404,-100,4,1,0,40,0,1
92504,-100,4,1,51,60,0,1
92604,-100,4,1,0,50,0,1
92704,-100,4,1,51,60,0,1
92804,-100,4,1,51,50,0,1
94404,-100,4,1,52,50,0,1
94804,-80,4,1,52,50,0,1
95204,-100,4,2,0,75,0,0
95804,-100,4,1,0,50,0,0
96004,-100,4,1,53,60,0,1
96104,-100,4,1,51,60,0,1
96204,-100,4,1,53,60,0,1
96504,-100,4,1,51,60,0,1
96604,-100,4,1,53,60,0,1
96704,-100,4,1,51,60,0,1
96804,-100,4,1,53,60,0,1
96904,-100,4,1,0,60,0,1
97204,-100,4,1,0,50,0,1
97304,-100,4,1,51,60,0,1
97404,-100,4,1,0,40,0,1
97504,-100,4,1,51,60,0,1
97604,-100,4,1,53,60,0,1
97704,-100,4,1,51,60,0,1
97804,-100,4,1,53,60,0,1
98104,-100,4,1,51,60,0,1
98204,-100,4,1,53,60,0,1
98304,-100,4,1,51,60,0,1
98404,-100,4,1,53,60,0,1
98504,-100,4,1,51,60,0,1
98604,-100,4,1,53,60,0,1
98704,-100,4,1,51,60,0,1
98804,-100,4,1,0,40,0,1
98904,-100,4,1,51,60,0,1
99004,-100,4,1,0,50,0,1
99104,-100,4,1,51,60,0,1
99204,-100,4,1,53,60,0,1
99304,-100,4,1,51,60,0,1
99404,-100,4,1,53,60,0,1
99704,-100,4,1,51,60,0,1
99804,-100,4,1,53,60,0,1
99904,-100,4,1,51,60,0,1
100004,-100,4,1,53,60,0,1
100104,-100,4,1,0,60,0,1
100404,-100,4,1,0,50,0,1
100504,-100,4,1,51,60,0,1
100604,-100,4,1,0,40,0,1
100704,-100,4,1,51,60,0,1
100804,-100,4,1,53,60,0,1
100904,-100,4,1,51,60,0,1
101004,-100,4,1,53,60,0,1
101304,-100,4,1,51,60,0,1
101404,-100,4,1,53,60,0,1
101504,-100,4,1,51,60,0,1
101604,-100,4,1,53,60,0,1
101704,-100,4,1,0,60,0,1
101804,-100,4,1,51,60,0,1
101904,-100,4,1,0,60,0,1
102004,-100,4,1,51,60,0,1
102104,-100,4,1,0,60,0,1
102204,-100,4,1,51,60,0,1
102404,-100,4,1,53,60,0,1
102504,-100,4,1,51,60,0,1
102604,-100,4,1,53,60,0,1
102904,-100,4,1,51,60,0,1
103004,-100,4,1,53,60,0,1
103104,-100,4,1,51,60,0,1
103204,-100,4,1,53,60,0,1
103304,-100,4,1,0,60,0,1
103604,-100,4,1,0,50,0,1
103704,-100,4,1,51,60,0,1
103804,-100,4,1,0,40,0,1
103904,-100,4,1,51,60,0,1
104004,-100,4,1,53,60,0,1
104104,-100,4,1,51,60,0,1
104204,-100,4,1,53,60,0,1
104504,-100,4,1,51,60,0,1
104604,-100,4,1,53,60,0,1
104704,-100,4,1,51,60,0,1
104804,-100,4,1,53,60,0,1
104904,-100,4,1,51,60,0,1
105004,-100,4,1,53,60,0,1
105104,-100,4,1,51,60,0,1
105204,-100,4,1,0,40,0,1
105304,-100,4,1,51,60,0,1
105404,-100,4,1,0,50,0,1
105504,-100,4,1,51,60,0,1
105604,-100,4,1,53,60,0,1
105704,-100,4,1,51,60,0,1
105804,-100,4,1,53,60,0,1
106104,-100,4,1,51,60,0,1
106204,-100,4,1,53,60,0,1
106304,-100,4,1,51,60,0,1
106404,-100,4,1,53,60,0,1
106504,-100,4,1,0,60,0,1
106804,-100,4,1,0,50,0,1
106904,-100,4,1,51,60,0,1
107004,-100,4,1,0,40,0,1
107104,-100,4,1,51,60,0,1
107204,-100,4,1,53,60,0,1
107304,-100,4,1,51,60,0,1
107404,-100,4,1,53,60,0,1
107704,-100,4,1,51,60,0,1
107804,-100,4,1,53,60,0,1
107904,-100,4,1,51,60,0,1
108004,-100,4,2,0,80,0,0
108304,-100,4,2,0,70,0,0
108604,-100,4,2,0,60,0,0
108804,-90.9090909090909,4,3,51,60,0,1
108829,-100,4,3,51,40,0,1
109004,-100,4,3,51,40,0,0
110004,-100,4,3,51,80,0,0
110104,-100,4,3,51,70,0,0
110204,-100,4,3,51,60,0,0
110304,-100,4,3,51,50,0,0
110404,-100,4,3,51,40,0,0
115204,-100,4,3,0,40,0,0
116804,-100,4,2,0,50,0,0
117904,-100,4,3,0,40,0,0
118204,-100,4,2,0,50,0,0
119604,-100,4,3,0,40,0,0
119804,-100,4,2,60,50,0,0
121629,-100,4,2,0,50,0,0
122004,-100,4,2,60,50,0,0
122029,-100,4,2,60,35,0,0
122404,-100,4,2,61,50,0,0
122429,-100,4,2,60,50,0,0
122604,-100,4,2,60,35,0,0
122629,-100,4,2,60,50,0,0
122904,-100,4,2,61,50,0,0
123204,-100,4,2,61,50,0,0
123229,-100,4,2,61,35,0,0
123304,-100,4,2,60,50,0,0
123329,-100,4,2,61,35,0,0
123404,-100,4,2,60,50,0,0
123429,-100,4,2,61,35,0,0
123504,-100,4,2,60,50,0,0
123529,-100,4,2,61,35,0,0
123604,-100,4,2,60,50,0,0
123629,-100,4,2,61,35,0,0
123704,-100,4,2,60,50,0,0
123729,-100,4,2,61,35,0,0
123804,-100,4,2,60,50,0,0
124004,-100,4,2,61,50,0,0
124204,-100,4,2,0,50,0,0
124804,-100,4,2,60,50,0,0
124829,-100,4,2,0,50,0,0
125204,-100,4,2,60,50,0,0
125229,-100,4,2,60,35,0,0
125604,-100,4,2,61,50,0,0
125704,-100,4,2,0,50,0,0
125804,-100,4,2,60,35,0,0
125829,-100,4,2,60,50,0,0
126004,-100,4,2,60,50,0,0
126129,-100,4,2,60,35,0,0
126204,-100,4,2,0,50,0,0
126304,-100,4,2,60,50,0,0
126329,-100,4,2,60,35,0,0
126404,-100,4,2,60,50,0,0
126429,-100,4,2,60,35,0,0
126504,-100,4,2,60,50,0,0
126529,-100,4,2,60,35,0,0
126604,-100,4,2,60,50,0,0
126629,-100,4,2,0,50,0,0
126729,-100,4,2,60,60,0,0
126804,-100,4,2,60,50,0,0
126829,-100,4,2,0,50,0,0
127004,-100,4,2,60,50,0,0
127229,-100,4,2,61,35,0,0
127404,-100,4,2,61,50,0,0
127429,-100,4,2,61,35,0,0
127604,-100,4,2,61,50,0,0
127629,-100,4,2,61,35,0,0
127804,-100,4,2,61,50,0,0
127829,-100,4,2,60,35,0,0
127904,-100,4,2,61,50,0,0
127929,-100,4,2,60,35,0,0
128004,-100,4,2,60,50,0,0
128029,-100,4,2,0,50,0,0
128404,-100,4,2,60,50,0,0
128429,-100,4,2,60,35,0,0
128804,-100,4,2,61,50,0,0
128829,-100,4,2,60,50,0,0
129004,-100,4,2,60,35,0,0
129029,-100,4,2,60,50,0,0
129204,-100,4,2,60,50,0,0
129304,-100,4,2,61,50,0,0
129404,-100,4,2,60,50,0,0
129604,-100,4,2,61,50,0,0
129629,-100,4,2,61,35,0,0
129704,-100,4,2,60,50,0,0
129729,-100,4,2,61,35,0,0
129804,-100,4,2,60,50,0,0
129829,-100,4,2,61,35,0,0
129904,-100,4,2,60,50,0,0
129929,-100,4,2,61,35,0,0
130004,-100,4,2,60,50,0,0
130029,-100,4,2,61,35,0,0
130104,-100,4,2,60,50,0,0
130129,-100,4,2,61,35,0,0
130204,-100,4,2,60,50,0,0
130404,-100,4,2,61,50,0,0
130604,-100,4,2,0,50,0,0
130654,-100,4,1,51,40,0,0
131229,-100,4,2,0,50,0,0
131604,-100,4,2,60,50,0,0
131629,-100,4,2,60,35,0,0
132004,-100,4,2,61,50,0,0
132029,-100,4,2,60,50,0,0
132204,-100,4,2,60,35,0,0
132229,-100,4,2,60,50,0,0
132404,-100,4,2,60,50,0,0
132504,-100,4,2,61,50,0,0
132804,-100,4,2,60,50,0,0
132904,-100,4,2,0,40,0,0
133604,-100,4,2,60,50,0,0
133654,-100,4,2,0,50,0,0
133904,-100,4,2,60,50,0,0
133954,-100,4,2,0,50,0,0
134204,-100,4,2,60,50,0,0
134304,-100,4,2,0,50,0,0
134404,-100,4,1,53,50,0,0
135204,-100,4,2,61,50,0,0
135229,-100,4,2,60,50,0,0
135404,-100,4,2,60,35,0,0
135504,-100,4,2,60,50,0,0
135529,-100,4,2,60,35,0,0
135604,-100,4,2,60,50,0,0
135629,-100,4,2,60,35,0,0
135704,-100,4,2,61,50,0,0
136004,-100,4,2,61,50,0,0
136029,-100,4,2,61,35,0,0
136104,-100,4,2,60,50,0,0
136129,-100,4,2,61,35,0,0
136204,-100,4,2,60,50,0,0
136229,-100,4,2,61,35,0,0
136304,-100,4,2,60,50,0,0
136329,-100,4,2,61,35,0,0
136404,-100,4,2,60,50,0,0
136429,-100,4,2,61,35,0,0
136504,-100,4,2,60,50,0,0
136529,-100,4,2,61,35,0,0
136604,-100,4,2,60,50,0,0
136629,-100,4,2,61,35,0,0
136704,-100,4,2,60,50,0,0
136804,-100,4,2,61,50,0,0
137004,-100,4,2,60,50,0,0
137204,-100,4,2,60,50,0,0
137229,-100,4,2,61,35,0,0
137404,-100,4,2,60,50,0,0
137429,-100,4,2,61,35,0,0
137604,-100,4,2,0,50,0,0
138004,-83.3333333333333,4,2,60,50,0,0
138070,-100,4,2,60,35,0,0
138404,-100,4,2,61,50,0,0
138470,-100,4,2,60,35,0,0
138604,-100,4,2,60,50,0,0
138670,-100,4,2,60,35,0,0
138804,-100,4,2,60,50,0,0
138870,-100,4,2,60,35,0,0
139204,-100,4,2,60,50,0,0
139229,-100,4,2,60,35,0,0
139604,-100,4,2,60,50,0,0
139629,-100,4,2,0,50,0,0
139804,-100,4,2,60,35,0,0
139854,-100,4,2,60,50,0,0
140004,-100,4,2,60,50,0,0
140029,-100,4,2,61,35,0,0
140204,-100,4,2,60,50,0,0
140229,-100,4,2,61,35,0,0
140304,-100,4,2,60,35,0,0
140329,-100,4,2,61,35,0,0
140404,-100,4,2,61,50,0,0
140429,-100,4,2,61,35,0,0
140504,-100,4,2,60,35,0,0
140529,-100,4,2,61,35,0,0
140604,-100,4,2,61,50,0,0
140629,-100,4,2,60,35,0,0
140704,-100,4,2,61,50,0,0
140729,-100,4,2,60,35,0,0
140804,-100,4,2,60,50,0,0
140829,-100,4,2,60,35,0,0
141204,-100,4,2,60,50,0,0
141254,-100,4,2,60,35,0,0
141604,-100,4,2,60,50,0,0
141654,-100,4,2,60,35,0,0
141804,-100,4,2,61,50,0,0
141829,-100,4,2,60,35,0,0
141904,-100,4,2,61,50,0,0
141929,-100,4,2,60,35,0,0
142004,-100,4,2,60,50,0,0
142054,-100,4,2,60,35,0,0
142104,-100,4,2,61,50,0,0
142129,-100,4,2,60,35,0,0
142404,-100,4,2,60,50,0,0
142529,-66.6666666666667,4,2,60,35,0,0
142604,-66.6666666666667,4,2,60,50,0,0
142729,-66.6666666666667,4,2,60,35,0,0
142804,-66.6666666666667,4,2,60,50,0,0
142929,-66.6666666666667,4,2,60,35,0,0
143004,-66.6666666666667,4,2,60,50,0,0
143129,-66.6666666666667,4,2,60,35,0,0
143204,-100,4,1,53,50,0,0
143604,-100,4,2,0,50,0,0
143654,-100,4,1,53,50,0,0
143804,-100,4,2,0,50,0,0
143854,-100,4,1,53,50,0,0
144004,-100,4,2,0,60,0,0
144204,-100,4,2,0,30,0,0
144404,-100,4,2,0,60,0,0
144604,-100,4,2,0,30,0,0
144804,-100,4,2,0,80,0,0
145004,-100,4,2,0,40,0,0
145204,-100,4,2,0,60,0,0
145404,-100,4,2,0,30,0,0
145604,-100,4,2,0,80,0,0
145804,-100,4,2,0,40,0,0
146004,-100,4,2,0,60,0,0
146204,-100,4,2,0,30,0,0
146404,-100,4,2,0,80,0,0
146454,-100,4,1,53,50,0,0
146604,-100,4,2,0,60,0,0
146654,-100,4,1,53,50,0,0
146804,-100,4,2,0,60,0,0
146854,-100,4,1,53,50,0,0
147004,-100,4,2,0,60,0,0
147054,-100,4,1,53,50,0,0
147204,-100,4,2,54,50,0,0
160004,-100,4,2,54,55,0,0
163204,-100,4,2,55,55,0,0
164804,-100,4,2,55,60,0,0
166404,-100,4,2,55,65,0,0
166504,-100,4,3,0,70,0,0
166604,-100,4,2,55,65,0,0
166704,-100,4,3,0,70,0,0
166804,-100,4,2,55,65,0,0
166904,-100,4,3,0,70,0,0
167004,-100,4,2,55,65,0,0
167104,-100,4,3,0,70,0,0
167204,-100,4,2,55,65,0,0
167304,-100,4,3,0,70,0,0
167404,-100,4,2,55,65,0,0
167504,-100,4,3,0,70,0,0
167604,-100,4,2,55,65,0,0
167704,-100,4,3,0,70,0,0
167804,-100,4,2,55,65,0,0
167904,-100,4,3,0,70,0,0
168004,-100,4,2,55,70,0,0
168104,-100,4,3,0,75,0,0
168204,-100,4,2,55,70,0,0
168304,-100,4,3,0,75,0,0
168404,-100,4,2,55,70,0,0
168504,-100,4,3,0,75,0,0
168604,-100,4,2,55,70,0,0
168704,-100,4,3,0,75,0,0
168804,-100,4,2,55,70,0,0
168904,-100,4,3,0,75,0,0
169004,-100,4,2,55,70,0,0
169104,-100,4,3,0,75,0,0
169204,-90.9090909090909,4,2,55,70,0,0
169304,-90.9090909090909,4,3,0,75,0,0
169404,-90.9090909090909,4,2,55,70,0,0
169504,-100,4,3,0,75,0,0
169604,-100,4,2,55,70,0,0
169654,-100,4,3,0,40,0,0
170004,-100,4,3,0,50,0,0
170404,-100,4,3,0,60,0,0
170804,-100,4,3,0,70,0,0
171204,-50,4,3,0,80,0,0
171404,-50,4,2,0,50,0,0
172404,-100,4,2,0,50,0,0
172504,-100,4,2,0,40,0,0
172604,-100,4,2,0,30,0,0
172704,-100,4,2,0,20,0,0
172804,-100,4,3,52,50,0,0
180404,-100,4,3,52,50,0,0
180804,-100,4,3,52,50,0,0
182804,-90.9090909090909,4,3,52,50,0,0
183204,-100,4,3,52,50,0,0
184004,-90.9090909090909,4,3,52,50,0,0
185604,-100,4,1,51,50,0,0
188529,-100,4,3,0,35,0,0
188604,-100,4,1,51,50,0,0
188804,-100,4,1,51,55,0,0
191604,-100,4,2,60,60,0,0
191704,-100,4,2,61,60,0,0
191804,-100,4,2,60,60,0,0
191904,-100,4,2,61,60,0,0
192004,-100,4,2,0,30,0,0
192404,-100,4,2,0,32,0,0
192804,-100,4,2,0,34,0,0
193204,-100,4,2,0,36,0,0
193604,-100,4,2,0,38,0,0
194004,-100,4,2,0,40,0,0
194404,-100,4,2,0,42,0,0
194804,-100,4,2,0,44,0,0
195204,-100,4,2,0,48,0,0
195604,-100,4,2,0,52,0,0
196004,-100,4,2,0,56,0,0
196804,-100,4,2,0,60,0,0
197004,-100,4,2,0,50,0,0
197204,-100,4,1,0,75,0,0
197404,-100,4,1,0,50,0,0
197604,-100,4,2,0,50,0,0
198004,-100,4,2,54,70,0,0
198404,-100,4,1,52,60,0,1
198604,-100,4,1,51,60,0,1
198804,-100,4,1,52,60,0,1
199004,-100,4,1,51,60,0,1
199204,-100,4,1,52,60,0,1
199404,-100,4,1,51,60,0,1
199604,-100,4,1,52,60,0,1
199804,-100,4,1,51,60,0,1
200004,-100,4,1,52,60,0,1
200204,-100,4,1,51,60,0,1
200404,-100,4,1,52,60,0,1
200604,-100,4,1,51,60,0,1
200804,-100,4,1,52,60,0,1
201004,-100,4,1,51,60,0,1
201104,-100,4,1,0,60,0,1
201204,-100,4,1,52,60,0,1
201304,-100,4,1,0,60,0,1
201404,-100,4,1,51,60,0,1
201604,-100,4,1,52,60,0,1
201804,-100,4,1,51,60,0,1
202004,-100,4,1,52,60,0,1
202204,-100,4,1,51,60,0,1
202404,-100,4,1,52,60,0,1
202604,-100,4,1,51,60,0,1
202804,-100,4,1,54,60,0,1
203204,-100,4,1,52,60,0,1
203404,-100,4,1,51,60,0,1
203704,-100,4,1,54,60,0,1
203854,-100,4,1,51,60,0,1
203904,-100,4,1,54,60,0,1
204004,-100,4,1,52,60,0,1
204204,-100,4,1,51,60,0,1
204304,-100,4,1,54,60,0,1
204654,-100,4,1,51,60,0,1
204804,-100,4,1,52,60,0,1
205004,-100,4,1,51,60,0,1
205204,-100,4,1,52,60,0,1
205404,-100,4,1,51,60,0,1
205504,-100,4,1,52,60,0,1
205704,-100,4,1,51,60,0,1
206004,-100,4,1,54,60,0,1
206404,-100,4,1,52,60,0,1
206604,-100,4,1,51,60,0,1
206804,-100,4,1,52,60,0,1
207004,-100,4,1,54,60,0,1
207204,-100,4,1,52,60,0,1
207404,-100,4,1,51,60,0,1
207604,-100,4,1,52,60,0,1
207804,-100,4,1,51,60,0,1
208004,-100,4,1,54,60,0,1
208104,-100,4,1,52,60,0,1
208204,-100,4,1,54,60,0,1
208804,-100,4,1,52,60,0,1
209004,-100,4,1,51,60,0,1
209204,-100,4,1,52,60,0,1
209404,-100,4,1,51,60,0,1
209604,-100,4,3,0,75,0,1
210004,-100,4,1,54,50,0,1
210054,-100,4,1,51,50,0,1
210104,-100,4,1,54,50,0,1
210154,-100,4,1,51,50,0,1
210204,-100,4,1,54,50,0,1
210254,-100,4,1,51,50,0,1
210304,-100,4,1,52,50,0,1
210354,-100,4,1,51,50,0,1
210404,-100,4,1,52,50,0,1
210454,-100,4,1,51,50,0,1
210504,-100,4,1,52,50,0,1
210554,-100,4,1,51,50,0,1
210604,-100,4,1,52,50,0,1
210654,-100,4,1,51,50,0,1
210704,-100,4,1,52,50,0,1
210754,-100,4,1,51,50,0,1
210804,-100,4,1,52,50,0,1
210854,-100,4,1,51,50,0,1
210904,-100,4,1,52,50,0,1
210954,-100,4,1,51,50,0,1
211004,-100,4,1,54,50,0,1
211054,-100,4,1,51,50,0,1
211104,-100,4,1,54,50,0,1
211154,-100,4,1,51,50,0,1
211204,-100,4,1,53,60,0,1
211404,-100,4,1,51,60,0,1
211604,-100,4,1,53,60,0,1
211804,-100,4,1,51,60,0,1
212004,-100,4,1,53,60,0,1
212204,-100,4,1,51,60,0,1
212404,-100,4,1,53,60,0,1
212604,-100,4,1,51,60,0,1
212804,-100,4,1,53,60,0,1
213004,-100,4,1,51,60,0,1
213204,-100,4,1,53,60,0,1
213404,-100,4,1,51,60,0,1
213604,-100,4,1,53,60,0,1
213804,-100,4,1,51,60,0,1
213904,-100,4,1,0,60,0,1
214004,-100,4,1,53,60,0,1
214104,-100,4,1,0,60,0,1
214204,-100,4,1,51,60,0,1
214404,-100,4,1,53,60,0,1
214604,-100,4,1,51,60,0,1
214804,-100,4,1,53,60,0,1
215004,-100,4,1,51,60,0,1
215204,-100,4,1,53,60,0,1
215404,-100,4,1,51,60,0,1
215604,-100,4,1,54,60,0,1
216004,-100,4,1,53,60,0,1
216204,-100,4,1,51,60,0,1
216504,-100,4,1,54,60,0,1
216704,-100,4,1,54,60,0,1
216804,-100,4,1,53,60,0,1
217004,-100,4,1,51,60,0,1
217104,-100,4,1,54,60,0,1
217454,-100,4,1,51,60,0,1
217604,-100,4,1,53,60,0,1
217804,-100,4,1,51,60,0,1
218004,-100,4,1,53,60,0,1
218204,-100,4,1,51,60,0,1
218304,-100,4,1,53,60,0,1
218504,-100,4,1,51,60,0,1
218804,-100,4,1,54,60,0,1
219204,-100,4,1,53,60,0,1
219404,-100,4,1,51,60,0,1
219604,-100,4,1,53,60,0,1
219804,-100,4,1,54,60,0,1
220004,-100,4,1,53,60,0,1
220204,-100,4,1,51,60,0,1
220404,-100,4,1,53,60,0,1
220604,-100,4,1,51,60,0,1
220804,-100,4,1,54,60,0,1
220904,-100,4,1,53,60,0,1
221004,-100,4,1,54,60,0,1
221604,-100,4,1,53,60,0,1
221804,-100,4,1,51,60,0,1
222004,-100,4,1,53,60,0,1
222204,-100,4,1,51,60,0,1
222404,-100,4,2,0,50,0,0
222470,-100,4,2,0,35,0,0
222537,-100,4,2,0,50,0,0
222603,-100,4,2,0,35,0,0
222670,-100,4,2,0,50,0,0
222736,-100,4,2,0,35,0,0
222804,-100,4,2,0,45,0,0
222870,-100,4,2,0,30,0,0
222937,-100,4,2,0,45,0,0
223003,-100,4,2,0,30,0,0
223070,-100,4,2,0,45,0,0
223136,-100,4,2,0,30,0,0
223204,-100,4,2,0,40,0,0
223270,-100,4,2,0,25,0,0
223337,-100,4,2,0,40,0,0
223403,-100,4,2,0,25,0,0
223470,-100,4,2,0,40,0,0
223536,-100,4,2,0,25,0,0
223604,-100,4,2,54,70,0,0
224004,-100,4,3,51,50,0,1
224904,-100,4,3,51,40,0,1
225004,-100,4,3,51,50,0,1
225104,-100,4,3,51,30,0,1
225204,-100,4,3,51,50,0,1
226504,-100,4,3,51,40,0,1
226604,-100,4,3,51,50,0,1
226704,-100,4,3,51,30,0,1
226804,-100,4,3,51,50,0,1
228104,-100,4,3,51,40,0,1
228204,-100,4,3,51,50,0,1
228304,-100,4,3,51,30,0,1
228404,-100,4,3,51,50,0,1
229904,-100,4,2,0,50,0,1
230204,-100,4,2,0,50,0,1
231304,-100,4,3,51,40,0,1
231404,-100,4,3,51,50,0,1
231504,-100,4,3,51,30,0,1
231604,-100,4,3,51,50,0,1
232904,-100,4,3,51,40,0,1
233004,-100,4,3,51,50,0,1
233104,-100,4,3,51,30,0,1
233204,-100,4,3,51,50,0,1
235204,-100,4,3,51,30,0,1
235404,-100,4,2,0,30,0,1
236537,-100,4,2,0,40,0,1
236670,-100,4,2,0,50,0,1
236804,-100,4,2,0,50,0,0
238104,-100,4,3,0,40,0,0
238204,-100,4,2,0,50,0,0
238304,-100,4,3,0,40,0,0
238404,-100,4,2,0,50,0,0
238937,-100,4,2,0,30,0,0
239070,-100,4,2,0,40,0,0
239204,-100,4,2,0,50,0,0
239604,-100,4,2,51,60,0,0
239804,-100,4,3,0,60,0,0
240004,-100,4,1,53,60,0,1
240104,-100,4,1,51,60,0,1
240204,-100,4,1,53,60,0,1
240504,-100,4,1,51,60,0,1
240604,-100,4,1,53,60,0,1
240704,-100,4,1,51,60,0,1
240804,-100,4,1,53,60,0,1
240904,-100,4,1,0,60,0,1
241204,-100,4,1,0,50,0,1
241304,-100,4,1,51,60,0,1
241404,-100,4,1,0,40,0,1
241504,-100,4,1,51,60,0,1
241604,-100,4,1,53,60,0,1
241704,-100,4,1,51,60,0,1
241804,-100,4,1,53,60,0,1
242104,-100,4,1,51,60,0,1
242204,-100,4,1,53,60,0,1
242304,-100,4,1,51,60,0,1
242404,-100,4,1,53,60,0,1
242504,-100,4,1,53,80,0,1
243004,-100,4,1,0,50,0,1
243104,-100,4,1,51,60,0,1
243204,-100,4,1,53,60,0,1
243304,-100,4,1,51,60,0,1
243404,-100,4,1,53,60,0,1
243704,-100,4,1,51,60,0,1
243804,-100,4,1,53,60,0,1
243904,-100,4,1,51,60,0,1
244004,-100,4,1,53,60,0,1
244104,-100,4,1,0,60,0,1
244404,-100,4,1,0,50,0,1
244504,-100,4,1,51,60,0,1
244604,-100,4,1,0,40,0,1
244704,-100,4,1,51,60,0,1
244804,-100,4,1,53,60,0,1
244904,-100,4,1,51,60,0,1
245004,-100,4,1,53,60,0,1
245304,-100,4,1,51,60,0,1
245404,-100,4,1,53,60,0,1
245504,-100,4,1,51,60,0,1
245604,-100,4,1,53,60,0,1
245704,-100,4,1,0,60,0,1
245804,-100,4,1,51,60,0,1
245904,-100,4,1,0,60,0,1
246004,-100,4,1,51,60,0,1
246104,-100,4,1,0,60,0,1
246204,-100,4,1,51,60,0,1
246404,-100,4,1,53,60,0,1
246504,-100,4,1,51,60,0,1
246604,-100,4,1,53,60,0,1
246904,-100,4,1,51,60,0,1
247004,-100,4,1,53,60,0,1
247104,-100,4,1,51,60,0,1
247204,-100,4,1,53,60,0,1
247304,-100,4,1,0,60,0,1
247604,-100,4,1,0,50,0,1
247704,-100,4,1,51,60,0,1
247804,-100,4,1,0,40,0,1
247904,-100,4,1,51,60,0,1
248004,-100,4,1,53,60,0,1
248104,-100,4,1,51,60,0,1
248204,-100,4,1,53,60,0,1
248504,-100,4,1,51,60,0,1
248604,-100,4,1,53,60,0,1
248704,-100,4,1,51,60,0,1
248804,-100,4,1,53,60,0,1
248904,-100,4,1,53,80,0,1
249404,-100,4,1,0,50,0,1
249504,-100,4,1,51,60,0,1
249604,-100,4,1,53,60,0,1
249704,-100,4,1,51,60,0,1
249804,-100,4,1,53,60,0,1
250104,-100,4,1,51,60,0,1
250204,-100,4,1,53,60,0,1
250304,-100,4,1,51,60,0,1
250404,-100,4,1,53,60,0,1
250504,-100,4,1,0,60,0,1
250804,-100,4,1,0,50,0,1
250904,-100,4,1,51,60,0,1
251004,-100,4,1,0,40,0,1
251104,-100,4,1,51,60,0,1
251204,-100,4,1,53,60,0,1
251304,-100,4,1,51,60,0,1
251404,-100,4,1,53,60,0,1
251704,-100,4,1,51,60,0,1
251804,-100,4,1,53,60,0,1
251904,-100,4,1,51,60,0,1
252004,-100,4,2,0,60,0,0
252204,-100,4,1,0,30,0,0
252404,-100,4,1,0,45,0,0
252604,-100,4,2,0,60,0,0
252804,-100,4,1,53,60,0,1
255304,-100,4,1,53,60,0,1
255504,-100,4,1,53,65,0,1
255704,-100,4,1,53,70,0,0
255904,-90.9090909090909,4,1,53,60,0,1
256104,-100,4,2,0,50,0,0
256404,-100,4,2,0,40,0,0
256604,-100,4,2,0,35,0,0
256804,-100,4,2,0,30,0,0
257004,-100,4,2,0,25,0,0
257204,-100,4,2,0,20,0,0
257404,-100,4,2,0,15,0,0
257604,-100,4,2,54,65,0,0
258004,-100,4,2,0,60,0,0
258404,-100,4,2,0,55,0,0
258804,-100,4,2,0,50,0,0
259204,-100,4,2,0,45,0,0
259604,-100,4,2,0,40,0,0
260004,-100,4,2,0,35,0,0
260404,-100,4,2,0,30,0,0
260804,-100,4,2,0,25,0,0
261204,-100,4,2,0,20,0,0
261604,-100,4,2,0,15,0,0
262004,-100,4,2,0,10,0,0
262404,-100,4,2,0,5,0,0

[Colours]
Combo1 : 66,141,255
Combo2 : 255,255,0
Combo3 : 0,255,255
Combo4 : 255,128,0

[HitObjects]
256,192,3204,6,0,P|372:112|256:8,1,340,2|2,0:0|0:0,0:0:0:0:
256,192,6404,2,0,P|140:112|256:8,1,340,2|2,0:0|0:0,0:0:0:0:
176,192,9604,6,0,P|72:228|20:364,2,255.000009727478,2|2|2,0:0|0:0|0:0,0:0:0:0:
304,192,11604,2,0,L|308:64,1,127.500004863739,0|2,0:0|0:0,0:0:0:0:
156,64,12404,1,0,0:0:0:0:
284,64,12804,6,0,B|388:64|388:232|284:232|284:232|412:232,1,382.500014591218,2|0,0:0|0:0,0:0:0:0:
284,232,14404,1,2,0:0:0:0:
132,236,14804,2,0,L|252:192,1,127.500004863739,0|2,0:0|0:0,0:0:0:0:
100,192,15604,1,0,0:0:0:0:
408,192,16004,6,0,P|444:268|264:368,1,340,6|2,0:0|0:0,0:0:0:0:
228,344,16937,1,0,0:0:0:0:
208,288,17070,1,0,0:0:0:0:
216,232,17204,1,2,0:0:0:0:
248,188,17337,1,0,0:0:0:0:
296,164,17470,1,0,0:0:0:0:
353,162,17604,5,2,0:0:0:0:
388,164,18004,1,0,0:0:0:0:
216,164,18404,1,2,0:0:0:0:
420,164,18804,1,0,0:0:0:0:
468,132,18937,1,2,0:0:0:0:
420,108,19070,1,2,0:0:0:0:
364,108,19204,6,0,P|252:192|368:308,1,340,0|2,0:0|0:0,0:0:0:0:
306,300,20137,1,0,0:0:0:0:
254,278,20270,1,0,0:0:0:0:
210,242,20403,1,2,0:0:0:0:
178,196,20537,1,0,0:0:0:0:
159,143,20670,1,0,0:0:0:0:
155,86,20803,5,2,0:0:0:0:
256,24,21204,1,0,0:0:0:0:
80,24,21604,1,0,0:0:0:0:
79,90,21737,1,0,0:0:0:0:
125,137,21870,1,0,0:0:0:0:
191,138,22003,1,2,0:0:0:0:
239,92,22137,1,2,0:0:0:0:
240,26,22270,1,2,0:0:0:0:
184,28,22404,6,0,P|60:140|240:360,1,510,0|0,0:0|0:0,0:0:0:0:
408,360,24004,5,2,0:0:0:0:
411,314,24137,1,2,0:0:0:0:
399,271,24270,1,0,0:0:0:0:
374,233,24403,1,0,0:0:0:0:
338,206,24537,1,0,0:0:0:0:
295,191,24670,1,0,0:0:0:0:
240,192,24804,1,2,0:0:0:0:
197,177,24937,1,0,0:0:0:0:
161,150,25071,1,0,0:0:0:0:
136,112,25204,1,0,0:0:0:0:
124,69,25337,1,0,0:0:0:0:
127,23,25470,1,0,0:0:0:0:
182,23,25604,6,0,P|226:163|126:23,1,510,2|0,0:0|0:0,0:0:0:0:
296,24,27204,6,0,L|356:24,2,56.6666666666667,2|2|0,0:0|0:0|0:0,0:0:0:0:
228,24,27604,2,0,L|187:64,2,56.6666666666667,0|0|0,0:0|0:0|0:0,0:0:0:0:
296,24,28004,1,2,0:0:0:0:
326,69,28137,1,2,0:0:0:0:
311,122,28270,1,0,0:0:0:0:
261,145,28403,1,2,0:0:0:0:
212,122,28537,1,0,0:0:0:0:
197,69,28670,1,2,0:0:0:0:
228,23,28803,5,4,0:0:0:0:
256,192,29204,12,8,31604,0:0:0:0:
308,192,32004,6,0,L|312:104,1,85,12|0,0:0|0:0,0:0:0:0:
208,48,32404,2,0,L|184:100,2,42.5,2|0|0,0:0|0:0|0:0,0:0:0:0:
311,107,32804,2,0,L|187:107,1,85,8|0,0:0|0:0,0:0:0:0:
416,108,33204,2,0,L|420:196,1,85,2|0,0:0|0:0,0:0:0:0:
368,216,33504,1,2,0:0:0:0:
316,216,33604,6,0,L|232:192,1,85,8|0,0:0|0:0,0:0:0:0:
234,192,33904,1,0,0:0:0:0:
340,216,34104,2,0,L|344:280,1,42.5,0|0,0:0|0:0,0:0:0:0:
236,304,34404,2,0,L|320:304,1,85,8|0,0:0|0:0,0:0:0:0:
128,304,34804,2,0,B|84:304|84:304|132:304,1,85,2|2,0:0|0:0,0:0:0:0:
180,304,35104,1,8,0:0:0:0:
236,304,35204,6,0,L|324:304,1,85,12|0,0:0|0:0,0:0:0:0:
424,304,35604,2,0,L|428:240,1,42.5,2|0,0:0|0:0,0:0:0:0:
320,192,35904,1,0,0:0:0:0:
268,192,36004,2,0,L|264:124,1,42.5,8|0,0:0|0:0,0:0:0:0:
368,152,36304,1,0,0:0:0:0:
420,152,36404,2,0,L|424:56,1,85,2|0,0:0|0:0,0:0:0:0:
372,68,36704,1,2,0:0:0:0:
320,68,36804,6,0,L|236:44,1,85,8|0,0:0|0:0,0:0:0:0:
188,44,37104,1,0,0:0:0:0:
294,68,37304,2,0,L|298:132,1,42.5,0|0,0:0|0:0,0:0:0:0:
108,192,37604,2,0,L|232:148,2,127.5,10|8|2,0:0|0:0|0:0,0:0:0:0:
56,192,38304,1,2,0:0:0:0:
56,192,38404,5,0,0:0:0:0:
332,192,38604,1,4,0:0:0:0:
367,235,38704,1,0,0:0:0:0:
367,290,38804,1,2,0:0:0:0:
333,334,38904,1,0,0:0:0:0:
224,336,39104,2,0,L|176:336,2,42.5,0|8|0,0:0|0:0|0:0,0:0:0:0:
333,334,39504,2,0,L|336:272,1,42.5,0|2,0:0|0:0,0:0:0:0:
144,192,39804,6,0,L|52:192,1,85,0|8,0:0|0:0,0:0:0:0:
100,192,40104,1,0,0:0:0:0:
144,192,40204,1,0,0:0:0:0:
188,192,40304,1,0,0:0:0:0:
88,192,40504,2,0,L|80:136,1,42.5,0|0,0:0|0:0,0:0:0:0:
276,192,40804,2,0,L|368:192,1,85,8|0,0:0|0:0,0:0:0:0:
168,52,41204,2,0,L|120:52,2,42.5,2|8|2,0:0|0:0|0:0,0:0:0:0:
440,56,41604,6,0,P|492:104|492:136,1,85,4|0,0:0|0:0,0:0:0:0:
476,156,41904,1,0,0:0:0:0:
438,179,42004,2,0,L|348:180,1,85,2|0,0:0|0:0,0:0:0:0:
244,180,42404,2,0,L|240:280,1,85,8|0,0:0|0:0,0:0:0:0:
352,268,42804,1,2,0:0:0:0:
353,310,42904,1,0,0:0:0:0:
355,352,43004,1,0,0:0:0:0:
164,352,43204,6,0,B|120:352|120:352|168:352,1,85,2|2,0:0|0:0,0:0:0:0:
212,352,43504,1,0,0:0:0:0:
264,352,43604,1,2,0:0:0:0:
144,264,43804,1,2,0:0:0:0:
336,192,44004,2,0,P|344:128|268:68,1,170,10|10,0:0|0:0,0:0:0:0:
212,68,44504,1,0,0:0:0:0:
156,68,44604,1,10,0:0:0:0:
424,68,44804,6,0,L|428:176,1,85,12|8,0:0|0:0,0:0:0:0:
324,192,45204,2,0,L|320:296,1,85,8|8,0:0|0:0,0:0:0:0:
216,316,45604,2,0,L|208:220,1,85,8|8,0:0|0:0,0:0:0:0:
408,192,46004,2,0,B|452:192|452:192|404:192,1,85,8|8,0:0|0:0,0:0:0:0:
356,192,46304,1,0,0:0:0:0:
300,192,46404,6,0,L|296:104,1,85,8|8,0:0|0:0,0:0:0:0:
192,144,46804,1,0,0:0:0:0:
244,128,46904,1,8,0:0:0:0:
296,108,47004,1,8,0:0:0:0:
24,192,47204,2,0,L|20:84,1,85,8|8,0:0|0:0,0:0:0:0:
76,84,47504,1,8,0:0:0:0:
132,84,47604,1,0,0:0:0:0:
20,107,47804,1,8,0:0:0:0:
320,88,48004,6,0,L|324:188,1,85,8|8,0:0|0:0,0:0:0:0:
224,192,48404,2,0,L|220:292,1,85,8|8,0:0|0:0,0:0:0:0:
120,276,48804,2,0,L|212:276,1,85,8|8,0:0|0:0,0:0:0:0:
104,276,49204,2,0,L|52:276,2,42.5,8|0|8,0:0|0:0|0:0,0:0:0:0:
300,276,49604,6,0,L|384:276,1,85,8|8,0:0|0:0,0:0:0:0:
188,192,50004,2,0,L|188:136,1,42.5,8|0,0:0|0:0,0:0:0:0:
252,192,50204,2,0,L|252:140,1,42.5,8|0,0:0|0:0,0:0:0:0:
188,149,50404,2,0,L|92:149,1,85,8|10,0:0|0:0,0:0:0:0:
208,148,50804,1,10,0:0:0:0:
84,148,51004,1,10,0:0:0:0:
356,148,51204,6,0,L|448:148,1,85,12|8,0:0|0:0,0:0:0:0:
340,148,51604,2,0,L|336:48,1,85,8|8,0:0|0:0,0:0:0:0:
236,64,52004,2,0,L|148:64,2,85,8|8|8,0:0|0:0|0:0,0:0:0:0:
432,64,52604,1,8,0:0:0:0:
380,64,52704,1,0,0:0:0:0:
328,64,52804,6,0,L|236:64,1,85,8|8,0:0|0:0,0:0:0:0:
140,64,53204,2,0,L|128:128,2,42.5,8|0|8,0:0|0:0|0:0,0:0:0:0:
408,276,53604,2,0,L|412:168,1,85,8|8,0:0|0:0,0:0:0:0:
356,168,53904,1,8,0:0:0:0:
300,168,54004,1,0,0:0:0:0:
411,191,54204,1,8,0:0:0:0:
140,64,54404,6,0,L|138:158,1,85,12|8,0:0|0:0,0:0:0:0:
300,168,54804,2,0,L|203:168,1,85,12|8,0:0|0:0,0:0:0:0:
55,64,55204,2,0,L|143:64,1,85,12|8,0:0|0:0,0:0:0:0:
324,192,55604,1,12,0:0:0:0:
224,192,55804,1,8,0:0:0:0:
492,192,56004,5,8,0:0:0:0:
492,132,56104,1,8,0:0:0:0:
460,80,56204,1,8,0:0:0:0:
404,60,56304,1,8,0:0:0:0:
344,60,56404,2,0,L|452:60,1,106.25,8|8,0:0|0:0,0:0:0:0:
244,60,56804,1,10,0:0:0:0:
344,60,57004,2,0,L|389:139,2,85,10|10|10,0:0|0:0|0:0,0:0:0:0:
76,60,57604,6,0,L|32:60,2,42.5,12|0|8,0:0|0:0|0:0,0:0:0:0:
272,192,58004,2,0,L|400:192,2,127.5,10|2|8,0:0|0:0|0:0,0:0:0:0:
220,192,58704,1,2,0:0:0:0:
168,192,58804,1,8,0:0:0:0:
288,192,59004,1,8,0:0:0:0:
88,192,59204,5,8,0:0:0:0:
85,234,59304,1,0,0:0:0:0:
82,276,59404,1,8,0:0:0:0:
280,340,59604,2,0,L|169:276,2,127.5,10|2|8,0:0|0:0|0:0,0:0:0:0:
332,340,60304,1,2,0:0:0:0:
384,340,60404,2,0,L|388:232,1,85,8|8,0:0|0:0,0:0:0:0:
192,192,60804,6,0,L|144:192,2,42.5,8|0|8,0:0|0:0|0:0,0:0:0:0:
388,192,61204,2,0,P|448:160|456:88,2,127.5,10|2|8,0:0|0:0|0:0,0:0:0:0:
336,192,61904,1,2,0:0:0:0:
284,192,62004,1,8,0:0:0:0:
404,192,62204,1,8,0:0:0:0:
208,192,62404,6,0,L|116:192,1,85,8|8,0:0|0:0,0:0:0:0:
184,192,62704,1,8,0:0:0:0:
235,192,62804,1,0,0:0:0:0:
124,300,63004,1,8,0:0:0:0:
175,301,63104,1,8,0:0:0:0:
175,301,63204,1,0,0:0:0:0:
124,300,63304,1,2,0:0:0:0:
312,300,63504,1,10,0:0:0:0:
364,300,63604,6,0,P|396:260|384:224,1,85,8|8,0:0|0:0,0:0:0:0:
356,197,63904,1,10,0:0:0:0:
308,192,64004,1,0,0:0:0:0:
380,192,64204,1,8,0:0:0:0:
112,192,64404,6,0,P|54:170|40:104,2,127.5,10|2|8,0:0|0:0|0:0,0:0:0:0:
164,192,65104,1,2,0:0:0:0:
216,192,65204,1,8,0:0:0:0:
96,192,65404,1,8,0:0:0:0:
296,192,65604,5,0,0:0:0:0:
299,234,65704,1,0,0:0:0:0:
302,276,65804,1,8,0:0:0:0:
104,340,66004,2,0,L|215:276,2,127.5,10|2|8,0:0|0:0|0:0,0:0:0:0:
44,340,66704,1,2,0:0:0:0:
104,340,66804,2,0,L|188:340,1,85,8|0,0:0|0:0,0:0:0:0:
456,192,67204,6,0,L|504:192,2,42.5,8|0|8,0:0|0:0|0:0,0:0:0:0:
352,192,67604,1,8,0:0:0:0:
404,192,67704,1,0,0:0:0:0:
456,192,67804,1,8,0:0:0:0:
256,192,68004,2,0,P|204:164|196:124,1,85,8|8,0:0|0:0,0:0:0:0:
216,80,68304,1,8,0:0:0:0:
276,56,68404,2,0,L|324:56,1,42.5,8|0,0:0|0:0,0:0:0:0:
48,48,68704,5,12,0:0:0:0:
256,192,68904,12,12,70404,0:0:0:0:
356,268,76804,6,0,L|360:128,1,127.5,10|2,0:0|0:0,0:0:0:0:
220,200,77404,2,0,L|216:68,1,127.5,10|10,0:0|0:0,0:0:0:0:
356,72,78004,1,10,0:0:0:0:
236,72,78204,1,10,0:0:0:0:
436,68,78404,6,0,L|440:212,1,127.5,10|10,0:0|0:0,0:0:0:0:
300,192,79004,2,0,L|304:336,1,127.5,10|10,0:0|0:0,0:0:0:0:
164,320,79604,1,10,0:0:0:0:
284,320,79804,1,10,0:0:0:0:
16,320,80004,6,0,L|12:216,1,85,10|10,0:0|0:0,0:0:0:0:
208,192,80404,1,10,0:0:0:0:
96,192,80604,1,10,0:0:0:0:
292,192,80804,1,10,0:0:0:0:
338,163,80904,1,8,0:0:0:0:
337,109,81004,1,10,0:0:0:0:
290,82,81104,1,8,0:0:0:0:
228,84,81204,2,0,L|172:84,2,42.5,10|8|10,0:0|0:0|0:0,0:0:0:0:
496,32,81604,6,0,L|500:136,1,85,2|2,0:0|0:0,0:0:0:0:
304,192,82004,1,2,0:0:0:0:
412,192,82204,1,2,0:0:0:0:
60,192,83204,6,0,L|56:296,1,85,14|0,0:0|0:0,0:0:0:0:
160,332,83604,2,0,L|72:332,1,85,0|2,0:0|0:0,0:0:0:0:
268,192,84004,2,0,L|316:192,1,42.5,0|2,0:0|0:0,0:0:0:0:
208,192,84304,1,0,0:0:0:0:
156,192,84404,2,0,L|152:96,1,85,2|2,0:0|0:0,0:0:0:0:
348,32,84804,6,0,L|432:32,1,85,10|0,0:0|0:0,0:0:0:0:
392,32,85104,1,2,0:0:0:0:
348,32,85204,1,0,0:0:0:0:
248,32,85404,1,2,0:0:0:0:
340,32,85604,2,0,L|344:100,1,42.5,0|2,0:0|0:0,0:0:0:0:
256,192,85904,1,0,0:0:0:0:
204,192,86004,2,0,L|152:162,2,42.5,2|0|2,0:0|0:0|0:0,0:0:0:0:
476,192,86404,6,0,L|480:308,1,85,10|0,0:0|0:0,0:0:0:0:
376,320,86804,2,0,L|372:220,1,85,0|2,0:0|0:0,0:0:0:0:
176,320,87204,2,0,L|128:320,1,42.5,0|2,0:0|0:0,0:0:0:0:
236,320,87504,1,0,0:0:0:0:
288,320,87604,2,0,L|292:224,1,85,2|2,0:0|0:0,0:0:0:0:
100,192,88004,6,0,L|20:146,1,85,10|0,0:0|0:0,0:0:0:0:
76,152,88304,1,2,0:0:0:0:
128,152,88404,1,0,0:0:0:0:
26,149,88604,1,2,0:0:0:0:
300,192,88804,2,0,L|348:192,1,42.5,0|2,0:0|0:0,0:0:0:0:
156,300,89104,2,0,L|72:300,1,85,2|2,0:0|0:0,0:0:0:0:
120,300,89404,1,0,0:0:0:0:
172,300,89504,1,0,0:0:0:0:
120,300,89604,5,10,0:0:0:0:
396,300,89804,1,4,0:0:0:0:
448,300,89904,2,0,P|484:256|424:192,1,127.5,2|2,0:0|0:0,0:0:0:0:
260,192,90404,2,0,L|256:132,1,42.5,0|2,0:0|0:0,0:0:0:0:
360,148,90704,1,0,0:0:0:0:
412,148,90804,2,0,L|416:60,1,85,2|2,0:0|0:0,0:0:0:0:
224,32,91204,6,0,L|132:32,1,85,10|4,0:0|0:0,0:0:0:0:
240,32,91604,1,0,0:0:0:0:
197,32,91704,1,0,0:0:0:0:
155,32,91804,1,2,0:0:0:0:
348,32,92004,2,0,L|352:104,1,42.5,0|2,0:0|0:0,0:0:0:0:
248,128,92304,1,0,0:0:0:0:
196,128,92404,2,0,L|148:128,2,42.5,2|0|2,0:0|0:0|0:0,0:0:0:0:
468,128,92804,5,10,0:0:0:0:
324,128,93204,1,10,0:0:0:0:
180,128,93604,1,10,0:0:0:0:
36,128,94004,1,10,0:0:0:0:
360,268,94404,6,0,L|396:304,2,42.5,10|0|10,0:0|0:0|0:0,0:0:0:0:
168,268,94804,2,0,L|112:268,2,53.125,10|0|10,0:0|0:0|0:0,0:0:0:0:
440,192,95204,6,0,L|444:132,1,42.5,6|2,0:0|0:0,0:0:0:0:
252,128,95504,2,0,L|136:128,1,85,2|2,0:0|0:0,0:0:0:0:
167,128,95804,1,2,0:0:0:0:
440,128,96004,6,0,L|500:128,2,42.5,14|0|0,0:0|0:0|0:0,0:0:0:0:
328,128,96404,2,0,L|240:128,1,85,0|2,0:0|0:0,0:0:0:0:
436,280,96804,2,0,L|432:236,1,42.5,0|2,0:0|0:0,0:0:0:0:
320,240,97104,1,0,0:0:0:0:
268,240,97204,2,0,L|356:240,1,85,2|2,0:0|0:0,0:0:0:0:
160,240,97604,6,0,L|156:348,1,85,10|0,0:0|0:0,0:0:0:0:
268,352,98004,2,0,L|264:256,1,85,0|2,0:0|0:0,0:0:0:0:
68,192,98404,1,0,0:0:0:0:
124,192,98504,2,0,L|228:192,2,85,2|0|0,0:0|0:0|0:0,0:0:0:0:
68,192,99004,1,2,0:0:0:0:
340,192,99204,6,0,L|344:92,1,85,10|0,0:0|0:0,0:0:0:0:
240,68,99604,2,0,L|196:68,2,42.5,0|0|2,0:0|0:0|0:0,0:0:0:0:
432,40,100004,2,0,L|436:92,1,42.5,0|2,0:0|0:0,0:0:0:0:
332,192,100304,1,0,0:0:0:0:
280,192,100404,2,0,L|176:192,1,85,2|2,0:0|0:0,0:0:0:0:
392,192,100804,6,0,L|396:296,1,85,10|0,0:0|0:0,0:0:0:0:
284,320,101204,1,0,0:0:0:0:
340,296,101304,1,0,0:0:0:0:
395,276,101404,1,2,0:0:0:0:
128,192,101604,2,0,B|4:156,2,127.5,0|2|0,0:0|0:0|0:0,0:0:0:0:
396,192,102404,6,0,L|496:192,1,85,14|0,0:0|0:0,0:0:0:0:
380,192,102804,1,0,0:0:0:0:
378,149,102904,1,0,0:0:0:0:
376,107,103004,1,2,0:0:0:0:
184,32,103204,2,0,L|136:32,1,42.5,0|2,0:0|0:0,0:0:0:0:
244,32,103504,1,0,0:0:0:0:
300,32,103604,2,0,L|304:156,1,85,2|2,0:0|0:0,0:0:0:0:
108,132,104004,6,0,L|104:244,1,85,10|0,0:0|0:0,0:0:0:0:
212,156,104404,1,0,0:0:0:0:
160,144,104504,1,0,0:0:0:0:
108,132,104604,1,2,0:0:0:0:
304,284,104804,1,0,0:0:0:0:
360,284,104904,2,0,L|256:284,2,85,2|0|0,0:0|0:0|0:0,0:0:0:0:
304,284,105404,1,2,0:0:0:0:
256,192,105604,12,0,107604,0:0:0:0:
320,192,108004,6,0,L|192:192,2,127.5,2|2|2,0:0|0:0|0:0,0:0:0:0:
52,52,108804,6,0,P|256:307|460:52,1,748.000022827149,4|0,0:0|0:0,0:0:0:0:
112,264,115204,5,0,0:0:0:0:
85,214,115337,1,0,0:0:0:0:
88,159,115470,1,0,0:0:0:0:
120,113,115603,1,2,0:0:0:0:
308,112,116004,2,0,L|136:112,1,170,0|2,0:0|0:0,0:0:0:0:
460,112,116804,5,2,0:0:0:0:
176,192,117604,2,0,L|304:192,2,127.5,2|2|2,0:0|0:0|0:0,0:0:0:0:
444,192,118404,6,0,P|472:260|356:372,1,255,2|2,0:0|0:0,0:0:0:0:
152,372,119604,1,2,0:0:0:0:
352,372,119804,1,2,0:0:0:0:
260,372,120004,6,0,P|232:312|280:224,1,170,0|0,0:0|0:0,0:0:0:0:
324,192,120504,1,0,0:0:0:0:
384,192,120604,1,0,0:0:0:0:
116,192,120804,2,0,L|28:192,1,85,0|0,0:0|0:0,0:0:0:0:
132,192,121204,1,0,0:0:0:0:
176,192,121304,1,0,0:0:0:0:
220,192,121404,1,0,0:0:0:0:
488,192,121604,6,0,B|512:168|512:96|408:80|408:80|496:80,1,255,10|0,0:0|0:0,0:0:0:0:
296,80,122404,2,0,L|204:80,1,85,10|10,0:0|0:0,0:0:0:0:
404,80,122804,2,0,L|408:140,1,42.5,10|0,0:0|0:0,0:0:0:0:
272,192,123204,6,0,L|168:192,1,85,10|0,0:0|0:0,0:0:0:0:
288,192,123604,2,0,L|296:248,2,42.5,0|0|0,0:0|0:0|0:0,0:0:0:0:
176,192,124004,1,8,0:0:0:0:
372,192,124204,2,0,P|420:240|420:316,1,127.5,2|2,0:0|0:0,0:0:0:0:
44,316,124804,6,0,P|20:248|140:140,1,255,2|0,0:0|0:0,0:0:0:0:
332,140,125604,2,0,L|336:36,1,85,8|8,0:0|0:0,0:0:0:0:
224,56,126004,2,0,L|284:56,1,42.5,8|0,0:0|0:0,0:0:0:0:
332,140,126204,2,0,L|280:140,1,42.5,0|0,0:0|0:0,0:0:0:0:
224,224,126404,6,0,L|176:224,2,42.5,10|2|2,0:0|0:0|0:0,0:0:0:0:
420,224,126804,1,2,0:0:0:0:
432,280,126904,1,2,0:0:0:0:
384,308,127004,1,2,0:0:0:0:
192,340,127204,1,8,0:0:0:0:
284,340,127404,1,2,0:3:0:0:
176,340,127604,1,2,0:3:0:0:
300,340,127804,1,2,0:3:0:0:
32,340,128004,6,0,B|8:316|8:244|112:228|112:228|24:228,1,255,10|0,0:0|0:0,0:0:0:0:
228,228,128804,2,0,L|320:228,1,85,10|10,0:0|0:0,0:0:0:0:
120,228,129204,2,0,L|116:288,1,42.5,10|0,0:0|0:0,0:0:0:0:
172,308,129404,1,0,0:0:0:0:
368,308,129604,6,0,L|472:308,1,85,10|0,0:0|0:0,0:0:0:0:
352,308,130004,2,0,L|348:264,1,42.5,0|0,0:0|0:0,0:0:0:0:
416,224,130204,2,0,L|412:180,1,42.5,2|0,0:0|0:0,0:0:0:0:
328,184,130404,2,0,L|232:184,1,85,10|2,0:0|0:0,0:0:0:0:
72,180,131004,1,8,0:0:0:0:
340,16,131204,6,0,P|446:72|435:192,1,255,10|0,0:0|0:0,0:0:0:0:
244,192,132004,2,0,L|240:296,1,85,10|8,0:0|0:0,0:0:0:0:
352,276,132404,2,0,L|408:276,2,42.5,10|0|0,0:0|0:0|0:0,0:0:0:0:
160,276,132804,6,0,P|72:224|68:160,1,170,10|2,0:0|0:0,0:0:0:0:
92,120,133304,1,2,0:0:0:0:
144,112,133404,1,2,0:0:0:0:
340,112,133604,2,0,L|472:112,2,127.5,10|10|8,0:0|0:0|0:0,0:0:0:0:
64,108,134404,5,8,0:0:0:0:
28,144,134504,1,8,0:0:0:0:
12,192,134604,1,8,0:0:0:0:
20,244,134704,1,8,0:0:0:0:
48,284,134804,1,8,0:0:0:0:
92,308,134904,1,8,0:0:0:0:
144,308,135004,1,8,0:0:0:0:
412,308,135204,2,0,L|500:308,1,85,10|10,0:0|0:0,0:0:0:0:
304,308,135604,5,10,0:0:0:0:
252,308,135704,2,0,B|208:308|208:308|304:308,1,127.5,0|10,0:0|0:0,0:0:0:0:
492,308,136204,2,0,L|496:212,1,85,0|0,0:0|0:0,0:0:0:0:
439,208,136504,1,0,0:0:0:0:
384,192,136604,1,0,0:0:0:0:
196,192,136804,1,8,0:0:0:0:
300,192,137004,1,8,0:0:0:0:
356,192,137104,1,8,0:0:0:0:
412,192,137204,1,8,0:0:0:0:
292,192,137404,1,8,0:0:0:0:
492,192,137604,5,2,0:0:0:0:
16,192,138004,2,0,P|4:136|104:48,1,203.999993774414,10|10,0:0|0:0,0:0:0:0:
160,48,138504,1,0,0:0:0:0:
216,48,138604,1,10,0:0:0:0:
20,48,138804,2,0,L|16:120,1,42.5,10|0,0:0|0:0,0:0:0:0:
120,192,139104,1,0,0:0:0:0:
176,192,139204,2,0,L|72:192,1,85,0|0,0:0|0:0,0:0:0:0:
284,192,139604,5,0,0:0:0:0:
326,192,139704,1,0,0:0:0:0:
369,192,139804,1,8,0:0:0:0:
100,316,140004,1,8,0:0:0:0:
200,316,140204,2,0,L|204:256,1,42.5,8|8,0:0|0:0,0:0:0:0:
136,228,140404,2,0,L|132:176,1,42.5,0|8,0:0|0:0,0:0:0:0:
208,152,140604,1,8,0:0:0:0:
476,192,140804,6,0,L|480:96,1,85,10|0,0:0|0:0,0:0:0:0:
428,128,141104,1,0,0:0:0:0:
376,144,141204,2,0,L|372:48,1,85,10|0,0:0|0:0,0:0:0:0:
226,237,141604,1,10,0:0:0:0:
227,194,141704,1,0,0:0:0:0:
229,152,141804,1,0,0:0:0:0:
80,184,142004,2,0,L|24:184,2,42.5
348,272,142404,6,0,L|440:272,3,85,10|10|10|10,0:0|0:0|0:0|0:0,0:0:0:0:
244,272,143204,1,8,0:0:0:0:
225,227,143304,1,8,0:0:0:0:
245,182,143404,1,8,0:0:0:0:
290,165,143504,1,8,0:0:0:0:
334,185,143604,1,10,0:0:0:0:
350,231,143704,1,0,0:0:0:0:
329,274,143804,1,10,0:0:0:0:
60,276,144004,6,0,L|56:168,1,85,2|2,0:0|0:0,0:0:0:0:
160,160,144404,2,0,L|164:64,1,85,2|2,0:0|0:0,0:0:0:0:
268,244,144804,2,0,L|319:162,1,85,2|2,0:0|0:0,0:0:0:0:
209,146,145204,2,0,L|157:64,1,85,2|2,0:0|0:0,0:0:0:0:
360,20,145604,5,2,0:0:0:0:
448,72,145804,1,2,0:0:0:0:
452,172,146004,1,2,0:0:0:0:
364,224,146204,1,2,0:0:0:0:
168,192,146404,1,2,0:0:0:0:
127,201,146504,1,2,0:0:0:0:
96,230,146604,1,2,0:0:0:0:
85,270,146704,1,2,0:0:0:0:
96,311,146804,1,2,0:0:0:0:
127,340,146904,1,2,0:0:0:0:
168,349,147004,1,2,0:0:0:0:
436,348,147204,5,14,0:0:0:0:
412,296,153604,6,0,P|448:244|400:160,1,170,14|2,0:0|0:0,0:0:0:0:
308,160,154204,1,8,0:0:0:0:
136,164,154404,2,0,L|132:68,1,85,2|0,0:0|0:0,0:0:0:0:
228,276,154804,2,0,L|232:176,1,85,10|8,0:0|0:0,0:0:0:0:
180,176,155104,1,0,0:0:0:0:
128,164,155204,5,10,0:0:0:0:
48,216,155404,1,0,0:0:0:0:
48,308,155604,1,2,0:0:0:0:
128,356,155804,1,8,0:0:0:0:
220,356,156004,2,0,L|308:356,1,85,2|0,0:0|0:0,0:0:0:0:
400,240,156404,2,0,L|304:240,1,85,10|8,0:0|0:0,0:0:0:0:
120,192,156804,6,0,L|24:192,2,85,14|0|2,0:0|0:0|0:0,0:0:0:0:
220,192,157404,1,8,0:0:0:0:
44,192,157604,2,0,L|40:88,1,85,2|0,0:0|0:0,0:0:0:0:
144,112,158004,1,10,0:0:0:0:
145,69,158104,1,0,0:0:0:0:
147,27,158204,1,8,0:0:0:0:
344,28,158404,6,0,L|432:28,1,85,14|0,0:0|0:0,0:0:0:0:
324,124,158804,2,0,L|232:124,1,85,2|8,0:0|0:0,0:0:0:0:
344,124,159204,2,0,L|260:124,1,85,2|0,0:0|0:0,0:0:0:0:
364,216,159604,1,10,0:0:0:0:
406,216,159704,1,0,0:0:0:0:
449,216,159804,1,8,0:0:0:0:
180,324,160004,6,0,L|176:224,1,85,14|0,0:0|0:0,0:0:0:0:
276,192,160404,2,0,L|280:92,1,85,2|8,0:0|0:0,0:0:0:0:
92,32,160804,2,8,L|12:78,2,85,0|0|10,0:0|0:0|0:0,0:0:0:0:
192,32,161404,1,0,0:0:0:0:
244,32,161504,1,0,0:0:0:0:
296,32,161604,6,0,P|296:107|232:171,1,170,10|0,0:0|0:0,0:0:0:0:
128,192,162204,1,8,0:0:0:0:
232,192,162404,2,0,L|236:288,1,85,2|0,0:0|0:0,0:0:0:0:
132,344,162804,2,0,L|104:300,2,42.5,10|0|8,0:0|0:0|0:0,0:0:0:0:
324,348,163204,6,0,L|328:256,1,85,14|8,0:0|0:0,0:0:0:0:
224,264,163604,2,0,L|220:152,1,85,10|8,0:0|0:0,0:0:0:0:
120,180,164004,2,0,L|124:80,1,85,10|8,0:0|0:0,0:0:0:0:
20,96,164404,2,0,L|16:8,1,85,10|8,0:0|0:0,0:0:0:0:
208,12,164804,6,0,L|212:104,1,85,14|8,0:0|0:0,0:0:0:0:
108,96,165204,2,0,L|200:96,1,85,10|8,0:0|0:0,0:0:0:0:
384,96,165604,2,0,L|300:96,1,85,10|8,0:0|0:0,0:0:0:0:
108,188,166004,2,0,L|104:240,1,42.5,10|0,0:0|0:0,0:0:0:0:
156,276,166204,1,8,0:0:0:0:
428,192,166404,5,14,0:0:0:0:
480,192,166504,1,0,0:0:0:0:
428,192,166604,1,8,0:0:0:0:
256,340,166804,1,8,0:0:0:0:
254,297,166904,1,0,0:0:0:0:
253,255,167004,1,8,0:0:0:0:
428,192,167204,5,8,0:0:0:0:
430,149,167304,1,0,0:0:0:0:
431,107,167404,1,8,0:0:0:0:
252,44,167604,1,8,0:0:0:0:
209,44,167704,1,0,0:0:0:0:
167,44,167804,1,8,0:0:0:0:
348,192,168004,6,0,L|356:248,2,42.5,8|0|8,0:0|0:0|0:0,0:0:0:0:
164,192,168404,2,0,L|129:236,2,42.5,8|0|8,0:0|0:0|0:0,0:0:0:0:
348,192,168804,6,0,L|400:213,2,42.5,8|0|8,0:0|0:0|0:0,0:0:0:0:
137,225,169204,2,0,L|85:225,2,46.7500014266968,8|0|8,0:0|0:0|0:0,0:0:0:0:
256,192,169604,12,0,171204,0:0:0:0:
120,192,172404,6,0,L|116:104,1,85,2|2,0:0|0:0,0:0:0:0:
388,296,172804,6,0,B|432:296|432:296|384:296,1,85,14|8,0:0|0:0,0:0:0:0:
340,296,173104,1,2,0:0:0:0:
92,296,173404,2,0,L|88:240,1,42.5,10|2,0:0|0:0,0:0:0:0:
196,192,173704,1,0,0:0:0:0:
248,192,173804,2,0,L|340:192,2,85,10|0|2,0:0|0:0|0:0,0:0:0:0:
128,192,174404,6,0,L|256:192,2,127.5,2|10|8,0:0|0:0|0:0,0:0:0:0:
320,72,175204,2,0,L|192:72,2,127.5,2|10|8,0:0|0:0|0:0,0:0:0:0:
208,72,176004,6,0,B|120:72,1,85,10|8,0:0|0:0,0:0:0:0:
123,72,176304,1,2,0:0:0:0:
380,72,176604,2,0,L|384:128,1,42.5,10|2,0:0|0:0,0:0:0:0:
296,176,176904,1,0,0:0:0:0:
252,176,177004,1,10,0:0:0:0:
444,192,177204,2,0,L|452:300,1,85,10|0,0:0|0:0,0:0:0:0:
348,276,177604,6,0,L|432:276,1,85,2|2,0:0|0:0,0:0:0:0:
476,276,177904,1,10,0:0:0:0:
96,276,178204,2,0,L|92:224,1,42.5,2|10,0:0|0:0,0:0:0:0:
232,276,178604,1,2,0:0:0:0:
44,276,178804,2,0,L|120:232,1,85,8|0,0:0|0:0,0:0:0:0:
304,192,179204,6,0,P|332:156|320:104,1,85,10|8,0:0|0:0,0:0:0:0:
280,76,179504,1,2,0:0:0:0:
120,76,179804,2,0,L|116:132,1,42.5,10|2,0:0|0:0,0:0:0:0:
224,192,180204,1,10,0:0:0:0:
32,192,180404,2,0,L|28:292,1,85,10|0,0:0|0:0,0:0:0:0:
216,332,180804,6,0,L|304:332,1,85,10|8,0:0|0:0,0:0:0:0:
301,332,181104,1,2,0:0:0:0:
32,336,181404,2,0,L|28:288,1,42.5,10|2,0:0|0:0,0:0:0:0:
168,192,181804,1,10,0:0:0:0:
360,192,182004,2,0,L|412:192,2,42.5,10|0|0,0:0|0:0|0:0,0:0:0:0:
168,192,182404,6,0,L|164:96,1,85,8|10,0:0|0:0,0:0:0:0:
432,32,182804,2,0,L|496:32,2,62.3333352355958,10|2|8,0:0|0:0|0:0,0:0:0:0:
292,32,183404,1,10,0:0:0:0:
392,32,183604,2,0,L|396:84,2,42.5,2|2|10,0:0|0:0|0:0,0:0:0:0:
200,32,184004,6,0,B|128:32|128:164|196:164|196:164|288:164|288:164|200:164|200:164|196:264,1,467.500014266968,10|10,0:0|0:0,0:0:0:0:
404,192,185204,2,0,L|412:272,2,46.7500014266968,10|2|10,0:0|0:0|0:0,0:0:0:0:
124,264,185604,6,0,L|120:124,1,127.5,10|10,0:0|0:0,0:0:0:0:
272,136,186204,1,10,0:0:0:0:
84,44,186404,2,0,L|212:44,1,127.5,10|10,0:0|0:0,0:0:0:0:
72,44,187004,1,10,0:0:0:0:
260,44,187204,6,0,L|264:188,1,127.5,10|10,0:0|0:0,0:0:0:0:
124,192,187804,1,10,0:0:0:0:
312,192,188004,2,0,L|460:192,1,127.5,10|10,0:0|0:0,0:0:0:0:
380,192,188404,2,0,L|376:256,2,42.5,0|2|0,0:0|0:0|0:0,0:0:0:0:
112,192,188804,6,0,L|108:320,1,127.5,10|10,0:0|0:0,0:0:0:0:
264,192,189404,1,10,0:0:0:0:
76,92,189604,2,0,L|72:240,1,127.5,10|10,0:0|0:0,0:0:0:0:
132,220,190004,2,0,L|216:220,1,85,0|10,0:0|0:0,0:0:0:0:
404,192,190404,6,0,L|408:52,1,127.5,10|10,0:0|0:0,0:0:0:0:
348,52,190804,1,10,0:0:0:0:
228,52,191004,1,10,0:0:0:0:
420,64,191204,2,0,L|424:160,1,85,10|10,0:0|0:0,0:0:0:0:
236,192,191604,1,0,0:0:0:0:
193,192,191704,1,0,0:0:0:0:
151,192,191804,1,0,0:0:0:0:
256,192,192004,12,0,195104,0:0:0:0:
256,192,195204,12,8,196404,0:0:0:0:
156,32,196804,6,0,L|152:136,1,85,2|0,0:0|0:0,0:0:0:0:
340,192,197204,1,0,0:0:0:0:
236,192,197404,1,0,0:0:0:0:
492,192,198004,2,0,L|496:312,1,85,12|0,0:0|0:0,0:0:0:0:
224,276,198404,6,0,L|132:276,1,85,12|10,0:0|0:0,0:0:0:0:
248,276,198804,2,0,L|252:188,1,85,8|10,0:0|0:0,0:0:0:0:
60,192,199204,2,0,L|56:100,1,85,8|10,0:0|0:0,0:0:0:0:
104,92,199504,1,0,0:0:0:0:
152,76,199604,1,8,0:0:0:0:
56,108,199804,1,8,0:0:0:0:
244,76,200004,6,0,L|328:76,1,85,8|10,0:0|0:0,0:0:0:0:
280,76,200304,1,2,0:0:0:0:
228,76,200404,2,0,L|224:172,1,85,8|8,0:0|0:0,0:0:0:0:
328,160,200804,2,0,L|240:160,1,85,8|10,0:0|0:0,0:0:0:0:
436,160,201204,2,0,B|480:160|480:160|432:160,1,85,8|8,0:0|0:0,0:0:0:0:
388,160,201504,1,10,0:0:0:0:
336,160,201604,6,0,L|332:256,1,85,10|10,0:0|0:0,0:0:0:0:
232,304,202004,2,0,L|228:216,1,85,8|10,0:0|0:0,0:0:0:0:
288,192,202304,1,0,0:0:0:0:
348,192,202404,2,0,L|248:192,1,85,8|10,0:0|0:0,0:0:0:0:
72,192,202804,2,0,L|23:164,2,56.6666666666667,10|0|0,0:0|0:0|0:0,0:0:0:0:
140,192,203204,5,8,0:0:0:0:
332,192,203404,2,0,L|344:248,2,42.5,10|2|8,0:0|0:0|0:0,0:0:0:0:
60,48,203804,1,10,0:0:0:0:
40,104,203904,1,2,0:0:0:0:
92,136,204004,1,8,0:0:0:0:
152,136,204104,2,0,L|248:136,2,85,2|2|8,0:0|0:0|0:0,0:0:0:0:
424,136,204704,5,8,0:0:0:0:
296,136,205004,2,0,L|292:248,1,85,10|8,0:0|0:0,0:0:0:0:
396,220,205404,1,10,0:0:0:0:
404,220,205504,1,0,0:0:0:0:
412,220,205604,2,0,L|316:220,1,85,8|10,0:0|0:0,0:0:0:0:
428,220,206004,2,0,L|328:220,1,85,10|0,0:0|0:0,0:0:0:0:
152,220,206404,6,0,L|148:328,1,85,8|10,0:0|0:0,0:0:0:0:
252,344,206804,2,0,L|248:256,1,85,8|10,0:0|0:0,0:0:0:0:
148,304,207204,2,0,L|236:304,1,85,8|10,0:0|0:0,0:0:0:0:
424,192,207604,2,0,L|480:192,2,42.5,10|2|10,0:0|0:0|0:0,0:0:0:0:
156,192,208004,5,10,0:0:0:0:
112,163,208104,1,0,0:0:0:0:
99,113,208204,1,10,0:0:0:0:
122,66,208304,1,2,0:0:0:0:
171,48,208404,2,0,L|255:47,2,56.6666666666667,10|0|0,0:0|0:0|0:0,0:0:0:0:
31,48,209004,1,10,0:0:0:0:
216,136,209204,2,0,L|220:200,1,42.5,10|2,0:0|0:0,0:0:0:0:
116,192,209504,1,2,0:0:0:0:
168,192,209604,6,0,L|260:192,1,85,0|0,0:0|0:0,0:0:0:0:
64,192,210004,1,10,0:0:0:0:
12,192,210104,1,10,0:0:0:0:
64,192,210204,1,10,0:0:0:0:
252,332,210404,2,0,L|296:332,1,42.5,8|8,0:0|0:0,0:0:0:0:
300,332,210604,1,8,0:0:0:0:
188,332,210804,1,8,0:0:0:0:
172,276,210904,1,8,0:0:0:0:
224,244,211004,1,10,0:0:0:0:
492,240,211204,5,12,0:0:0:0:
500,184,211304,1,0,0:0:0:0:
473,135,211404,1,10,0:0:0:0:
423,111,211504,2,0,L|336:112,1,85,2|0,0:0|0:0,0:0:0:0:
236,112,211904,2,0,L|232:12,1,85,2|2,0:0|0:0,0:0:0:0:
340,256,212304,2,0,L|344:168,1,85,0|2,0:0|0:0,0:0:0:0:
152,192,212704,6,0,L|64:192,1,85,2|2,0:0|0:0,0:0:0:0:
116,192,213004,1,10,0:0:0:0:
168,192,213104,2,0,L|172:100,1,85,2|2,0:0|0:0,0:0:0:0:
360,288,213504,2,0,L|364:196,1,85,2|2,0:0|0:0,0:0:0:0:
304,204,213804,1,10,0:0:0:0:
244,204,213904,2,0,L|344:204,1,85,2|2,0:0|0:0,0:0:0:0:
140,204,214304,6,0,L|56:204,1,85,10|0,0:0|0:0,0:0:0:0:
156,204,214704,2,0,L|160:120,1,85,2|2,0:0|0:0,0:0:0:0:
348,44,215104,2,0,L|440:44,1,85,0|2,0:0|0:0,0:0:0:0:
433,44,215404,1,10,0:0:0:0:
160,40,215604,2,0,L|96:40,2,56.6666666666667,10|0|0,0:0|0:0|0:0,0:0:0:0:
228,40,216004,5,8,0:0:0:0:
128,40,216204,2,0,L|124:104,1,42.5,10|2,0:0|0:0,0:0:0:0:
396,192,216504,2,0,L|460:192,2,42.5,2|10|2,0:0|0:0|0:0,0:0:0:0:
204,192,216904,2,0,L|200:92,1,85,2|2,0:0|0:0,0:0:0:0:
384,192,217304,1,8,0:0:0:0:
192,192,217504,1,8,0:0:0:0:
140,192,217604,6,0,L|136:288,1,85,14|10,0:0|0:0,0:0:0:0:
324,328,218004,2,0,L|376:328,2,42.5,8|2|10,0:0|0:0|0:0,0:0:0:0:
224,328,218404,2,0,L|220:228,1,85,8|10,0:0|0:0,0:0:0:0:
412,192,218804,2,0,L|488:192,2,56.6666666666667,10|0|0,0:0|0:0|0:0,0:0:0:0:
344,192,219204,6,0,L|244:192,1,85,8|10,0:0|0:0,0:0:0:0:
216,192,219504,1,2,0:0:0:0:
469,192,219804,2,0,L|473:128,1,42.5,10|2,0:0|0:0,0:0:0:0:
200,40,220104,2,0,L|108:40,2,85,2|0|0,0:0|0:0|0:0,0:0:0:0:
252,40,220604,1,10,0:0:0:0:
256,192,220804,12,12,223604,0:0:0:0:
168,192,224004,6,0,L|140:144,2,42.5,12|0|8,0:0|0:0|0:0,0:0:0:0:
436,192,224404,2,0,B|480:192|480:192|432:192,1,85,10|8,0:0|0:0,0:0:0:0:
388,192,224704,1,2,0:0:0:0:
336,192,224804,2,0,L|332:96,1,85,8|8,0:0|0:0,0:0:0:0:
232,24,225204,1,8,0:0:0:0:
230,66,225304,1,0,0:0:0:0:
228,108,225404,1,8,0:0:0:0:
416,24,225604,6,0,L|464:24,2,42.5,8|0|8,0:0|0:0|0:0,0:0:0:0:
144,24,226004,2,0,L|56:24,1,85,10|8,0:0|0:0,0:0:0:0:
48,24,226304,1,2,0:0:0:0:
36,24,226404,2,0,L|32:128,1,85,0|8,0:0|0:0,0:0:0:0:
136,108,226804,2,0,L|232:108,1,85,8|8,0:0|0:0,0:0:0:0:
272,108,227104,1,8,0:0:0:0:
221,108,227204,6,0,L|136:108,1,85,8|8,0:0|0:0,0:0:0:0:
404,232,227604,2,0,P|448:260|456:312,1,85,10|8,0:0|0:0,0:0:0:0:
408,336,227904,1,2,0:0:0:0:
348,336,228004,2,0,L|264:336,1,85,8|8,0:0|0:0,0:0:0:0:
448,192,228404,2,0,L|452:140,1,42.5,12|0,0:0|0:0,0:0:0:0:
180,192,228704,6,0,P|140:144|164:88,1,127.5,4|8,0:0|0:0,0:0:0:0:
220,88,229104,1,8,0:0:0:0:
280,88,229204,2,0,L|188:88,1,85,4|8,0:0|0:0,0:0:0:0:
380,88,229604,1,4,0:0:0:0:
440,96,229704,1,10,0:0:0:0:
464,152,229804,1,0,0:0:0:0:
440,208,229904,1,10,0:0:0:0:
172,208,230104,2,0,L|120:208,2,42.5,2|8|10,0:0|0:0|0:0,0:0:0:0:
232,208,230404,6,0,L|316:208,1,85,0|12,0:0|0:0,0:0:0:0:
48,348,230804,2,0,B|4:348|4:348|52:348,1,85,10|8,0:0|0:0,0:0:0:0:
96,348,231104,1,2,0:0:0:0:
148,348,231204,2,0,L|152:252,1,85,8|8,0:0|0:0,0:0:0:0:
252,180,231604,1,8,0:0:0:0:
204,180,231704,1,0,0:0:0:0:
156,180,231804,1,8,0:0:0:0:
344,180,232004,6,0,L|392:180,2,42.5,0|0|8,0:0|0:0|0:0,0:0:0:0:
72,176,232404,2,0,P|54:129|84:76,1,85,10|8,0:0|0:0,0:0:0:0:
104,68,232704,1,2,0:0:0:0:
156,68,232804,2,0,L|240:68,1,85,8|8,0:0|0:0,0:0:0:0:
136,176,233204,1,8,0:0:0:0:
134,218,233304,1,8,0:0:0:0:
132,260,233404,1,0,0:0:0:0:
400,260,233604,6,0,L|452:260,2,42.5,12|0|8,0:0|0:0|0:0,0:0:0:0:
220,352,234004,2,0,L|168:352,2,42.5,8|0|8,0:0|0:0|0:0,0:0:0:0:
408,260,234404,2,0,L|412:208,1,42.5,12|8,0:0|0:0,0:0:0:0:
360,168,234604,1,8,0:0:0:0:
172,168,234804,2,0,L|128:168,1,42.5,8|0,0:0|0:0,0:0:0:0:
400,68,235104,5,12,0:0:0:0:
256,192,235404,12,6,236804,0:0:0:0:
208,192,239404,5,2,0:0:0:0:
320,192,239604,2,0,L|324:84,1,85,10|2,0:0|0:0,0:0:0:0:
56,32,240004,5,14,0:0:0:0:
28,80,240104,1,0,0:0:0:0:
36,136,240204,1,0,0:0:0:0:
84,164,240304,1,2,0:0:0:0:
196,164,240504,1,0,0:0:0:0:
256,164,240604,2,0,L|396:164,1,127.5,2|2,0:0|0:0,0:0:0:0:
196,164,241104,1,0,0:0:0:0:
136,164,241204,2,0,L|132:280,1,85,2|2,0:0|0:0,0:0:0:0:
236,248,241604,6,0,L|346:184,2,127.5,10|2|2,0:0|0:0|0:0,0:0:0:0:
48,248,242404,2,0,L|40:312,1,42.5,0|0,0:0|0:0,0:0:0:0:
312,344,242704,2,0,P|344:300|308:212,1,127.5,0|2,0:0|0:0,0:0:0:0:
280,192,243104,1,0,0:0:0:0:
220,192,243204,6,0,L|132:192,1,85,10|0,0:0|0:0,0:0:0:0:
135,192,243504,1,2,0:0:0:0:
240,80,243704,2,0,L|292:80,1,42.5,0|2,0:0|0:0,0:0:0:0:
92,28,244004,2,0,L|88:80,1,42.5,0|2,0:0|0:0,0:0:0:0:
280,192,244304,1,0,0:0:0:0:
340,192,244404,2,0,L|344:308,1,85,2|2,0:0|0:0,0:0:0:0:
152,332,244804,6,0,P|108:272|144:192,1,170,10|0,0:0|0:0,0:0:0:0:
192,176,245304,1,0,0:0:0:0:
252,176,245404,1,2,0:0:0:0:
440,176,245604,2,0,L|444:108,1,42.5,0|2,0:0|0:0,0:0:0:0:
252,52,245904,2,0,L|152:52,1,85,2|2,0:0|0:0,0:0:0:0:
167,52,246204,1,0,0:0:0:0:
436,52,246404,6,0,L|440:160,1,85,14|0,0:0|0:0,0:0:0:0:
336,192,246804,1,0,0:0:0:0:
334,234,246904,1,0,0:0:0:0:
332,276,247004,1,2,0:0:0:0:
144,332,247204,1,0,0:0:0:0:
84,332,247304,2,0,P|60:292|112:232,1,127.5,2|2,0:0|0:0,0:0:0:0:
204,232,247804,1,2,0:0:0:0:
392,192,248004,6,0,L|396:88,1,85,10|0,0:0|0:0,0:0:0:0:
292,108,248404,1,0,0:0:0:0:
249,108,248504,1,0,0:0:0:0:
207,108,248604,1,2,0:0:0:0:
392,192,248804,2,0,L|400:256,1,42.5,0|0,0:0|0:0,0:0:0:0:
128,344,249104,2,0,P|80:300|92:232,1,127.5,0|2,0:0|0:0,0:0:0:0:
124,200,249504,1,0,0:0:0:0:
184,192,249604,6,0,L|272:192,1,85,10|0,0:0|0:0,0:0:0:0:
372,192,250004,2,0,L|280:192,1,85,0|2,0:0|0:0,0:0:0:0:
472,192,250404,2,0,L|484:136,2,42.5,0|2|0,0:0|0:0|0:0,0:0:0:0:
284,56,250804,2,0,L|228:56,2,42.5,2|0|2,0:0|0:0|0:0,0:0:0:0:
476,56,251204,6,0,L|480:152,1,85,10|2,0:0|0:0,0:0:0:0:
208,192,251604,1,2,0:0:0:0:
160,192,251704,1,0,0:0:0:0:
112,192,251804,1,2,0:0:0:0:
300,88,252204,2,0,L|208:88,2,85,0|0|2,0:0|0:0|0:0,0:0:0:0:
32,92,252804,6,0,P|28:168|40:208,1,85,10|0,0:0|0:0,0:0:0:0:
48,224,253104,1,10,0:0:0:0:
324,192,253404,2,0,L|240:192,1,85,10|0,0:0|0:0,0:0:0:0:
192,192,253704,1,10,0:0:0:0:
448,56,254004,5,10,0:0:0:0:
459,110,254104,1,10,0:0:0:0:
438,162,254204,1,0,0:0:0:0:
391,192,254304,1,10,0:0:0:0:
136,284,254604,1,10,0:0:0:0:
88,284,254704,1,0,0:0:0:0:
40,284,254804,1,0,0:0:0:0:
88,284,254904,1,10,0:0:0:0:
472,284,255204,6,0,L|476:224,1,42.5,10|10,0:0|0:0,0:0:0:0:
296,144,255504,1,8,0:0:0:0:
408,144,255704,1,10,0:0:0:0:
132,144,255904,6,0,P|356:168|132:140,1,701.250021400452,4|2,0:0|0:0,0:0:0:0:
428,192,257604,5,12,0:0:0:0:
256,192,257804,12,0,262404,0:0:0:0:
