osu file format v14

[General]
AudioFilename: audio.mp3
AudioLeadIn: 0
PreviewTime: 83204
Countdown: 0
SampleSet: Soft
StackLeniency: 0.7
Mode: 2
LetterboxInBreaks: 0
WidescreenStoryboard: 1

[Editor]
Bookmarks: 3204,16004,32004,44804,57604,70404,83204,96004,108804,121604,134404,147204,160004,172804,185604,198404,211204,211504,224004,236804,252804,262404
DistanceSpacing: 1.7
BeatDivisor: 4
GridSize: 16
TimelineZoom: 2.000001

[Metadata]
Title:ULT!MATE END
TitleUnicode:ULT!MATE END
Artist:BlackY
ArtistUnicode:BlackY
Creator:Deif
Version:050's Rain
Source:
Tags:autofanboy alienflybot afb Hanikawa Kurose Hanikawa_Kurose Hanik AutoLS Nosuri -MomoX Jemzuu AJamez JierYagtama JeirYagtama Stardust Prism Stardustprism Stardust_Prism Mafumafu Regraz JBHyperion JBH Hyperion 050 bigh zonda bighzonda WAiKURO BEATFLOOR ULTIMATE Featured Artist Mappers' Guild MPG cmwc 2021 cmwc2021 cmwc'21 osu!catch mapping world cup RENAISSANCE SPEEDCORE Electronic Instrumental
BeatmapID:4084851
BeatmapSetID:1618360

[Difficulty]
HPDrainRate:4
CircleSize:3.3
OverallDifficulty:9.1
ApproachRate:9.1
SliderMultiplier:0.949999999999999
SliderTickRate:1

[Events]
//Background and Video events
0,0,"BG.jpg",0,0
//Break Periods
2,72003,76220
2,110403,117820
2,148803,159420
//Storyboard Layer 0 (Background)
//Storyboard Layer 1 (Fail)
//Storyboard Layer 2 (Pass)
//Storyboard Layer 3 (Foreground)
//Storyboard Layer 4 (Overlay)
//Storyboard Sound Samples
Sample,3204,0,"LR_NBell_C5.wav",30
Sample,4804,0,"LR_NBell_G#4.wav",30
Sample,6404,0,"LR_NBell_A#4.wav",30
Sample,8004,0,"LR_NBell_G#4.wav",30
Sample,9604,0,"LR_NBell_C5.wav",30
Sample,11204,0,"LR_NBell_G#4.wav",30
Sample,12804,0,"LR_NBell_A#4.wav",30
Sample,14404,0,"LR_NBell_G#4.wav",30
Sample,16004,0,"LR_NBell_C5.wav",40
Sample,17604,0,"LR_NBell_G#4.wav",40
Sample,19204,0,"LR_NBell_A#4.wav",40
Sample,20804,0,"LR_NBell_G#4.wav",40
Sample,22404,0,"LR_NBell_A#4.wav",40
Sample,25604,0,"LR_NBell_G#4.wav",40
Sample,30204,0,"aaaaaaaaaa.mp3",75

[TimingPoints]
3204,200,4,2,0,40,1,0
3337,-100,4,2,0,10,0,0
4804,-133.333333333333,4,2,0,40,0,0
4937,-133.333333333333,4,2,0,10,0,0
6404,-100,4,2,0,40,0,0
6537,-100,4,2,0,10,0,0
8004,-100,4,2,0,40,0,0
8137,-100,4,2,0,10,0,0
9604,-100,4,2,0,40,0,0
9870,-100,4,3,0,20,0,0
10137,-100,4,2,0,40,0,0
10270,-100,4,3,0,20,0,0
10537,-100,4,2,0,40,0,0
10670,-100,4,3,0,20,0,0
10804,-100,4,2,0,40,0,0
10937,-100,4,3,0,20,0,0
11070,-100,4,2,0,40,0,0
11337,-100,4,3,0,20,0,0
11604,-100,4,2,0,40,0,0
11737,-100,4,3,0,20,0,0
12004,-100,4,2,0,40,0,0
12137,-100,4,3,0,20,0,0
12271,-100,4,2,0,40,0,0
12404,-100,4,3,0,20,0,0
12537,-100,4,2,0,20,0,0
12670,-100,4,2,0,30,0,0
12804,-100,4,2,0,40,0,0
13070,-100,4,3,0,20,0,0
13337,-100,4,2,0,40,0,0
13470,-100,4,3,0,20,0,0
13737,-100,4,2,0,40,0,0
13870,-100,4,3,0,20,0,0
14004,-100,4,2,0,40,0,0
14137,-100,4,3,0,20,0,0
14270,-100,4,2,0,40,0,0
14537,-100,4,3,0,20,0,0
14804,-100,4,2,0,40,0,0
14937,-100,4,3,0,20,0,0
15204,-100,4,2,0,40,0,0
15337,-100,4,3,0,20,0,0
15471,-100,4,2,0,40,0,0
15604,-100,4,3,0,20,0,0
15737,-100,4,2,0,20,0,0
15870,-100,4,2,0,30,0,0
16004,-100,4,2,51,50,0,0
16137,-100,4,2,0,50,0,0
16270,-100,4,3,0,30,0,0
16537,-100,4,2,0,50,0,0
16670,-100,4,3,0,30,0,0
16937,-100,4,2,0,50,0,0
17070,-100,4,3,0,30,0,0
17204,-100,4,2,0,50,0,0
17337,-100,4,3,0,30,0,0
17470,-100,4,2,0,50,0,0
17737,-100,4,3,0,30,0,0
18004,-100,4,2,0,50,0,0
18137,-100,4,3,0,30,0,0
18404,-100,4,2,0,50,0,0
18537,-100,4,3,0,30,0,0
18671,-100,4,2,0,50,0,0
18804,-100,4,3,0,30,0,0
18937,-100,4,2,0,30,0,0
19070,-100,4,2,0,40,0,0
19204,-100,4,2,0,50,0,0
19470,-100,4,3,0,30,0,0
19737,-100,4,2,0,50,0,0
19870,-100,4,3,0,30,0,0
20137,-100,4,2,0,50,0,0
20270,-100,4,3,0,30,0,0
20404,-100,4,2,0,50,0,0
20537,-100,4,3,0,30,0,0
20670,-100,4,2,0,50,0,0
20937,-100,4,3,0,30,0,0
21204,-100,4,2,0,50,0,0
21337,-100,4,3,0,30,0,0
21604,-100,4,2,0,50,0,0
21737,-100,4,3,0,30,0,0
21871,-100,4,2,0,50,0,0
22004,-100,4,3,0,20,0,0
22137,-100,4,2,0,30,0,0
22270,-100,4,2,0,40,0,0
22537,-100,4,3,0,30,0,0
22804,-100,4,2,0,50,0,0
22937,-100,4,3,0,30,0,0
23204,-100,4,2,0,50,0,0
23337,-100,4,3,0,30,0,0
23604,-100,4,2,0,50,0,0
23737,-100,4,3,0,30,0,0
24004,-100,4,2,0,50,0,0
24137,-100,4,2,0,30,0,0
24270,-100,4,3,0,30,0,0
24537,-100,4,2,0,50,0,0
24670,-100,4,3,0,30,0,0
24937,-100,4,2,0,50,0,0
25070,-100,4,3,0,30,0,0
25337,-100,4,2,0,50,0,0
25737,-100,4,3,0,30,0,0
26004,-100,4,2,0,50,0,0
26137,-100,4,3,0,30,0,0
26404,-100,4,2,0,50,0,0
26537,-100,4,3,0,30,0,0
26804,-100,4,2,0,50,0,0
26937,-100,4,3,0,30,0,0
27204,-100,4,2,0,50,0,0
27337,-100,4,2,0,30,0,0
27470,-100,4,3,0,30,0,0
27737,-100,4,2,0,50,0,0
28004,-100,4,3,0,30,0,0
28270,-100,4,2,0,50,0,0
28537,-100,4,3,0,30,0,0
28804,-100,4,2,51,25,0,0
29004,-100,4,2,0,25,0,0
29204,-100,4,2,0,50,0,0
29404,-100,4,2,0,25,0,0
29604,-100,4,2,0,50,0,0
29804,-100,4,2,0,25,0,0
30004,-100,4,2,0,50,0,0
30204,-100,4,2,0,25,0,0
30404,-100,4,2,0,50,0,0
30604,-100,4,2,0,25,0,0
30804,-100,4,2,0,50,0,0
31004,-100,4,2,0,25,0,0
31204,-100,4,2,0,50,0,0
31404,-100,4,2,0,25,0,0
31604,-100,4,2,51,60,0,0
32004,-83.3333333333333,4,1,51,60,0,1
32204,-83.3333333333333,4,1,0,50,0,1
32304,-83.3333333333333,4,1,51,60,0,1
32604,-83.3333333333333,4,1,0,50,0,1
32704,-83.3333333333333,4,1,51,60,0,1
33004,-83.3333333333333,4,1,0,50,0,1
33104,-83.3333333333333,4,1,51,60,0,1
33404,-83.3333333333333,4,1,0,50,0,1
33504,-83.3333333333333,4,1,51,45,0,1
33604,-83.3333333333333,4,1,51,60,0,1
33804,-83.3333333333333,4,1,0,50,0,1
33904,-83.3333333333333,4,1,51,60,0,1
34204,-83.3333333333333,4,1,0,50,0,1
34304,-83.3333333333333,4,1,51,60,0,1
34604,-83.3333333333333,4,1,0,50,0,1
34704,-83.3333333333333,4,1,51,60,0,1
34904,-83.3333333333333,4,2,0,45,0,1
34954,-83.3333333333333,4,1,51,60,0,1
35104,-83.3333333333333,4,2,0,45,0,1
35154,-83.3333333333333,4,1,51,60,0,1
35404,-83.3333333333333,4,1,0,50,0,1
35504,-83.3333333333333,4,1,51,60,0,1
35804,-83.3333333333333,4,1,0,50,0,1
35904,-83.3333333333333,4,1,51,60,0,1
36204,-83.3333333333333,4,1,0,50,0,1
36304,-83.3333333333333,4,1,51,60,0,1
36604,-83.3333333333333,4,1,0,50,0,1
36704,-83.3333333333333,4,1,51,45,0,1
36804,-83.3333333333333,4,1,51,60,0,1
37004,-83.3333333333333,4,1,0,50,0,1
37104,-83.3333333333333,4,1,51,60,0,1
37404,-83.3333333333333,4,1,0,50,0,1
37504,-83.3333333333333,4,1,51,60,0,1
37904,-83.3333333333333,4,2,0,45,0,1
37954,-83.3333333333333,4,1,51,60,0,1
38104,-83.3333333333333,4,2,0,45,0,1
38154,-83.3333333333333,4,1,51,60,0,1
39004,-83.3333333333333,4,1,0,50,0,1
39104,-83.3333333333333,4,1,51,60,0,1
39404,-83.3333333333333,4,1,0,50,0,1
39504,-83.3333333333333,4,1,51,60,0,1
39804,-83.3333333333333,4,1,0,50,0,1
39904,-83.3333333333333,4,1,51,45,0,1
40004,-83.3333333333333,4,1,51,60,0,1
40204,-83.3333333333333,4,1,0,50,0,1
40304,-83.3333333333333,4,1,51,60,0,1
40604,-83.3333333333333,4,1,0,50,0,1
40704,-83.3333333333333,4,1,51,60,0,1
41004,-83.3333333333333,4,1,0,50,0,1
41104,-83.3333333333333,4,1,51,60,0,1
41304,-83.3333333333333,4,2,0,45,0,1
41354,-83.3333333333333,4,1,51,60,0,1
41504,-83.3333333333333,4,2,0,45,0,1
41554,-83.3333333333333,4,1,51,60,0,1
41604,-83.3333333333333,4,1,51,50,0,1
41804,-83.3333333333333,4,1,0,50,0,1
41904,-83.3333333333333,4,1,51,60,0,1
42204,-83.3333333333333,4,1,0,50,0,1
42304,-83.3333333333333,4,1,51,60,0,1
42604,-83.3333333333333,4,1,0,50,0,1
42704,-83.3333333333333,4,1,51,60,0,1
43004,-83.3333333333333,4,1,0,50,0,1
43104,-83.3333333333333,4,1,51,60,0,1
44004,-100,4,2,0,50,0,0
44804,-100,4,3,51,50,0,1
45004,-100,4,3,51,50,0,0
50404,-100,4,3,51,50,0,0
50604,-100,4,2,0,50,0,0
50804,-100,4,2,0,60,0,0
51004,-100,4,2,0,50,0,0
51204,-100,4,3,51,50,0,0
56804,-100,4,2,0,50,0,0
57604,-100,4,3,51,50,0,0
58504,-100,4,3,51,40,0,0
58604,-100,4,3,51,50,0,0
58704,-100,4,3,51,30,0,0
58804,-100,4,3,51,50,0,0
60104,-100,4,3,51,40,0,0
60204,-100,4,3,51,50,0,0
60304,-100,4,3,51,30,0,0
60404,-100,4,3,51,50,0,0
61704,-100,4,3,51,40,0,0
61804,-100,4,3,51,50,0,0
61904,-100,4,3,51,30,0,0
62004,-100,4,3,51,50,0,0
64904,-100,4,3,51,40,0,0
65004,-100,4,3,51,50,0,0
65104,-100,4,3,51,30,0,0
65204,-100,4,3,51,50,0,0
66504,-100,4,3,51,40,0,0
66604,-100,4,3,51,50,0,0
66704,-100,4,3,51,30,0,0
66804,-100,4,3,51,50,0,0
68804,-100,4,3,51,30,0,0
68870,-100,4,1,51,35,0,0
69204,-100,4,1,51,40,0,0
69604,-100,4,1,51,45,0,0
70004,-100,4,1,51,50,0,0
70404,-57.1428571428571,4,3,51,50,0,0
70604,-100,4,2,52,50,0,0
73504,-100,4,1,51,30,0,0
73604,-100,4,2,52,55,0,0
75104,-100,4,1,51,30,0,0
75204,-100,4,2,52,60,0,0
76804,-100,4,2,53,50,0,0
78404,-100,4,2,53,55,0,0
80004,-100,4,2,53,60,0,0
81604,-100,4,2,0,60,0,0
81804,-100,4,2,0,30,0,0
82004,-100,4,2,0,80,0,0
82204,-100,4,2,0,40,0,0
83204,-90.9090909090909,4,1,52,60,0,1
83304,-90.9090909090909,4,1,51,60,0,1
83404,-90.9090909090909,4,1,52,60,0,1
83704,-90.9090909090909,4,1,51,60,0,1
83804,-90.9090909090909,4,1,52,60,0,1
83904,-90.9090909090909,4,1,51,60,0,1
84004,-90.9090909090909,4,1,52,60,0,1
84104,-90.9090909090909,4,1,0,60,0,1
84404,-90.9090909090909,4,1,0,50,0,1
84504,-90.9090909090909,4,1,51,60,0,1
84604,-90.9090909090909,4,1,0,40,0,1
84704,-90.9090909090909,4,1,51,60,0,1
84804,-90.9090909090909,4,1,52,60,0,1
84904,-90.9090909090909,4,1,51,60,0,1
85004,-90.9090909090909,4,1,52,60,0,1
85304,-90.9090909090909,4,1,51,60,0,1
85404,-90.9090909090909,4,1,52,60,0,1
85504,-90.9090909090909,4,1,51,60,0,1
85604,-90.9090909090909,4,1,52,60,0,1
85704,-90.9090909090909,4,1,51,60,0,1
85804,-90.9090909090909,4,1,52,60,0,1
85904,-90.9090909090909,4,1,51,60,0,1
86004,-90.9090909090909,4,1,0,40,0,1
86104,-90.9090909090909,4,1,51,60,0,1
86204,-90.9090909090909,4,1,0,50,0,1
86304,-90.9090909090909,4,1,51,60,0,1
86404,-90.9090909090909,4,1,52,60,0,1
86504,-90.9090909090909,4,1,51,60,0,1
86604,-90.9090909090909,4,1,52,60,0,1
86904,-90.9090909090909,4,1,51,60,0,1
87004,-90.9090909090909,4,1,52,60,0,1
87104,-90.9090909090909,4,1,51,60,0,1
87204,-90.9090909090909,4,1,52,60,0,1
87304,-90.9090909090909,4,1,0,60,0,1
87604,-90.9090909090909,4,1,0,50,0,1
87704,-90.9090909090909,4,1,51,60,0,1
87804,-90.9090909090909,4,1,0,40,0,1
87904,-90.9090909090909,4,1,51,60,0,1
88004,-90.9090909090909,4,1,52,60,0,1
88104,-90.9090909090909,4,1,51,60,0,1
88204,-90.9090909090909,4,1,52,60,0,1
88504,-90.9090909090909,4,1,51,60,0,1
88604,-90.9090909090909,4,1,52,60,0,1
88704,-90.9090909090909,4,1,51,60,0,1
88804,-90.9090909090909,4,1,52,60,0,1
88904,-90.9090909090909,4,1,0,60,0,1
89004,-90.9090909090909,4,1,51,60,0,1
89104,-90.9090909090909,4,1,0,60,0,1
89204,-90.9090909090909,4,1,51,60,0,1
89304,-90.9090909090909,4,1,0,60,0,1
89404,-90.9090909090909,4,1,51,60,0,1
89604,-90.9090909090909,4,1,52,60,0,1
90104,-90.9090909090909,4,1,51,60,0,1
90204,-90.9090909090909,4,1,52,60,0,1
90304,-90.9090909090909,4,1,51,60,0,1
90404,-90.9090909090909,4,1,52,60,0,1
90504,-90.9090909090909,4,1,0,60,0,1
90804,-90.9090909090909,4,1,0,50,0,1
90904,-90.9090909090909,4,1,51,60,0,1
91004,-90.9090909090909,4,1,0,40,0,1
91104,-90.9090909090909,4,1,51,60,0,1
91204,-90.9090909090909,4,1,52,60,0,1
91704,-90.9090909090909,4,1,51,60,0,1
91804,-90.9090909090909,4,1,52,60,0,1
91904,-90.9090909090909,4,1,51,60,0,1
92004,-90.9090909090909,4,1,52,60,0,1
92404,-90.9090909090909,4,1,0,40,0,1
92504,-90.9090909090909,4,1,51,60,0,1
92604,-90.9090909090909,4,1,0,50,0,1
92704,-90.9090909090909,4,1,51,60,0,1
92804,-90.9090909090909,4,1,51,50,0,1
94404,-90.9090909090909,4,1,52,50,0,1
95204,-66.6666666666667,4,2,0,75,0,0
95804,-100,4,1,0,50,0,0
96004,-90.9090909090909,4,1,53,60,0,1
96104,-90.9090909090909,4,1,51,60,0,1
96204,-90.9090909090909,4,1,53,60,0,1
96504,-90.9090909090909,4,1,51,60,0,1
96604,-90.9090909090909,4,1,53,60,0,1
96704,-90.9090909090909,4,1,51,60,0,1
96804,-90.9090909090909,4,1,53,60,0,1
96904,-90.9090909090909,4,1,0,60,0,1
97204,-90.9090909090909,4,1,0,50,0,1
97304,-90.9090909090909,4,1,51,60,0,1
97404,-90.9090909090909,4,1,0,40,0,1
97504,-90.9090909090909,4,1,51,60,0,1
97604,-90.9090909090909,4,1,53,60,0,1
97704,-90.9090909090909,4,1,51,60,0,1
97804,-90.9090909090909,4,1,53,60,0,1
98104,-90.9090909090909,4,1,51,60,0,1
98204,-90.9090909090909,4,1,53,60,0,1
98304,-90.9090909090909,4,1,51,60,0,1
98404,-90.9090909090909,4,1,53,60,0,1
98504,-90.9090909090909,4,1,51,60,0,1
98604,-90.9090909090909,4,1,53,60,0,1
98704,-90.9090909090909,4,1,51,60,0,1
98804,-90.9090909090909,4,1,0,40,0,1
98904,-90.9090909090909,4,1,51,60,0,1
99004,-90.9090909090909,4,1,0,50,0,1
99104,-90.9090909090909,4,1,51,60,0,1
99204,-90.9090909090909,4,1,53,60,0,1
99304,-90.9090909090909,4,1,51,60,0,1
99404,-90.9090909090909,4,1,53,60,0,1
99704,-90.9090909090909,4,1,51,60,0,1
99804,-90.9090909090909,4,1,53,60,0,1
99904,-90.9090909090909,4,1,51,60,0,1
100004,-90.9090909090909,4,1,53,60,0,1
100104,-90.9090909090909,4,1,0,60,0,1
100404,-90.9090909090909,4,1,0,50,0,1
100504,-90.9090909090909,4,1,51,60,0,1
100604,-90.9090909090909,4,1,0,40,0,1
100704,-90.9090909090909,4,1,51,60,0,1
100804,-90.9090909090909,4,1,53,60,0,1
100904,-90.9090909090909,4,1,51,60,0,1
101004,-90.9090909090909,4,1,53,60,0,1
101304,-90.9090909090909,4,1,51,60,0,1
101404,-90.9090909090909,4,1,53,60,0,1
101504,-90.9090909090909,4,1,51,60,0,1
101604,-90.9090909090909,4,1,53,60,0,1
101704,-90.9090909090909,4,1,0,60,0,1
101804,-90.9090909090909,4,1,51,60,0,1
101904,-90.9090909090909,4,1,0,60,0,1
102004,-90.9090909090909,4,1,51,60,0,1
102104,-90.9090909090909,4,1,0,60,0,1
102204,-90.9090909090909,4,1,51,60,0,1
102404,-90.9090909090909,4,1,53,60,0,1
102504,-90.9090909090909,4,1,51,60,0,1
102604,-90.9090909090909,4,1,53,60,0,1
102904,-90.9090909090909,4,1,51,60,0,1
103004,-90.9090909090909,4,1,53,60,0,1
103104,-90.9090909090909,4,1,51,60,0,1
103204,-90.9090909090909,4,1,53,60,0,1
103304,-90.9090909090909,4,1,0,60,0,1
103604,-90.9090909090909,4,1,0,50,0,1
103704,-90.9090909090909,4,1,51,60,0,1
103804,-90.9090909090909,4,1,0,40,0,1
103904,-90.9090909090909,4,1,51,60,0,1
104004,-90.9090909090909,4,1,53,60,0,1
104104,-90.9090909090909,4,1,51,60,0,1
104204,-90.9090909090909,4,1,53,60,0,1
104504,-90.9090909090909,4,1,51,60,0,1
104604,-90.9090909090909,4,1,53,60,0,1
104704,-90.9090909090909,4,1,51,60,0,1
104804,-90.9090909090909,4,1,53,60,0,1
104904,-90.9090909090909,4,1,51,60,0,1
105004,-90.9090909090909,4,1,53,60,0,1
105104,-90.9090909090909,4,1,51,60,0,1
105204,-90.9090909090909,4,1,0,40,0,1
105304,-90.9090909090909,4,1,51,60,0,1
105404,-90.9090909090909,4,1,0,50,0,1
105504,-90.9090909090909,4,1,51,60,0,1
105604,-90.9090909090909,4,1,53,60,0,1
105704,-90.9090909090909,4,1,51,60,0,1
105804,-90.9090909090909,4,1,53,60,0,1
106104,-90.9090909090909,4,1,51,60,0,1
106204,-90.9090909090909,4,1,53,60,0,1
106304,-90.9090909090909,4,1,51,60,0,1
106404,-90.9090909090909,4,1,53,60,0,1
106504,-90.9090909090909,4,1,0,60,0,1
106804,-90.9090909090909,4,1,0,50,0,1
106904,-90.9090909090909,4,1,51,60,0,1
107004,-90.9090909090909,4,1,0,40,0,1
107104,-90.9090909090909,4,1,51,60,0,1
107204,-90.9090909090909,4,1,53,60,0,1
107304,-90.9090909090909,4,1,51,60,0,1
107404,-90.9090909090909,4,1,53,60,0,1
107704,-90.9090909090909,4,1,51,60,0,1
107804,-90.9090909090909,4,1,53,60,0,1
107904,-90.9090909090909,4,1,51,60,0,1
108004,-100,4,2,0,80,0,0
108304,-100,4,2,0,70,0,0
108604,-100,4,2,0,60,0,0
108804,-57.1428571428571,4,3,51,60,0,1
108829,-100,4,3,51,40,0,1
109004,-100,4,3,51,40,0,0
110004,-100,4,3,51,80,0,0
110104,-100,4,3,51,70,0,0
110204,-100,4,3,51,60,0,0
110304,-100,4,3,51,50,0,0
110404,-100,4,3,51,40,0,0
115204,-100,4,3,0,40,0,0
116804,-100,4,2,0,50,0,0
117904,-100,4,3,0,40,0,0
118204,-100,4,2,0,50,0,0
119604,-100,4,3,0,40,0,0
119804,-100,4,2,60,50,0,0
121629,-100,4,2,0,50,0,0
122004,-100,4,2,60,50,0,0
122029,-100,4,2,60,35,0,0
122404,-100,4,2,61,50,0,0
122429,-100,4,2,60,50,0,0
122604,-100,4,2,60,35,0,0
122629,-100,4,2,60,50,0,0
122904,-100,4,2,61,50,0,0
123204,-100,4,2,61,50,0,0
123229,-100,4,2,61,35,0,0
123304,-100,4,2,60,50,0,0
123329,-100,4,2,61,35,0,0
123404,-100,4,2,60,50,0,0
123429,-100,4,2,61,35,0,0
123504,-100,4,2,60,50,0,0
123529,-100,4,2,61,35,0,0
123604,-100,4,2,60,50,0,0
123629,-100,4,2,61,35,0,0
123704,-100,4,2,60,50,0,0
123729,-100,4,2,61,35,0,0
123804,-100,4,2,60,50,0,0
124004,-100,4,2,61,50,0,0
124204,-100,4,2,0,50,0,0
124804,-100,4,2,60,50,0,0
124829,-100,4,2,0,50,0,0
125204,-100,4,2,60,50,0,0
125229,-100,4,2,60,35,0,0
125604,-100,4,2,61,50,0,0
125704,-100,4,2,0,50,0,0
125804,-100,4,2,60,35,0,0
125829,-100,4,2,60,50,0,0
126004,-100,4,2,60,50,0,0
126129,-100,4,2,60,35,0,0
126204,-100,4,2,0,50,0,0
126304,-100,4,2,60,50,0,0
126329,-100,4,2,60,35,0,0
126404,-100,4,2,60,50,0,0
126429,-100,4,2,60,35,0,0
126504,-100,4,2,60,50,0,0
126529,-100,4,2,60,35,0,0
126604,-100,4,2,60,50,0,0
126629,-100,4,2,0,50,0,0
126729,-100,4,2,60,60,0,0
126804,-100,4,2,60,50,0,0
126829,-100,4,2,0,50,0,0
127004,-100,4,2,60,50,0,0
127229,-100,4,2,61,35,0,0
127404,-100,4,2,61,50,0,0
127429,-100,4,2,61,35,0,0
127604,-100,4,2,61,50,0,0
127629,-100,4,2,61,35,0,0
127804,-100,4,2,61,50,0,0
127829,-100,4,2,60,35,0,0
127904,-100,4,2,61,50,0,0
127929,-100,4,2,60,35,0,0
128004,-100,4,2,60,50,0,0
128029,-100,4,2,0,50,0,0
128404,-100,4,2,60,50,0,0
128429,-100,4,2,60,35,0,0
128804,-100,4,2,61,50,0,0
128829,-100,4,2,60,50,0,0
129004,-100,4,2,60,35,0,0
129029,-100,4,2,60,50,0,0
129204,-100,4,2,60,50,0,0
129304,-100,4,2,61,50,0,0
129404,-100,4,2,60,50,0,0
129604,-100,4,2,61,50,0,0
129629,-100,4,2,61,35,0,0
129704,-100,4,2,60,50,0,0
129729,-100,4,2,61,35,0,0
129804,-100,4,2,60,50,0,0
129829,-100,4,2,61,35,0,0
129904,-100,4,2,60,50,0,0
129929,-100,4,2,61,35,0,0
130004,-100,4,2,60,50,0,0
130029,-100,4,2,61,35,0,0
130104,-100,4,2,60,50,0,0
130129,-100,4,2,61,35,0,0
130204,-100,4,2,60,50,0,0
130404,-100,4,2,61,50,0,0
130604,-100,4,2,0,50,0,0
130654,-100,4,1,51,40,0,0
131229,-100,4,2,0,50,0,0
131604,-100,4,2,60,50,0,0
131629,-100,4,2,60,35,0,0
132004,-100,4,2,61,50,0,0
132029,-100,4,2,60,50,0,0
132204,-100,4,2,60,35,0,0
132229,-100,4,2,60,50,0,0
132404,-100,4,2,60,50,0,0
132504,-100,4,2,61,50,0,0
132804,-100,4,2,60,50,0,0
132904,-100,4,2,0,40,0,0
133604,-100,4,2,60,50,0,0
133654,-100,4,2,0,50,0,0
133904,-100,4,2,60,50,0,0
133954,-100,4,2,0,50,0,0
134204,-100,4,2,60,50,0,0
134304,-100,4,2,0,50,0,0
134404,-100,4,1,53,50,0,0
135204,-100,4,2,61,50,0,0
135229,-100,4,2,60,50,0,0
135404,-100,4,2,60,35,0,0
135504,-100,4,2,60,50,0,0
135529,-100,4,2,60,35,0,0
135604,-100,4,2,60,50,0,0
135629,-100,4,2,60,35,0,0
135704,-100,4,2,61,50,0,0
136004,-100,4,2,61,50,0,0
136029,-100,4,2,61,35,0,0
136104,-100,4,2,60,50,0,0
136129,-100,4,2,61,35,0,0
136204,-100,4,2,60,50,0,0
136229,-100,4,2,61,35,0,0
136304,-100,4,2,60,50,0,0
136329,-100,4,2,61,35,0,0
136404,-100,4,2,60,50,0,0
136429,-100,4,2,61,35,0,0
136504,-100,4,2,60,50,0,0
136529,-100,4,2,61,35,0,0
136604,-100,4,2,60,50,0,0
136629,-100,4,2,61,35,0,0
136704,-100,4,2,60,50,0,0
136804,-100,4,2,61,50,0,0
137004,-100,4,2,60,50,0,0
137204,-100,4,2,60,50,0,0
137229,-100,4,2,61,35,0,0
137404,-100,4,2,60,50,0,0
137429,-100,4,2,61,35,0,0
137604,-38.1679389312977,4,2,0,50,0,0
138004,-100,4,2,60,50,0,0
138070,-100,4,2,60,35,0,0
138404,-100,4,2,61,50,0,0
138470,-100,4,2,60,35,0,0
138604,-100,4,2,60,50,0,0
138670,-100,4,2,60,35,0,0
138804,-100,4,2,60,50,0,0
138870,-100,4,2,60,35,0,0
139204,-100,4,2,60,50,0,0
139229,-100,4,2,60,35,0,0
139604,-100,4,2,60,50,0,0
139629,-100,4,2,0,50,0,0
139804,-100,4,2,60,35,0,0
139854,-100,4,2,60,50,0,0
140004,-100,4,2,60,50,0,0
140029,-100,4,2,61,35,0,0
140204,-100,4,2,60,50,0,0
140229,-100,4,2,61,35,0,0
140304,-100,4,2,60,35,0,0
140329,-100,4,2,61,35,0,0
140404,-100,4,2,61,50,0,0
140429,-100,4,2,61,35,0,0
140504,-100,4,2,60,35,0,0
140529,-100,4,2,61,35,0,0
140604,-100,4,2,61,50,0,0
140629,-100,4,2,60,35,0,0
140704,-100,4,2,61,50,0,0
140729,-100,4,2,60,35,0,0
140804,-100,4,2,60,50,0,0
140829,-100,4,2,60,35,0,0
141204,-100,4,2,60,50,0,0
141254,-100,4,2,60,35,0,0
141604,-100,4,2,60,50,0,0
141654,-100,4,2,60,35,0,0
141804,-100,4,2,61,50,0,0
141829,-100,4,2,60,35,0,0
141904,-100,4,2,61,50,0,0
141929,-100,4,2,60,35,0,0
142004,-100,4,2,60,50,0,0
142054,-100,4,2,60,35,0,0
142104,-100,4,2,61,50,0,0
142129,-100,4,2,60,35,0,0
142404,-100,4,2,60,50,0,0
142529,-100,4,2,60,35,0,0
142604,-100,4,2,60,50,0,0
142729,-100,4,2,60,35,0,0
142804,-100,4,2,60,50,0,0
142929,-100,4,2,60,35,0,0
143004,-100,4,2,60,50,0,0
143129,-100,4,2,60,35,0,0
143204,-100,4,1,53,50,0,0
143604,-100,4,2,0,50,0,0
143654,-100,4,1,53,50,0,0
143804,-100,4,2,0,50,0,0
143854,-100,4,1,53,50,0,0
144004,-100,4,2,0,60,0,0
144204,-100,4,2,0,30,0,0
144404,-100,4,2,0,60,0,0
144604,-100,4,2,0,30,0,0
144804,-100,4,2,0,80,0,0
145004,-100,4,2,0,40,0,0
145204,-100,4,2,0,60,0,0
145404,-100,4,2,0,30,0,0
145604,-100,4,2,0,80,0,0
145804,-100,4,2,0,40,0,0
146004,-100,4,2,0,60,0,0
146204,-100,4,2,0,30,0,0
146404,-100,4,2,0,80,0,0
146454,-100,4,1,53,50,0,0
146604,-100,4,2,0,60,0,0
146654,-100,4,1,53,50,0,0
146804,-100,4,2,0,60,0,0
146854,-100,4,1,53,50,0,0
147004,-100,4,2,0,60,0,0
147054,-100,4,1,53,50,0,0
147204,-57.1428571428571,4,2,54,50,0,0
148404,-100,4,2,54,50,0,0
160004,-100,4,2,54,55,0,0
163204,-100,4,2,55,55,0,0
164804,-100,4,2,55,60,0,0
166404,-100,4,2,55,65,0,0
166504,-100,4,3,0,70,0,0
166604,-100,4,2,55,65,0,0
166704,-100,4,3,0,70,0,0
166804,-100,4,2,55,65,0,0
166904,-100,4,3,0,70,0,0
167004,-100,4,2,55,65,0,0
167104,-100,4,3,0,70,0,0
167204,-100,4,2,55,65,0,0
167304,-100,4,3,0,70,0,0
167404,-100,4,2,55,65,0,0
167504,-100,4,3,0,70,0,0
167604,-100,4,2,55,65,0,0
167704,-100,4,3,0,70,0,0
167804,-100,4,2,55,65,0,0
167904,-100,4,3,0,70,0,0
168004,-100,4,2,55,70,0,0
168104,-100,4,3,0,75,0,0
168204,-100,4,2,55,70,0,0
168304,-100,4,3,0,75,0,0
168404,-100,4,2,55,70,0,0
168504,-100,4,3,0,75,0,0
168604,-100,4,2,55,70,0,0
168704,-100,4,3,0,75,0,0
168804,-100,4,2,55,70,0,0
168904,-100,4,3,0,75,0,0
169004,-100,4,2,55,70,0,0
169104,-100,4,3,0,75,0,0
169204,-100,4,2,55,70,0,0
169304,-100,4,3,0,75,0,0
169404,-100,4,2,55,70,0,0
169504,-100,4,3,0,75,0,0
169604,-66.6666666666667,4,2,55,70,0,0
169654,-100,4,3,0,40,0,0
170004,-100,4,3,0,50,0,0
170404,-100,4,3,0,60,0,0
170804,-66.6666666666667,4,3,0,70,0,0
171204,-100,4,3,0,80,0,0
171404,-100,4,2,0,50,0,0
172404,-100,4,2,0,50,0,0
172504,-100,4,2,0,40,0,0
172604,-100,4,2,0,30,0,0
172704,-100,4,2,0,20,0,0
172804,-100,4,3,52,50,0,0
182804,-66.6666666666667,4,3,52,50,0,0
183204,-100,4,3,52,50,0,0
185604,-100,4,1,51,50,0,0
188529,-100,4,3,0,35,0,0
188604,-100,4,1,51,50,0,0
188804,-100,4,1,51,55,0,0
191604,-100,4,2,60,60,0,0
191704,-100,4,2,61,60,0,0
191804,-100,4,2,60,60,0,0
191904,-100,4,2,61,60,0,0
192004,-100,4,1,53,60,0,0
196804,-28.5714285714286,4,2,0,60,0,0
197004,-28.5714285714286,4,2,0,50,0,0
197204,-28.5714285714286,4,1,0,75,0,0
197404,-28.5714285714286,4,1,0,50,0,0
197604,-28.5714285714286,4,2,0,50,0,0
198004,-28.5714285714286,4,2,54,70,0,0
198404,-90.9090909090909,4,1,52,60,0,1
198604,-90.9090909090909,4,1,51,60,0,1
198804,-90.9090909090909,4,1,52,60,0,1
199004,-90.9090909090909,4,1,51,60,0,1
199204,-90.9090909090909,4,1,52,60,0,1
199404,-90.9090909090909,4,1,51,60,0,1
199604,-90.9090909090909,4,1,52,60,0,1
199804,-90.9090909090909,4,1,51,60,0,1
200004,-90.9090909090909,4,1,52,60,0,1
200204,-90.9090909090909,4,1,51,60,0,1
200404,-90.9090909090909,4,1,52,60,0,1
200604,-90.9090909090909,4,1,51,60,0,1
200804,-90.9090909090909,4,1,52,60,0,1
201004,-90.9090909090909,4,1,51,60,0,1
201104,-90.9090909090909,4,1,0,60,0,1
201204,-90.9090909090909,4,1,52,60,0,1
201304,-90.9090909090909,4,1,0,60,0,1
201404,-90.9090909090909,4,1,51,60,0,1
201604,-90.9090909090909,4,1,52,60,0,1
201804,-90.9090909090909,4,1,51,60,0,1
202004,-90.9090909090909,4,1,52,60,0,1
202204,-90.9090909090909,4,1,51,60,0,1
202404,-90.9090909090909,4,1,52,60,0,1
202604,-90.9090909090909,4,1,51,60,0,1
202804,-90.9090909090909,4,1,54,60,0,1
203204,-90.9090909090909,4,1,52,60,0,1
203404,-90.9090909090909,4,1,51,60,0,1
203704,-90.9090909090909,4,1,54,60,0,1
203854,-90.9090909090909,4,1,51,60,0,1
203904,-90.9090909090909,4,1,54,60,0,1
204004,-90.9090909090909,4,1,52,60,0,1
204204,-90.9090909090909,4,1,51,60,0,1
204304,-90.9090909090909,4,1,54,60,0,1
204654,-90.9090909090909,4,1,51,60,0,1
204804,-90.9090909090909,4,1,52,60,0,1
205004,-90.9090909090909,4,1,51,60,0,1
205204,-90.9090909090909,4,1,52,60,0,1
205404,-90.9090909090909,4,1,51,60,0,1
205504,-90.9090909090909,4,1,52,60,0,1
205704,-90.9090909090909,4,1,51,60,0,1
206004,-90.9090909090909,4,1,54,60,0,1
206404,-90.9090909090909,4,1,52,60,0,1
206604,-90.9090909090909,4,1,51,60,0,1
206804,-90.9090909090909,4,1,52,60,0,1
207004,-90.9090909090909,4,1,54,60,0,1
207204,-90.9090909090909,4,1,52,60,0,1
207404,-90.9090909090909,4,1,51,60,0,1
207604,-90.9090909090909,4,1,52,60,0,1
207804,-90.9090909090909,4,1,51,60,0,1
208004,-90.9090909090909,4,1,54,60,0,1
208104,-90.9090909090909,4,1,52,60,0,1
208204,-90.9090909090909,4,1,54,60,0,1
208804,-90.9090909090909,4,1,52,60,0,1
209004,-90.9090909090909,4,1,51,60,0,1
209204,-90.9090909090909,4,1,52,60,0,1
209404,-90.9090909090909,4,1,51,60,0,1
209604,-90.9090909090909,4,3,0,75,0,1
210004,-90.9090909090909,4,1,54,50,0,1
210054,-90.9090909090909,4,1,51,50,0,1
210104,-90.9090909090909,4,1,54,50,0,1
210154,-90.9090909090909,4,1,51,50,0,1
210204,-90.9090909090909,4,1,54,50,0,1
210254,-90.9090909090909,4,1,51,50,0,1
210304,-90.9090909090909,4,1,52,50,0,1
210354,-90.9090909090909,4,1,51,50,0,1
210404,-90.9090909090909,4,1,52,50,0,1
210454,-90.9090909090909,4,1,51,50,0,1
210504,-90.9090909090909,4,1,52,50,0,1
210554,-90.9090909090909,4,1,51,50,0,1
210604,-90.9090909090909,4,1,52,50,0,1
210654,-90.9090909090909,4,1,51,50,0,1
210704,-90.9090909090909,4,1,52,50,0,1
210754,-90.9090909090909,4,1,51,50,0,1
210804,-90.9090909090909,4,1,52,50,0,1
210854,-90.9090909090909,4,1,51,50,0,1
210904,-90.9090909090909,4,1,52,50,0,1
210954,-90.9090909090909,4,1,51,50,0,1
211004,-90.9090909090909,4,1,54,50,0,1
211054,-90.9090909090909,4,1,51,50,0,1
211104,-90.9090909090909,4,1,54,50,0,1
211154,-90.9090909090909,4,1,51,50,0,1
211204,-90.9090909090909,4,1,53,60,0,1
211404,-90.9090909090909,4,1,51,60,0,1
211604,-90.9090909090909,4,1,53,60,0,1
211804,-90.9090909090909,4,1,51,60,0,1
212004,-90.9090909090909,4,1,53,60,0,1
212204,-90.9090909090909,4,1,51,60,0,1
212404,-90.9090909090909,4,1,53,60,0,1
212604,-90.9090909090909,4,1,51,60,0,1
212804,-90.9090909090909,4,1,53,60,0,1
213004,-90.9090909090909,4,1,51,60,0,1
213204,-90.9090909090909,4,1,53,60,0,1
213404,-90.9090909090909,4,1,51,60,0,1
213604,-90.9090909090909,4,1,53,60,0,1
213804,-90.9090909090909,4,1,51,60,0,1
213904,-90.9090909090909,4,1,0,60,0,1
214004,-90.9090909090909,4,1,53,60,0,1
214104,-90.9090909090909,4,1,0,60,0,1
214204,-90.9090909090909,4,1,51,60,0,1
214404,-90.9090909090909,4,1,53,60,0,1
214604,-90.9090909090909,4,1,51,60,0,1
214804,-90.9090909090909,4,1,53,60,0,1
215004,-90.9090909090909,4,1,51,60,0,1
215204,-90.9090909090909,4,1,53,60,0,1
215404,-90.9090909090909,4,1,51,60,0,1
215604,-90.9090909090909,4,1,54,60,0,1
216004,-90.9090909090909,4,1,53,60,0,1
216204,-90.9090909090909,4,1,51,60,0,1
216504,-90.9090909090909,4,1,54,60,0,1
216704,-90.9090909090909,4,1,54,60,0,1
216804,-90.9090909090909,4,1,53,60,0,1
217004,-90.9090909090909,4,1,51,60,0,1
217104,-90.9090909090909,4,1,54,60,0,1
217454,-90.9090909090909,4,1,51,60,0,1
217604,-90.9090909090909,4,1,53,60,0,1
217804,-90.9090909090909,4,1,51,60,0,1
218004,-90.9090909090909,4,1,53,60,0,1
218204,-90.9090909090909,4,1,51,60,0,1
218304,-90.9090909090909,4,1,53,60,0,1
218504,-90.9090909090909,4,1,51,60,0,1
218804,-90.9090909090909,4,1,54,60,0,1
219204,-90.9090909090909,4,1,53,60,0,1
219404,-90.9090909090909,4,1,51,60,0,1
219604,-90.9090909090909,4,1,53,60,0,1
219804,-90.9090909090909,4,1,54,60,0,1
220004,-90.9090909090909,4,1,53,60,0,1
220204,-90.9090909090909,4,1,51,60,0,1
220404,-90.9090909090909,4,1,53,60,0,1
220604,-90.9090909090909,4,1,51,60,0,1
220804,-57.1428571428571,4,1,54,60,0,1
220904,-90.9090909090909,4,1,53,60,0,1
221004,-90.9090909090909,4,1,54,60,0,1
221604,-90.9090909090909,4,1,53,60,0,1
221804,-90.9090909090909,4,1,51,60,0,1
222004,-90.9090909090909,4,1,53,60,0,1
222204,-90.9090909090909,4,1,51,60,0,1
222404,-100,4,2,0,50,0,0
222470,-100,4,2,0,35,0,0
222537,-100,4,2,0,50,0,0
222603,-100,4,2,0,35,0,0
222670,-100,4,2,0,50,0,0
222736,-100,4,2,0,35,0,0
222804,-100,4,2,0,45,0,0
222870,-100,4,2,0,30,0,0
222937,-100,4,2,0,45,0,0
223003,-100,4,2,0,30,0,0
223070,-100,4,2,0,45,0,0
223136,-100,4,2,0,30,0,0
223204,-100,4,2,0,40,0,0
223270,-100,4,2,0,25,0,0
223337,-100,4,2,0,40,0,0
223403,-100,4,2,0,25,0,0
223470,-100,4,2,0,40,0,0
223536,-100,4,2,0,25,0,0
223604,-100,4,2,54,70,0,0
224004,-100,4,3,51,50,0,1
224904,-100,4,3,51,40,0,1
225004,-100,4,3,51,50,0,1
225104,-100,4,3,51,30,0,1
225204,-100,4,3,51,50,0,1
226504,-100,4,3,51,40,0,1
226604,-100,4,3,51,50,0,1
226704,-100,4,3,51,30,0,1
226804,-100,4,3,51,50,0,1
228104,-100,4,3,51,40,0,1
228204,-100,4,3,51,50,0,1
228304,-100,4,3,51,30,0,1
228404,-100,4,3,51,50,0,1
229904,-100,4,2,0,50,0,1
231304,-100,4,3,51,40,0,1
231404,-100,4,3,51,50,0,1
231504,-100,4,3,51,30,0,1
231604,-100,4,3,51,50,0,1
232904,-100,4,3,51,40,0,1
233004,-100,4,3,51,50,0,1
233104,-100,4,3,51,30,0,1
233204,-100,4,3,51,50,0,1
235204,-100,4,3,51,30,0,1
235404,-100,4,2,0,30,0,1
236537,-100,4,2,0,40,0,1
236670,-100,4,2,0,50,0,1
236804,-100,4,2,0,50,0,0
238104,-100,4,3,0,40,0,0
238204,-100,4,2,0,50,0,0
238304,-100,4,3,0,40,0,0
238404,-100,4,2,0,50,0,0
238937,-100,4,2,0,30,0,0
239070,-100,4,2,0,40,0,0
239204,-100,4,2,0,50,0,0
239604,-100,4,2,51,60,0,0
239804,-100,4,3,0,60,0,0
240004,-83.3333333333333,4,1,53,60,0,1
240104,-83.3333333333333,4,1,51,60,0,1
240204,-83.3333333333333,4,1,53,60,0,1
240504,-83.3333333333333,4,1,51,60,0,1
240604,-83.3333333333333,4,1,53,60,0,1
240704,-83.3333333333333,4,1,51,60,0,1
240804,-83.3333333333333,4,1,53,60,0,1
240904,-83.3333333333333,4,1,0,60,0,1
241204,-83.3333333333333,4,1,0,50,0,1
241304,-83.3333333333333,4,1,51,60,0,1
241404,-83.3333333333333,4,1,0,40,0,1
241504,-83.3333333333333,4,1,51,60,0,1
241604,-83.3333333333333,4,1,53,60,0,1
241704,-83.3333333333333,4,1,51,60,0,1
241804,-83.3333333333333,4,1,53,60,0,1
242104,-83.3333333333333,4,1,51,60,0,1
242204,-83.3333333333333,4,1,53,60,0,1
242304,-83.3333333333333,4,1,51,60,0,1
242404,-83.3333333333333,4,1,53,60,0,1
242504,-83.3333333333333,4,1,53,80,0,1
243004,-83.3333333333333,4,1,0,50,0,1
243104,-83.3333333333333,4,1,51,60,0,1
243204,-83.3333333333333,4,1,53,60,0,1
243304,-83.3333333333333,4,1,51,60,0,1
243404,-83.3333333333333,4,1,53,60,0,1
243704,-83.3333333333333,4,1,51,60,0,1
243804,-83.3333333333333,4,1,53,60,0,1
243904,-83.3333333333333,4,1,51,60,0,1
244004,-83.3333333333333,4,1,53,60,0,1
244104,-83.3333333333333,4,1,0,60,0,1
244404,-83.3333333333333,4,1,0,50,0,1
244504,-83.3333333333333,4,1,51,60,0,1
244604,-83.3333333333333,4,1,0,40,0,1
244704,-83.3333333333333,4,1,51,60,0,1
244804,-83.3333333333333,4,1,53,60,0,1
244904,-83.3333333333333,4,1,51,60,0,1
245004,-83.3333333333333,4,1,53,60,0,1
245304,-83.3333333333333,4,1,51,60,0,1
245404,-83.3333333333333,4,1,53,60,0,1
245504,-83.3333333333333,4,1,51,60,0,1
245604,-83.3333333333333,4,1,53,60,0,1
245704,-83.3333333333333,4,1,0,60,0,1
245804,-83.3333333333333,4,1,51,60,0,1
245904,-83.3333333333333,4,1,0,60,0,1
246004,-83.3333333333333,4,1,51,60,0,1
246104,-83.3333333333333,4,1,0,60,0,1
246204,-83.3333333333333,4,1,51,60,0,1
246404,-83.3333333333333,4,1,53,60,0,1
246504,-83.3333333333333,4,1,51,60,0,1
246604,-83.3333333333333,4,1,53,60,0,1
246904,-83.3333333333333,4,1,51,60,0,1
247004,-83.3333333333333,4,1,53,60,0,1
247104,-83.3333333333333,4,1,51,60,0,1
247204,-83.3333333333333,4,1,53,60,0,1
247304,-83.3333333333333,4,1,0,60,0,1
247604,-83.3333333333333,4,1,0,50,0,1
247704,-83.3333333333333,4,1,51,60,0,1
247804,-83.3333333333333,4,1,0,40,0,1
247904,-83.3333333333333,4,1,51,60,0,1
248004,-83.3333333333333,4,1,53,60,0,1
248104,-83.3333333333333,4,1,51,60,0,1
248204,-83.3333333333333,4,1,53,60,0,1
248504,-83.3333333333333,4,1,51,60,0,1
248604,-83.3333333333333,4,1,53,60,0,1
248704,-83.3333333333333,4,1,51,60,0,1
248804,-83.3333333333333,4,1,53,60,0,1
248904,-83.3333333333333,4,1,53,80,0,1
249404,-83.3333333333333,4,1,0,50,0,1
249504,-83.3333333333333,4,1,51,60,0,1
249604,-83.3333333333333,4,1,53,60,0,1
249704,-83.3333333333333,4,1,51,60,0,1
249804,-83.3333333333333,4,1,53,60,0,1
250104,-83.3333333333333,4,1,51,60,0,1
250204,-83.3333333333333,4,1,53,60,0,1
250304,-83.3333333333333,4,1,51,60,0,1
250404,-83.3333333333333,4,1,53,60,0,1
250504,-83.3333333333333,4,1,0,60,0,1
250804,-83.3333333333333,4,1,0,50,0,1
250904,-83.3333333333333,4,1,51,60,0,1
251004,-83.3333333333333,4,1,0,40,0,1
251104,-83.3333333333333,4,1,51,60,0,1
251204,-83.3333333333333,4,1,53,60,0,1
251304,-83.3333333333333,4,1,51,60,0,1
251404,-83.3333333333333,4,1,53,60,0,1
251704,-83.3333333333333,4,1,51,60,0,1
251804,-83.3333333333333,4,1,53,60,0,1
251904,-83.3333333333333,4,1,51,60,0,1
252004,-100,4,2,0,60,0,0
252204,-100,4,1,0,30,0,0
252404,-100,4,1,0,45,0,0
252604,-100,4,2,0,60,0,0
252804,-66.6666666666667,4,1,53,60,0,1
255504,-66.6666666666667,4,1,53,65,0,1
255704,-66.6666666666667,4,1,53,70,0,0
255904,-100,4,1,53,60,0,1
256104,-100,4,2,0,50,0,0
256404,-100,4,2,0,40,0,0
256604,-100,4,2,0,35,0,0
256804,-100,4,2,0,30,0,0
257004,-100,4,2,0,25,0,0
257204,-100,4,2,0,20,0,0
257404,-100,4,2,0,15,0,0
257604,-100,4,2,54,65,0,0
258004,-100,4,2,0,60,0,0
258404,-100,4,2,0,55,0,0
258804,-100,4,2,0,50,0,0
259204,-100,4,2,0,45,0,0
259604,-100,4,2,0,40,0,0
260004,-100,4,2,0,35,0,0
260404,-100,4,2,0,30,0,0
260804,-100,4,2,0,25,0,0
261204,-100,4,2,0,20,0,0
261604,-100,4,2,0,15,0,0
262004,-100,4,2,0,10,0,0
262404,-100,4,2,0,5,0,0

[Colours]
Combo1 : 66,141,255
Combo2 : 255,255,0
Combo3 : 0,255,255
Combo4 : 255,128,0

[HitObjects]
251,329,3204,6,0,P|252:115|254:329,1,665,2|0,0:0|0:0,0:0:0:0:
151,334,4804,2,0,P|111:296|317:29,1,498.750019025803,2|0,0:0|0:0,0:0:0:0:
428,151,6404,6,0,P|231:142|438:314,1,665,2|0,0:0|0:0,0:0:0:0:
307,350,8004,2,0,B|266:66|266:66|479:44|511:218|288:238|288:238,1,665,2|0,0:0|0:0,0:0:0:0:
72,255,9604,6,0,P|91:127|347:325,1,665,2|0,0:0|0:0,0:0:0:0:
231,276,11204,2,0,P|229:192|293:343,1,665,2|0,0:0|0:0,0:0:0:0:
119,311,12804,6,0,B|111:207|130:151|200:89|303:69|366:74|366:74|82:56,1,665,0|0,0:0|0:0,0:0:0:0:
197,319,14404,2,0,P|288:135|178:315,1,665,2|0,0:0|0:0,0:0:0:0:
474,301,16004,6,0,B|438:206|438:206|357:163|357:163|261:150|261:150|171:159|171:159|77:143|77:143|170:133|170:133|262:169|262:169,1,665,6|0,0:0|0:0,0:0:0:0:
359,303,17604,2,0,P|217:295|383:8,1,665,2|0,0:0|0:0,0:0:0:0:
183,338,19204,6,0,B|180:219|255:143|370:153|422:244|409:328|387:344|339:358|289:372|216:368|167:364|80:354|54:350|54:350,1,665,0|0,0:0|0:0,0:0:0:0:
158,124,20804,2,0,B|357:101|357:101|223:218|223:218|387:117|387:117|284:119,1,665,2|0,0:0|0:0,0:0:0:0:
93,291,22404,6,0,P|124:107|229:343,1,665,0|0,0:0|0:0,0:0:0:0:
142,203,24004,2,0,P|233:110|89:201,1,665,2|0,0:0|0:0,0:0:0:0:
280,299,25604,6,0,B|376:276|376:276|265:260|168:246|76:196|61:102|61:102|123:136|151:172|149:223|149:223|128:256,1,665,2|0,0:0|0:0,0:0:0:0:
41,274,27204,2,0,B|487:108|487:108|434:105|397:129|397:129|448:139|487:108|487:108|434:105|397:129|397:129,1,760,2|4,0:0|0:0,0:0:0:0:
256,192,29004,12,8,31604,0:0:0:0:
215,273,32004,6,0,L|93:267,1,113.999996520996,12|0,0:0|0:0,0:0:0:0:
276,186,32404,2,0,L|346:187,2,56.9999982604981,2|0|0,0:0|0:0|0:0,0:0:0:0:
97,180,32804,2,0,L|32:180,2,56.9999982604981,8|0|0,0:0|0:0|0:0,0:0:0:0:
213,187,33104,2,0,L|226:116,1,56.9999982604981,0|2,0:0|0:0,0:0:0:0:
160,140,33304,2,0,L|147:69,1,56.9999982604981,0|0,0:0|0:0,0:0:0:0:
213,85,33504,1,2,0:0:0:0:
382,76,33604,6,0,L|450:72,1,56.9999982604981,8|0,0:0|0:0,0:0:0:0:
468,26,33804,1,0,0:0:0:0:
348,23,33904,2,0,L|222:25,1,113.999996520996,0|0,0:0|0:0,0:0:0:0:
291,99,34204,1,0,0:0:0:0:
348,97,34304,1,0,0:0:0:0:
231,162,34404,6,0,L|159:164,1,56.9999982604981,8|0,0:0|0:0,0:0:0:0:
144,213,34604,1,0,0:0:0:0:
174,163,34704,1,0,0:0:0:0:
356,159,34804,2,0,L|430:158,1,56.9999982604981,2|8,0:0|0:0,0:0:0:0:
309,84,35004,2,0,L|235:83,1,56.9999982604981,2|8,0:0|0:0,0:0:0:0:
433,256,35204,6,0,P|471:234|413:138,1,170.999994781494,12|0,0:0|0:0,0:0:0:0:
374,130,35604,1,2,0:0:0:0:
254,123,35704,2,0,L|121:108,1,113.999996520996,0|0,0:0|0:0,0:0:0:0:
256,48,36004,1,8,0:0:0:0:
314,39,36104,2,0,L|326:163,1,113.999996520996,0|0,0:0|0:0,0:0:0:0:
209,166,36404,2,0,L|137:170,1,56.9999982604981,2|0,0:0|0:0,0:0:0:0:
209,243,36604,2,0,L|281:247,1,56.9999982604981,0|2,0:0|0:0,0:0:0:0:
89,231,36804,6,0,L|71:163,2,56.9999982604981,8|0|0,0:0|0:0|0:0,0:0:0:0:
147,236,37104,2,0,L|287:238,1,113.999996520996,0|0,0:0|0:0,0:0:0:0:
203,234,37404,2,0,L|196:160,1,56.9999982604981,0|0,0:0|0:0,0:0:0:0:
313,141,37604,6,0,L|358:138,4,28.4999991302491,10|0|0|0|0,0:0|0:0|0:0|0:0|0:0,0:0:0:0:
144,98,37904,2,0,L|99:95,4,28.4999991302491,8|0|2|0|8,0:0|0:0|0:0|0:0|0:0,0:0:0:0:
243,49,38204,1,2,0:0:0:0:
341,46,38304,1,2,0:0:0:0:
214,210,38604,6,0,L|195:278,1,56.9999982604981,4|0,0:0|0:0,0:0:0:0:
266,280,38804,2,0,P|310:272|280:174,1,170.999994781494,2|0,0:0|0:0,0:0:0:0:
171,155,39204,1,8,0:0:0:0:
103,146,39304,2,0,L|97:24,1,113.999996520996,0|0,0:0|0:0,0:0:0:0:
214,23,39604,1,2,0:0:0:0:
272,30,39704,1,0,0:0:0:0:
330,34,39804,1,0,0:0:0:0:
387,42,39904,1,2,0:0:0:0:
209,185,40004,6,0,L|139:189,2,56.9999982604981,8|0|0,0:0|0:0|0:0,0:0:0:0:
323,181,40304,2,0,P|299:123|247:93,1,113.999996520996,0|0,0:0|0:0,0:0:0:0:
200,86,40604,2,0,L|132:81,1,56.9999982604981,0|0,0:0|0:0,0:0:0:0:
256,48,40804,1,8,0:0:0:0:
320,48,40904,1,0,0:0:0:0:
256,48,41004,1,0,0:0:0:0:
192,48,41104,1,0,0:0:0:0:
368,48,41204,1,2,0:0:0:0:
448,48,41304,1,8,0:0:0:0:
368,48,41404,1,2,0:0:0:0:
448,48,41504,1,8,0:0:0:0:
272,144,41604,5,4,0:0:0:0:
144,128,41804,2,0,L|133:57,1,56.9999982604981,0|0,0:0|0:0,0:0:0:0:
205,91,42004,2,0,L|216:20,1,56.9999982604981,2|0,0:0|0:0,0:0:0:0:
97,25,42304,1,0,0:0:0:0:
221,29,42404,2,0,L|299:31,1,56.9999982604981,8|0,0:0|0:0,0:0:0:0:
401,111,42704,1,0,0:0:0:0:
277,115,42804,2,0,L|199:117,1,56.9999982604981,2|0,0:0|0:0,0:0:0:0:
277,115,43004,2,0,L|355:117,1,56.9999982604981,0|0,0:0|0:0,0:0:0:0:
154,256,43204,5,2,0:0:0:0:
100,244,43304,1,0,0:0:0:0:
76,194,43404,1,2,0:0:0:0:
100,145,43504,1,0,0:0:0:0:
153,133,43604,1,2,0:0:0:0:
224,133,43704,1,0,0:0:0:0:
322,132,43804,1,2,0:0:0:0:
417,132,43904,1,0,0:0:0:0:
242,257,44004,6,0,P|177:252|230:69,1,332.5,10|0,0:0|0:0,0:0:0:0:
398,47,44804,6,0,L|405:160,1,95,12|8,0:0|0:0,0:0:0:0:
236,162,45204,2,0,L|243:275,1,95,8|8,0:0|0:0,0:0:0:0:
73,276,45604,2,0,L|68:182,1,95,8|8,0:0|0:0,0:0:0:0:
235,161,46004,2,0,L|230:67,1,95,8|8,0:0|0:0,0:0:0:0:
151,56,46304,1,0,0:0:0:0:
73,46,46404,6,0,L|66:159,1,95,8|8,0:0|0:0,0:0:0:0:
235,161,46804,2,0,L|228:274,1,95,0|8,0:0|0:0,0:0:0:0:
309,260,47104,1,0,0:0:0:0:
388,268,47204,2,0,L|394:151,1,95,8|8,0:0|0:0,0:0:0:0:
282,160,47504,2,0,L|276:43,1,95,8|8,0:0|0:0,0:0:0:0:
388,61,47804,1,8,0:0:0:0:
120,45,48004,6,0,L|113:158,1,95,8|8,0:0|0:0,0:0:0:0:
282,160,48404,2,0,L|275:273,1,95,8|8,0:0|0:0,0:0:0:0:
445,274,48804,2,0,L|450:180,1,95,8|8,0:0|0:0,0:0:0:0:
283,159,49204,2,0,L|288:65,1,95,8|8,0:0|0:0,0:0:0:0:
366,60,49504,1,0,0:0:0:0:
445,44,49604,6,0,L|452:157,1,95,8|8,0:0|0:0,0:0:0:0:
283,159,50004,2,0,L|219:164,1,47.5,8|0,0:0|0:0,0:0:0:0:
345,233,50204,2,0,L|409:238,1,47.5,8|0,0:0|0:0,0:0:0:0:
281,303,50404,2,0,P|125:258|70:100,1,332.5,8|0,0:0|0:0,0:0:0:0:
254,88,51204,6,0,L|265:193,1,95,12|8,0:0|0:0,0:0:0:0:
98,177,51604,2,0,L|109:282,1,95,8|8,0:0|0:0,0:0:0:0:
254,88,52004,2,0,L|265:193,1,95,8|8,0:0|0:0,0:0:0:0:
429,160,52404,2,0,L|440:265,1,95,8|8,0:0|0:0,0:0:0:0:
359,265,52704,1,0,0:0:0:0:
279,265,52804,6,0,L|268:160,1,95,8|8,0:0|0:0,0:0:0:0:
429,160,53204,2,0,L|418:55,1,95,0|8,0:0|0:0,0:0:0:0:
341,77,53504,1,0,0:0:0:0:
260,82,53604,2,0,L|266:199,1,95,8|8,0:0|0:0,0:0:0:0:
375,187,53904,2,0,L|381:304,1,95,8|8,0:0|0:0,0:0:0:0:
269,286,54204,1,8,0:0:0:0:
15,225,54404,6,0,P|64:164|134:149,1,142.5,12|0,0:0|0:0,0:0:0:0:
308,132,54804,2,0,P|259:71|189:56,1,142.5,12|0,0:0|0:0,0:0:0:0:
383,161,55204,2,0,P|334:222|264:237,1,142.5,12|0,0:0|0:0,0:0:0:0:
445,317,55604,2,0,L|467:163,1,142.5,12|0,0:0|0:0,0:0:0:0:
281,153,56004,5,8,0:0:0:0:
233,144,56104,1,8,0:0:0:0:
186,136,56204,1,8,0:0:0:0:
139,129,56304,1,8,0:0:0:0:
311,75,56404,1,8,0:0:0:0:
359,66,56504,1,8,0:0:0:0:
406,58,56604,1,8,0:0:0:0:
453,51,56704,1,8,0:0:0:0:
281,39,56804,6,0,B|92:57|92:57|38:242,1,380,10|12,0:0|0:0,0:0:0:0:
90,253,57704,1,0,0:0:0:0:
139,265,57804,1,8,0:0:0:0:
90,253,57904,1,0,0:0:0:0:
207,199,58004,2,0,L|308:191,1,95,10|8,0:0|0:0,0:0:0:0:
326,140,58304,2,0,L|215:131,2,95,2|2|2,0:0|0:0|0:0,0:0:0:0:
441,186,58804,1,8,0:0:0:0:
447,139,58904,1,0,0:0:0:0:
426,97,59004,1,8,0:0:0:0:
385,75,59104,1,0,0:0:0:0:
209,284,59204,5,8,0:0:0:0:
203,237,59304,1,0,0:0:0:0:
224,195,59404,1,8,0:0:0:0:
265,173,59504,1,0,0:0:0:0:
393,157,59604,2,0,L|495:150,1,95,10|8,0:0|0:0,0:0:0:0:
463,98,59904,2,0,L|353:103,2,95,2|2|2,0:0|0:0|0:0,0:0:0:0:
345,200,60404,1,8,0:0:0:0:
332,162,60504,1,0,0:0:0:0:
319,132,60604,1,8,0:0:0:0:
48,257,60804,5,8,0:0:0:0:
61,219,60904,1,0,0:0:0:0:
74,189,61004,1,8,0:0:0:0:
87,160,61104,1,0,0:0:0:0:
211,137,61204,2,0,L|312:129,1,95,10|8,0:0|0:0,0:0:0:0:
330,78,61504,2,0,L|219:69,2,95,2|2|2,0:0|0:0|0:0,0:0:0:0:
205,252,62004,2,0,L|144:236,1,47.5,8|0,0:0|0:0,0:0:0:0:
139,170,62204,1,8,0:0:0:0:
159,239,62304,1,0,0:0:0:0:
334,172,62404,6,0,L|355:105,2,47.5,8|0|8,0:0|0:0|0:0,0:0:0:0:
202,180,62704,2,0,L|145:175,1,47.5,8|0,0:0|0:0,0:0:0:0:
250,81,63004,2,0,L|307:76,1,47.5,8|8,0:0|0:0,0:0:0:0:
96,92,63304,2,0,L|2:102,2,95,10|10|2,0:0|0:0|0:0,0:0:0:0:
145,85,63804,1,8,0:0:0:0:
96,92,63904,1,10,0:0:0:0:
467,241,64204,6,0,L|460:178,1,47.5,8|0,0:0|0:0,0:0:0:0:
340,179,64404,2,0,L|239:171,1,95,10|8,0:0|0:0,0:0:0:0:
221,120,64704,2,0,L|332:111,2,95,2|2|2,0:0|0:0|0:0,0:0:0:0:
106,166,65204,1,8,0:0:0:0:
59,143,65304,1,0,0:0:0:0:
40,84,65404,1,8,0:0:0:0:
59,143,65504,1,8,0:0:0:0:
467,241,65804,6,0,L|460:178,1,47.5,8|0,0:0|0:0,0:0:0:0:
340,179,66004,2,0,L|239:171,1,95,10|8,0:0|0:0,0:0:0:0:
221,120,66304,2,0,L|332:111,2,95,2|2|2,0:0|0:0|0:0,0:0:0:0:
106,166,66804,1,8,0:0:0:0:
59,143,66904,1,8,0:0:0:0:
40,84,67004,1,0,0:0:0:0:
59,143,67104,1,0,0:0:0:0:
234,215,67204,6,0,L|296:211,1,47.5,8|0,0:0|0:0,0:0:0:0:
185,169,67404,2,0,L|177:110,1,47.5,8|0,0:0|0:0,0:0:0:0:
353,120,67604,2,0,L|415:116,1,47.5,8|0,0:0|0:0,0:0:0:0:
304,74,67804,2,0,L|296:15,1,47.5,8|0,0:0|0:0,0:0:0:0:
473,236,68004,2,0,L|415:232,1,47.5,8|8,0:0|0:0,0:0:0:0:
254,220,68204,2,0,L|196:216,1,47.5,8|8,0:0|0:0,0:0:0:0:
383,130,68404,2,0,L|441:126,2,47.5,8|0|0,0:0|0:0|0:0,0:0:0:0:
203,15,68704,6,0,P|220:323|381:108,1,760,12|0,0:0|0:0,0:0:0:0:
203,15,70404,6,0,P|203:386|205:15,1,1163.75001109838,12|0,0:0|0:0,0:0:0:0:
64,192,76804,5,10,0:0:0:0:
64,192,77104,1,2,0:0:0:0:
64,192,77404,1,10,0:0:0:0:
64,192,77704,1,10,0:0:0:0:
64,192,78004,1,10,0:0:0:0:
64,192,78204,1,10,0:0:0:0:
256,192,78404,5,10,0:0:0:0:
256,192,78704,1,10,0:0:0:0:
256,192,79004,1,10,0:0:0:0:
256,192,79304,1,10,0:0:0:0:
256,192,79604,1,10,0:0:0:0:
256,192,79804,1,10,0:0:0:0:
448,192,80004,5,10,0:0:0:0:
448,192,80204,1,10,0:0:0:0:
448,192,80404,1,10,0:0:0:0:
448,192,80604,1,10,0:0:0:0:
256,192,80804,1,10,0:0:0:0:
256,192,80904,1,8,0:0:0:0:
352,192,81004,1,10,0:0:0:0:
352,192,81104,1,8,0:0:0:0:
256,192,81204,1,10,0:0:0:0:
256,192,81254,1,8,0:0:0:0:
256,192,81304,1,8,0:0:0:0:
256,192,81354,1,8,0:0:0:0:
256,192,81404,1,10,0:0:0:0:
256,192,81454,1,8,0:0:0:0:
256,192,81504,5,8,0:0:0:0:
256,192,81704,12,0,82904,0:0:0:0:
213,223,83204,6,0,L|91:207,1,104.500003189087,14|0,0:0|0:0,0:0:0:0:
221,285,83504,2,0,L|241:160,1,104.500003189087,2|0,0:0|0:0,0:0:0:0:
185,158,83804,2,0,L|205:33,1,104.500003189087,2|0,0:0|0:0,0:0:0:0:
316,55,84104,2,0,L|436:62,1,104.500003189087,2|0,0:0|0:0,0:0:0:0:
306,140,84404,2,0,L|182:133,1,104.500003189087,2|2,0:0|0:0,0:0:0:0:
496,254,84804,6,0,L|489:126,1,104.500003189087,10|0,0:0|0:0,0:0:0:0:
436,156,85104,2,0,L|429:28,1,104.500003189087,2|0,0:0|0:0,0:0:0:0:
316,228,85404,2,0,L|197:231,1,104.500003189087,2|0,0:0|0:0,0:0:0:0:
327,140,85704,2,0,L|446:143,1,104.500003189087,2|0,0:0|0:0,0:0:0:0:
377,89,86004,1,2,0:0:0:0:
200,73,86204,2,0,L|131:69,1,52.2500015945435,2|0,0:0|0:0,0:0:0:0:
334,223,86404,6,0,L|456:207,1,104.500003189087,10|0,0:0|0:0,0:0:0:0:
326,285,86704,2,0,L|306:160,1,104.500003189087,2|0,0:0|0:0,0:0:0:0:
362,158,87004,2,0,L|342:33,1,104.500003189087,2|0,0:0|0:0,0:0:0:0:
231,55,87304,2,0,L|111:62,1,104.500003189087,2|0,0:0|0:0,0:0:0:0:
241,140,87604,2,0,L|365:133,1,104.500003189087,2|2,0:0|0:0,0:0:0:0:
51,254,88004,6,0,L|58:126,1,104.500003189087,10|0,0:0|0:0,0:0:0:0:
111,156,88304,2,0,L|118:28,1,104.500003189087,2|0,0:0|0:0,0:0:0:0:
231,228,88604,1,2,0:0:0:0:
283,229,88704,1,0,0:0:0:0:
335,230,88804,1,0,0:0:0:0:
172,138,88904,2,0,L|53:141,2,104.500003189087,2|2|2,0:0|0:0|0:0,0:0:0:0:
352,91,89404,2,0,L|421:87,1,52.2500015945435,0|0,0:0|0:0,0:0:0:0:
426,37,89604,5,10,0:0:0:0:
148,232,89804,1,4,0:0:0:0:
93,233,89904,2,0,L|79:115,1,104.500003189087,2|0,0:0|0:0,0:0:0:0:
136,138,90204,2,0,L|150:20,1,104.500003189087,2|0,0:0|0:0,0:0:0:0:
271,26,90504,2,0,L|391:30,1,104.500003189087,2|0,0:0|0:0,0:0:0:0:
254,134,90804,2,0,L|134:138,1,104.500003189087,2|2,0:0|0:0,0:0:0:0:
108,58,91204,5,10,0:0:0:0:
405,233,91404,1,4,0:0:0:0:
460,234,91504,2,0,L|474:116,1,104.500003189087,2|0,0:0|0:0,0:0:0:0:
417,139,91804,2,0,L|403:21,1,104.500003189087,2|0,0:0|0:0,0:0:0:0:
282,27,92104,2,0,L|162:31,1,104.500003189087,2|0,0:0|0:0,0:0:0:0:
299,135,92404,2,0,L|319:85,2,52.2500015945435,2|0|2,0:0|0:0|0:0,0:0:0:0:
247,134,92704,1,0,0:0:0:0:
440,230,92804,6,0,P|449:167|365:131,1,156.750004783631,10|0,0:0|0:0,0:0:0:0:
187,130,93204,2,0,P|236:69|311:52,1,156.750004783631,10|0,0:0|0:0,0:0:0:0:
112,159,93604,2,0,P|161:220|246:233,1,156.750004783631,10|0,0:0|0:0,0:0:0:0:
50,315,94004,2,0,L|27:153,1,156.750004783631,10|0,0:0|0:0,0:0:0:0:
213,148,94404,5,10,0:0:0:0:
291,148,94504,1,0,0:0:0:0:
342,128,94604,1,10,0:0:0:0:
368,65,94704,1,0,0:0:0:0:
248,52,94804,1,10,0:0:0:0:
170,52,94904,1,0,0:0:0:0:
119,72,95004,1,10,0:0:0:0:
93,135,95104,1,0,0:0:0:0:
320,147,95204,6,0,L|359:148,14,35.625001358986,6|0|2|0|0|0|2|0|0|0|2|0|2|0|0,0:0|0:0|0:0|0:0|0:0|0:0|0:0|0:0|0:0|0:0|0:0|0:0|0:0|0:0|0:0,0:0:0:0:
126,230,96004,6,0,L|51:223,1,52.2500015945435,14|0,0:0|0:0,0:0:0:0:
100,147,96204,1,0,0:0:0:0:
220,88,96304,2,0,L|295:95,1,52.2500015945435,2|0,0:0|0:0,0:0:0:0:
246,171,96504,1,0,0:0:0:0:
365,161,96604,2,0,L|440:168,1,52.2500015945435,2|0,0:0|0:0,0:0:0:0:
391,244,96804,1,0,0:0:0:0:
203,240,96904,5,2,0:0:0:0:
122,226,97004,1,0,0:0:0:0:
96,167,97104,1,0,0:0:0:0:
265,128,97204,2,0,L|336:124,1,52.2500015945435,2|0,0:0|0:0,0:0:0:0:
146,75,97404,2,0,L|75:71,1,52.2500015945435,2|0,0:0|0:0,0:0:0:0:
282,235,97604,6,0,L|357:228,1,52.2500015945435,10|0,0:0|0:0,0:0:0:0:
308,152,97804,1,0,0:0:0:0:
188,93,97904,2,0,L|113:100,1,52.2500015945435,2|0,0:0|0:0,0:0:0:0:
162,176,98104,1,0,0:0:0:0:
43,166,98204,2,0,L|34:220,1,52.2500015945435,2|0,0:0|0:0,0:0:0:0:
91,231,98404,1,0,0:0:0:0:
308,241,98504,6,0,L|321:206,2,26.1250007972718,2|0|0,0:0|0:0|0:0,0:0:0:0:
239,241,98704,2,0,L|229:216,2,26.1250007972718,0|0|2,0:0|0:0|0:0,0:0:0:0:
308,241,98904,2,0,L|321:206,2,26.1250007972718,0|0|2,0:0|0:0|0:0,0:0:0:0:
239,241,99104,1,0,0:0:0:0:
428,76,99204,6,0,L|503:83,1,52.2500015945435,10|0,0:0|0:0,0:0:0:0:
454,159,99404,1,0,0:0:0:0:
334,218,99504,2,0,L|259:211,1,52.2500015945435,2|0,0:0|0:0,0:0:0:0:
308,135,99704,1,0,0:0:0:0:
189,145,99804,2,0,L|114:138,1,52.2500015945435,2|0,0:0|0:0,0:0:0:0:
163,62,100004,1,0,0:0:0:0:
351,66,100104,5,2,0:0:0:0:
432,80,100204,1,0,0:0:0:0:
458,139,100304,1,0,0:0:0:0:
289,178,100404,2,0,L|218:182,1,52.2500015945435,2|0,0:0|0:0,0:0:0:0:
408,231,100604,2,0,L|479:235,1,52.2500015945435,2|0,0:0|0:0,0:0:0:0:
272,71,100804,6,0,L|197:78,1,52.2500015945435,10|0,0:0|0:0,0:0:0:0:
246,154,101004,1,0,0:0:0:0:
366,213,101104,2,0,L|441:206,1,52.2500015945435,2|0,0:0|0:0,0:0:0:0:
392,130,101304,1,0,0:0:0:0:
269,272,101404,2,0,L|344:265,1,52.2500015945435,2|0,0:0|0:0,0:0:0:0:
295,189,101604,1,0,0:0:0:0:
107,127,101704,6,0,P|46:115|0:77,2,104.500003189087,2|2|2,0:0|0:0|0:0,0:0:0:0:
161,125,102204,1,0,0:0:0:0:
230,125,102304,1,0,0:0:0:0:
419,270,102404,6,0,L|428:211,1,52.2500015945435,14|0,0:0|0:0,0:0:0:0:
364,208,102604,1,0,0:0:0:0:
246,180,102704,2,0,L|255:121,1,52.2500015945435,2|0,0:0|0:0,0:0:0:0:
191,118,102904,1,0,0:0:0:0:
73,270,103004,2,0,L|64:211,1,52.2500015945435,2|0,0:0|0:0,0:0:0:0:
128,208,103204,1,0,0:0:0:0:
304,130,103304,6,0,L|313:71,1,52.2500015945435,2|0,0:0|0:0,0:0:0:0:
249,68,103504,1,0,0:0:0:0:
81,68,103604,2,0,L|66:137,1,52.2500015945435,2|0,0:0|0:0,0:0:0:0:
243,185,103804,2,0,L|228:254,1,52.2500015945435,2|0,0:0|0:0,0:0:0:0:
39,271,104004,6,0,L|30:212,1,52.2500015945435,10|0,0:0|0:0,0:0:0:0:
94,209,104204,1,0,0:0:0:0:
212,181,104304,2,0,L|203:122,1,52.2500015945435,2|0,0:0|0:0,0:0:0:0:
267,119,104504,1,0,0:0:0:0:
385,271,104604,2,0,L|394:212,1,52.2500015945435,2|0,0:0|0:0,0:0:0:0:
330,209,104804,1,0,0:0:0:0:
156,129,104904,6,0,L|117:128,2,26.1250007972718,2|0|0,0:0|0:0|0:0,0:0:0:0:
224,74,105104,2,0,L|263:73,2,26.1250007972718,0|0|2,0:0|0:0|0:0,0:0:0:0:
156,129,105304,2,0,L|117:128,2,26.1250007972718,0|0|2,0:0|0:0|0:0,0:0:0:0:
224,74,105504,1,0,0:0:0:0:
387,294,105604,5,10,0:0:0:0:
401,244,105704,1,0,0:0:0:0:
389,194,105804,1,0,0:0:0:0:
272,176,105904,1,2,0:0:0:0:
247,128,106004,1,0,0:0:0:0:
238,74,106104,1,0,0:0:0:0:
360,193,106204,5,2,0:0:0:0:
374,143,106304,1,0,0:0:0:0:
362,93,106404,1,0,0:0:0:0:
172,84,106504,1,2,0:0:0:0:
117,80,106604,1,0,0:0:0:0:
60,72,106704,1,0,0:0:0:0:
181,251,106804,2,0,L|189:182,1,52.2500015945435,2|0,0:0|0:0,0:0:0:0:
66,199,107004,2,0,L|58:130,1,52.2500015945435,2|0,0:0|0:0,0:0:0:0:
243,100,107204,5,10,0:0:0:0:
323,100,107304,1,0,0:0:0:0:
375,155,107404,1,0,0:0:0:0:
396,226,107504,1,2,0:0:0:0:
375,155,107604,1,0,0:0:0:0:
323,100,107704,1,0,0:0:0:0:
243,100,107804,1,2,0:0:0:0:
323,100,107904,1,0,0:0:0:0:
492,282,108004,6,0,L|490:124,2,142.5,2|2|2,0:0|0:0|0:0,0:0:0:0:
203,15,108804,6,0,P|203:386|205:15,1,1163.75001109838,4|0,0:0|0:0,0:0:0:0:
256,192,118404,12,0,121204,0:0:0:0:
211,298,121604,6,0,P|118:282|154:130,1,285,10|0,0:0|0:0,0:0:0:0:
336,121,122404,2,0,L|453:115,1,95,10|10,0:0|0:0,0:0:0:0:
231,44,122804,2,0,L|165:41,1,47.5,10|0,0:0|0:0,0:0:0:0:
264,150,123104,1,0,0:0:0:0:
93,281,123204,6,0,P|46:242|106:145,1,190,10|0,0:0|0:0,0:0:0:0:
127,90,123704,1,0,0:0:0:0:
98,145,123804,1,0,0:0:0:0:
46,146,123904,1,0,0:0:0:0:
216,254,124004,2,0,P|315:247|425:50,1,332.5,8|0,0:0|0:0,0:0:0:0:
246,52,124804,6,0,B|152:72|152:72|127:110|127:110|156:148|156:148|267:124,1,285,2|0,0:0|0:0,0:0:0:0:
439,216,125604,2,0,L|449:113,1,95,8|8,0:0|0:0,0:0:0:0:
259,50,126004,2,0,L|198:47,1,47.5,8|0,0:0|0:0,0:0:0:0:
123,141,126304,1,0,0:0:0:0:
291,265,126404,5,10,0:0:0:0:
341,256,126504,1,2,0:0:0:0:
361,199,126604,1,2,0:0:0:0:
341,256,126704,1,0,0:0:0:0:
169,254,126804,2,0,L|64:250,1,95,2|2,0:0|0:0,0:0:0:0:
246,177,127204,2,0,L|256:71,1,95,8|0,0:0|0:0,0:0:0:0:
81,76,127604,1,0,0:0:0:0:
258,81,127804,2,0,L|320:81,1,47.5,0|0,0:0|0:0,0:0:0:0:
129,286,128004,6,0,P|166:207|302:300,1,285,10|0,0:0|0:0,0:0:0:0:
129,286,128804,2,0,L|17:284,1,95,10|10,0:0|0:0,0:0:0:0:
225,202,129204,2,0,L|290:199,1,47.5,10|0,0:0|0:0,0:0:0:0:
162,129,129404,2,0,L|103:132,1,47.5,0|0,0:0|0:0,0:0:0:0:
289,81,129604,5,10,0:0:0:0:
364,135,129704,2,0,L|373:182,2,47.5,0|0|0,0:0|0:0|0:0,0:0:0:0:
255,203,130004,2,0,L|245:259,1,47.5,0|0,0:0|0:0,0:0:0:0:
357,251,130204,2,0,L|367:307,1,47.5,2|0,0:0|0:0,0:0:0:0:
196,303,130404,6,0,P|133:281|110:41,1,332.5,10|0,0:0|0:0,0:0:0:0:
291,50,131204,6,0,P|333:203|243:270,1,285,10|0,0:0|0:0,0:0:0:0:
418,293,132004,2,0,L|513:294,1,95,10|8,0:0|0:0,0:0:0:0:
466,222,132304,1,0,0:0:0:0:
352,200,132404,2,0,L|342:137,1,47.5,10|0,0:0|0:0,0:0:0:0:
459,130,132604,2,0,L|469:67,1,47.5,0|0,0:0|0:0,0:0:0:0:
304,64,132804,6,0,B|214:102|114:89|114:89|118:123|89:147|89:147|122:173|125:207|125:207,1,332.5,10|2,0:0|0:0,0:0:0:0:
299,231,133604,2,0,L|443:234,2,142.5,10|10|8,0:0|0:0|0:0,0:0:0:0:
37,222,134404,6,0,L|8:222,14,23.75,0|0|0|0|0|0|0|0|0|0|0|0|0|0|0,0:0|0:0|0:0|0:0|0:0|0:0|0:0|0:0|0:0|0:0|0:0|0:0|0:0|0:0|0:0,0:0:0:0:
208,167,135204,5,10,0:0:0:0:
137,103,135404,2,0,L|192:101,1,47.5,10|2,0:0|0:0,0:0:0:0:
358,102,135604,1,10,0:0:0:0:
407,103,135704,2,0,P|447:119|399:229,1,190,0|0,0:0|0:0,0:0:0:0:
307,225,136204,6,0,L|295:193,4,23.75,0|0|0|0|0,0:0|0:0|0:0|0:0|0:0,0:0:0:0:
355,231,136504,1,0,0:0:0:0:
243,201,136604,2,0,L|226:156,1,47.5,0|0,0:0|0:0,0:0:0:0:
399,174,136804,6,0,P|401:119|324:59,1,142.5,8|8,0:0|0:0,0:0:0:0:
293,57,137204,2,0,B|197:59|197:59|290:50|290:50|303:202,1,332.5,8|0,0:0|0:0,0:0:0:0:
131,246,138004,6,0,P|70:220|58:143,1,142.5,10|0,0:0|0:0,0:0:0:0:
227,114,138404,1,10,0:0:0:0:
301,109,138504,1,0,0:0:0:0:
320,55,138604,1,10,0:0:0:0:
301,109,138704,1,0,0:0:0:0:
227,114,138804,1,10,0:0:0:0:
107,114,138904,2,0,P|95:150|119:218,1,95,0|0,0:0|0:0,0:0:0:0:
218,205,139204,6,0,P|224:239|185:201,1,142.5,0|0,0:0|0:0,0:0:0:0:
356,159,139604,1,0,0:0:0:0:
404,153,139704,1,0,0:0:0:0:
450,150,139804,1,8,0:0:0:0:
404,153,139904,1,0,0:0:0:0:
295,167,140004,6,0,L|273:61,1,95,8|8,0:0|0:0,0:0:0:0:
158,79,140304,1,8,0:0:0:0:
106,162,140404,2,0,L|128:56,1,95,0|8,0:0|0:0,0:0:0:0:
173,73,140704,1,8,0:0:0:0:
344,275,140804,6,0,P|366:242|325:146,1,142.5,10|0,0:0|0:0,0:0:0:0:
288,215,141204,2,0,P|259:177|297:85,1,142.5,10|0,0:0|0:0,0:0:0:0:
407,81,141604,2,0,L|379:231,1,142.5,10|0,0:0|0:0,0:0:0:0:
333,150,142004,2,0,L|305:300,1,142.5,0|0,0:0|0:0,0:0:0:0:
61,280,142404,6,0,P|48:230|118:164,1,142.5,10|0,0:0|0:0,0:0:0:0:
215,160,142804,2,0,L|231:60,1,95,10|10,0:0|0:0,0:0:0:0:
401,62,143204,6,0,L|442:65,14,23.75,0|0|0|0|0|0|0|0|2|0|0|0|2|0|0,0:0|0:0|0:0|0:0|0:0|0:0|0:0|0:0|0:0|0:0|0:0|0:0|0:0|0:0|0:0,0:0:0:0:
229,19,144004,6,0,P|230:382|231:19,1,1092.5,2|0,0:0|0:0,0:0:0:0:
102,54,146404,6,0,L|87:120,1,47.5,2|0,0:0|0:0,0:0:0:0:
269,144,146604,2,0,L|336:154,1,47.5,2|0,0:0|0:0,0:0:0:0:
144,215,146804,2,0,L|158:160,1,47.5,2|0,0:0|0:0,0:0:0:0:
329,231,147004,2,0,L|396:241,1,47.5,2|0,0:0|0:0,0:0:0:0:
213,13,147204,6,0,P|213:384|215:13,1,1163.75001109838,14|0,0:0|0:0,0:0:0:0:
135,108,160004,6,0,L|423:104,1,285,14|8,0:0|0:0,0:0:0:0:
419,104,160704,2,0,L|289:105,2,95,0|0|0,0:0|0:0|0:0,0:0:0:0:
419,104,161204,2,0,L|419:153,3,47.5,10|0|0|0,0:0|0:0|0:0|0:0,0:0:0:0:
419,104,161604,6,0,L|242:106,2,142.5,10|0|8,0:0|0:0|0:0,0:0:0:0:
419,104,162304,2,0,L|285:104,2,95,0|0|0,0:0|0:0|0:0,0:0:0:0:
419,104,162904,2,0,L|366:104,2,47.5,0|8|0,0:0|0:0|0:0,0:0:0:0:
419,104,163204,6,0,L|131:100,1,285,14|8,0:0|0:0,0:0:0:0:
135,100,163904,2,0,L|265:101,2,95,0|0|0,0:0|0:0|0:0,0:0:0:0:
135,100,164404,2,0,L|136:176,2,71.25,10|0|0,0:0|0:0|0:0,0:0:0:0:
135,100,164804,6,0,L|312:102,2,142.5,14|0|8,0:0|0:0|0:0,0:0:0:0:
135,100,165504,2,0,L|269:100,2,95,0|0|0,0:0|0:0|0:0,0:0:0:0:
135,100,166104,2,0,L|242:99,1,95,0|0,0:0|0:0,0:0:0:0:
405,280,166404,5,14,0:0:0:0:
417,234,166504,1,0,0:0:0:0:
418,186,166604,1,8,0:0:0:0:
407,140,166704,1,0,0:0:0:0:
385,98,166804,1,8,0:0:0:0:
354,63,166904,1,0,0:0:0:0:
315,37,167004,1,8,0:0:0:0:
270,21,167104,1,0,0:0:0:0:
223,16,167204,1,8,0:0:0:0:
176,24,167304,1,0,0:0:0:0:
133,43,167404,1,8,0:0:0:0:
95,72,167504,1,0,0:0:0:0:
66,109,167604,1,8,0:0:0:0:
47,152,167704,1,0,0:0:0:0:
39,199,167804,1,8,0:0:0:0:
43,246,167904,1,0,0:0:0:0:
218,303,168004,5,8,0:0:0:0:
265,305,168104,1,0,0:0:0:0:
310,291,168204,1,8,0:0:0:0:
348,264,168304,1,0,0:0:0:0:
375,225,168404,1,8,0:0:0:0:
388,179,168504,1,0,0:0:0:0:
385,132,168604,1,8,0:0:0:0:
367,89,168704,1,0,0:0:0:0:
335,54,168804,1,8,0:0:0:0:
294,31,168904,1,0,0:0:0:0:
247,23,169004,1,8,0:0:0:0:
201,31,169104,1,0,0:0:0:0:
159,54,169204,1,8,0:0:0:0:
128,89,169304,1,0,0:0:0:0:
110,133,169404,1,8,0:0:0:0:
107,180,169504,1,0,0:0:0:0:
293,376,169604,5,8,0:0:0:0:
355,342,169704,1,0,0:0:0:0:
401,288,169804,1,0,0:0:0:0:
425,222,169904,1,0,0:0:0:0:
423,151,170004,1,0,0:0:0:0:
395,85,170104,1,0,0:0:0:0:
346,34,170204,1,0,0:0:0:0:
268,8,170304,1,0,0:0:0:0:
190,4,170404,1,0,0:0:0:0:
123,25,170504,1,0,0:0:0:0:
67,69,170604,1,0,0:0:0:0:
32,130,170704,1,0,0:0:0:0:
20,200,170804,1,0,0:0:0:0:
35,270,170904,1,0,0:0:0:0:
74,329,171004,1,0,0:0:0:0:
131,370,171104,1,0,0:0:0:0:
246,383,171204,5,0,0:0:0:0:
340,338,171404,2,0,L|348:262,1,47.5,0|0,0:0|0:0,0:0:0:0:
242,285,171704,2,0,L|235:227,2,47.5,0|0|0,0:0|0:0|0:0,0:0:0:0:
348,202,172104,2,0,L|356:126,2,47.5,0|0|0,0:0|0:0|0:0,0:0:0:0:
232,115,172404,2,0,L|205:40,2,47.5,2|2|2,0:0|0:0|0:0,0:0:0:0:
281,116,172704,1,2,0:0:0:0:
454,305,172804,6,0,P|379:82|66:288,1,712.5,14|10,0:0|0:0,0:0:0:0:
62,266,174404,6,0,P|249:255|11:106,1,712.5,0|2,0:0|0:0,0:0:0:0:
11,144,176004,6,0,B|487:179|487:179|439:212|410:262,1,570,10|10,0:0|0:0,0:0:0:0:
343,246,177354,1,0,0:0:0:0:
267,250,177504,1,0,0:0:0:0:
225,253,177604,6,0,P|298:234|204:66,1,332.5,2|10,0:0|0:0,0:0:0:0:
177,61,178404,2,0,P|66:157|177:253,1,332.5,0|10,0:0|0:0,0:0:0:0:
289,310,179204,6,0,P|363:162|251:163,1,332.5,10|2,0:0|0:0,0:0:0:0:
216,189,180004,2,0,P|228:244|324:194,1,190,0|10,0:0|0:0,0:0:0:0:
247,142,180554,1,0,0:0:0:0:
170,121,180704,1,0,0:0:0:0:
213,106,180804,6,0,P|272:108|246:312,1,332.5,10|2,0:0|0:0,0:0:0:0:
212,318,181604,2,0,P|153:316|179:112,1,332.5,0|0,0:0|0:0,0:0:0:0:
274,97,182404,6,0,B|379:89|379:89|170:71|170:71|261:70|261:70|376:189|376:189|407:343|407:343|401:379,1,760,8|10,0:0|0:0,0:0:0:0:
256,192,184204,12,10,185204,0:0:0:0:
448,192,185604,5,10,0:0:0:0:
448,192,185904,1,10,0:0:0:0:
448,192,186204,1,10,0:0:0:0:
256,192,186404,1,10,0:0:0:0:
256,192,186704,1,10,0:0:0:0:
256,192,187004,1,10,0:0:0:0:
64,192,187204,5,10,0:0:0:0:
64,192,187504,1,10,0:0:0:0:
64,192,187804,1,10,0:0:0:0:
256,192,188004,1,10,0:0:0:0:
256,192,188304,1,10,0:0:0:0:
64,192,188804,5,10,0:0:0:0:
64,192,189104,1,10,0:0:0:0:
64,192,189404,1,10,0:0:0:0:
256,192,189604,1,10,0:0:0:0:
256,192,189904,1,10,0:0:0:0:
256,192,190204,1,10,0:0:0:0:
448,192,190404,5,10,0:0:0:0:
448,192,190704,1,10,0:0:0:0:
448,192,191004,1,10,0:0:0:0:
256,192,191204,1,10,0:0:0:0:
256,192,191504,1,10,0:0:0:0:
304,192,191604,1,0,0:0:0:0:
320,144,191704,1,0,0:0:0:0:
304,192,191804,1,0,0:0:0:0:
256,192,191904,1,0,0:0:0:0:
84,243,192004,5,10,0:0:0:0:
91,196,192104,1,0,0:0:0:0:
118,158,192204,1,10,0:0:0:0:
160,136,192304,1,0,0:0:0:0:
278,124,192404,2,0,L|266:63,1,47.5,10|0,0:0|0:0,0:0:0:0:
154,84,192604,2,0,L|142:23,1,47.5,10|0,0:0|0:0,0:0:0:0:
320,291,192804,5,10,0:0:0:0:
313,244,192904,1,0,0:0:0:0:
286,206,193004,1,10,0:0:0:0:
244,184,193104,1,0,0:0:0:0:
126,172,193204,2,0,L|138:111,1,47.5,10|0,0:0|0:0,0:0:0:0:
250,132,193404,2,0,L|262:71,1,47.5,10|0,0:0|0:0,0:0:0:0:
432,248,193604,5,10,0:0:0:0:
425,201,193704,1,0,0:0:0:0:
398,163,193804,1,10,0:0:0:0:
356,141,193904,1,0,0:0:0:0:
182,158,194004,1,10,0:0:0:0:
189,111,194104,1,0,0:0:0:0:
216,73,194204,1,10,0:0:0:0:
258,51,194304,1,0,0:0:0:0:
84,248,194404,5,10,0:0:0:0:
91,201,194504,1,0,0:0:0:0:
118,163,194604,1,10,0:0:0:0:
160,141,194704,1,0,0:0:0:0:
334,158,194804,1,10,0:0:0:0:
327,111,194904,1,0,0:0:0:0:
300,73,195004,1,10,0:0:0:0:
258,51,195104,1,0,0:0:0:0:
435,263,195204,6,0,L|490:260,1,47.5,8|0,0:0|0:0,0:0:0:0:
310,208,195404,1,8,0:0:0:0:
243,203,195504,1,0,0:0:0:0:
72,141,195604,1,8,0:0:0:0:
139,136,195704,1,0,0:0:0:0:
313,79,195804,1,8,0:0:0:0:
380,84,195904,1,0,0:0:0:0:
205,56,196004,6,0,L|139:62,3,47.5,10|10|10|10,0:0|0:0|0:0|0:0,0:0:0:0:
329,132,196404,2,0,L|369:137,7,23.75,10|0|10|0|10|0|10|0,0:0|0:0|0:0|0:0|0:0|0:0|0:0|0:0,0:0:0:0:
329,132,196804,5,2,0:0:0:0:
256,192,197004,12,12,198004,0:0:0:0:
354,198,198404,6,0,L|230:193,1,104.500003189087,12|10,0:0|0:0,0:0:0:0:
366,263,198704,2,0,L|377:151,1,104.500003189087,2|0,0:0|0:0,0:0:0:0:
203,122,199004,2,0,L|135:114,1,52.2500015945435,10|2,0:0|0:0,0:0:0:0:
107,43,199304,1,2,0:0:0:0:
233,38,199404,2,0,L|292:42,1,52.2500015945435,10|0,0:0|0:0,0:0:0:0:
218,112,199604,2,0,L|196:174,2,52.2500015945435,8|2|8,0:0|0:0|0:0,0:0:0:0:
387,165,199904,1,2,0:0:0:0:
432,92,200104,5,2,0:0:0:0:
312,85,200204,1,10,0:0:0:0:
260,82,200304,2,0,L|379:81,1,104.500003189087,2|2,0:0|0:0,0:0:0:0:
312,85,200604,1,8,0:0:0:0:
188,84,200704,1,2,0:0:0:0:
110,43,200904,2,0,L|177:38,1,52.2500015945435,2|10,0:0|0:0,0:0:0:0:
347,167,201104,1,2,0:0:0:0:
425,208,201304,2,0,L|358:213,1,52.2500015945435,2|8,0:0|0:0,0:0:0:0:
319,216,201504,1,10,0:0:0:0:
129,221,201604,6,0,L|18:211,1,104.500003189087,10|10,0:0|0:0,0:0:0:0:
140,308,201904,2,0,L|157:184,1,104.500003189087,2|2,0:0|0:0,0:0:0:0:
346,129,202204,2,0,L|414:121,1,52.2500015945435,10|0,0:0|0:0,0:0:0:0:
442,50,202504,1,2,0:0:0:0:
316,45,202604,2,0,L|257:49,1,52.2500015945435,10|0,0:0|0:0,0:0:0:0:
383,164,202804,2,0,L|413:259,2,78.3750023918153,10|10|10,0:0|0:0|0:0,0:0:0:0:
123,96,203404,5,10,0:0:0:0:
70,92,203504,2,0,L|174:92,1,104.500003189087,2|2,0:0|0:0,0:0:0:0:
123,96,203804,1,10,0:0:0:0:
311,98,203904,2,0,L|422:100,1,104.500003189087,2|2,0:0|0:0,0:0:0:0:
363,162,204204,1,10,0:0:0:0:
174,179,204304,1,2,0:0:0:0:
93,226,204504,2,0,L|160:231,1,52.2500015945435,8|0,0:0|0:0,0:0:0:0:
346,236,204704,1,0,0:0:0:0:
388,231,204804,6,0,L|499:221,1,104.500003189087,14|10,0:0|0:0,0:0:0:0:
376,312,205104,2,0,L|359:188,1,104.500003189087,2|2,0:0|0:0,0:0:0:0:
170,206,205404,1,10,0:0:0:0:
115,203,205504,2,0,L|132:79,1,104.500003189087,0|2,0:0|0:0,0:0:0:0:
180,138,205804,2,0,L|188:67,1,52.2500015945435,10|0,0:0|0:0,0:0:0:0:
308,69,206004,2,0,L|406:66,2,78.3750023918153,10|10|10,0:0|0:0|0:0,0:0:0:0:
124,231,206404,6,0,L|13:221,1,104.500003189087,8|10,0:0|0:0,0:0:0:0:
136,312,206704,2,0,L|153:188,1,104.500003189087,2|0,0:0|0:0,0:0:0:0:
342,206,207004,1,10,0:0:0:0:
397,203,207104,2,0,L|380:79,1,104.500003189087,2|2,0:0|0:0,0:0:0:0:
332,138,207404,2,0,L|324:67,1,52.2500015945435,10|0,0:0|0:0,0:0:0:0:
204,69,207604,2,0,L|130:66,2,52.2500015945435,10|0|10,0:0|0:0|0:0,0:0:0:0:
255,73,207904,1,0,0:0:0:0:
66,281,208004,6,0,L|59:163,1,104.500003189087,10|10,0:0|0:0,0:0:0:0:
121,171,208304,1,2,0:0:0:0:
244,158,208404,2,0,L|337:155,1,78.3750023918153,10|10,0:0|0:0,0:0:0:0:
68,252,208704,2,0,P|60:189|140:132,1,156.750004783631,10|10,0:0|0:0,0:0:0:0:
178,127,209104,1,2,0:0:0:0:
298,125,209204,1,10,0:0:0:0:
350,126,209304,2,0,L|465:124,1,104.500003189087,2|2,0:0|0:0,0:0:0:0:
256,288,209604,6,0,L|256:112,1,156.750004783631,0|0,0:0|0:0,0:0:0:0:
65,125,210004,1,10,0:0:0:0:
39,112,210054,1,0,0:0:0:0:
31,88,210104,1,10,0:0:0:0:
40,65,210154,1,0,0:0:0:0:
66,54,210204,1,10,0:0:0:0:
145,54,210304,1,8,0:0:0:0:
336,128,210404,5,8,0:0:0:0:
361,115,210454,1,0,0:0:0:0:
369,91,210504,1,8,0:0:0:0:
360,68,210554,1,0,0:0:0:0:
334,57,210604,1,8,0:0:0:0:
256,57,210704,1,8,0:0:0:0:
68,55,210804,6,0,L|35:56,6,26.1250007972718,8|0|8|0|10|0|10,0:0|0:0|0:0|0:0|0:0|0:0|0:0,0:0:0:0:
261,216,211204,6,0,L|326:215,1,52.2500015945435,12|0,0:0|0:0,0:0:0:0:
342,144,211404,1,10,0:0:0:0:
217,143,211504,2,0,L|152:142,1,52.2500015945435,2|8,0:0|0:0,0:0:0:0:
136,71,211704,1,0,0:0:0:0:
325,295,211804,1,10,0:0:0:0:
375,236,211904,2,0,L|323:234,1,52.2500015945434,2|8,0:0|0:0,0:0:0:0:
200,271,212104,1,2,0:0:0:0:
150,212,212204,2,0,L|202:211,1,52.2500015945434,10|0,0:0|0:0,0:0:0:0:
323,167,212404,1,8,0:0:0:0:
377,153,212504,2,0,L|373:83,1,52.2500015945435,2|8,0:0|0:0,0:0:0:0:
181,82,212704,6,0,L|57:75,1,104.500003189087,2|2,0:0|0:0,0:0:0:0:
129,139,213004,1,10,0:0:0:0:
249,212,213104,2,0,L|373:219,1,104.500003189087,2|2,0:0|0:0,0:0:0:0:
301,155,213404,1,8,0:0:0:0:
180,278,213504,2,0,L|172:153,1,104.500003189087,2|2,0:0|0:0,0:0:0:0:
229,169,213804,1,10,0:0:0:0:
417,186,213904,2,0,L|425:61,1,104.500003189087,2|2,0:0|0:0,0:0:0:0:
368,77,214204,1,8,0:0:0:0:
292,70,214304,1,10,0:0:0:0:
103,231,214404,6,0,L|45:230,2,52.2500015945435,10|0|10,0:0|0:0|0:0,0:0:0:0:
227,230,214704,2,0,L|234:178,2,52.2500015945435,2|8|2,0:0|0:0|0:0,0:0:0:0:
421,74,215004,2,0,L|479:75,2,52.2500015945435,10|0|8,0:0|0:0|0:0,0:0:0:0:
306,73,215304,2,0,L|299:114,2,26.1250007972718,2|0|10,0:0|0:0|0:0,0:0:0:0:
360,74,215504,1,0,0:0:0:0:
192,164,215604,2,0,L|110:164,2,78.3750023918153,10|10|10,0:0|0:0|0:0,0:0:0:0:
430,279,216204,5,10,0:0:0:0:
375,280,216304,2,0,L|367:216,1,52.2500015945435,2|8,0:0|0:0,0:0:0:0:
317,228,216504,1,2,0:0:0:0:
126,218,216604,1,10,0:0:0:0:
70,217,216704,2,0,P|55:160|92:116,1,104.500003189087,2|2,0:0|0:0,0:0:0:0:
269,142,217004,1,10,0:0:0:0:
325,141,217104,2,0,P|340:84|303:40,1,104.500003189087,2|8,0:0|0:0,0:0:0:0:
263,32,217404,1,10,0:0:0:0:
236,29,217454,1,0,0:0:0:0:
210,28,217504,1,8,0:0:0:0:
151,101,217604,5,14,0:0:0:0:
429,260,217804,2,0,L|422:201,1,52.2500015945435,10|2,0:0|0:0,0:0:0:0:
367,213,218004,2,0,L|360:154,1,52.2500015945435,8|2,0:0|0:0,0:0:0:0:
173,143,218204,1,10,0:0:0:0:
111,190,218304,2,0,L|118:131,1,52.2500015945435,0|8,0:0|0:0,0:0:0:0:
173,143,218504,2,0,L|180:84,1,52.2500015945435,2|10,0:0|0:0,0:0:0:0:
118,85,218704,1,0,0:0:0:0:
239,81,218804,1,10,0:0:0:0:
319,79,218954,1,10,0:0:0:0:
399,76,219104,1,10,0:0:0:0:
399,76,219204,5,8,0:0:0:0:
104,241,219404,2,0,L|111:182,1,52.2500015945435,10|2,0:0|0:0,0:0:0:0:
166,194,219604,2,0,L|173:135,1,52.2500015945435,8|0,0:0|0:0,0:0:0:0:
360,124,219804,1,10,0:0:0:0:
422,171,219904,2,0,L|415:112,1,52.2500015945435,2|8,0:0|0:0,0:0:0:0:
360,124,220104,1,2,0:0:0:0:
356,98,220154,1,0,0:0:0:0:
353,72,220204,1,10,0:0:0:0:
416,88,220304,1,0,0:0:0:0:
419,62,220354,1,0,0:0:0:0:
422,37,220404,2,0,P|403:94|320:134,1,156.750004783631,10|0,0:0|0:0,0:0:0:0:
123,323,220804,5,10,0:0:0:0:
63,265,220904,1,0,0:0:0:0:
26,191,221004,1,10,0:0:0:0:
17,109,221104,1,2,0:0:0:0:
38,29,221204,1,10,0:0:0:0:
84,0,221304,1,0,0:0:0:0:
152,0,221404,1,0,0:0:0:0:
231,0,221504,1,10,0:0:0:0:
314,0,221604,1,8,0:0:0:0:
389,0,221704,1,0,0:0:0:0:
447,0,221804,1,10,0:0:0:0:
481,67,221904,1,2,0:0:0:0:
488,149,222004,1,10,0:0:0:0:
465,229,222104,1,2,0:0:0:0:
417,296,222204,1,10,0:0:0:0:
348,342,222304,1,2,0:0:0:0:
166,345,222404,6,0,P|219:160|268:351,1,522.5,2|0,0:0|0:0,0:0:0:0:
166,345,223604,2,0,P|126:292|133:215,1,142.5,12|0,0:0|0:0,0:0:0:0:
305,199,224004,5,12,0:0:0:0:
356,204,224104,1,0,0:0:0:0:
404,207,224204,1,8,0:0:0:0:
422,253,224304,1,0,0:0:0:0:
305,199,224404,2,0,L|204:191,1,95,10|8,0:0|0:0,0:0:0:0:
186,140,224704,2,0,L|297:131,2,95,2|2|2,0:0|0:0|0:0,0:0:0:0:
71,186,225204,1,8,0:0:0:0:
65,139,225304,1,0,0:0:0:0:
86,97,225404,1,8,0:0:0:0:
127,75,225504,1,0,0:0:0:0:
303,284,225604,5,8,0:0:0:0:
309,237,225704,1,0,0:0:0:0:
288,195,225804,1,8,0:0:0:0:
247,173,225904,1,0,0:0:0:0:
119,157,226004,2,0,L|17:150,1,95,10|8,0:0|0:0,0:0:0:0:
49,98,226304,2,0,L|159:103,2,95,2|2|2,0:0|0:0|0:0,0:0:0:0:
167,200,226804,1,8,0:0:0:0:
180,162,226904,1,0,0:0:0:0:
193,132,227004,1,8,0:0:0:0:
464,257,227204,5,8,0:0:0:0:
451,219,227304,1,0,0:0:0:0:
438,189,227404,1,8,0:0:0:0:
425,160,227504,1,0,0:0:0:0:
301,137,227604,2,0,L|200:129,1,95,10|8,0:0|0:0,0:0:0:0:
182,78,227904,2,0,L|293:69,2,95,2|2|2,0:0|0:0|0:0,0:0:0:0:
307,252,228404,2,0,L|385:233,2,71.25,12|8|4,0:0|0:0|0:0,0:0:0:0:
178,172,228804,6,0,L|157:105,2,47.5,8|0|8,0:0|0:0|0:0,0:0:0:0:
366,176,229104,2,0,L|423:171,1,47.5,8|4,0:0|0:0,0:0:0:0:
444,110,229304,1,0,0:0:0:0:
316,92,229404,2,0,L|259:87,1,47.5,8|8,0:0|0:0,0:0:0:0:
234,33,229604,1,4,0:0:0:0:
416,92,229704,2,0,L|510:102,2,95,10|10|2,0:0|0:0|0:0,0:0:0:0:
367,85,230204,1,8,0:0:0:0:
416,92,230304,1,10,0:0:0:0:
45,241,230604,6,0,L|52:178,1,47.5,12|0,0:0|0:0,0:0:0:0:
172,179,230804,2,0,L|273:171,1,95,10|8,0:0|0:0,0:0:0:0:
291,120,231104,2,0,L|180:111,2,95,2|2|2,0:0|0:0|0:0,0:0:0:0:
406,166,231604,1,8,0:0:0:0:
453,143,231704,1,0,0:0:0:0:
472,84,231804,1,8,0:0:0:0:
453,143,231904,1,8,0:0:0:0:
45,241,232204,6,0,L|52:178,1,47.5,8|0,0:0|0:0,0:0:0:0:
172,179,232404,2,0,L|273:171,1,95,10|8,0:0|0:0,0:0:0:0:
291,120,232704,2,0,L|180:111,2,95,2|2|2,0:0|0:0|0:0,0:0:0:0:
406,166,233204,1,8,0:0:0:0:
453,143,233304,1,8,0:0:0:0:
472,84,233404,1,0,0:0:0:0:
453,143,233504,1,0,0:0:0:0:
278,215,233604,6,0,L|216:211,1,47.5,12|0,0:0|0:0,0:0:0:0:
327,169,233804,2,0,L|335:110,1,47.5,8|0,0:0|0:0,0:0:0:0:
159,120,234004,2,0,L|97:116,1,47.5,8|0,0:0|0:0,0:0:0:0:
208,74,234204,2,0,L|216:15,1,47.5,8|0,0:0|0:0,0:0:0:0:
39,236,234404,2,0,L|97:232,1,47.5,12|8,0:0|0:0,0:0:0:0:
258,220,234604,2,0,L|316:216,1,47.5,8|8,0:0|0:0,0:0:0:0:
129,130,234804,2,0,L|71:126,2,47.5,8|0|0,0:0|0:0|0:0,0:0:0:0:
309,15,235104,6,0,P|292:323|131:108,1,760,12|0,0:0|0:0,0:0:0:0:
309,15,236804,6,0,P|308:379|307:15,1,1140,6|2,0:0|0:0,0:0:0:0:
116,39,239604,1,10,0:0:0:0:
116,39,239804,1,2,0:0:0:0:
387,248,240004,6,0,L|457:245,2,56.9999982604981,14|0|0,0:0|0:0|0:0,0:0:0:0:
261,178,240304,2,0,L|191:175,2,56.9999982604981,2|0|0,0:0|0:0|0:0,0:0:0:0:
387,248,240604,2,0,L|410:186,2,56.9999982604981,2|0|0,0:0|0:0|0:0,0:0:0:0:
213,96,240904,6,0,L|130:96,2,56.9999982604981,2|0|0,0:0|0:0|0:0,0:0:0:0:
386,107,241204,2,0,L|405:176,1,56.9999982604981,2|0,0:0|0:0,0:0:0:0:
234,208,241404,2,0,L|253:277,1,56.9999982604981,2|0,0:0|0:0,0:0:0:0:
79,269,241604,6,0,L|9:266,2,56.9999982604981,10|0|0,0:0|0:0|0:0,0:0:0:0:
205,199,241904,2,0,L|275:196,2,56.9999982604981,2|0|0,0:0|0:0|0:0,0:0:0:0:
79,269,242204,2,0,L|56:207,1,56.9999982604981,2|0,0:0|0:0,0:0:0:0:
236,157,242404,5,0,0:0:0:0:
264,155,242454,1,0,0:0:0:0:
292,154,242504,1,0,0:0:0:0:
321,152,242554,1,0,0:0:0:0:
349,151,242604,1,0,0:0:0:0:
177,77,242704,2,0,L|140:80,4,28.4999991302491,0|0|0|0|0,0:0|0:0|0:0|0:0|0:0,0:0:0:0:
292,33,243004,2,0,L|365:32,1,56.9999982604981,2|0,0:0|0:0,0:0:0:0:
175,251,243204,5,10,0:0:0:0:
117,246,243304,1,0,0:0:0:0:
129,186,243404,1,0,0:0:0:0:
258,178,243504,2,0,L|328:175,2,56.9999982604981,2|0|0,0:0|0:0|0:0,0:0:0:0:
132,248,243804,2,0,L|109:186,2,56.9999982604981,2|0|0,0:0|0:0|0:0,0:0:0:0:
306,96,244104,6,0,L|389:96,2,56.9999982604981,2|0|0,0:0|0:0|0:0,0:0:0:0:
133,107,244404,2,0,L|114:176,1,56.9999982604981,2|0,0:0|0:0,0:0:0:0:
285,208,244604,2,0,L|266:277,1,56.9999982604981,2|0,0:0|0:0,0:0:0:0:
440,269,244804,6,0,L|478:202,2,56.9999982604981,10|0|0,0:0|0:0|0:0,0:0:0:0:
381,271,245104,1,2,0:0:0:0:
263,273,245204,2,0,L|252:206,1,56.9999982604981,0|0,0:0|0:0,0:0:0:0:
361,203,245404,2,0,L|384:141,1,56.9999982604981,2|0,0:0|0:0,0:0:0:0:
207,128,245604,2,0,L|25:106,2,170.999994781494,0|2|0,0:0|0:0|0:0,0:0:0:0:
476,243,246404,5,14,0:0:0:0:
447,189,246504,1,0,0:0:0:0:
386,187,246604,1,0,0:0:0:0:
261,178,246704,2,0,L|191:175,2,56.9999982604981,2|0|0,0:0|0:0|0:0,0:0:0:0:
387,248,247004,2,0,L|410:186,2,56.9999982604981,2|0|0,0:0|0:0|0:0,0:0:0:0:
213,96,247304,6,0,L|130:96,2,56.9999982604981,2|0|0,0:0|0:0|0:0,0:0:0:0:
386,107,247604,2,0,L|405:176,1,56.9999982604981,2|0,0:0|0:0,0:0:0:0:
234,208,247804,2,0,L|253:277,1,56.9999982604981,2|0,0:0|0:0,0:0:0:0:
79,269,248004,6,0,L|9:266,2,56.9999982604981,10|0|0,0:0|0:0|0:0,0:0:0:0:
205,199,248304,2,0,L|275:196,2,56.9999982604981,2|0|0,0:0|0:0|0:0,0:0:0:0:
79,269,248604,2,0,L|56:207,1,56.9999982604981,2|0,0:0|0:0,0:0:0:0:
236,157,248804,5,0,0:0:0:0:
264,155,248854,1,0,0:0:0:0:
292,154,248904,1,0,0:0:0:0:
321,152,248954,1,0,0:0:0:0:
349,151,249004,1,0,0:0:0:0:
177,77,249104,2,0,L|140:80,4,28.4999991302491,0|0|0|0|0,0:0|0:0|0:0|0:0|0:0,0:0:0:0:
292,33,249404,2,0,L|365:32,1,56.9999982604981,2|0,0:0|0:0,0:0:0:0:
175,251,249604,5,10,0:0:0:0:
116,246,249704,1,0,0:0:0:0:
87,238,249754,1,0,0:0:0:0:
73,213,249804,1,0,0:0:0:0:
86,186,249854,1,0,0:0:0:0:
116,177,249904,1,2,0:0:0:0:
288,176,250004,1,0,0:0:0:0:
347,181,250104,1,0,0:0:0:0:
376,189,250154,1,0,0:0:0:0:
390,214,250204,1,2,0:0:0:0:
377,241,250254,1,0,0:0:0:0:
347,250,250304,1,0,0:0:0:0:
176,256,250404,5,0,0:0:0:0:
89,256,250504,2,0,L|6:256,2,56.9999982604981,2|0|0,0:0|0:0|0:0,0:0:0:0:
202,193,250804,2,0,L|183:124,1,56.9999982604981,2|0,0:0|0:0,0:0:0:0:
82,160,251004,2,0,L|63:91,1,56.9999982604981,2|0,0:0|0:0,0:0:0:0:
240,77,251204,5,10,0:0:0:0:
319,72,251304,1,0,0:0:0:0:
148,159,251404,1,2,0:0:0:0:
69,154,251504,1,2,0:0:0:0:
245,241,251604,1,2,0:0:0:0:
279,241,251654,1,0,0:0:0:0:
313,241,251704,1,0,0:0:0:0:
347,241,251754,1,0,0:0:0:0:
381,242,251804,1,2,0:0:0:0:
415,242,251854,1,0,0:0:0:0:
449,242,251904,1,0,0:0:0:0:
256,384,252004,6,0,L|256:32,1,332.5,4|0,0:0|0:0,0:0:0:0:
64,48,252804,5,10,0:0:0:0:
32,128,252904,2,0,L|112:128,1,71.2500027179719,10|0,0:0|0:0,0:0:0:0:
304,48,253104,1,10,0:0:0:0:
336,128,253204,2,0,L|256:128,1,71.2500027179719,10|0,0:0|0:0,0:0:0:0:
464,208,253404,1,10,0:0:0:0:
496,288,253504,2,0,L|416:288,1,71.2500027179719,10|0,0:0|0:0,0:0:0:0:
240,208,253704,1,10,0:0:0:0:
208,288,253804,2,0,L|288:288,1,71.2500027179719,10|0,0:0|0:0,0:0:0:0:
80,208,254004,5,10,0:0:0:0:
112,288,254104,2,0,L|32:288,1,71.2500027179719,10|0,0:0|0:0,0:0:0:0:
240,288,254304,1,10,0:0:0:0:
272,368,254404,2,0,L|192:368,1,71.2500027179719,0|0,0:0|0:0,0:0:0:0:
400,192,254604,1,10,0:0:0:0:
480,192,254704,2,0,L|480:112,1,71.2500027179719,0|0,0:0|0:0,0:0:0:0:
272,192,254904,1,10,0:0:0:0:
192,192,255004,2,0,L|192:112,1,71.2500027179719,0|0,0:0|0:0,0:0:0:0:
368,128,255204,5,10,0:0:0:0:
304,128,255304,1,10,0:0:0:0:
112,128,255504,1,8,0:0:0:0:
325,199,255704,1,10,0:0:0:0:
32,224,255904,6,0,B|412:218|412:218|221:202|221:202|416:198,1,760,4|2,0:0|0:0,0:0:0:0:
160,144,257604,5,12,0:0:0:0:
256,192,257804,12,0,262404,0:0:0:0:
