osu file format v14

[General]
AudioFilename: audio.mp3
AudioLeadIn: 0
PreviewTime: 120651
Countdown: 0
SampleSet: Soft
StackLeniency: 0.4
Mode: 0
LetterboxInBreaks: 0
WidescreenStoryboard: 0

[Editor]
DistanceSpacing: 1.1
BeatDivisor: 4
GridSize: 16
TimelineZoom: 1.599999

[Metadata]
Title:Sthenno
TitleUnicode:Sthenno
Artist:BlackY
ArtistUnicode:BlackY
Creator:Rtyzen
Version:STAR
Source:
Tags:Comiket C95 pleiades C97 GABRiELLA electronic instrumental beatfloor Rumia- Emilia neonat Ayucchi
BeatmapID:2074136
BeatmapSetID:991780

[Difficulty]
HPDrainRate:6
CircleSize:4.2
OverallDifficulty:8
ApproachRate:9.2
SliderMultiplier:2
SliderTickRate:1

[Events]
//Background and Video events
0,0,"bg.jpg",0,0
//Break Periods
2,89725,99324
//Storyboard Layer 0 (Background)
//Storyboard Layer 1 (Fail)
//Storyboard Layer 2 (Pass)
//Storyboard Layer 3 (Foreground)
//Storyboard Layer 4 (Overlay)
//Storyboard Sound Samples

[TimingPoints]
3,324.324324324324,4,2,1,60,1,0
1300,-83.3333333333333,4,2,1,60,0,0
2111,-400,4,2,1,60,0,0
2435,-83.3333333333333,4,2,1,60,0,0
4705,-400,4,2,1,60,0,0
5030,-83.3333333333333,4,2,1,60,0,0
7300,-400,4,2,1,60,0,0
7624,-83.3333333333333,4,2,1,60,0,0
9894,-400,4,2,1,60,0,0
10219,-83.3333333333333,4,2,1,60,0,0
10543,-76.9230769230769,4,2,1,60,0,0
11192,-100,4,2,1,60,0,0
11678,-83.3333333333333,4,2,1,60,0,0
12489,-400,4,2,1,60,0,0
12813,-66.6666666666667,4,2,1,60,0,0
13138,-83.3333333333333,4,2,1,60,0,0
15084,-400,4,2,1,60,0,0
15408,-66.6666666666667,4,2,1,60,0,0
16219,-83.3333333333333,4,2,1,60,0,0
18002,-100,4,2,1,60,0,0
21084,-100,4,2,1,20,0,0
21732,-100,4,2,3,60,0,0
21894,-100,4,2,3,30,0,0
22057,-142.857142857143,4,2,1,35,0,0
32435,-142.857142857143,4,2,1,45,0,0
34381,-100,4,2,1,45,0,0
35030,-100,4,2,1,50,0,0
37624,-100,4,2,1,55,0,0
40219,-100,4,2,1,65,0,0
41516,-100,4,2,1,75,0,0
42165,-100,4,2,1,80,0,0
42813,-90.9090909090909,4,2,1,60,0,0
46219,-66.6666666666667,4,2,1,60,0,0
46543,-133.333333333333,4,2,1,60,0,0
46705,-76.9230769230769,4,2,1,60,0,0
48002,-90.9090909090909,4,2,1,60,0,0
52543,-55.5555555555556,4,2,1,70,0,0
53192,-250,4,2,1,30,0,0
53516,-55.5555555555556,4,2,1,80,0,0
53597,-55.5555555555556,4,2,1,60,0,0
53840,-90.9090909090909,4,2,1,60,0,0
56597,-66.6666666666667,4,2,1,60,0,0
56921,-133.333333333333,4,2,1,60,0,0
57084,-90.9090909090909,4,2,1,60,0,0
57732,-90.9090909090909,4,2,1,70,0,0
58381,-250,4,2,1,30,0,0
58705,-55.5555555555556,4,2,1,80,0,0
58746,-55.5555555555556,4,2,1,60,0,0
59030,-90.9090909090909,4,2,1,60,0,0
60165,-100,4,2,1,60,0,0
60651,-111.111111111111,4,2,1,60,0,0
60975,-90.9090909090909,4,2,1,75,0,0
62921,-90.9090909090909,4,2,1,50,0,0
63570,-90.9090909090909,4,2,1,55,0,0
64219,-111.111111111111,4,2,1,55,0,0
81732,-111.111111111111,4,2,1,65,0,0
83030,-111.111111111111,4,2,1,75,0,0
84327,-111.111111111111,4,2,3,75,0,0
84489,-111.111111111111,4,2,3,35,0,0
85625,-111.111111111111,4,2,3,45,0,0
86922,-111.111111111111,4,2,3,55,0,0
88057,-111.111111111111,4,2,3,10,0,0
88219,-111.111111111111,4,2,3,75,0,0
88867,-111.111111111111,4,2,1,75,0,0
88948,-62.5,4,2,1,75,0,0
89192,-62.5,4,2,3,75,0,0
89273,-62.5,4,2,1,75,0,0
99894,-62.5,4,2,0,50,0,0
99975,-133.333333333333,4,2,0,50,0,0
103786,-100,4,2,0,50,0,0
104759,-50,4,2,0,50,0,0
105084,-83.3333333333333,4,2,1,60,0,0
105732,-71.4285714285714,4,2,1,60,0,0
106381,-62.5,4,2,1,60,0,0
107030,-55.5555555555556,4,2,1,60,0,0
107678,-55.5555555555556,4,2,1,70,0,0
108975,-55.5555555555556,4,2,1,80,0,0
109948,-133.333333333333,4,2,3,60,0,0
110273,-133.333333333333,4,2,1,55,0,0
112867,-133.333333333333,4,2,1,55,0,0
114489,-133.333333333333,4,2,1,55,0,0
116759,-133.333333333333,4,2,1,65,0,0
118057,-133.333333333333,4,2,1,75,0,0
118705,-133.333333333333,4,2,1,85,0,0
119354,-133.333333333333,4,2,1,30,0,0
119678,-100,4,2,1,45,0,0
119921,-40,4,2,1,60,0,0
120084,-41.6666666666667,4,2,1,75,0,0
120327,-41.6666666666667,4,2,3,90,0,0
120409,-41.6666666666667,4,2,1,75,0,0
120570,-133.333333333333,4,2,1,75,0,0
120651,-76.9230769230769,4,2,1,65,0,1
130381,-58.8235294117647,4,2,1,80,0,1
131030,-58.8235294117647,4,2,3,65,0,1
131111,-76.9230769230769,4,2,3,65,0,1
131354,-76.9230769230769,4,2,1,65,0,1
134921,-58.8235294117647,4,2,1,80,0,1
135894,-29.4117647058824,4,2,1,80,0,1
136057,-29.4117647058824,4,2,1,65,0,1
136219,-76.9230769230769,4,2,1,65,0,1
138813,-76.9230769230769,4,2,1,65,0,0
140192,-76.9230769230769,4,2,1,55,0,0
140759,-58.8235294117647,4,2,1,80,0,0
141408,-76.9230769230769,4,2,3,80,0,1
141490,-76.9230769230769,4,2,1,65,0,1
151138,-58.8235294117647,4,2,1,80,0,1
151786,-58.8235294117647,4,2,3,70,0,1
151867,-76.9230769230769,4,2,3,70,0,1
152111,-76.9230769230769,4,2,1,70,0,1
154624,-133.333333333333,4,2,1,70,0,1
154867,-76.9230769230769,4,2,1,70,0,1
155111,-133.333333333333,4,2,1,70,0,1
155354,-76.9230769230769,4,2,1,70,0,1
156975,-66.6666666666667,4,2,1,75,0,1
158273,-58.8235294117647,4,2,1,85,0,1
159408,-58.8235294117647,4,2,1,90,0,1
160867,-58.8235294117647,4,2,1,65,0,1
160948,-71.4285714285714,4,2,1,65,0,1
161516,-71.4285714285714,4,2,1,80,0,1
162165,-83.3333333333333,4,2,3,80,0,0
162327,-83.3333333333333,4,2,3,60,0,0
162975,-400,4,2,1,60,0,0
163300,-66.6666666666667,4,2,1,60,0,0
163624,-83.3333333333333,4,2,1,60,0,0
165570,-400,4,2,1,60,0,0
165894,-66.6666666666667,4,2,1,60,0,0
166219,-83.3333333333333,4,2,1,60,0,0
168165,-400,4,2,1,60,0,0
168489,-66.6666666666667,4,2,1,60,0,0
168813,-83.3333333333333,4,2,1,60,0,0
170759,-400,4,2,1,60,0,0
171084,-66.6666666666667,4,2,1,60,0,0
171408,-76.9230769230769,4,2,1,60,0,0
172057,-100,4,2,1,60,0,0
172543,-100,4,2,1,65,0,0
175138,-100,4,2,1,75,0,0
177732,-100,4,2,1,85,0,0
179030,-76.9230769230769,4,2,1,85,0,0
181624,-83.3333333333333,4,2,1,85,0,0
181948,-83.3333333333333,4,2,1,25,0,0
182111,-83.3333333333333,4,2,1,35,0,0
182273,-83.3333333333333,4,2,1,45,0,0
182435,-83.3333333333333,4,2,1,55,0,0
182597,-83.3333333333333,4,2,1,65,0,0
182759,-83.3333333333333,4,2,1,75,0,0
182921,-133.333333333333,4,2,1,25,0,0
183246,-333.333333333333,4,2,3,80,0,0
183327,-333.333333333333,4,2,1,80,0,0
188597,-333.333333333333,4,2,3,5,0,0

[Colours]
Combo1 : 157,60,255
Combo2 : 228,228,228
Combo3 : 151,151,255

[HitObjects]
51,89,1300,6,0,P|87:75|104:48,1,60.0599981689453,6|0,3:2|0:0,0:0:0:0:
97,202,1462,2,0,P|128:224|137:255,1,60.0599981689453,2|0,0:2|0:0,0:0:0:0:
166,122,1624,1,2,0:2:0:0:
298,249,1786,6,0,P|327:273|335:304,1,60.0599981689453,2|0,0:2|0:2,0:0:0:0:
376,155,1948,2,0,P|412:142|431:116,1,60.0599981689453,2|0,0:2|0:0,0:0:0:0:
411,252,2111,2,0,L|423:281,1,25.025,2|0,3:2|0:2,0:0:0:0:
420,275,2435,6,0,B|424:192|424:192|431:174|431:174|436:65,1,180.179994506836,6|0,3:2|0:0,0:0:0:0:
483,26,2759,2,0,B|461:7|461:7|395:17,1,60.0599981689453,6|0,3:2|0:0,0:0:0:0:
231,23,2921,1,2,0:2:0:0:
347,114,3084,1,2,0:2:0:0:
348,99,3165,1,0,0:2:0:0:
349,84,3246,1,2,0:2:0:0:
41,42,3408,2,0,B|63:23|63:23|129:33,1,60.0599981689453,2|0,3:2|0:0,0:0:0:0:
96,110,3570,1,2,0:2:0:0:
97,125,3651,1,0,0:2:0:0:
98,140,3732,1,2,3:2:0:0:
99,155,3813,1,0,3:2:0:0:
100,170,3894,6,0,L|81:252,1,60.0599981689453,6|0,3:2|0:0,0:0:0:0:
250,218,4057,2,0,L|231:300,1,60.0599981689453,2|0,0:2|0:0,0:0:0:0:
205,67,4219,1,2,0:2:0:0:
108,178,4381,6,0,L|89:260,1,60.0599981689453,2|0,0:2|0:0,0:0:0:0:
258,226,4543,2,0,L|239:308,1,60.7999981689453,2|0,0:2|0:0,0:0:0:0:
212,74,4705,2,0,L|206:98,1,25.025,2|2,3:2|0:2,0:0:0:0:
206,99,5030,6,0,B|241:76|290:110|287:110|283:110|330:142|381:103,1,180.179994506836,6|0,3:2|0:0,0:0:0:0:
446,65,5354,2,0,P|456:33|440:0,1,60.0599981689453,6|0,3:2|0:0,0:0:0:0:
351,19,5516,1,2,0:2:0:0:
473,161,5678,1,2,0:2:0:0:
386,302,5840,2,0,P|345:315|314:352,1,60.0599981689453,2|0,3:2|0:0,0:0:0:0:
266,190,6002,2,0,P|225:177|194:140,1,60.0599981689453,2|0,3:2|0:0,0:0:0:0:
109,310,6165,1,2,3:2:0:0:
103,323,6246,1,0,3:2:0:0:
110,336,6327,1,2,3:2:0:0:
209,355,6489,6,0,B|221:326|221:326|201:262,1,60.0599981689453,6|0,0:2|0:0,0:0:0:0:
44,228,6651,2,0,B|32:199|32:199|52:135,1,60.0599981689453,2|0,0:2|0:0,0:0:0:0:
135,73,6813,1,2,0:2:0:0:
110,336,6975,6,0,L|117:266,1,60.0599981689453,2|0,0:2|0:2,0:0:0:0:
135,73,7138,2,0,L|129:132,1,60.0599981689453,2|0,0:2|0:0,0:0:0:0:
158,207,7300,2,0,L|193:210,1,25.025,2|2,3:2|0:2,0:0:0:0:
183,210,7624,6,0,B|166:237|166:237|51:220|51:220|35:180,1,180.179994506836,6|0,3:2|0:0,0:0:0:0:
0,123,7948,2,0,B|27:106|27:106|80:121,1,60.0599981689453,6|0,3:2|0:0,0:0:0:0:
213,293,8111,1,2,0:2:0:0:
309,152,8273,1,2,0:2:0:0:
306,136,8354,1,0,0:2:0:0:
305,122,8435,1,2,0:2:0:0:
385,311,8597,2,0,B|410:332|410:332|464:325,1,60.0599981689453,2|0,3:2|0:0,0:0:0:0:
444,239,8759,1,2,0:2:0:0:
404,218,8840,1,0,0:2:0:0:
360,218,8921,1,2,3:2:0:0:
321,240,9002,1,0,3:2:0:0:
297,278,9084,6,0,L|220:293,1,60.0599981689453,6|0,3:2|0:0,0:0:0:0:
185,132,9246,2,0,L|125:124,1,60.0599981689453,2|0,0:2|0:0,0:0:0:0:
19,243,9408,1,2,0:2:0:0:
149,358,9570,6,0,P|163:333|144:284,1,60.0599981689453,2|0,0:2|0:0,0:0:0:0:
19,243,9732,2,0,P|5:218|24:169,1,60.0599981689453,2|0,0:2|0:2,0:0:0:0:
100,61,9894,2,0,L|96:86,1,25.025,2|2,3:2|0:2,0:0:0:0:
96,85,10219,6,0,L|280:109,1,180.179994506836,6|0,3:2|0:0,0:0:0:0:
432,87,10543,2,0,B|451:76|451:76|385:42|333:109,1,130.389994049073,6|2,3:2|0:2,0:0:0:0:
230,207,10786,2,0,B|260:218|276:249|276:249|277:218|312:185,1,130.389994049073,4|0,3:2|0:0,0:0:0:0:
115,26,11030,2,0,P|95:80|114:116,1,65.194997024536,6|0,3:2|0:0,0:0:0:0:
132,203,11192,6,0,P|127:187|121:182,1,25.3833333333332,2|0,0:2|0:2,0:2:0:0:
132,203,11273,2,0,P|141:188|148:185,1,25.3833333333332,0|0,0:2|0:2,0:0:0:0:
132,203,11354,1,6,3:2:0:0:
125,239,11435,1,0,3:2:0:0:
118,276,11516,1,2,3:2:0:0:
111,313,11597,1,0,3:2:0:0:
105,350,11678,6,0,L|165:340,1,60.0599981689453,6|0,3:2|0:0,0:0:0:0:
239,327,11840,2,0,L|299:317,1,60.0599981689453,2|0,0:2|0:0,0:0:0:0:
374,303,12002,1,2,0:2:0:0:
125,269,12165,6,0,L|185:259,1,60.0599981689453,2|0,0:2|0:2,0:0:0:0:
393,223,12327,2,0,L|333:233,1,60.0599981689453,2|0,0:2|0:0,0:0:0:0:
259,246,12489,2,0,L|253:215,1,25.025,2|2,3:2|0:2,0:0:0:0:
254,221,12813,6,0,B|248:346|248:346|314:326|314:326|256:263,1,225.225008583069,6|0,3:2|0:0,0:0:0:0:
178,262,13138,2,0,L|174:336,1,60.0599981689453,6|0,3:2|0:0,0:0:0:0:
371,140,13300,1,2,0:2:0:0:
397,324,13462,1,2,0:2:0:0:
397,338,13543,1,0,0:2:0:0:
398,353,13624,1,2,0:2:0:0:
183,168,13786,2,0,L|186:108,1,60.0599981689453,2|0,3:2|0:0,0:0:0:0:
157,29,13948,1,2,0:2:0:0:
201,37,14030,1,0,0:2:0:0:
245,46,14111,1,2,3:2:0:0:
289,54,14192,1,0,3:2:0:0:
333,63,14273,6,0,P|379:54|400:19,1,60.0599981689453,6|0,3:2|0:0,0:0:0:0:
396,183,14435,2,0,P|438:203|449:242,1,60.0599981689453,2|0,0:2|0:0,0:0:0:0:
493,92,14597,1,2,0:2:0:0:
293,263,14759,6,0,P|247:272|226:307,1,60.0599981689453,2|0,0:2|0:0,0:0:0:0:
230,143,14921,2,0,P|187:122|176:83,1,60.0599981689453,2|0,0:2|0:0,0:0:0:0:
133,234,15084,2,0,L|166:229,1,25.025,2|2,3:2|0:2,0:0:0:0:
157,230,15408,6,0,B|90:234|55:285|55:285|19:217|19:217|94:221,1,225.225008583069,6|0,3:2|0:0,0:0:0:0:
242,248,15732,2,0,L|333:265,1,75.075002861023,6|0,3:2|0:0,0:0:0:0:
213,162,15894,1,2,0:2:0:0:
175,338,16057,1,2,0:2:0:0:
46,218,16219,2,0,P|68:190|125:191,1,60.0599981689453,2|0,3:2|0:0,0:0:0:0:
267,179,16381,2,0,P|236:160|183:182,1,60.0599981689453,2|0,3:2|0:0,0:0:0:0:
140,119,16543,1,2,3:2:0:0:
140,119,16624,1,0,3:2:0:0:
140,119,16705,1,2,3:2:0:0:
26,137,16867,5,6,3:2:0:0:
159,227,17030,1,2,3:2:0:0:
249,94,17192,1,2,3:2:0:0:
116,4,17354,1,2,3:2:0:0:
69,203,17516,5,2,3:2:0:0:
191,288,17678,1,2,3:2:0:0:
277,167,17840,1,2,3:2:0:0:
155,81,18002,6,0,L|166:151,1,50.1499999999998,6|0,3:2|0:0,0:0:0:0:
191,288,18165,1,2,3:2:0:0:
339,42,18327,6,0,L|327:112,1,50.1499999999998,6|0,3:2|0:0,0:0:0:0:
303,249,18489,1,2,3:2:0:0:
64,123,18651,5,2,3:2:0:0:
291,160,18813,1,2,3:2:0:0:
225,31,18975,5,2,3:2:0:0:
191,288,19138,1,2,3:2:0:0:
111,57,19300,6,0,P|136:68|184:106,1,50.1499999999998,2|0,3:2|3:2,0:0:0:0:
291,160,19462,1,6,3:2:0:0:
243,145,19543,1,0,3:2:0:0:
194,153,19624,1,2,3:2:0:0:
154,183,19705,1,0,3:2:0:0:
131,226,19786,1,2,3:2:0:0:
98,262,19867,1,0,3:2:0:0:
49,266,19948,1,2,3:2:0:0:
11,235,20030,1,0,3:2:0:0:
4,187,20111,1,2,3:2:0:0:
23,141,20192,1,0,3:2:0:0:
65,114,20273,1,2,3:2:0:0:
114,116,20354,1,0,3:2:0:0:
154,144,20435,1,2,3:2:0:0:
193,174,20516,1,0,3:2:0:0:
243,178,20597,1,2,3:2:0:0:
286,155,20678,1,0,3:2:0:0:
311,112,20759,5,6,3:2:0:0:
366,323,20921,1,6,3:2:0:0:
256,192,21084,12,10,21732,0:2:0:0:
100,91,22057,6,0,L|90:168,1,70.0699978637695,2|2,3:2|0:2,0:0:0:0:
169,36,22381,1,2,3:2:0:0:
178,124,22543,6,0,L|168:201,1,70.0699978637695,2|2,0:2|3:2,0:0:0:0:
247,69,22867,1,2,0:2:0:0:
256,157,23030,6,0,L|246:234,1,70.0699978637695,2|2,3:2|0:2,0:0:0:0:
325,102,23354,5,2,3:2:0:0:
325,102,23516,1,2,0:2:0:0:
404,148,23678,2,0,L|486:134,1,70.0699978637695,2|2,3:2|0:2,0:0:0:0:
335,219,24002,5,2,3:2:0:0:
335,219,24165,1,2,0:2:0:0:
256,265,24327,2,0,L|174:251,1,69.6383311971029,2|2,3:2|0:2,0:0:0:0:
102,231,24651,6,0,P|117:191|160:174,1,70.0699978637695,2|2,3:2|0:2,0:0:0:0:
240,162,24975,1,2,3:2:0:0:
96,117,25138,6,0,P|134:99|177:117,1,70.0699978637695,2|2,0:2|3:2,0:0:0:0:
240,162,25462,1,2,0:2:0:0:
172,32,25624,6,0,P|212:47|228:89,1,70.0699978637695,2|2,3:2|0:2,0:0:0:0:
240,162,25948,5,2,3:2:0:0:
206,237,26111,1,2,0:2:0:0:
256,307,26273,2,0,L|335:289,1,70.0699978637695,2|2,3:2|0:2,0:0:0:0:
406,250,26597,5,2,3:2:0:0:
440,175,26759,1,2,0:2:0:0:
390,105,26921,2,0,L|311:123,1,70.5016645304362,2|2,3:2|0:2,0:0:0:0:
225,112,27246,6,0,B|219:148|219:148|262:191,1,70.0699978637695,2|2,3:2|0:2,0:0:0:0:
308,223,27570,1,2,3:2:0:0:
254,351,27732,6,0,B|288:338|288:338|303:279,1,70.0699978637695,2|2,0:2|3:2,0:0:0:0:
308,223,28057,1,2,0:2:0:0:
446,206,28219,6,0,B|417:182|417:182|359:198,1,70.0699978637695,2|2,3:2|0:2,0:0:0:0:
308,223,28543,5,2,3:2:0:0:
308,223,28705,1,2,0:2:0:0:
228,174,28867,2,0,P|219:127|247:95,1,70.0699978637695,2|2,3:2|0:2,0:0:0:0:
304,54,29192,5,2,3:2:0:0:
304,54,29354,1,2,0:2:0:0:
384,103,29516,2,0,P|393:150|365:182,1,70.0699978637695,2|2,3:2|0:2,0:0:0:0:
256,243,29840,5,2,3:2:0:0:
191,197,30002,1,2,0:2:0:0:
260,162,30165,1,2,3:2:0:0:
256,256,30327,5,2,0:2:0:0:
174,198,30489,1,2,3:2:0:0:
261,154,30651,1,2,0:2:0:0:
256,274,30813,5,2,3:2:0:0:
182,101,30975,1,2,0:2:0:0:
103,329,31138,5,2,3:2:0:0:
48,269,31300,1,2,0:2:0:0:
117,229,31462,1,2,3:2:0:0:
172,289,31624,1,2,0:2:0:0:
102,340,31786,5,10,0:2:0:0:
379,269,31948,1,10,0:2:0:0:
379,269,32435,5,6,3:2:0:0:
360,187,32597,1,2,0:2:0:0:
300,237,32759,1,10,0:2:0:0:
482,195,32921,5,2,0:2:0:0:
372,105,33084,1,2,3:2:0:0:
241,132,33246,1,2,0:2:0:0:
454,291,33408,5,10,0:2:0:0:
373,93,33570,1,2,0:2:0:0:
161,237,33732,5,2,3:2:0:0:
91,196,33894,1,2,0:2:0:0:
156,154,34057,1,10,0:2:0:0:
281,78,34219,5,2,0:2:0:0:
281,78,34300,1,0,0:0:0:0:
281,78,34381,2,0,L|291:29,1,50.0499999999999,2|0,3:2|0:0,0:0:0:0:
357,97,34543,2,0,L|367:48,1,50.0499999999999,2|0,0:2|0:0,0:0:0:0:
433,116,34705,2,0,L|443:67,1,50.0499999999999,10|0,0:2|0:0,0:0:0:0:
484,197,34867,1,2,0:2:0:0:
484,197,34948,1,0,0:0:0:0:
484,197,35030,5,2,3:2:0:0:
407,288,35192,1,2,0:2:0:0:
365,175,35354,1,10,0:2:0:0:
498,287,35516,5,2,0:2:0:0:
308,247,35678,1,2,3:2:0:0:
291,75,35840,1,2,0:2:0:0:
452,70,36002,5,10,0:2:0:0:
248,172,36165,1,2,0:2:0:0:
388,17,36327,5,2,3:2:0:0:
452,70,36489,1,2,0:2:0:0:
378,97,36651,1,10,0:2:0:0:
79,64,36813,5,2,0:2:0:0:
79,64,36894,1,0,0:0:0:0:
79,64,36975,2,0,P|61:94|59:124,1,50.0499999999999,2|0,3:2|0:0,0:0:0:0:
123,163,37138,2,0,P|122:197|135:224,1,50.0499999999999,2|0,0:2|0:0,0:0:0:0:
210,226,37300,2,0,P|226:256|251:273,1,50.0499999999999,10|0,0:2|0:0,0:0:0:0:
316,237,37462,2,0,P|346:255|376:256,1,50.0499999999999,2|0,0:2|0:0,0:0:0:0:
427,213,37624,5,2,3:2:0:0:
298,50,37786,1,2,0:2:0:0:
210,226,37948,1,10,0:2:0:0:
430,92,38111,5,2,0:2:0:0:
209,24,38273,1,2,3:2:0:0:
56,144,38435,1,2,0:2:0:0:
305,173,38597,5,10,0:2:0:0:
99,44,38759,1,2,0:2:0:0:
45,285,38921,5,2,3:2:0:0:
111,232,39084,1,2,0:2:0:0:
35,210,39246,1,10,0:2:0:0:
165,364,39408,5,2,0:2:0:0:
165,364,39489,1,0,0:0:0:0:
165,364,39570,2,0,P|143:328|113:309,1,50.0499999999999,2|0,3:2|0:0,0:0:0:0:
346,280,39732,2,0,P|368:244|398:225,1,50.0499999999999,2|0,0:2|0:0,0:0:0:0:
194,174,39894,2,0,P|156:153|121:152,1,50.0499999999999,10|0,0:2|0:0,0:0:0:0:
336,75,40057,2,0,P|373:54|408:53,1,50.0499999999999,2|0,0:2|0:0,0:0:0:0:
194,174,40219,5,2,3:2:0:0:
169,167,40300,1,0,0:2:0:0:
145,169,40381,1,2,0:2:0:0:
121,178,40462,1,0,0:2:0:0:
102,194,40543,1,10,0:2:0:0:
82,209,40624,1,0,0:2:0:0:
58,214,40705,1,2,0:2:0:0:
33,210,40786,1,0,0:2:0:0:
13,195,40867,2,0,L|28:139,1,50.1499999999998,2|0,3:2|0:2,0:0:0:0:
127,31,41030,2,0,L|139:79,1,50.1499999999998,2|0,0:2|0:2,0:0:0:0:
203,205,41192,2,0,L|218:149,1,50.1499999999998,10|0,0:2|0:2,0:0:0:0:
317,41,41354,2,0,L|329:89,1,50.1499999999998,2|0,0:2|0:2,0:0:0:0:
399,160,41516,5,2,3:2:0:0:
397,173,41597,1,0,0:2:0:0:
395,186,41678,1,2,0:2:0:0:
394,199,41759,1,0,0:2:0:0:
392,212,41840,1,2,0:2:0:0:
391,225,41921,1,0,0:2:0:0:
389,238,42002,1,2,0:2:0:0:
388,251,42084,1,0,0:2:0:0:
386,264,42165,2,0,L|357:258,7,25.0309523809524,2|0|0|0|0|0|0|0,0:2|0:2|0:2|0:2|0:2|0:2|0:2|0:2,0:2:0:0:
339,263,42489,2,0,L|310:269,7,25.0309523809523,2|0|0|0|0|0|0|0,0:2|0:2|0:2|0:2|0:2|0:2|0:2|0:2,0:2:0:0:
283,269,42813,6,0,L|136:259,1,110.330003356934,6|0,3:2|0:2,0:0:0:0:
76,158,43138,1,8,0:2:0:0:
15,311,43300,1,0,0:2:0:0:
173,261,43462,2,0,L|168:198,1,55.1650016784666,0|0,3:2|0:0,0:0:0:0:
11,93,43624,1,0,0:2:0:0:
191,26,43786,2,0,P|206:46|202:83,1,55.0000016784668,8|0,0:2|0:0,0:0:0:0:
168,206,43948,1,2,0:2:0:0:
109,247,44030,1,2,0:2:0:0:
40,238,44111,6,0,B|88:219|112:261|114:261|117:261|153:303|198:270,1,165.000005035401,2|0,3:2|0:0,0:0:0:0:
247,221,44435,2,0,L|253:164,1,55.1650016784666,8|0,0:2|0:0,0:0:0:0:
424,338,44597,2,0,P|477:315|492:256,1,110.330003356934,2|0,0:2|3:2,0:0:0:0:
459,39,44921,2,0,B|404:48|404:48|399:46|399:46|338:55,1,110.330003356934,2|8,0:2|0:2,0:0:0:0:
418,260,45246,2,0,L|424:203,1,55.1650016784665,2|0,0:2|0:0,0:0:0:0:
472,115,45408,6,0,B|399:126|399:126|394:124|394:124|272:142,1,165.165005035401,0|0,3:2|0:0,0:0:0:0:
241,109,45732,2,0,B|232:166|232:166|278:211,1,110.110003356934,8|0,0:2|0:2,0:0:0:0:
423,205,46057,1,0,3:2:0:0:
309,136,46219,6,0,B|244:103|196:165|203:166|210:166|174:225|100:191,1,225.225008583069,2|0,0:2|0:0,0:0:0:0:
32,207,46543,2,0,P|34:181|47:161,1,37.5375014305115,2|0,0:2|0:0,0:0:0:0:
55,73,46705,6,0,L|153:61,1,65.1949970245361,2|0,3:2|0:0,0:0:0:0:
192,165,46867,2,0,L|290:177,1,65.1949970245361,2|0,0:2|0:0,0:0:0:0:
353,107,47030,1,8,0:2:0:0:
124,69,47192,6,0,L|59:76,1,65.194997024536,2|0,0:2|0:0,0:0:0:0:
262,166,47354,2,0,L|197:158,1,65.1949970245361,2|0,3:2|0:0,0:0:0:0:
360,103,47516,2,0,P|348:60|311:34,1,65.1949970245361,2|0,0:2|0:0,0:0:0:0:
427,207,47678,2,0,P|458:175|462:130,1,65.1949970245361,10|0,0:2|0:0,0:0:0:0:
376,320,47840,2,0,P|419:330|460:311,1,65.1949970245361,2|0,0:2|0:0,0:0:0:0:
246,263,48002,6,0,B|194:244|171:290|175:289|179:289|154:352|73:314,1,165.165005035401,0|0,3:2|0:0,0:0:0:0:
39,273,48327,2,0,P|38:207|95:175,1,110.330003356934,8|0,0:2|0:2,0:0:0:0:
129,12,48651,2,0,P|128:78|185:110,1,110.330003356934,0|0,3:2|0:2,0:0:0:0:
230,169,48975,2,0,L|284:173,1,55.1650016784666,8|0,0:2|0:0,0:0:0:0:
405,174,49138,1,2,0:2:0:0:
467,124,49219,1,2,0:2:0:0:
428,62,49300,6,0,B|401:50|401:50|369:80|367:139|423:194,1,165.000005035401,2|0,3:2|0:0,0:0:0:0:
465,333,49624,2,0,P|485:301|478:258,1,55.1650016784666,8|0,0:2|0:0,0:0:0:0:
263,247,49786,2,0,P|314:287|367:266,1,110.330003356934,2|0,0:2|3:2,0:0:0:0:
268,56,50111,2,0,P|215:49|176:86,1,110.330003356934,2|8,0:2|0:2,0:0:0:0:
114,189,50435,2,0,L|182:176,1,55.0550016784667,2|0,0:2|0:0,0:0:0:0:
266,170,50597,6,0,B|262:243|262:243|256:257|256:257|249:354,1,165.165005035401,0|0,3:2|0:0,0:0:0:0:
326,370,50921,2,0,P|371:330|352:270,1,110.110003356934,8|0,0:2|0:2,0:0:0:0:
168,178,51246,1,0,3:2:0:0:
306,99,51408,1,2,0:2:0:0:
365,285,51570,2,0,L|431:286,1,55.1650016784666,8|0,0:2|0:0,0:0:0:0:
168,178,51732,2,0,L|102:177,1,55.1650016784666,2|0,0:2|0:0,0:0:0:0:
272,327,51894,5,4,3:2:0:0:
217,65,52057,1,0,0:2:0:0:
306,99,52219,2,0,L|290:220,1,110.330003356934,8|0,0:2|0:2,0:0:0:0:
291,208,52543,6,0,B|286:180|299:157|299:157|229:159|190:238,1,180.539994506836,6|0,3:2|0:0,0:0:0:0:
117,260,52786,2,0,P|228:264|305:320,1,180.539994506836,4|0,3:2|0:0,0:0:0:0:
455,192,53030,2,0,P|418:179|358:203,1,90.2699972534178,4|0,3:2|0:0,0:0:0:0:
290,293,53192,6,0,L|298:369,1,60.1799999999997,0|0,3:2|0:0,0:0:0:0:
307,351,53516,6,0,L|297:260,1,90.2699972534178,8|0,0:2|0:0,0:0:0:0:
285,152,53678,1,0,0:2:0:0:
116,28,53840,2,0,P|78:80|102:139,1,110.330003356934,0|0,3:2|0:2,0:0:0:0:
263,198,54165,2,0,P|281:176|281:139,1,55.0000016784668,8|0,0:2|0:0,0:0:0:0:
166,95,54327,1,2,0:2:0:0:
109,149,54408,1,2,0:2:0:0:
52,203,54489,6,0,P|72:263|165:270,1,165.000005035401,2|0,3:2|0:0,0:0:0:0:
234,240,54813,2,0,L|290:254,1,55.0000016784668,8|0,0:2|0:0,0:0:0:0:
458,284,54975,2,0,B|441:312|441:338|441:338|431:311|398:289,1,110.000003356934,2|0,0:2|3:2,0:0:0:0:
471,178,55300,2,0,B|463:127|463:127|466:122|466:122|457:46,1,110.330003356934,2|8,0:2|0:2,0:0:0:0:
302,12,55624,2,0,L|299:82,1,55.1650016784666,2|0,3:2|0:0,0:0:0:0:
397,210,55786,6,0,B|384:114|384:114|387:109|387:109|378:33,1,165.165005035401,4|0,3:2|0:0,0:0:0:0:
302,12,56111,2,0,B|274:63|274:63|324:143,1,110.110003356934,8|0,0:2|0:2,0:0:0:0:
471,178,56435,1,0,3:2:0:0:
301,106,56597,6,0,B|236:73|188:135|195:136|202:136|166:195|92:161,1,225.225008583069,2|0,0:2|0:0,0:0:0:0:
24,177,56921,2,0,P|26:151|39:131,1,37.5375014305115,2|0,0:2|0:0,0:0:0:0:
17,280,57084,6,0,P|36:313|66:325,1,55.1650016784665,2|0,3:2|0:0,0:0:0:0:
143,352,57246,2,0,P|179:361|209:349,1,55.1650016784665,2|0,3:2|0:0,0:0:0:0:
290,310,57408,1,10,0:2:0:0:
418,181,57570,5,2,0:2:0:0:
343,159,57651,1,0,0:2:0:0:
268,137,57732,2,0,L|266:106,7,27.5340484582809,2|0|0|0|2|0|0|0,3:2|0:0|0:2|0:0|0:2|0:2|0:2|0:2,0:0:0:0:
209,185,58057,2,0,L|210:215,7,27.534048458281,14|0|0|0|2|0|0|0,0:2|0:0|0:2|0:0|0:2|0:2|0:2|0:2,0:0:0:0:
143,131,58381,6,0,L|141:72,1,60.1799999999998,4|0,3:2|0:0,0:0:0:0:
133,63,58705,6,0,L|136:152,1,90.2699972534178,8|0,0:2|0:0,0:0:0:0:
96,232,58867,1,0,0:2:0:0:
337,265,59030,2,0,P|267:237|214:262,1,110.330003356934,0|0,3:2|0:2,0:0:0:0:
152,312,59354,2,0,L|143:377,1,55.1650016784666,8|0,0:2|0:0,0:0:0:0:
183,106,59516,5,2,0:2:0:0:
183,106,59597,1,2,0:2:0:0:
183,106,59678,2,0,P|167:50|145:41,1,55.1650016784666,2|0,3:2|0:0,0:0:0:0:
96,232,59840,2,0,P|56:273|59:295,1,55.1650016784666,0|0,3:2|0:0,0:0:0:0:
236,245,60002,2,0,P|291:259|310:245,1,55.1650016784666,8|0,3:2|0:0,0:0:0:0:
398,80,60165,6,0,B|349:64|349:64|275:108,1,100.1,2|0,0:2|3:2,0:0:0:0:
221,143,60489,1,2,0:2:0:0:
371,162,60651,2,0,L|317:176,1,45.044998626709,8|0,0:2|0:0,0:0:0:0:
78,104,60813,2,0,L|131:89,1,45.044998626709,2|0,3:2|0:0,0:0:0:0:
254,239,60975,6,0,L|271:302,1,55.1650016784666,4|0,3:2|0:0,0:0:0:0:
194,63,61138,2,0,L|179:10,1,55.1650016784665,0|0,3:2|0:0,0:0:0:0:
142,163,61300,6,0,L|79:180,1,55.1650016784665,12|0,3:2|0:0,0:0:0:0:
295,110,61462,2,0,L|348:95,1,55.1650016784665,0|0,3:2|0:0,0:0:0:0:
467,178,61624,5,0,3:2:0:0:
461,232,61705,1,0,3:2:0:0:
422,269,61786,1,2,3:2:0:0:
368,274,61867,1,0,3:2:0:0:
323,244,61948,1,8,3:2:0:0:
282,218,62030,1,0,3:2:0:0:
228,223,62111,1,2,3:2:0:0:
189,260,62192,1,0,3:2:0:0:
183,314,62273,6,0,L|181:374,1,55.1650016784665,4|0,3:2|0:0,0:0:0:0:
71,346,62435,1,2,0:2:0:0:
70,330,62516,1,0,0:2:0:0:
69,314,62597,1,2,0:2:0:0:
68,298,62678,1,0,0:2:0:0:
67,283,62759,1,2,0:2:0:0:
66,267,62840,1,0,0:2:0:0:
65,251,62921,2,0,L|106:246,1,27.9216675059,2|0,0:2|0:0,0:0:0:0:
64,236,63002,2,0,L|36:239,1,27.9216675059,0|0,0:2|0:0,0:0:0:0:
63,220,63084,2,0,L|104:215,1,27.9216675058999,2|0,0:2|0:0,0:0:0:0:
62,204,63165,2,0,L|34:207,1,27.9216675058999,0|0,0:2|0:0,0:0:0:0:
61,189,63246,2,0,L|58:149,7,27.534048458281,2|0|0|0|2|0|0|0,0:2|0:2|0:2|0:2|0:2|0:2|0:2|0:2,0:2:0:0:
57,137,63570,6,0,L|179:123,1,110.330003356934,6|0,0:2|0:0,0:0:0:0:
316,34,63894,1,2,0:2:0:0:
349,38,63975,1,2,0:2:0:0:
378,54,64057,1,2,0:2:0:0:
399,81,64138,1,2,0:2:0:0:
407,113,64219,2,0,P|410:143|393:178,3,45.1349986267089,2|2|2|2,0:2|0:2|0:2|0:2,0:0:0:0:
361,217,64543,2,0,P|358:246|375:281,3,45.1349986267089,2|2|2|2,0:2|0:2|0:2|0:2,0:0:0:0:
388,343,64867,5,2,0:2:0:0:
415,358,64948,1,2,0:2:0:0:
441,339,65030,1,2,0:2:0:0:
435,308,65111,1,2,0:2:0:0:
404,301,65192,1,2,0:2:0:0:
370,302,65273,1,2,0:2:0:0:
340,316,65354,1,2,0:2:0:0:
317,340,65435,1,2,0:2:0:0:
306,372,65516,1,2,0:2:0:0:
294,340,65597,1,2,0:2:0:0:
272,315,65678,1,2,0:2:0:0:
242,299,65759,1,2,0:2:0:0:
209,296,65840,1,2,0:2:0:0:
177,284,65921,1,2,0:2:0:0:
156,258,66002,1,2,0:2:0:0:
149,225,66084,1,2,0:2:0:0:
160,194,66165,5,2,0:2:0:0:
286,42,66489,1,2,0:2:0:0:
319,45,66570,1,2,0:2:0:0:
353,48,66651,1,2,0:2:0:0:
386,51,66732,1,2,0:2:0:0:
420,54,66813,2,0,P|445:103|393:177,1,135.404995880127,2|0,0:2|0:0,0:0:0:0:
392,177,67138,1,2,0:2:0:0:
336,233,67381,5,2,0:2:0:0:
336,233,67462,2,0,L|191:219,1,135.404995880127,2|0,0:2|0:0,0:0:0:0:
62,129,67786,2,0,B|106:103|106:103|164:121,1,90.2699972534178,2|0,0:2|0:0,0:0:0:0:
115,207,68030,1,2,0:2:0:0:
115,207,68111,2,0,B|124:275|124:275|121:280|121:280|131:344,2,135.127495880127,2|2|2,0:2|0:2|0:2,0:0:0:0:
49,156,68759,5,2,0:2:0:0:
50,315,69084,1,2,0:2:0:0:
65,285,69165,1,2,0:2:0:0:
90,263,69246,1,2,0:2:0:0:
122,254,69327,1,2,0:2:0:0:
156,258,69408,2,0,P|187:271|216:267,3,45.1349986267089,2|2|2|2,0:2|0:2|0:2|0:2,0:0:0:0:
274,240,69732,2,0,P|296:242|316:252,3,45.1349986267089,2|2|2|2,0:2|0:2|0:2|0:2,0:0:0:0:
384,303,70057,5,2,0:2:0:0:
413,318,70138,1,2,0:2:0:0:
444,308,70219,1,2,0:2:0:0:
459,279,70300,1,2,0:2:0:0:
449,247,70381,1,2,0:2:0:0:
424,225,70462,1,2,0:2:0:0:
411,194,70543,1,2,0:2:0:0:
414,161,70624,1,2,0:2:0:0:
431,132,70705,1,2,0:2:0:0:
398,137,70786,1,2,0:2:0:0:
366,128,70867,1,2,0:2:0:0:
341,105,70948,1,2,0:2:0:0:
329,74,71030,1,2,0:2:0:0:
313,45,71111,1,2,0:2:0:0:
285,26,71192,1,2,0:2:0:0:
252,22,71273,1,2,0:2:0:0:
221,34,71354,5,2,0:2:0:0:
45,175,71678,1,2,0:2:0:0:
77,168,71759,1,2,0:2:0:0:
111,171,71840,1,2,0:2:0:0:
142,184,71921,1,2,0:2:0:0:
168,206,72002,2,0,L|145:53,1,135.404995880127,2|0,0:2|0:0,0:0:0:0:
225,28,72327,2,0,P|263:53|333:44,1,90.2699972534178,2|0,0:2|0:0,0:0:0:0:
404,32,72570,2,0,P|392:54|390:96,1,45.1349986267089,2|0,0:2|0:0,0:0:0:0:
339,137,72732,2,0,B|315:168|315:168|337:278,2,135.127495880127,2|2|2,0:2|0:2|0:2,0:0:0:0:
358,144,73300,5,2,0:2:0:0:
330,163,73381,1,2,0:2:0:0:
297,165,73462,1,2,0:2:0:0:
267,151,73543,1,2,0:2:0:0:
248,124,73624,1,2,0:2:0:0:
227,98,73705,1,2,0:2:0:0:
197,83,73786,1,2,0:2:0:0:
163,84,73867,1,2,0:2:0:0:
133,98,73948,5,2,0:2:0:0:
66,302,74273,1,2,0:2:0:0:
88,277,74354,1,2,0:2:0:0:
119,264,74435,1,2,0:2:0:0:
152,267,74516,1,2,0:2:0:0:
181,285,74597,2,0,L|170:220,3,45.1349986267089,2|2|2|2,0:2|0:2|0:2|0:2,0:0:0:0:
261,297,74921,2,0,L|253:341,3,45.1349986267089,2|2|2|2,0:2|0:2|0:2|0:2,0:0:0:0:
348,303,75246,5,2,0:2:0:0:
392,302,75327,1,2,0:2:0:0:
427,276,75408,1,2,0:2:0:0:
440,234,75489,1,2,0:2:0:0:
425,192,75570,1,2,0:2:0:0:
386,171,75651,1,2,0:2:0:0:
367,131,75732,1,2,0:2:0:0:
376,88,75813,1,2,0:2:0:0:
409,58,75894,1,2,0:2:0:0:
453,58,75975,1,2,0:2:0:0:
486,86,76057,1,2,0:2:0:0:
493,130,76138,1,2,0:2:0:0:
459,158,76219,1,2,0:2:0:0:
416,154,76300,1,2,0:2:0:0:
380,127,76381,1,2,0:2:0:0:
336,120,76462,1,2,0:2:0:0:
294,135,76543,5,2,0:2:0:0:
146,160,76867,1,2,0:2:0:0:
152,193,76948,1,2,0:2:0:0:
158,226,77030,1,2,0:2:0:0:
165,259,77111,1,2,0:2:0:0:
171,292,77192,2,0,L|24:276,1,135.404995880127,2|0,0:2|0:0,0:0:0:0:
16,205,77516,1,2,0:2:0:0:
270,243,77759,1,2,0:2:0:0:
270,243,77840,6,0,P|348:227|369:163,1,135.404995880127,2|0,0:2|0:0,0:0:0:0:
319,28,78165,2,0,P|339:74|398:99,1,90.2699972534178,2|0,0:2|0:0,0:0:0:0:
455,113,78408,1,2,0:2:0:0:
455,113,78489,2,0,B|460:162|439:176|435:176|431:176|394:197|412:253,2,135.127495880127,2|2|2,0:2|0:2|0:2,0:0:0:0:
471,288,79138,5,2,0:2:0:0:
310,358,79462,1,2,0:2:0:0:
286,319,79543,1,2,0:2:0:0:
249,295,79624,1,2,0:2:0:0:
205,289,79705,1,2,0:2:0:0:
162,303,79786,2,0,L|116:313,3,45.1349986267089,2|2|2|2,0:2|0:2|0:2|0:2,0:0:0:0:
236,201,80111,2,0,L|282:211,3,45.1349986267089,2|2|2|2,0:2|0:2|0:2|0:2,0:0:0:0:
154,171,80435,5,2,0:2:0:0:
125,204,80516,1,2,0:2:0:0:
82,213,80597,1,2,0:2:0:0:
43,192,80678,1,2,0:2:0:0:
27,151,80759,1,2,0:2:0:0:
34,108,80840,1,2,0:2:0:0:
64,75,80921,1,2,0:2:0:0:
107,64,81002,1,2,0:2:0:0:
149,78,81084,1,2,0:2:0:0:
173,116,81165,1,2,0:2:0:0:
212,135,81246,1,2,0:2:0:0:
257,131,81327,1,2,0:2:0:0:
291,103,81408,1,2,0:2:0:0:
317,66,81489,1,2,0:2:0:0:
356,46,81570,1,2,0:2:0:0:
401,45,81651,1,2,0:2:0:0:
441,65,81732,6,0,L|461:119,1,45.1349986267089,2|0,0:2|0:2,0:0:0:0:
253,125,81894,2,0,L|268:82,1,45.1349986267089,0|2,0:2|0:2,0:0:0:0:
370,160,82057,6,0,L|389:213,1,45.1349986267089,0|2,0:2|0:2,0:0:0:0:
148,192,82219,2,0,L|163:149,1,45.1349986267089,2|2,0:2|0:2,0:0:0:0:
325,300,82381,6,0,L|309:257,1,45.1349986267089,0|2,0:2|0:2,0:0:0:0:
216,42,82543,2,0,L|235:95,1,45.1349986267089,0|0,0:2|0:2,0:0:0:0:
402,110,82705,6,0,L|359:125,1,45.1349986267089,2|0,0:2|0:2,0:0:0:0:
144,219,82867,2,0,L|197:199,1,45.1349986267089,0|2,0:2|0:2,0:0:0:0:
308,41,83030,5,4,0:2:0:0:
262,17,83111,1,2,0:2:0:0:
213,23,83192,1,0,0:2:0:0:
176,58,83273,1,0,0:2:0:0:
166,107,83354,1,2,0:2:0:0:
176,155,83435,1,0,0:2:0:0:
212,191,83516,1,0,0:2:0:0:
260,201,83597,1,2,0:2:0:0:
309,203,83678,1,2,0:2:0:0:
350,233,83759,1,2,0:2:0:0:
367,279,83840,1,2,0:2:0:0:
365,329,83921,1,2,0:2:0:0:
334,369,84002,1,2,0:2:0:0:
287,383,84084,1,2,0:2:0:0:
241,363,84165,1,2,0:2:0:0:
204,329,84246,1,2,0:2:0:0:
154,326,84327,5,14,0:2:0:0:
256,192,84408,12,0,88057,0:2:0:0:
44,89,88219,5,0,1:2:0:0:
53,120,88300,1,0,1:2:0:0:
79,141,88381,1,0,1:2:0:0:
112,145,88462,1,0,1:2:0:0:
142,129,88543,1,0,1:2:0:0:
174,119,88624,1,0,1:2:0:0:
206,126,88705,1,0,1:2:0:0:
231,149,88786,1,0,1:2:0:0:
280,208,88867,5,2,1:2:0:0:
285,243,88948,2,0,B|335:239|358:275|358:275|351:227|395:197,1,160.48,2|0,1:2|1:2,0:0:0:0:
449,103,89192,2,0,B|432:55|376:56|376:56|334:102|427:152,1,160.48,10|0,1:2|1:2,0:0:0:0:
441,270,89435,5,2,1:2:0:0:
441,270,89516,1,14,1:2:0:0:
119,73,99894,5,2,0:2:0:0:
119,73,99975,2,0,P|110:122|138:156,1,75.075002861023,2|0,0:2|0:0,0:0:0:0:
85,257,100219,2,0,P|131:240|147:199,1,75.075002861023,2|0,0:2|0:0,0:0:0:0:
261,194,100462,2,0,P|223:161|179:168,1,75.075002861023,2|0,0:2|0:0,0:0:0:0:
121,152,100705,1,2,0:2:0:0:
280,77,100867,1,2,0:2:0:0:
408,204,101030,1,2,0:2:0:0:
415,204,101111,1,2,0:2:0:0:
421,204,101192,5,0,0:2:0:0:
428,204,101273,2,0,P|427:243|400:275,1,75.0000028610231,2|0,0:2|0:0,0:0:0:0:
434,114,101516,2,0,P|470:94|510:101,1,75.0000028610231,2|0,0:2|0:0,0:0:0:0:
354,152,101759,2,0,P|319:131|306:94,1,75.0000028610231,2|0,0:2|0:0,0:0:0:0:
360,45,102002,1,2,0:2:0:0:
278,281,102165,1,2,0:2:0:0:
201,49,102327,1,2,0:2:0:0:
199,43,102408,1,2,0:2:0:0:
197,37,102489,6,0,P|182:94|205:127,1,75.075002861023,2|0,0:2|0:0,0:0:0:0:
94,171,102732,2,0,P|151:186|184:163,1,75.075002861023,2|0,0:2|0:0,0:0:0:0:
228,274,102975,2,0,P|243:217|220:184,1,75.075002861023,2|0,0:2|0:2,0:0:0:0:
331,140,103219,2,0,P|274:125|241:148,1,75.075002861023,2|0,0:2|0:0,0:0:0:0:
163,188,103462,1,2,0:2:0:0:
286,37,103624,1,2,0:2:0:0:
370,293,103786,6,0,B|381:340|381:340|340:307,1,100.1,2|0,0:2|0:0,0:0:0:0:
299,136,104030,2,0,B|318:90|318:90|331:141,1,100.1,2|0,0:2|0:0,0:0:0:0:
265,305,104273,2,0,B|222:330|222:330|242:281,1,100.1,2|0,0:2|0:2,0:0:0:0:
392,189,104516,2,0,B|441:193|441:193|396:221,1,100.1,2|0,0:2|0:0,0:0:0:0:
222,208,104759,2,0,B|184:175|184:175|237:178,1,100.1,2|0,0:2|0:0,0:0:0:0:
155,51,104921,1,2,0:2:0:0:
159,43,105002,1,2,0:2:0:0:
163,35,105084,6,0,L|178:110,1,60.1799981689451,8|2,0:2|0:2,0:0:0:0:
349,35,105246,2,0,L|334:110,1,60.1799981689451,8|0,0:2|0:0,0:0:0:0:
256,168,105408,1,10,0:2:0:0:
256,183,105489,1,8,0:2:0:0:
256,198,105570,1,8,0:2:0:0:
163,35,105732,6,0,P|164:81|207:117,1,70.2099978637694,8|0,0:2|0:0,0:0:0:0:
349,35,105894,2,0,P|348:81|305:117,1,70.2099978637694,10|0,0:2|0:0,0:0:0:0:
256,183,106057,1,10,0:2:0:0:
256,200,106138,1,8,0:2:0:0:
256,218,106219,1,10,0:2:0:0:
163,35,106381,6,0,B|154:75|154:75|206:129,1,80.2399999999998,8|2,0:2|0:2,0:0:0:0:
349,35,106543,2,0,B|358:75|358:75|306:129,1,80.2399999999998,8|0,0:2|0:0,0:0:0:0:
256,200,106705,1,10,0:2:0:0:
256,220,106786,1,8,0:2:0:0:
256,240,106867,1,8,0:2:0:0:
163,35,107030,6,0,B|169:59|153:77|153:77|182:90|190:124,1,90.2699972534178,8|0,0:2|0:0,0:0:0:0:
349,35,107192,2,0,B|342:59|358:77|358:77|329:90|321:124,1,90.2699972534178,10|0,0:2|0:0,0:0:0:0:
256,220,107354,1,10,0:2:0:0:
256,242,107435,1,8,0:2:0:0:
256,265,107516,1,10,0:2:0:0:
256,69,107678,5,8,0:2:0:0:
256,77,107759,1,10,0:2:0:0:
256,84,107840,1,8,0:2:0:0:
256,91,107921,1,8,0:2:0:0:
256,98,108002,1,10,0:2:0:0:
256,105,108084,1,8,0:2:0:0:
256,112,108165,1,10,0:2:0:0:
256,119,108246,1,8,0:2:0:0:
256,126,108327,1,8,0:2:0:0:
256,133,108408,1,10,0:2:0:0:
256,140,108489,1,8,0:2:0:0:
256,147,108570,1,8,0:2:0:0:
256,154,108651,1,10,0:2:0:0:
256,161,108732,1,8,0:2:0:0:
256,168,108813,1,10,0:2:0:0:
256,175,108894,1,10,0:2:0:0:
256,182,108975,5,12,0:2:0:0:
421,202,109138,1,12,0:2:0:0:
421,202,109948,2,0,L|416:324,1,112.837504291535,12|0,0:2|0:0,0:0:0:0:
416,314,110273,6,0,P|367:318|329:342,1,75.2250028610228,8|0,0:2|0:0,0:0:0:0:
314,243,110597,2,0,P|274:271|253:310,1,75.2250028610228,10|0,0:2|0:0,0:0:0:0:
189,232,110921,2,0,P|168:276|170:321,1,75.2250028610228,8|0,0:2|0:0,0:0:0:0:
75,284,111246,2,0,P|79:332|103:370,1,75.2250028610228,10|0,0:2|0:0,0:0:0:0:
48,154,111570,6,0,P|96:158|134:182,1,75.2250028610228,8|0,0:2|0:0,0:0:0:0:
150,83,111894,2,0,P|189:111|210:150,1,75.2250028610228,10|0,0:2|0:0,0:0:0:0:
275,72,112219,2,0,P|295:116|293:161,1,75.2250028610228,8|0,0:2|0:0,0:0:0:0:
233,242,112543,6,0,L|246:193,1,37.5000014305115,10|0,0:2|0:0,0:0:0:0:
242,205,112705,1,8,0:2:0:0:
422,302,112867,6,0,P|373:297|335:273,1,75.2250028610228,8|0,0:2|0:0,0:0:0:0:
320,373,113192,2,0,P|280:344|259:305,1,75.2250028610228,10|0,0:2|0:0,0:0:0:0:
195,384,113516,2,0,P|174:339|176:294,1,75.2250028610228,8|0,0:2|0:0,0:0:0:0:
81,332,113840,2,0,P|85:283|109:245,1,75.2250028610228,10|0,0:2|0:0,0:0:0:0:
81,83,114165,6,0,L|94:132,1,37.5000014305115,8|2,0:2|0:2,0:0:0:0:
90,120,114327,1,8,0:2:0:0:
182,218,114489,6,0,P|221:189|242:150,1,75.2250028610228,10|0,0:2|0:0,0:0:0:0:
307,229,114732,1,10,0:2:0:0:
307,229,114813,2,0,P|327:184|325:139,1,75.2250028610228,8|8,0:2|0:2,0:0:0:0:
421,177,115057,1,8,0:2:0:0:
421,177,115138,1,10,0:2:0:0:
421,158,115219,1,8,0:2:0:0:
419,139,115300,1,8,0:2:0:0:
413,121,115381,1,10,0:2:0:0:
404,105,115462,5,8,0:2:0:0:
320,192,115624,1,8,0:2:0:0:
404,279,115786,1,10,0:2:0:0:
404,279,115867,1,8,0:2:0:0:
404,279,115948,1,8,0:2:0:0:
404,78,116111,5,8,0:2:0:0:
304,192,116273,1,8,0:2:0:0:
404,306,116435,1,10,0:2:0:0:
404,306,116516,1,8,0:2:0:0:
404,306,116597,1,8,0:2:0:0:
108,279,116759,5,8,0:2:0:0:
192,192,116921,1,8,0:2:0:0:
108,105,117084,1,10,0:2:0:0:
108,105,117165,1,8,0:2:0:0:
108,105,117246,1,8,0:2:0:0:
108,306,117408,5,8,0:2:0:0:
208,192,117570,1,8,0:2:0:0:
108,78,117732,1,10,0:2:0:0:
108,78,117813,1,8,0:2:0:0:
108,78,117894,1,8,0:2:0:0:
240,54,118057,5,8,0:2:0:0:
269,57,118138,1,8,0:2:0:0:
298,49,118219,1,8,0:2:0:0:
322,31,118300,1,8,0:2:0:0:
338,6,118381,1,8,0:2:0:0:
382,0,118462,1,8,0:2:0:0:
423,16,118543,1,8,0:2:0:0:
449,52,118624,1,8,0:2:0:0:
453,96,118705,5,8,0:2:0:0:
409,136,118786,1,8,0:2:0:0:
351,144,118867,1,8,0:2:0:0:
297,118,118948,1,8,0:2:0:0:
267,67,119030,1,8,0:2:0:0:
209,58,119111,1,8,0:2:0:0:
155,81,119192,1,8,0:2:0:0:
122,130,119273,1,8,0:2:0:0:
121,189,119354,5,0,0:2:0:0:
156,258,119435,6,0,P|170:273|172:239,1,75.2250028610228,2|0,0:2|0:0,0:0:0:0:
194,154,119678,6,0,P|230:139|199:167,1,100.3,2|0,0:2|0:0,0:0:0:0:
269,250,119921,6,0,P|297:233|272:269,1,125.375,2|0,0:2|0:0,0:0:0:0:
340,111,120084,6,0,B|314:106|300:74|300:74|292:149|335:164|341:165|346:165|394:179|391:264,1,240.719992675781,2|0,0:2|0:0,0:0:0:0:
357,320,120327,6,0,B|334:323|316:335|316:335|351:205|481:225,1,240.719992675781,10|0,0:2|0:0,0:0:0:0:
432,328,120570,6,0,L|436:354,1,19.0375007152558,2|0,0:2|0:0,0:0:0:0:
432,328,120651,6,0,B|375:357|335:300|339:298|337:299|292:237|202:303,1,195.194991073609,4|0,3:2|0:0,0:0:0:0:
132,224,120975,2,0,L|214:210,1,65.1949970245361,10|0,0:2|0:0,0:0:0:0:
268,172,121138,1,0,0:0:0:0:
335,119,121219,2,0,P|258:87|193:135,1,130.389994049073,2|0,0:2|0:0,0:0:0:0:
115,91,121462,2,0,P|144:130|154:180,1,65.1949970245361,2|0,0:2|0:0,0:0:0:0:
268,172,121624,2,0,P|273:220|257:268,1,65.1949970245361,10|0,0:2|0:0,0:0:0:0:
200,325,121786,1,2,0:2:0:0:
127,352,121867,1,2,0:2:0:0:
61,303,121948,5,0,3:2:0:0:
61,303,122030,2,0,P|104:245|169:263,1,130.129994049073,2|0,0:2|0:0,0:0:0:0:
312,327,122273,2,0,P|347:306|365:252,1,65.0649970245362,10|0,0:2|0:0,0:0:0:0:
270,236,122435,1,0,0:0:0:0:
155,251,122516,2,0,L|7:276,1,130.129994049073,2|0,0:2|0:0,0:0:0:0:
38,144,122759,2,0,P|68:137|136:165,1,65.0649970245362,2|0,0:2|0:0,0:0:0:0:
142,64,122921,2,0,P|168:81|196:148,1,65.0649970245362,10|0,0:2|0:0,0:0:0:0:
235,197,123084,1,2,0:2:0:0:
232,276,123165,1,2,0:2:0:0:
235,197,123246,6,0,B|290:161|290:161|362:193,1,130.389994049073,2|0,3:2|0:0,0:0:0:0:
430,234,123489,1,2,0:2:0:0:
504,191,123570,2,0,B|489:113,1,65.1949970245361,8|0,0:2|0:0,0:0:0:0:
411,29,123732,2,0,B|388:23|388:23|326:34|322:112,1,130.389994049073,2|0,0:2|3:2,0:0:0:0:
430,234,123975,2,0,L|403:106,1,130.389994049073,2|0,0:2|0:0,0:0:0:0:
504,65,124219,2,0,P|493:95|492:128,1,65.194997024536,10|0,0:2|0:0,0:0:0:0:
367,330,124381,2,0,P|361:280|345:250,1,65.1949970245361,2|0,0:2|0:0,0:0:0:0:
298,176,124543,5,2,3:2:0:0:
430,234,124705,1,0,0:0:0:0:
462,237,124786,1,2,0:2:0:0:
494,240,124867,1,8,0:2:0:0:
423,39,125030,2,0,L|342:49,1,65.194997024536,2|0,0:2|0:0,0:0:0:0:
164,70,125192,1,0,3:2:0:0:
93,104,125273,2,0,L|253:121,1,130.389994049073,2|0,0:2|0:0,0:0:0:0:
292,5,125516,2,0,P|280:45|308:105,1,65.1949970245361,10|0,0:2|0:0,0:0:0:0:
310,230,125678,1,2,0:2:0:0:
386,254,125759,1,2,0:2:0:0:
462,278,125840,5,0,3:2:0:0:
462,278,125921,2,0,P|486:205|436:141,1,130.389994049073,2|0,0:2|0:0,0:0:0:0:
283,67,126165,2,0,L|306:209,1,130.389994049073,10|0,0:2|0:0,0:0:0:0:
109,335,126408,2,0,B|75:282|75:282|106:210,1,130.389994049073,2|0,0:2|0:0,0:0:0:0:
196,113,126651,2,0,P|162:95|126:100,1,65.1949970245361,2|0,0:2|0:0,0:0:0:0:
167,270,126813,2,0,L|240:257,1,65.1949970245361,10|0,0:2|0:0,0:0:0:0:
310,230,126975,1,2,0:2:0:0:
386,254,127057,1,2,0:2:0:0:
462,278,127138,5,0,3:2:0:0:
462,278,127219,2,0,P|486:205|436:141,1,130.389994049073,2|0,0:2|0:0,0:0:0:0:
283,67,127462,2,0,L|306:209,1,130.389994049073,10|0,0:2|0:0,0:0:0:0:
259,334,127705,2,0,P|197:289|107:304,1,130.389994049073,2|0,0:2|0:0,0:0:0:0:
51,320,127948,2,0,L|62:249,1,65.1949970245361,2|0,0:2|0:0,0:0:0:0:
202,105,128111,2,0,L|213:176,1,65.194997024536,10|0,0:2|0:0,0:0:0:0:
97,171,128273,1,2,0:2:0:0:
73,95,128354,1,2,0:2:0:0:
49,19,128435,5,0,3:2:0:0:
49,19,128516,2,0,L|217:29,1,130.389994049073,2|0,0:2|0:0,0:0:0:0:
386,25,128759,2,0,B|398:55|398:55|386:92,1,65.1949970245361,10|0,0:2|0:0,0:0:0:0:
366,277,128921,2,0,B|343:245|343:245|369:149,1,130.389994049073,2|0,0:2|3:2,0:0:0:0:
179,26,129165,2,0,B|202:58|202:58|176:154,1,130.389994049073,2|0,0:2|0:0,0:0:0:0:
126,325,129408,2,0,L|49:312,1,65.1949970245361,10|0,0:2|0:0,0:0:0:0:
90,153,129570,1,2,0:2:0:0:
173,171,129651,1,2,0:2:0:0:
256,189,129732,5,0,3:2:0:0:
342,157,129813,2,0,P|347:211|273:279,1,130.389994049073,2|0,0:2|0:0,0:0:0:0:
126,325,130057,2,0,L|121:256,1,65.194997024536,10|0,0:2|0:2,0:0:0:0:
89,129,130219,1,2,0:2:0:0:
172,147,130300,1,2,0:2:0:0:
264,165,130381,6,0,B|338:147|338:147|347:150|347:150|444:125,1,170.510003242492,2|0,3:2|0:0,0:0:0:0:
212,38,130624,2,0,B|180:20|180:20|136:78|177:158,1,170.510003242492,2|0,0:2|0:0,0:0:0:0:
381,330,130867,2,0,B|395:336|395:336|409:309|376:260,1,85.2550016212461,2|0,0:2|0:0,0:0:0:0:
307,244,131030,5,12,3:2:0:0:
383,271,131111,2,0,P|294:279|210:324,1,130.389994049073,2|0,0:2|0:0,0:0:0:0:
116,353,131354,2,0,L|131:213,1,130.389994049073,10|0,0:2|0:0,0:0:0:0:
161,60,131597,1,2,0:2:0:0:
75,36,131678,2,0,L|81:100,1,65.1949970245361,0|0,3:2|0:0,0:0:0:0:
309,205,131840,2,0,B|322:176|322:176|312:136,1,65.1949970245361,2|0,0:2|0:0,0:0:0:0:
278,63,132002,1,10,0:2:0:0:
129,223,132165,1,2,0:2:0:0:
176,289,132246,1,2,0:2:0:0:
257,301,132327,5,0,3:2:0:0:
257,301,132408,2,0,L|101:337,1,130.389994049073,2|0,0:2|0:0,0:0:0:0:
48,172,132651,2,0,P|77:142|134:134,1,65.1949970245361,10|0,0:2|0:0,0:0:0:0:
255,73,132813,1,0,0:0:0:0:
326,115,132894,2,0,P|411:125|456:82,1,130.389994049073,2|0,0:2|0:0,0:0:0:0:
241,10,133138,2,0,L|260:92,1,65.194997024536,2|0,0:2|0:0,0:0:0:0:
98,133,133300,2,0,L|79:215,1,65.194997024536,10|0,0:2|0:0,0:0:0:0:
234,297,133462,1,2,3:2:0:0:
314,320,133543,1,2,0:2:0:0:
394,343,133624,6,0,P|465:300|412:194,1,195.584991073608,6|2,3:2|0:2,0:0:0:0:
371,151,133948,2,0,L|289:171,1,65.1949970245361,0|0,0:2|0:0,0:0:0:0:
58,242,134111,2,0,B|113:218|136:267|141:267|147:268|183:330|255:277,1,195.584991073609,6|2,3:2|0:2,0:0:0:0:
342,307,134435,2,0,L|326:225,1,65.1949970245361
211,37,134597,2,0,L|198:100,1,65.1949970245361,14|0,0:2|0:0,0:0:0:0:
58,242,134759,2,0,L|152:230,1,65.1949970245361,2|0,0:2|0:0,0:0:0:0:
301,79,134921,6,0,P|219:33|127:51,1,170.510003242492,14|0,0:2|0:0,0:0:0:0:
300,278,135165,6,0,P|393:267|457:198,1,170.510003242493,14|0,0:2|0:0,0:0:0:0:
183,116,135408,6,0,P|113:179|102:272,1,170.510003242492,14|0,0:2|0:2,0:0:0:0:
373,179,135651,6,0,P|391:86|345:4,1,170.510003242492,14|0,0:2|0:0,0:0:0:0:
182,239,135894,6,0,P|221:324|306:363,1,170.510003242492,10|0,0:2|0:0,0:0:0:0:
454,330,136057,1,10,0:2:0:0:
454,330,136138,1,2,0:2:0:0:
454,330,136219,6,0,L|434:232,1,65.194997024536,4|2,3:2|0:2,0:0:0:0:
286,82,136381,2,0,L|273:145,1,65.1949970245361,0|0,3:2|0:0,0:0:0:0:
443,328,136543,2,0,L|423:230,1,65.1949970245361,10|0,0:2|0:0,0:0:0:0:
423,108,136705,1,0,0:0:0:0:
481,36,136786,2,0,P|406:22|351:71,1,130.389994049073,2|0,0:2|0:0,0:0:0:0:
284,152,137030,2,0,L|296:88,1,65.194997024536,2|0,0:2|0:0,0:0:0:0:
113,23,137192,2,0,P|96:58|120:111,1,65.194997024536,10|0,0:2|0:0,0:0:0:0:
157,146,137354,1,2,3:2:0:0:
140,225,137435,1,2,3:2:0:0:
123,304,137516,6,0,L|268:282,1,130.389994049073,4|0,3:2|0:0,0:0:0:0:
431,197,137759,1,0,0:0:0:0:
463,119,137840,2,0,P|419:111|348:172,1,130.389994049073,10|0,0:2|0:0,0:0:0:0:
265,346,138084,1,2,0:2:0:0:
265,346,138165,2,0,P|261:301|234:268,1,65.194997024536,0|0,3:2|0:0,0:0:0:0:
319,231,138327,2,0,P|284:202|241:197,1,65.194997024536,2|0,3:2|0:0,0:0:0:0:
275,111,138489,2,0,P|230:115|197:142,1,65.194997024536,10|0,0:2|0:0,0:0:0:0:
51,191,138651,1,2,0:2:0:0:
51,191,138732,1,2,0:2:0:0:
51,191,138813,6,0,P|30:162|35:116,1,65.1949970245361,0|2,3:2|0:2,0:0:0:0:
117,116,138975,2,0,P|113:80|140:43,1,65.1949970245361,0|0,3:2|0:0,0:0:0:0:
211,84,139138,2,0,P|225:51|267:32,1,65.194997024536,10|0,0:2|0:0,0:0:0:0:
308,103,139300,2,0,P|336:82|383:86,1,65.194997024536,2|0,0:2|0:0,0:0:0:0:
429,161,139462,1,0,3:2:0:0:
435,208,139543,1,2,3:2:0:0:
412,250,139624,1,0,3:2:0:0:
368,269,139705,1,0,3:2:0:0:
322,258,139786,1,10,3:2:0:0:
283,229,139867,1,0,3:2:0:0:
235,226,139948,1,2,3:2:0:0:
193,248,140030,1,2,3:2:0:0:
170,290,140111,5,4,3:2:0:0:
219,362,140192,2,0,P|144:325|54:314,1,130.389994049073,2|0,1:2|1:2,0:0:0:0:
72,320,140435,1,10,1:2:0:0:
76,304,140516,1,0,1:2:0:0:
80,288,140597,1,2,1:2:0:0:
85,273,140678,1,2,1:2:0:0:
36,223,140759,6,0,P|128:227|211:183,1,170.510003242492,14|0,3:2|0:0,0:0:0:0:
226,21,141002,2,0,P|277:95|376:116,1,170.510003242492,14|0,0:2|0:0,0:0:0:0:
496,41,141246,2,0,P|470:81|460:146,1,85.2550016212461,14|0,0:2|0:0,0:0:0:0:
432,328,141408,6,0,B|375:357|335:300|339:298|337:299|292:237|202:303,1,195.194991073609,8|0,3:2|0:0,0:0:0:0:
88,242,141732,2,0,P|135:232|171:212,1,65.1949970245361,10|0,0:2|0:0,0:0:0:0:
285,82,141894,1,0,0:0:0:0:
215,38,141975,2,0,P|204:111|224:177,1,130.389994049073,2|0,0:2|0:0,0:0:0:0:
255,277,142219,2,0,L|249:355,1,65.194997024536,2|0,0:2|0:0,0:0:0:0:
88,242,142381,2,0,B|80:212|80:212|92:157,1,65.1949970245361,10|0,0:2|0:0,0:0:0:0:
215,38,142543,1,2,0:2:0:0:
285,82,142624,1,2,0:2:0:0:
355,126,142705,5,0,3:2:0:0:
355,126,142786,2,0,P|427:139|472:98,1,130.389994049073,2|0,0:2|0:0,0:0:0:0:
215,38,143030,2,0,L|206:111,1,65.194997024536,10|0,0:2|0:0,0:0:0:0:
162,212,143192,1,0,0:0:0:0:
108,152,143273,2,0,B|120:217|120:217|117:228|117:228|130:312,1,130.389994049073,2|0,0:2|0:0,0:0:0:0:
245,304,143516,2,0,L|236:377,1,65.1949970245361,2|0,0:2|0:0,0:0:0:0:
33,225,143678,2,0,L|42:298,1,65.1949970245361,10|0,0:2|0:0,0:0:0:0:
207,102,143840,1,2,0:2:0:0:
202,181,143921,1,2,0:2:0:0:
207,102,144002,6,0,L|342:114,1,130.389994049073,2|0,3:2|0:0,0:0:0:0:
440,283,144246,1,2,0:2:0:0:
509,230,144327,2,0,B|490:203|490:203|425:195,1,65.1949970245361,8|0,0:2|0:0,0:0:0:0:
246,247,144489,2,0,P|232:312|298:369,1,130.389994049073,2|0,0:2|3:2,0:0:0:0:
440,283,144732,2,0,B|371:291|371:291|365:289|365:289|307:297,1,130.389994049073,2|0,0:2|0:0,0:0:0:0:
124,195,144975,2,0,L|209:184,1,65.1949970245361,10|0,0:2|0:0,0:0:0:0:
276,367,145138,2,0,L|361:378,1,65.194997024536,2|0,0:2|0:0,0:0:0:0:
430,270,145300,5,2,3:2:0:0:
210,286,145462,1,0,0:0:0:0:
177,289,145543,1,2,0:2:0:0:
145,292,145624,1,8,0:2:0:0:
340,375,145786,2,0,P|322:335|334:289,1,65.1949970245361,2|0,0:2|0:0,0:0:0:0:
316,136,145948,1,0,3:2:0:0:
389,175,146030,2,0,L|251:189,1,130.389994049073,2|0,0:2|0:0,0:0:0:0:
83,297,146273,2,0,P|116:303|160:275,1,65.194997024536,10|0,0:2|0:0,0:0:0:0:
181,188,146435,1,2,0:2:0:0:
172,108,146516,1,2,0:2:0:0:
163,28,146597,5,0,3:2:0:0:
163,28,146678,2,0,B|220:18|220:18|227:21|227:21|318:8,1,130.389994049073,2|0,0:2|0:0,0:0:0:0:
181,188,146921,2,0,P|124:117|53:102,1,130.389994049073,10|0,0:2|0:0,0:0:0:0:
199,310,147165,2,0,P|262:255|346:292,1,130.389994049073,2|0,0:2|0:0,0:0:0:0:
381,306,147408,2,0,L|452:295,1,65.1949970245361,2|0,0:2|0:0,0:0:0:0:
326,152,147570,2,0,L|255:141,1,65.1949970245361,10|0,0:2|0:0,0:0:0:0:
181,188,147732,1,2,0:2:0:0:
172,108,147813,1,2,0:2:0:0:
163,28,147894,5,0,3:2:0:0:
163,28,147975,2,0,B|220:18|220:18|227:21|227:21|318:8,1,130.389994049073,2|0,0:2|0:0,0:0:0:0:
467,5,148219,2,0,P|442:81|457:167,1,130.389994049073,10|0,0:2|0:0,0:0:0:0:
401,313,148462,2,0,P|336:306|332:228,1,130.389994049073,2|0,0:2|0:0,0:0:0:0:
434,133,148705,2,0,P|442:167|437:227,1,65.1949970245361,2|0,0:2|0:0,0:0:0:0:
265,110,148867,2,0,L|274:41,1,65.1949970245361,10|0,0:2|0:0,0:0:0:0:
201,242,149030,1,2,0:2:0:0:
124,264,149111,1,2,0:2:0:0:
47,286,149192,5,0,3:2:0:0:
47,286,149273,2,0,P|19:214|64:168,1,130.389994049073,2|0,0:2|0:0,0:0:0:0:
265,110,149516,2,0,P|280:150|270:193,1,65.1949970245361,10|0,0:2|0:0,0:0:0:0:
46,162,149678,2,0,L|188:174,1,130.389994049073,2|0,0:2|3:2,0:0:0:0:
358,246,149921,2,0,B|296:251|296:251|288:256|288:256|218:262,1,130.389994049073,2|0,0:2|0:0,0:0:0:0:
112,90,150165,2,0,L|183:96,1,65.194997024536,10|0,0:2|0:0,0:0:0:0:
265,110,150327,1,2,0:2:0:0:
335,142,150408,1,2,0:2:0:0:
406,174,150489,5,0,3:2:0:0:
456,116,150570,2,0,L|442:308,1,130.389994049073,2|0,0:2|0:0,0:0:0:0:
390,44,150813,2,0,P|408:18|464:18,1,65.1949970245361,10|0,0:2|0:0,0:0:0:0:
411,160,150975,1,2,0:2:0:0:
340,128,151057,1,2,0:2:0:0:
270,96,151138,6,0,B|209:155|238:226|238:226|260:248,1,170.510003242493,2|0,3:2|0:0,0:0:0:0:
417,341,151381,2,0,B|384:294|333:306|333:306|307:346|259:337,1,170.510003242492,2|0,0:2|0:0,0:0:0:0:
65,206,151624,2,0,P|86:200|168:221,1,85.2550016212461,2|0,0:2|0:0,0:0:0:0:
257,245,151786,5,12,3:2:0:0:
206,302,151867,2,0,L|231:141,1,130.389994049073,2|0,0:2|0:0,0:0:0:0:
395,44,152111,2,0,B|432:99|432:99|410:168,1,130.389994049073,10|0,0:2|0:0,0:0:0:0:
308,179,152354,1,2,0:2:0:0:
284,105,152435,2,0,P|314:98|362:134,1,65.1949970245361,0|0,3:2|0:0,0:0:0:0:
421,299,152597,2,0,P|436:271|434:239,1,65.1949970245361,2|0,0:2|0:0,0:0:0:0:
412,159,152759,1,10,0:2:0:0:
276,265,152921,1,2,0:2:0:0:
195,276,153002,1,2,0:2:0:0:
119,291,153084,5,0,3:2:0:0:
119,291,153165,2,0,L|93:126,1,130.389994049073,2|0,0:2|0:0,0:0:0:0:
110,18,153408,2,0,P|111:56|85:99,1,65.1949970245361,10|0,0:2|0:0,0:0:0:0:
33,44,153570,1,0,0:0:0:0:
196,7,153651,2,0,P|194:80|159:145,1,130.389994049073,2|0,0:2|0:0,0:0:0:0:
39,188,153894,2,0,P|94:163|149:164,1,65.1949970245361,2|0,0:2|0:0,0:0:0:0:
280,269,154057,2,0,P|230:233|204:185,1,65.194997024536,10|0,0:2|0:0,0:0:0:0:
170,131,154219,1,2,0:2:0:0:
157,206,154300,1,2,0:2:0:0:
144,282,154381,6,0,P|206:321|269:264,1,130.389994049073,14|0,3:2|0:0,0:0:0:0:
270,217,154624,2,0,P|229:217|195:235,1,75.0000028610231,2|0,0:2|0:0,0:0:0:0:
140,291,154867,6,0,P|202:330|265:273,1,130.389994049073,14|0,0:2|0:2,0:0:0:0:
266,226,155111,2,0,P|225:226|191:244,1,75.0000028610231,2|0,0:2|0:0,0:0:0:0:
54,323,155354,6,0,L|62:258,1,65.1949970245361,14|0,0:2|0:0,0:0:0:0:
228,142,155516,2,0,L|219:77,1,65.1949970245361,2|0,0:2|0:0,0:0:0:0:
124,55,155678,2,0,B|95:118|95:118|125:171,1,130.389994049073,14|0,3:2|0:0,0:0:0:0:
377,233,155921,2,0,B|407:180|407:180|373:103,1,130.389994049073,14|0,0:2|0:0,0:0:0:0:
246,236,156165,1,14,0:2:0:0:
171,285,156246,2,0,L|181:357,1,65.194997024536,2|0,0:2|0:2,0:0:0:0:
379,116,156408,2,0,B|313:122|313:122|306:127|306:127|229:135,1,130.389994049073,14|0,0:2|0:0,0:0:0:0:
384,313,156651,2,0,P|421:303|445:258,1,65.1949970245361,14|0,0:2|0:0,0:0:0:0:
246,236,156813,2,0,L|256:308,1,65.1949970245361,14|0,0:2|0:0,0:0:0:0:
56,150,156975,6,0,P|49:101|79:60,1,75.2250028610228,0|2,3:2|0:2,0:0:0:0:
263,61,157138,2,0,P|270:110|240:151,1,75.2250028610228,0|0,3:2|0:0,0:0:0:0:
166,252,157300,6,0,P|158:216|170:181,1,75.2250028610228,10|0,3:2|0:0,0:0:0:0:
374,164,157462,2,0,P|382:200|370:235,1,75.2250028610228,0|2,3:2|0:2,0:0:0:0:
267,349,157624,6,0,L|273:260,1,75.2250028610228,0|0,3:2|0:0,0:0:0:0:
263,61,157786,2,0,L|257:150,1,75.2250028610228,2|0,3:2|0:0,0:0:0:0:
415,194,157948,6,0,L|326:188,1,75.2250028610228,10|0,3:2|0:0,0:0:0:0:
127,198,158111,2,0,L|216:204,1,75.2250028610228,2|2,3:2|0:2,0:0:0:0:
397,129,158273,6,0,P|375:165|340:188,1,85.2550016212461,4|2,3:2|0:2,0:0:0:0:
178,325,158435,2,0,P|175:283|189:243,1,85.2550016212461,0|0,3:2|0:0,0:0:0:0:
240,38,158597,2,0,P|267:70|279:111,1,85.2550016212461,10|0,3:2|0:0,0:0:0:0:
359,307,158759,2,0,P|318:297|284:271,1,85.2550016212461,0|2,3:2|0:2,0:0:0:0:
104,159,158921,2,0,P|143:143|186:144,1,85.2550016212461,0|0,3:2|0:0,0:0:0:0:
339,188,159084,2,0,L|407:193,2,42.6275008106232,2|0|0,3:2|0:0|0:0,0:0:0:0:
284,271,159246,2,0,P|245:287|202:285,1,85.2550016212461,10|0,3:2|0:0,0:0:0:0:
37,227,159408,5,2,3:2:0:0:
24,170,159489,1,2,3:2:0:0:
61,125,159570,1,0,3:2:0:0:
116,145,159651,1,2,3:2:0:0:
166,115,159732,1,0,3:2:0:0:
176,58,159813,1,0,3:2:0:0:
218,18,159894,1,10,3:2:0:0:
277,21,159975,1,0,3:2:0:0:
315,65,160057,1,0,3:2:0:0:
320,124,160138,1,2,3:2:0:0:
360,168,160219,1,0,3:2:0:0:
417,179,160300,1,0,3:2:0:0:
470,153,160381,1,2,3:2:0:0:
492,98,160462,1,0,3:2:0:0:
468,45,160543,1,10,3:2:0:0:
414,22,160624,1,0,3:2:0:0:
356,35,160705,1,2,3:2:0:0:
318,80,160786,1,0,3:2:0:0:
314,139,160867,5,0,1:2:0:0:
341,188,160948,2,0,P|369:260|330:322,1,140.419995727539,2|0,1:2|1:2,0:0:0:0:
336,320,161192,1,2,1:2:0:0:
318,318,161273,1,0,1:2:0:0:
301,316,161354,1,2,1:2:0:0:
283,314,161435,1,2,1:2:0:0:
266,313,161516,2,0,L|273:270,1,35.5366655985514,2|0,0:2|0:0,0:0:0:0:
248,311,161597,2,0,L|255:268,1,35.5366655985514,0|0,0:2|0:0,0:0:0:0:
231,309,161678,2,0,L|238:266,1,35.5366655985514,0|0,0:2|0:0,0:0:0:0:
214,307,161759,2,0,L|221:264,1,35.5366655985514,2|0,0:2|0:0,0:0:0:0:
196,306,161840,2,0,L|203:263,1,35.5366655985514,0|0,0:2|0:0,0:0:0:0:
179,304,161921,2,0,L|186:261,1,35.5366655985514,0|0,0:2|0:0,0:0:0:0:
161,302,162002,2,0,L|168:259,1,35.5366655985514,2|0,0:2|0:0,0:0:0:0:
144,300,162084,2,0,L|151:257,1,35.5366655985513,0|0,0:2|0:0,0:0:0:0:
127,298,162165,6,0,L|137:233,1,60.0599981689453,14|0,3:2|0:0,0:0:0:0:
73,190,162327,2,0,L|83:125,1,60.0599981689453,2|0,0:2|0:0,0:0:0:0:
19,82,162489,1,2,0:2:0:0:
188,30,162651,6,0,L|177:94,1,60.0599981689453,2|0,0:2|0:2,0:0:0:0:
242,138,162813,2,0,L|231:202,1,60.0599981689453,2|0,0:2|0:0,0:0:0:0:
296,246,162975,2,0,L|301:211,1,25.025,2|0,3:2|0:2,0:0:0:0:
300,221,163300,6,0,B|261:201|261:201|124:232|124:232|105:288,1,225.225008583069,6|0,3:2|0:0,0:0:0:0:
182,320,163624,2,0,L|256:303,1,60.0599981689453,6|0,3:2|0:0,0:0:0:0:
388,265,163786,1,2,0:2:0:0:
294,192,163948,1,2,0:2:0:0:
297,206,164030,1,0,0:2:0:0:
300,221,164111,1,2,0:2:0:0:
339,384,164273,2,0,L|322:310,1,60.0599981689453,2|0,3:2|0:0,0:0:0:0:
272,113,164435,1,2,0:2:0:0:
269,98,164516,1,0,0:2:0:0:
266,84,164597,1,2,3:2:0:0:
263,69,164678,1,0,3:2:0:0:
260,55,164759,6,0,P|214:55|188:80,1,60.0599981689453,6|0,3:2|0:0,0:0:0:0:
401,111,164921,2,0,P|423:71|415:36,1,60.0599981689453,2|0,0:2|0:0,0:0:0:0:
341,17,165084,1,2,0:2:0:0:
250,132,165246,6,0,P|217:164|216:200,1,60.0599981689453,2|0,0:2|0:0,0:0:0:0:
502,54,165408,2,0,P|490:9|459:-9,1,60.0599981689453,2|0,0:2|0:0,0:0:0:0:
341,17,165570,2,0,L|341:44,1,25.025,2|2,3:2|0:2,0:0:0:0:
341,42,165894,6,0,B|369:79|369:79|240:42|240:42|168:79,1,225.225008583069,6|0,3:2|0:0,0:0:0:0:
141,106,166219,2,0,B|122:84|122:84|131:39,1,60.0599981689453,6|0,3:2|0:0,0:0:0:0:
250,132,166381,1,2,0:2:0:0:
37,37,166543,1,2,0:2:0:0:
174,187,166705,2,0,P|148:219|143:266,1,60.0599981689453,2|0,3:2|0:0,0:0:0:0:
0,269,166867,2,0,P|26:301|31:348,1,60.0599981689453,2|0,3:2|0:0,0:0:0:0:
142,337,167030,1,2,3:2:0:0:
131,347,167111,1,0,3:2:0:0:
126,361,167192,1,2,3:2:0:0:
21,146,167354,6,0,B|49:135|49:135|101:157,1,60.0599981689453,6|0,0:2|0:0,0:0:0:0:
223,249,167516,2,0,B|251:260|251:260|303:238,1,60.0599981689453,2|0,0:2|0:0,0:0:0:0:
380,186,167678,1,2,0:2:0:0:
163,37,167840,6,0,P|175:78|220:103,1,60.0599981689453,2|0,0:2|0:2,0:0:0:0:
242,146,168002,2,0,P|279:167|329:153,1,60.0599981689453,2|0,0:2|0:0,0:0:0:0:
380,186,168165,2,0,L|414:180,1,25.025,2|2,3:2|0:2,0:0:0:0:
404,181,168489,6,0,B|341:146|291:213|296:214|300:213|262:269|177:234,1,225.225008583069,6|0,3:2|0:0,0:0:0:0:
127,215,168813,2,0,P|101:173|114:140,1,60.0599981689453,6|0,3:2|0:0,0:0:0:0:
211,98,168975,1,2,0:2:0:0:
143,303,169138,1,2,0:2:0:0:
137,317,169219,1,0,0:2:0:0:
132,331,169300,1,2,0:2:0:0:
27,169,169462,2,0,P|38:120|70:106,1,60.0599981689453,2|0,3:2|0:0,0:0:0:0:
157,44,169624,1,2,0:2:0:0:
200,55,169705,1,0,0:2:0:0:
244,66,169786,1,2,3:2:0:0:
287,77,169867,1,0,3:2:0:0:
331,88,169948,6,0,P|378:84|405:58,1,60.0599981689453,6|0,3:2|0:0,0:0:0:0:
457,162,170111,2,0,P|487:125|488:88,1,60.0599981689453,2|0,0:2|0:0,0:0:0:0:
455,12,170273,1,2,0:2:0:0:
257,155,170435,6,0,P|236:197|245:234,1,60.0599981689453,2|0,0:2|0:0,0:0:0:0:
129,227,170597,2,0,P|145:271|177:290,1,60.7999981689453,2|0,0:2|0:2,0:0:0:0:
260,300,170759,2,0,L|291:292,1,25.025,2|2,3:2|0:2,0:0:0:0:
284,294,171084,6,0,L|61:268,1,225.225008583069,6|0,3:2|0:0,0:0:0:0:
41,169,171408,2,0,B|27:137|27:137|120:181,1,130.129994049073,6|2,3:2|0:2,0:0:0:0:
198,317,171651,2,0,B|184:349|184:349|277:305,1,130.129994049073,4|0,3:2|0:0,0:0:0:0:
404,214,171894,2,0,B|411:196|411:196|360:220,1,65.0649970245362,6|0,3:2|0:0,0:0:0:0:
198,317,172057,6,0,L|219:347,1,25.3833333333332,2|0,0:2|0:2,0:2:0:0:
226,277,172138,2,0,L|263:299,1,25.3833333333332,0|0,0:2|0:2,0:0:0:0:
229,227,172219,1,6,3:2:0:0:
208,188,172300,1,0,3:2:0:0:
179,147,172381,1,2,3:2:0:0:
177,98,172462,1,0,3:2:0:0:
201,55,172543,5,6,3:2:0:0:
345,32,172705,1,2,0:2:0:0:
368,176,172867,1,10,0:2:0:0:
224,199,173030,1,2,0:2:0:0:
336,47,173192,5,10,0:2:0:0:
488,159,173354,1,2,3:2:0:0:
376,311,173516,1,10,0:2:0:0:
119,202,173678,6,0,L|131:122,1,50.0499999999999,6|0,3:2|0:0,0:0:0:0:
142,52,173840,1,10,0:2:0:0:
242,248,174002,6,0,L|254:168,1,50.0499999999999,6|0,3:2|0:0,0:0:0:0:
265,98,174165,1,10,0:2:0:0:
320,293,174327,1,2,0:2:0:0:
194,126,174489,5,10,0:2:0:0:
409,157,174651,1,2,3:2:0:0:
378,372,174813,1,10,0:2:0:0:
163,341,174975,1,2,3:2:0:0:
163,341,175057,1,0,3:2:0:0:
163,341,175138,5,14,3:2:0:0:
206,213,175300,1,2,0:2:0:0:
336,256,175462,1,10,0:2:0:0:
291,384,175624,1,2,0:2:0:0:
270,149,175786,5,10,0:2:0:0:
438,173,175948,1,2,3:2:0:0:
414,341,176111,1,10,0:2:0:0:
292,292,176273,6,0,L|280:212,1,50.0499999999999,6|0,3:2|0:0,0:0:0:0:
269,142,176435,1,10,0:2:0:0:
169,338,176597,6,0,L|157:258,1,50.0499999999999,6|0,3:2|0:0,0:0:0:0:
146,188,176759,1,10,0:2:0:0:
91,383,176921,1,2,0:2:0:0:
28,115,177084,6,0,L|97:132,1,50.0499999999999,10|0,3:2|0:0,0:0:0:0:
228,164,177246,2,0,L|297:181,1,50.0499999999999,2|0,3:2|0:0,0:0:0:0:
428,213,177408,1,10,3:2:0:0:
428,213,177489,1,0,3:2:0:0:
428,213,177570,1,2,3:2:0:0:
169,41,177732,6,0,L|161:106,1,50.1499999999998,14|0,3:2|0:0,0:0:0:0:
343,95,177894,2,0,L|351:160,1,50.1499999999998,2|0,3:2|0:0,0:0:0:0:
254,108,178057,6,0,L|246:173,1,50.1499999999998,10|0,3:2|0:0,0:0:0:0:
428,162,178219,2,0,L|436:227,1,50.1499999999998,2|0,3:2|0:0,0:0:0:0:
139,174,178381,6,0,L|131:239,1,50.1499999999998,10|0,3:2|0:0,0:0:0:0:
313,228,178543,2,0,L|321:293,1,50.1499999999998,2|0,3:2|0:0,0:0:0:0:
224,241,178705,6,0,L|216:306,1,50.1499999999998,10|0,3:2|0:0,0:0:0:0:
398,295,178867,2,0,L|406:360,1,50.1499999999998,6|0,3:2|0:0,0:0:0:0:
121,359,179030,6,0,P|125:326|156:282,1,65.194997024536,10|0,3:2|0:0,0:0:0:0:
281,90,179192,2,0,P|277:123|246:167,1,65.194997024536,6|0,3:2|0:0,0:0:0:0:
74,146,179354,6,0,P|107:150|151:181,1,65.1949970245361,10|0,3:2|0:0,0:0:0:0:
343,306,179516,2,0,P|310:302|266:271,1,65.1949970245361,2|0,3:2|0:0,0:0:0:0:
177,47,179678,6,0,L|195:131,1,65.1949970245361,10|0,3:2|0:0,0:0:0:0:
226,382,179840,2,0,L|208:298,1,65.1949970245361,2|0,3:2|0:0,0:0:0:0:
375,202,180002,6,0,L|291:220,1,65.1949970245361,10|0,3:2|0:0,0:0:0:0:
40,251,180165,2,0,L|124:233,1,65.194997024536,2|0,3:2|3:2,0:0:0:0:
206,218,180327,5,14,3:2:0:0:
245,261,180408,1,0,3:2:0:0:
304,267,180489,1,2,3:2:0:0:
352,233,180570,1,0,3:2:0:0:
365,176,180651,1,10,3:2:0:0:
335,125,180732,1,0,3:2:0:0:
348,68,180813,1,2,3:2:0:0:
396,35,180894,1,0,3:2:0:0:
454,44,180975,1,10,3:2:0:0:
494,87,181057,1,0,3:2:0:0:
492,145,181138,1,2,3:2:0:0:
448,183,181219,1,0,3:2:0:0:
390,178,181300,1,10,3:2:0:0:
337,151,181381,1,0,3:2:0:0:
278,156,181462,1,2,3:2:0:0:
230,191,181543,1,0,3:2:0:0:
209,246,181624,6,0,L|219:316,1,60.1799981689451,14|0,3:2|0:0,0:0:0:0:
116,206,181786,2,0,L|106:275,1,60.1799981689451,6|0,3:2|0:2,0:0:0:0:
50,138,181948,5,2,0:2:0:0:
50,138,182030,5,0,0:2:0:0:
50,138,182111,5,2,0:2:0:0:
50,138,182192,5,0,0:2:0:0:
50,138,182273,6,0,P|30:128|4:120,1,30.4599990844727,2|0,0:2|0:0,0:0:0:0:
50,138,182354,6,0,P|31:127|6:116,1,30.4599990844727,0|0,0:2|0:0,0:0:0:0:
50,138,182435,6,0,P|32:125|8:112,1,30.4599990844727,2|0,0:2|0:0,0:0:0:0:
50,138,182516,6,0,P|33:124|10:109,1,30.4599990844727,0|0,0:2|0:0,0:0:0:0:
50,138,182597,6,0,P|35:122|13:105,1,30.4599990844727,2|0,0:2|0:0,0:0:0:0:
50,138,182678,6,0,P|36:121|16:102,1,30.4599990844727,0|0,0:2|0:0,0:0:0:0:
50,138,182759,6,0,P|38:120|19:99,1,30.4599990844727,2|0,0:2|0:0,0:0:0:0:
50,138,182840,6,0,P|39:119|22:97,1,30.4599990844727,0|0,0:2|0:0,0:0:0:0:
65,135,182921,6,0,P|108:143|63:152,1,112.837504291535,0|0,3:2|0:0,0:0:0:0:
65,135,183246,6,0,B|171:107|198:0|198:0|256:92|367:84|367:84|296:168|338:272|338:272|234:230|150:301|150:301|156:190|71:140,1,990.009969787596,12|0,3:2|0:0,0:0:0:0:
