osu file format v14

[General]
AudioFilename: audio.mp3
AudioLeadIn: 0
PreviewTime: 120651
Countdown: 0
SampleSet: Soft
StackLeniency: 0.2
Mode: 0
LetterboxInBreaks: 0
WidescreenStoryboard: 0

[Editor]
Bookmarks: 11678,22057,32435,42813,53192,63570,73948,84327,89516,99894,110273,120651,131030,141408,151786,162165,172543,182921
DistanceSpacing: 0.6
BeatDivisor: 8
GridSize: 32
TimelineZoom: 4.199997

[Metadata]
Title:Sthenno
TitleUnicode:Sthenno
Artist:BlackY
ArtistUnicode:BlackY
Creator:Rtyzen
Version:Rumi's EXHAUST
Source:
Tags:Comiket C95 pleiades C97 GABRiELLA electronic instrumental beatfloor Rumia- Emilia neonat Ayucchi
BeatmapID:2169428
BeatmapSetID:991780

[Difficulty]
HPDrainRate:6
CircleSize:4.7
OverallDifficulty:9
ApproachRate:9.4
SliderMultiplier:1.72
SliderTickRate:1

[Events]
//Background and Video events
0,0,"bg.jpg",0,0
//Break Periods
2,89849,98606
//Storyboard Layer 0 (Background)
//Storyboard Layer 1 (Fail)
//Storyboard Layer 2 (Pass)
//Storyboard Layer 3 (Foreground)
//Storyboard Layer 4 (Overlay)
//Storyboard Sound Samples

[TimingPoints]
3,324.324324324324,4,2,1,60,1,0
5354,-142.857142857143,4,2,1,60,0,0
11678,-100,4,2,1,60,0,0
21084,-100,4,2,1,20,0,0
21732,-200,4,2,3,60,0,0
21894,-200,4,2,3,30,0,0
22057,-100,4,2,1,35,0,0
32435,-90.9090909090909,4,2,1,45,0,0
35030,-90.9090909090909,4,2,1,50,0,0
37624,-90.9090909090909,4,2,1,55,0,0
40219,-90.9090909090909,4,2,1,65,0,0
41516,-90.9090909090909,4,2,1,75,0,0
42165,-90.9090909090909,4,2,1,80,0,0
42813,-90.9090909090909,4,2,1,60,0,0
52543,-66.6666666666667,4,2,1,70,0,0
53192,-66.6666666666667,4,2,1,30,0,0
53516,-90.9090909090909,4,2,1,80,0,0
53597,-90.9090909090909,4,2,1,60,0,0
57732,-90.9090909090909,4,2,1,70,0,0
58381,-90.9090909090909,4,2,1,30,0,0
58705,-90.9090909090909,4,2,1,80,0,0
58746,-90.9090909090909,4,2,1,60,0,0
60975,-90.9090909090909,4,2,1,75,0,0
62921,-66.6666666666667,4,2,1,50,0,0
63570,-66.6666666666667,4,2,1,55,0,0
63894,-100,4,2,1,55,0,0
81732,-100,4,2,1,65,0,0
83030,-100,4,2,1,75,0,0
84327,-100,4,2,3,75,0,0
84489,-100,4,2,3,35,0,0
85625,-100,4,2,3,45,0,0
86922,-100,4,2,3,55,0,0
88057,-100,4,2,3,10,0,0
88219,-100,4,2,3,75,0,0
88867,-100,4,2,1,75,0,0
89192,-100,4,2,3,75,0,0
89273,-100,4,2,1,75,0,0
99894,-100,4,2,0,50,0,0
99975,-125,4,2,0,50,0,0
105084,-125,4,2,1,60,0,0
107678,-125,4,2,1,70,0,0
108975,-125,4,2,1,80,0,0
109624,-83.3333333333333,4,2,1,80,0,0
109948,-83.3333333333333,4,2,3,60,0,0
110273,-125,4,2,1,55,0,0
116759,-125,4,2,1,65,0,0
118057,-125,4,2,1,75,0,0
118705,-125,4,2,1,85,0,0
119354,-200,4,2,1,30,0,0
119597,-125,4,2,1,30,0,0
119678,-125,4,2,1,45,0,0
119840,-62.5,4,2,1,45,0,0
119921,-62.5,4,2,1,60,0,0
120084,-66.6666666666667,4,2,1,75,0,0
120327,-66.6666666666667,4,2,3,90,0,0
120409,-66.6666666666667,4,2,1,75,0,0
120651,-90.9090909090909,4,2,1,65,0,1
130381,-66.6666666666667,4,2,1,80,0,1
131030,-90.9090909090909,4,2,3,65,0,1
131354,-90.9090909090909,4,2,1,65,0,1
133624,-66.6666666666667,4,2,1,65,0,1
134921,-66.6666666666667,4,2,1,80,0,1
136057,-66.6666666666667,4,2,1,65,0,1
137597,-90.9090909090909,4,2,1,65,0,1
138813,-90.9090909090909,4,2,1,65,0,0
140192,-66.6666666666667,4,2,1,55,0,0
140759,-50,4,2,1,80,0,0
141408,-76.9230769230769,4,2,3,80,0,1
141490,-76.9230769230769,4,2,1,65,0,1
142786,-83.3333333333333,4,2,1,65,0,1
151138,-83.3333333333333,4,2,1,80,0,1
151786,-83.3333333333333,4,2,3,70,0,1
152111,-83.3333333333333,4,2,1,70,0,1
154381,-66.6666666666667,4,2,1,70,0,1
156975,-66.6666666666667,4,2,1,75,0,1
158273,-66.6666666666667,4,2,1,85,0,1
159408,-66.6666666666667,4,2,1,90,0,1
160867,-66.6666666666667,4,2,1,65,0,1
161516,-66.6666666666667,4,2,1,80,0,1
162165,-66.6666666666667,4,2,3,80,0,0
162327,-66.6666666666667,4,2,3,60,0,0
162975,-66.6666666666667,4,2,1,60,0,0
167354,-100,4,2,1,60,0,0
172543,-100,4,2,1,65,0,0
175138,-100,4,2,1,75,0,0
177732,-100,4,2,1,85,0,0
181948,-100,4,2,1,25,0,0
182111,-100,4,2,1,35,0,0
182273,-100,4,2,1,45,0,0
182435,-100,4,2,1,55,0,0
182597,-100,4,2,1,65,0,0
182759,-100,4,2,1,75,0,0
182921,-66.6666666666667,4,2,1,25,0,0
183246,-285.714285714286,4,2,3,80,0,0
183327,-285.714285714286,4,2,1,80,0,0
188597,-285.714285714286,4,2,3,5,0,0

[Colours]
Combo1 : 157,60,255
Combo2 : 228,228,228
Combo3 : 151,151,255

[HitObjects]
256,192,84,12,0,1138,0:0:0:0:
68,65,1300,5,6,3:2:0:0:
62,191,1462,1,2,0:2:0:0:
99,129,1624,1,2,0:2:0:0:
92,256,1786,1,2,0:2:0:0:
92,256,1867,1,0,0:2:0:0:
92,256,1948,1,2,0:2:0:0:
99,129,2111,5,2,3:2:0:0:
214,164,2273,1,0,0:2:0:0:
62,191,2435,1,6,3:2:0:0:
99,129,2597,1,2,0:2:0:0:
214,164,2759,5,6,3:2:0:0:
214,164,2840,1,0,0:0:0:0:
214,164,2921,1,2,0:2:0:0:
260,312,3084,1,2,0:2:0:0:
260,312,3165,1,0,0:2:0:0:
260,312,3246,1,2,0:2:0:0:
182,315,3408,5,2,3:2:0:0:
296,254,3570,1,2,0:2:0:0:
225,233,3732,1,2,3:2:0:0:
218,238,3813,1,0,3:2:0:0:
210,243,3894,5,6,3:2:0:0:
296,254,4057,1,2,0:2:0:0:
428,232,4219,1,2,0:2:0:0:
394,309,4381,1,2,0:2:0:0:
508,259,4543,1,2,0:2:0:0:
394,309,4705,1,2,3:2:0:0:
428,232,4867,1,2,0:2:0:0:
508,259,5030,1,6,3:2:0:0:
394,309,5192,1,2,0:2:0:0:
394,309,5354,6,0,L|311:313,1,60.3203981628418,6|2,3:2|0:2,0:0:0:0:
240,262,5678,1,2,0:2:0:0:
249,162,5840,1,2,3:2:0:0:
123,210,6002,1,2,3:2:0:0:
240,262,6165,1,2,3:2:0:0:
253,263,6246,1,0,3:2:0:0:
246,255,6327,1,2,3:2:0:0:
247,270,6408,1,0,0:0:0:0:
313,225,6489,6,0,P|325:262|317:300,1,60.3203981628418,6|2,0:2|0:2,0:0:0:0:
291,350,6813,1,2,0:2:0:0:
177,283,6975,6,0,P|165:246|173:208,1,60.3203981628418,2|2,0:2|0:2,0:0:0:0:
199,158,7300,1,2,3:2:0:0:
132,120,7462,1,2,0:2:0:0:
199,158,7624,5,6,3:2:0:0:
247,104,7786,1,2,0:2:0:0:
149,41,7948,1,6,3:2:0:0:
221,36,8111,1,2,0:2:0:0:
247,104,8273,1,2,0:2:0:0:
199,158,8435,5,2,0:2:0:0:
315,128,8597,1,2,3:2:0:0:
247,104,8759,1,2,0:2:0:0:
199,158,8921,1,2,3:2:0:0:
200,166,9002,1,0,3:2:0:0:
202,174,9084,5,6,3:2:0:0:
263,226,9246,2,0,P|297:224|340:211,2,60.3203981628417,2|2|2,0:2|0:2|0:2,0:0:0:0:
378,166,9732,1,2,0:2:0:0:
388,333,9894,1,2,3:2:0:0:
443,261,10057,1,2,0:2:0:0:
388,333,10219,1,6,3:2:0:0:
443,261,10381,1,2,0:2:0:0:
378,166,10543,5,6,3:2:0:0:
184,267,10786,1,4,3:2:0:0:
184,267,10867,1,2,0:2:0:0:
238,113,11030,1,6,3:2:0:0:
268,221,11192,6,0,L|279:201,2,15.0800995407105,2|0|0,0:2|0:2|0:2,0:2:0:0:
196,191,11354,1,6,3:2:0:0:
160,197,11435,1,0,3:2:0:0:
124,204,11516,1,2,3:2:0:0:
88,211,11597,1,0,3:2:0:0:
23,181,11678,6,0,B|53:151|53:151|108:141,1,86.1719999999998,6|2,3:2|0:2,0:0:0:0:
82,307,12002,1,2,0:2:0:0:
144,338,12165,2,0,B|114:368|114:368|61:376,1,86.1719999999998,2|2,0:2|0:2,0:0:0:0:
88,211,12489,1,2,3:2:0:0:
172,246,12651,1,2,0:2:0:0:
364,241,12813,5,6,3:2:0:0:
297,209,12975,1,2,0:2:0:0:
357,173,13138,1,6,3:2:0:0:
357,173,13219,1,0,0:0:0:0:
357,173,13300,1,2,0:2:0:0:
304,281,13462,1,2,0:2:0:0:
304,281,13543,1,0,0:2:0:0:
304,281,13624,5,2,0:2:0:0:
438,314,13786,1,2,3:2:0:0:
362,334,13948,1,2,0:2:0:0:
478,215,14111,1,2,3:2:0:0:
464,228,14192,1,0,3:2:0:0:
454,238,14273,6,0,L|365:247,1,86.1719999999998,6|2,3:2|0:2,0:0:0:0:
285,219,14597,1,2,0:2:0:0:
234,160,14759,2,0,P|272:139|322:151,1,86.1719999999998,2|2,0:2|0:2,0:0:0:0:
238,287,15084,1,2,3:2:0:0:
203,225,15246,1,2,0:2:0:0:
342,297,15408,1,6,3:2:0:0:
306,355,15570,1,2,0:2:0:0:
365,195,15732,6,0,L|459:201,1,86.1719999999998,6|2,3:2|0:2,0:0:0:0:
496,151,16057,1,2,0:2:0:0:
385,83,16219,1,2,3:2:0:0:
311,99,16381,1,2,3:2:0:0:
235,112,16543,1,2,3:2:0:0:
217,111,16624,1,0,3:2:0:0:
199,109,16705,1,2,3:2:0:0:
250,230,16867,5,6,3:2:0:0:
187,320,17030,1,2,3:2:0:0:
82,280,17192,1,2,3:2:0:0:
187,320,17354,1,2,3:2:0:0:
82,280,17516,1,2,3:2:0:0:
84,165,17678,1,2,3:2:0:0:
188,126,17840,1,2,3:2:0:0:
82,280,18002,5,6,3:2:0:0:
84,165,18165,1,2,3:2:0:0:
188,126,18327,1,6,3:2:0:0:
84,165,18489,1,2,3:2:0:0:
82,280,18651,1,2,3:2:0:0:
191,244,18813,1,2,3:2:0:0:
188,126,18975,1,2,3:2:0:0:
257,40,19138,1,2,3:2:0:0:
357,113,19300,1,2,3:2:0:0:
357,113,19381,1,0,3:2:0:0:
357,113,19462,6,0,L|358:166,3,43.0859999999999,6|0|2|0,3:2|3:2|3:2|3:2,0:0:0:0:
281,197,19786,2,0,P|299:220|311:242,1,43.0859999999999,2|0,3:2|3:2,0:0:0:0:
401,234,19948,2,0,P|412:216|426:200,1,43.0859999999999,2|0,3:2|3:2,0:0:0:0:
304,309,20111,1,2,3:2:0:0:
304,309,20192,1,0,3:2:0:0:
309,312,20273,2,0,P|283:326|263:346,1,43.086,2|0,3:2|3:2,0:0:0:0:
396,322,20435,2,0,P|422:336|442:356,3,43.0859999999999,2|0|2|0,3:2|3:2|3:2|3:2,0:0:0:0:
401,234,20759,5,6,3:2:0:0:
401,234,20921,1,6,3:2:0:0:
384,133,21084,5,2,0:2:0:0:
321,312,21246,1,2,0:2:0:0:
301,213,21408,1,2,0:2:0:0:
401,234,21570,1,2,0:2:0:0:
189,347,21732,6,0,L|111:342,1,64.6289999999999,10|0,0:2|0:0,0:0:0:0:
52,329,22057,6,0,B|91:275|91:275|208:282,1,172.344,2|2,3:2|3:2,0:0:0:0:
270,295,22543,1,2,0:2:0:0:
263,361,22705,1,2,3:2:0:0:
277,229,22867,2,0,B|321:237|321:237|336:277,1,86.1719999999998,2|2,0:2|3:2,0:0:0:0:
270,295,23192,1,2,0:2:0:0:
348,341,23354,6,0,B|389:325|389:325|405:261,1,86.1719999999998,2|2,3:2|0:2,0:0:0:0:
413,214,23678,1,2,3:2:0:0:
477,231,23840,1,2,0:2:0:0:
477,231,24165,1,2,0:2:0:0:
413,214,24327,1,2,3:2:0:0:
459,166,24489,1,2,0:2:0:0:
302,200,24651,6,0,L|202:191,1,86.1719999999998,2|2,3:2|0:2,0:0:0:0:
165,137,24975,1,2,3:2:0:0:
242,26,25138,2,0,L|342:35,1,86.1719999999998,2|2,0:2|3:2,0:0:0:0:
377,91,25462,1,2,0:2:0:0:
512,29,25624,2,0,L|426:36,1,86.1719999999998,2|2,3:2|0:2,0:0:0:0:
377,91,25948,5,2,3:2:0:0:
356,157,26111,1,2,0:2:0:0:
411,202,26273,2,0,P|444:176|487:175,1,86.1719999999998,2|2,3:2|0:2,0:0:0:0:
473,249,26597,1,2,3:2:0:0:
398,354,26759,1,2,0:2:0:0:
347,233,26921,1,2,3:2:0:0:
408,279,27084,1,2,0:2:0:0:
408,279,27246,5,2,3:2:0:0:
328,312,27408,1,2,0:2:0:0:
249,276,27570,1,2,3:2:0:0:
177,322,27732,1,2,0:2:0:0:
177,322,27894,1,2,3:2:0:0:
208,223,28057,2,0,P|248:208|289:220,1,86.1719999999998,2|2,0:2|3:2,0:0:0:0:
328,312,28381,1,2,0:2:0:0:
408,279,28543,6,0,L|418:194,1,86.1719999999998,2|2,3:2|0:2,0:0:0:0:
389,121,28867,1,2,3:2:0:0:
465,128,29030,1,2,0:2:0:0:
439,49,29192,1,2,3:2:0:0:
439,49,29273,1,0,0:0:0:0:
195,74,29435,1,0,0:0:0:0:
195,74,29516,1,2,3:2:0:0:
308,86,29678,5,2,0:2:0:0:
308,86,29759,1,0,0:0:0:0:
308,86,29840,2,0,L|292:138,2,43,2|0|2,3:2|0:0|0:2,0:0:0:0:
21,47,30165,1,2,3:2:0:0:
149,134,30327,2,0,L|131:219,1,86.0859999999999,2|2,0:2|3:2,0:0:0:0:
85,92,30651,1,2,0:2:0:0:
213,179,30813,2,0,L|195:264,1,86.0859999999999,2|2,3:2|0:2,0:0:0:0:
260,307,31138,5,2,3:2:0:0:
403,369,31300,1,2,0:2:0:0:
331,335,31462,1,2,3:2:0:0:
398,293,31624,1,2,0:2:0:0:
459,251,31786,1,10,0:2:0:0:
323,211,31948,1,10,0:2:0:0:
323,211,32273,1,2,0:2:0:0:
201,135,32435,6,0,P|204:94|250:44,1,94.7892028869628,6|2,3:2|0:2,0:0:0:0:
281,121,32759,1,10,0:2:0:0:
334,183,32921,2,0,P|296:201|230:186,1,94.7892028869628,2|2,0:2|3:2,0:0:0:0:
281,121,33246,1,2,0:2:0:0:
362,115,33408,1,10,0:2:0:0:
281,121,33570,1,2,0:2:0:0:
307,44,33732,6,0,P|341:67|361:132,1,94.7892028869628,2|2,3:2|0:2,0:0:0:0:
335,279,34057,1,10,0:2:0:0:
260,265,34219,1,2,0:2:0:0:
384,206,34381,1,2,3:2:0:0:
458,221,34543,1,2,0:2:0:0:
335,279,34705,1,10,0:2:0:0:
384,206,34867,1,2,0:2:0:0:
382,340,35030,6,0,P|335:357|278:333,1,94.7892028869628,2|2,3:2|0:2,0:0:0:0:
219,197,35354,1,10,0:2:0:0:
179,258,35516,2,0,L|192:370,1,94.7892028869628,2|2,0:2|3:2,0:0:0:0:
17,244,35840,1,2,0:2:0:0:
57,183,36002,2,0,L|44:71,1,94.7892028869628,10|2,0:2|0:2,0:0:0:0:
102,27,36327,5,2,3:2:0:0:
193,43,36489,1,2,0:2:0:0:
125,100,36651,1,10,0:2:0:0:
261,100,36813,1,2,0:2:0:0:
193,43,36975,1,2,3:2:0:0:
284,27,37138,1,2,0:2:0:0:
355,86,37300,2,0,L|339:187,1,94.7892028869628,10|2,0:2|0:2,0:0:0:0:
267,225,37624,5,2,3:2:0:0:
277,157,37786,1,2,0:2:0:0:
415,126,37948,2,0,L|399:227,1,94.7892028869628,10|2,0:2|0:2,0:0:0:0:
384,321,38273,1,2,3:2:0:0:
314,341,38435,2,0,L|328:247,1,94.7892028869628,2|10,0:2|0:2,0:0:0:0:
466,235,38759,1,2,0:2:0:0:
263,223,38921,6,0,P|293:186|339:180,1,94.7892028869628,2|2,3:2|0:2,0:0:0:0:
407,189,39246,1,10,0:2:0:0:
384,321,39408,2,0,L|271:307,1,94.7892028869628,2|2,0:2|3:2,0:0:0:0:
198,287,39732,1,2,0:2:0:0:
147,340,39894,2,0,L|34:326,1,94.7892028869628,10|2,0:2|0:2,0:0:0:0:
29,166,40219,5,2,3:2:0:0:
70,236,40381,1,2,0:2:0:0:
118,91,40543,1,10,0:2:0:0:
149,165,40705,2,0,L|130:273,1,94.7892028869628,2|2,0:2|3:2,0:0:0:0:
29,166,41030,1,2,0:2:0:0:
70,236,41192,2,0,L|51:344,1,94.7892028869628,10|2,0:2|0:2,0:0:0:0:
193,362,41516,5,2,3:2:0:0:
193,362,41597,1,0,0:2:0:0:
193,362,41678,1,2,0:2:0:0:
193,362,41759,1,0,0:2:0:0:
193,362,41840,5,2,0:2:0:0:
242,345,41921,1,0,0:2:0:0:
268,300,42002,1,2,0:2:0:0:
261,248,42084,1,0,0:2:0:0:
222,212,42165,6,0,P|220:198|222:184,2,23.6973007217407,2|0|0,0:2|0:2|0:2,0:2:0:0:
177,305,42327,2,0,P|175:319|177:333,2,23.6973007217406,0|0|0,0:2|0:2|0:2,0:0:0:0:
118,190,42489,2,0,P|118:175|122:162,2,23.6973007217406,2|0|0,0:2|0:2|0:2,0:2:0:0:
74,298,42651,2,0,P|70:311|70:325,2,23.6973007217406,0|0|0,0:2|0:2|0:2,0:0:0:0:
28,249,42813,6,0,L|129:256,1,94.7892028869628,6|0,3:2|0:2,0:0:0:0:
245,157,43138,2,0,L|139:153,1,94.7892028869628,8|0,0:2|0:2,0:0:0:0:
252,341,43462,1,0,3:2:0:0:
327,335,43624,2,0,L|421:330,1,94.7892028869628,0|8,0:2|0:2,0:0:0:0:
449,200,43948,1,2,0:2:0:0:
462,197,44030,1,2,0:2:0:0:
475,194,44111,6,0,B|471:139|471:139|481:96,1,94.7892028869628,2|0,3:2|0:2,0:0:0:0:
329,63,44435,1,8,0:2:0:0:
403,15,44597,2,0,B|407:70|407:70|397:113,1,94.7892028869628,2|0,0:2|3:2,0:0:0:0:
236,168,44921,2,0,B|227:129|227:129|231:74,1,94.7892028869628,2|8,0:2|0:2,0:0:0:0:
308,130,45246,1,2,0:2:0:0:
350,196,45408,6,0,B|354:251|354:251|344:294,1,94.7892028869628,0|0,3:2|0:2,0:0:0:0:
198,307,45732,1,8,0:2:0:0:
164,245,45894,2,0,P|200:234|259:271,1,94.7892028869628,0|0,0:2|3:2,0:0:0:0:
54,345,46219,2,0,B|36:307|36:307|53:245,1,94.7892028869628,2|8,0:2|0:2,0:0:0:0:
107,213,46543,1,2,0:2:0:0:
32,181,46705,5,2,3:2:0:0:
92,52,46867,2,0,B|110:90|110:90|93:152,1,94.7892028869628,2|8,0:2|0:2,0:0:0:0:
32,96,47192,1,2,0:2:0:0:
162,28,47354,2,0,L|259:39,1,94.7892028869628,2|2,3:2|0:2,0:0:0:0:
275,336,47678,2,0,L|181:346,1,94.7892028869628,10|2,0:2|0:2,0:0:0:0:
315,192,48002,5,0,3:2:0:0:
339,273,48165,1,0,0:2:0:0:
486,209,48327,2,0,B|422:201|422:201|396:214,1,94.7892028869628,8|0,0:2|0:2,0:0:0:0:
361,137,48651,1,0,3:2:0:0:
488,64,48813,2,0,B|423:72|423:72|397:59,1,94.7892028869628,0|8,0:2|0:2,0:0:0:0:
280,28,49138,1,2,0:2:0:0:
280,28,49219,1,2,0:2:0:0:
280,28,49300,6,0,P|293:75|270:123,1,94.7892028869628,2|0,3:2|0:2,0:0:0:0:
207,64,49624,1,8,0:2:0:0:
138,113,49786,2,0,P|121:69|134:24,1,94.7892028869628,2|0,0:2|3:2,0:0:0:0:
211,153,50111,1,2,0:2:0:0:
166,227,50273,1,8,0:2:0:0:
81,211,50435,1,2,0:2:0:0:
107,369,50597,5,0,3:2:0:0:
178,321,50759,1,0,0:2:0:0:
255,359,50921,1,8,0:2:0:0:
166,227,51084,2,0,L|178:325,1,94.7892028869628,0|0,0:2|3:2,0:0:0:0:
255,359,51408,1,2,0:2:0:0:
418,339,51570,5,8,0:2:0:0:
418,339,51732,1,2,0:2:0:0:
324,242,51894,1,4,3:2:0:0:
479,222,52057,1,0,0:2:0:0:
392,101,52219,1,8,0:2:0:0:
392,101,52381,1,0,0:2:0:0:
324,242,52543,6,0,B|287:260|287:260|229:256|229:256|167:286,1,129.25800492096,6|0,3:2|0:0,0:0:0:0:
118,177,52786,2,0,B|152:200|152:200|177:252|177:252|234:290,1,129.25800492096,4|0,3:2|0:0,0:0:0:0:
184,330,53030,2,0,L|205:256,1,64.6290024604796,4|0,3:2|0:0,0:0:0:0:
224,181,53192,5,0,3:2:0:0:
224,181,53516,2,0,L|252:87,1,94.7892028869628,8|0,0:2|0:2,0:0:0:0:
362,161,53840,1,0,3:2:0:0:
297,215,54002,2,0,L|325:306,1,94.7892028869628,0|8,0:2|0:2,0:0:0:0:
399,331,54327,1,2,0:2:0:0:
399,331,54408,1,2,0:2:0:0:
399,331,54489,6,0,B|350:300|294:333|314:344|268:368|218:347,1,189.578405773925,2|8,3:2|0:2,0:0:0:0:
213,247,54975,2,0,P|244:230|236:280,1,94.7892028869628,2|0,0:2|3:2,0:0:0:0:
150,288,55300,2,0,P|138:232|179:184,1,94.7892028869628,2|8,0:2|0:2,0:0:0:0:
213,247,55624,1,2,3:2:0:0:
22,321,55786,5,4,3:2:0:0:
150,288,55948,1,0,0:2:0:0:
58,189,56111,1,8,0:2:0:0:
79,262,56273,1,0,0:2:0:0:
79,262,56597,1,2,0:2:0:0:
213,246,56759,1,8,0:2:0:0:
150,288,56921,1,2,0:2:0:0:
126,123,57084,5,2,3:2:0:0:
180,59,57246,1,2,3:2:0:0:
99,43,57408,1,10,0:2:0:0:
221,126,57570,1,2,0:2:0:0:
238,134,57651,1,0,0:2:0:0:
254,142,57732,1,2,3:2:0:0:
271,150,57813,1,0,0:2:0:0:
288,157,57894,2,0,L|282:196,1,23.6973007217407,2|0,0:2|0:2,0:2:0:0:
304,164,57975,2,0,L|308:124,1,23.6973007217407,0|0,0:2|0:2,0:0:0:0:
322,174,58057,2,0,L|322:230,1,47.3946014434813,14|0,0:2|0:2,0:0:0:0:
472,102,58219,2,0,L|400:90,1,47.3946014434813,2|0,0:2|0:2,0:2:0:0:
322,174,58381,6,0,B|365:173|365:173|425:95,1,142.183804330444,4|0,3:2|0:0,0:0:0:0:
474,46,58705,2,0,B|431:47|431:47|371:125,1,142.183804330444,8|0,0:2|0:0,0:0:0:0:
306,110,59030,2,0,L|243:110,1,47.3946014434813,0|0,3:2|0:0,0:0:0:0:
186,105,59192,1,0,0:2:0:0:
186,105,59354,2,0,L|138:104,1,47.3000014434815,8|0,0:2|0:0,0:0:0:0:
59,105,59516,1,2,0:2:0:0:
59,105,59597,1,2,0:2:0:0:
59,105,59678,5,2,3:2:0:0:
69,255,59840,1,0,3:2:0:0:
69,255,60002,1,8,3:2:0:0:
213,324,60165,1,2,0:2:0:0:
222,307,60246,1,0,0:0:0:0:
217,287,60327,1,0,3:2:0:0:
225,272,60408,1,0,0:0:0:0:
219,246,60489,1,2,0:2:0:0:
142,341,60651,1,8,0:2:0:0:
275,366,60813,1,2,3:2:0:0:
479,303,60975,5,4,3:2:0:0:
387,197,61138,2,0,P|368:165|364:140,1,47.3946014434813,0|0,3:2|0:0,0:0:0:0:
438,143,61300,1,12,3:2:0:0:
303,204,61462,1,0,3:2:0:0:
263,138,61624,2,0,P|251:115|243:77,1,47.3946014434814,0|0,3:2|3:2,0:0:0:0:
327,96,61786,1,2,3:2:0:0:
324,114,61867,1,0,3:2:0:0:
320,132,61948,1,8,3:2:0:0:
316,150,62030,1,0,3:2:0:0:
312,168,62111,1,2,3:2:0:0:
308,186,62192,1,0,3:2:0:0:
303,204,62273,6,0,L|308:263,7,47.3112633482433,4|0|2|0|2|0|2|0,3:2|0:0|0:2|0:2|0:2|0:2|0:2|0:2,0:0:0:0:
305,279,62921,6,0,P|275:270|232:275,1,64.6290024604796,2|0,0:2|0:2,0:0:0:0:
139,361,63084,2,0,P|153:333|177:311,1,64.6290024604796,2|0,0:2|0:2,0:0:0:0:
180,241,63246,2,0,L|162:207,6,32.3145012302399,2|0|0|0|2|0|0,0:2|0:2|0:2|0:2|0:2|0:2|0:2,0:2:0:0:
246,344,63570,5,6,0:2:0:0:
246,344,63894,2,0,P|270:351|310:357,1,43.0859999999999,2|2,0:2|0:2,0:0:0:0:
269,201,64057,2,0,P|247:205|227:211,1,43.086,2|2,0:2|0:2,0:0:0:0:
277,271,64219,1,2,0:2:0:0:
309,283,64300,1,2,0:2:0:0:
339,266,64381,1,2,0:2:0:0:
373,266,64462,1,2,0:2:0:0:
400,286,64543,2,0,P|424:290|455:277,1,43.0859999999999,2|2,0:2|0:2,0:0:0:0:
420,206,64705,5,2,0:2:0:0:
411,197,64786,1,2,0:2:0:0:
401,206,64867,1,2,0:2:0:0:
411,216,64948,1,2,0:2:0:0:
485,211,65030,2,0,P|483:190|475:171,1,43.086,2|2,0:2|0:2,0:0:0:0:
379,277,65192,2,0,P|405:285|428:280,1,43.086,2|2,0:2|0:2,0:0:0:0:
352,159,65354,2,0,P|339:175|333:199,1,43.0859999999999,2|2,0:2|0:2,0:0:0:0:
265,196,65516,6,0,P|269:142|199:88,1,129.258,2|2,0:2|0:2,0:0:0:0:
198,162,65840,1,2,0:2:0:0:
195,187,65921,1,2,0:2:0:0:
202,210,66002,1,2,0:2:0:0:
195,236,66084,1,2,0:2:0:0:
185,263,66165,5,2,0:2:0:0:
185,263,66489,1,2,0:2:0:0:
117,297,66651,1,2,0:2:0:0:
30,118,66975,1,0,0:0:0:0:
98,152,67138,1,2,0:2:0:0:
32,193,67300,1,0,0:0:0:0:
98,152,67462,5,2,0:2:0:0:
32,193,67624,1,0,0:0:0:0:
30,118,67786,1,2,0:2:0:0:
176,151,67948,1,0,0:0:0:0:
98,152,68111,1,2,0:2:0:0:
228,88,68273,1,0,0:0:0:0:
176,151,68435,1,0,0:0:0:0:
232,10,68597,1,2,0:2:0:0:
176,151,68759,5,2,0:2:0:0:
176,151,69084,1,2,0:2:0:0:
173,163,69165,1,2,0:2:0:0:
169,175,69246,1,2,0:2:0:0:
164,187,69327,1,2,0:2:0:0:
148,214,69408,1,2,0:2:0:0:
173,215,69489,1,2,0:2:0:0:
197,223,69570,1,2,0:2:0:0:
217,238,69651,1,2,0:2:0:0:
232,258,69732,1,2,0:2:0:0:
148,359,69894,5,2,0:2:0:0:
148,359,69975,1,2,0:2:0:0:
148,359,70057,2,0,L|99:351,1,43.086,2|2,0:2|0:2,0:0:0:0:
36,245,70219,1,2,0:2:0:0:
36,245,70300,1,2,0:2:0:0:
36,245,70381,6,0,L|46:204,1,43.0859999999999,2|2,0:2|0:2,0:0:0:0:
29,319,70543,1,2,0:2:0:0:
111,209,70705,2,0,L|120:167,1,43.0859999999999,2|2,0:2|0:2,0:0:0:0:
103,282,70867,1,2,0:2:0:0:
176,300,71030,2,0,L|275:327,1,86.1719999999998,2|2,0:2|0:2,0:0:0:0:
465,252,71354,6,0,P|408:228|334:287,1,129.258,2|0,0:2|0:0,0:0:0:0:
335,277,71678,1,2,0:2:0:0:
293,214,71840,2,0,P|291:180|313:121,1,86.1719999999998,2|2,0:2|0:2,0:0:0:0:
324,293,72165,1,0,0:0:0:0:
251,271,72327,2,0,P|227:246|206:186,1,86.1719999999998,2|0,0:2|0:0,0:0:0:0:
358,267,72651,5,0,0:0:0:0:
379,193,72813,2,0,P|403:169|463:148,1,86.1719999999998,0|2,0:0|0:2,0:0:0:0:
358,267,73138,1,0,0:0:0:0:
307,206,73300,1,2,0:2:0:0:
387,113,73462,1,2,0:2:0:0:
379,193,73624,1,2,0:2:0:0:
317,134,73786,1,2,0:2:0:0:
326,56,73948,5,2,0:2:0:0:
246,92,74111,1,0,0:0:0:0:
234,97,74192,1,0,0:0:0:0:
221,101,74273,1,2,0:2:0:0:
127,39,74435,1,2,0:2:0:0:
125,26,74516,1,2,0:2:0:0:
124,6,74597,5,2,0:2:0:0:
140,25,74678,1,2,0:2:0:0:
144,50,74759,1,2,0:2:0:0:
141,75,74840,1,2,0:2:0:0:
132,99,74921,2,0,P|103:112|71:119,1,43.0859999999999,2|2,0:2|0:2,0:0:0:0:
27,208,75084,1,2,0:2:0:0:
31,210,75165,1,2,0:2:0:0:
35,211,75246,6,0,P|65:227|86:233,1,43.086,2|2,0:2|0:2,0:0:0:0:
142,241,75408,2,0,P|175:239|197:234,1,43.0859999999999,2|2,0:2|0:2,0:0:0:0:
247,215,75570,1,2,0:2:0:0:
341,145,75732,1,2,0:2:0:0:
231,88,75894,1,2,0:2:0:0:
231,88,76219,5,2,0:2:0:0:
221,120,76300,1,2,0:2:0:0:
220,154,76381,1,2,0:2:0:0:
230,186,76462,1,2,0:2:0:0:
247,215,76543,1,2,0:2:0:0:
479,262,76867,5,2,0:2:0:0:
475,278,76948,1,2,0:2:0:0:
470,294,77030,1,2,0:2:0:0:
418,222,77192,1,2,0:2:0:0:
402,292,77354,5,0,0:0:0:0:
347,243,77516,1,2,0:2:0:0:
203,354,77840,5,2,0:2:0:0:
269,317,78002,1,0,0:0:0:0:
136,260,78165,1,2,0:2:0:0:
68,230,78327,1,0,0:0:0:0:
225,194,78489,1,2,0:2:0:0:
291,157,78651,1,0,0:0:0:0:
224,114,78813,1,0,0:0:0:0:
224,114,78975,1,2,0:2:0:0:
224,114,79138,6,0,P|159:58|75:92,1,172.344,2|2,0:2|0:2,0:0:0:0:
30,198,79624,1,2,0:2:0:0:
45,204,79705,1,2,0:2:0:0:
61,210,79786,1,2,0:2:0:0:
77,214,79867,1,2,0:2:0:0:
93,219,79948,2,0,P|117:227|152:251,2,43.0859999999999,2|2|2,0:2|0:2|0:2,0:0:0:0:
186,298,80273,1,2,0:2:0:0:
202,293,80354,1,2,0:2:0:0:
218,289,80435,1,2,0:2:0:0:
234,284,80516,1,2,0:2:0:0:
250,279,80597,1,2,0:2:0:0:
266,275,80678,1,2,0:2:0:0:
282,270,80759,6,0,P|311:267|338:280,1,43.0859999999999,2|2,0:2|0:2,0:0:0:0:
431,327,80921,2,0,L|483:357,1,43.0859999999999,2|2,0:2|0:2,0:0:0:0:
391,263,81084,2,0,P|384:243|371:227,1,43.086,2|2,0:2|0:2,0:0:0:0:
341,367,81246,2,0,P|347:346|361:330,1,43.086,2|2,0:2|0:2,0:0:0:0:
454,253,81408,2,0,L|517:237,3,43.0859999999999,2|2|2|2,0:2|0:2|0:2|0:2,0:0:0:0:
370,226,81732,6,0,L|313:218,1,43,2|0,0:2|0:2,0:0:0:0:
197,189,81894,1,0,0:2:0:0:
204,193,81975,1,2,0:2:0:0:
211,197,82057,1,0,0:2:0:0:
218,201,82138,1,2,0:2:0:0:
224,206,82219,1,2,0:2:0:0:
231,210,82300,1,2,0:2:0:0:
128,201,82462,6,0,B|130:241|130:241|156:285,1,86.1719999999998,2|0,0:2|0:2,0:0:0:0:
234,298,82705,2,0,B|198:279|198:279|147:280,1,86.1719999999998,2|0,0:2|0:2,0:0:0:0:
97,342,82948,1,2,0:2:0:0:
97,342,83030,1,4,0:2:0:0:
97,342,83111,2,0,B|130:320|130:320|155:275,1,86.1719999999998,2|0,0:2|0:2,0:0:0:0:
224,256,83354,5,2,0:2:0:0:
239,249,83435,1,0,0:2:0:0:
254,242,83516,1,0,0:2:0:0:
269,236,83597,1,2,0:2:0:0:
291,224,83678,5,2,0:2:0:0:
272,207,83759,1,2,0:2:0:0:
250,194,83840,1,2,0:2:0:0:
229,179,83921,1,2,0:2:0:0:
200,160,84002,5,2,0:2:0:0:
228,142,84084,1,2,0:2:0:0:
258,126,84165,1,2,0:2:0:0:
287,109,84246,1,2,0:2:0:0:
316,92,84327,5,14,0:2:0:0:
256,192,84408,12,0,88057,0:2:0:0:
162,348,88219,5,0,1:2:0:0:
166,336,88300,1,0,1:2:0:0:
170,323,88381,1,0,1:2:0:0:
174,311,88462,1,0,1:2:0:0:
132,311,88543,5,0,1:2:0:0:
143,287,88624,1,0,1:2:0:0:
154,263,88705,1,0,1:2:0:0:
165,239,88786,1,0,1:2:0:0:
206,224,88867,5,2,1:2:0:0:
208,154,88948,2,0,P|173:131|131:134,1,86.1719999999998,2|0,1:2|1:2,0:0:0:0:
181,77,89192,2,0,P|206:111|208:154,1,86.1719999999998,10|0,1:2|1:2,0:0:0:0:
206,224,89435,1,2,1:2:0:0:
206,224,89516,1,14,1:2:0:0:
29,352,99894,5,2,0:2:0:0:
29,352,99975,2,0,B|63:328|63:328|103:333,1,68.9375999999999,2|0,0:2|0:0,0:0:0:0:
222,355,100219,2,0,B|188:331|188:331|148:336,1,68.9375999999998,2|0,0:2|0:0,0:0:0:0:
128,271,100462,1,2,0:2:0:0:
128,271,100705,1,2,0:2:0:0:
89,331,100867,1,2,0:2:0:0:
161,334,101030,1,2,0:2:0:0:
161,334,101111,2,0,L|190:308,1,34.4688,2|0,0:2|0:2,0:0:0:0:
161,334,101273,6,0,B|190:310|190:310|205:271,1,68.9375999999998,2|0,0:2|0:0,0:0:0:0:
68,240,101516,2,0,L|147:282,1,68.9375999999999,2|0,0:2|0:0,0:0:0:0:
172,216,101759,2,0,L|111:183,1,68.9375999999999,2|0,0:2|0:0,0:0:0:0:
40,166,102002,1,2,0:2:0:0:
122,53,102165,1,2,0:2:0:0:
200,92,102327,1,2,0:2:0:0:
200,92,102408,1,2,0:2:0:0:
200,92,102489,6,0,L|296:83,1,68.9375999999999,2|0,0:2|0:0,0:0:0:0:
326,38,102732,2,0,B|299:19|299:19|261:21,1,68.9375999999999,2|0,0:2|0:0,0:0:0:0:
259,151,102975,2,0,B|294:152|294:152|321:133,1,68.9375999999999,2|0,0:2|0:2,0:0:0:0:
442,88,103219,2,0,L|373:94,1,68.9375999999998,2|0,0:2|0:0,0:0:0:0:
379,160,103462,2,0,L|435:155,1,34.4687999999999,2|0,0:2|0:0,0:0:0:0:
362,33,103624,2,0,L|320:37,1,34.4687999999999,2|0,0:2|0:0,0:0:0:0:
259,151,103786,5,2,0:2:0:0:
286,229,103948,1,0,0:0:0:0:
292,221,104030,1,2,0:2:0:0:
371,268,104192,1,0,0:0:0:0:
371,255,104273,1,2,0:2:0:0:
460,237,104435,1,0,0:2:0:0:
455,229,104516,1,2,0:2:0:0:
491,154,104678,1,0,0:0:0:0:
480,154,104759,1,2,0:2:0:0:
447,72,104921,1,2,0:2:0:0:
435,78,105002,1,2,0:2:0:0:
399,76,105084,5,8,0:2:0:0:
327,47,105246,1,8,0:2:0:0:
341,122,105408,1,10,0:2:0:0:
358,143,105489,1,8,0:2:0:0:
384,149,105570,1,8,0:2:0:0:
407,215,105732,5,8,0:2:0:0:
358,143,105894,1,10,0:2:0:0:
337,224,106057,1,10,0:2:0:0:
341,250,106138,1,8,0:2:0:0:
360,269,106219,1,10,0:2:0:0:
297,327,106381,5,8,0:2:0:0:
371,334,106543,1,8,0:2:0:0:
253,264,106705,1,10,0:2:0:0:
226,269,106786,1,8,0:2:0:0:
199,275,106867,1,8,0:2:0:0:
327,257,107030,5,8,0:2:0:0:
253,264,107192,1,10,0:2:0:0:
371,194,107354,1,10,0:2:0:0:
398,199,107435,1,8,0:2:0:0:
425,205,107516,1,10,0:2:0:0:
299,153,107678,5,8,0:2:0:0:
272,161,107759,1,10,0:2:0:0:
245,167,107840,1,8,0:2:0:0:
218,174,107921,1,8,0:2:0:0:
192,182,108002,2,0,L|143:198,1,34.4687999999999,10|8,0:2|0:2,0:0:0:0:
106,135,108165,2,0,L|114:102,2,34.4688,10|8|8,0:2|0:2|0:2,0:0:0:0:
34,173,108408,2,0,L|9:150,2,34.4687999999999,10|8|8,0:2|0:2|0:2,0:0:0:0:
92,214,108651,1,10,0:2:0:0:
37,286,108813,1,10,0:2:0:0:
37,286,108894,1,10,0:2:0:0:
37,286,108975,5,12,0:2:0:0:
183,323,109138,1,12,0:2:0:0:
183,323,109624,6,0,L|319:340,1,103.406396850586,2|0,0:2|0:0,0:0:0:0:
299,270,109867,1,2,0:2:0:0:
299,270,109948,2,0,L|196:257,1,103.406396850586,12|2,0:2|0:2,0:0:0:0:
88,295,110273,6,0,L|17:314,1,68.9375999999998,8|0,0:2|0:0,0:0:0:0:
8,239,110516,1,0,0:0:0:0:
8,239,110597,2,0,L|75:222,1,68.9375999999999,10|0,0:2|0:0,0:0:0:0:
211,175,110921,2,0,L|145:158,1,68.9375999999999,8|0,0:2|0:0,0:0:0:0:
157,84,111165,1,0,0:0:0:0:
157,84,111246,2,0,L|224:102,1,68.9375999999999,10|0,0:2|0:0,0:0:0:0:
387,82,111570,6,0,P|382:48|361:22,1,68.9375999999999,8|0,0:2|0:0,0:0:0:0:
489,70,111813,1,0,0:0:0:0:
489,70,111894,2,0,P|477:101|450:122,1,68.9375999999999,10|0,0:2|0:0,0:0:0:0:
387,238,112219,2,0,P|391:271|412:297,1,68.9375999999998,8|0,0:2|0:0,0:0:0:0:
384,162,112543,1,10,0:2:0:0:
384,162,112705,1,8,0:2:0:0:
284,249,112867,6,0,P|295:217|322:196,1,68.9375999999999,8|0,0:2|0:0,0:0:0:0:
375,321,113111,1,0,0:0:0:0:
375,321,113192,2,0,L|290:316,1,68.9375999999998,10|0,0:2|0:0,0:0:0:0:
111,320,113516,2,0,L|196:315,1,68.9375999999999,8|0,0:2|0:0,0:0:0:0:
202,248,113759,1,0,0:0:0:0:
202,248,113840,2,0,P|190:216|163:195,1,68.9375999999999,10|0,0:2|0:0,0:0:0:0:
324,110,114165,5,8,0:2:0:0:
324,110,114327,1,8,0:2:0:0:
324,110,114489,1,10,0:2:0:0:
491,223,114732,1,10,0:2:0:0:
491,223,114813,1,8,0:2:0:0:
470,297,114975,1,8,0:2:0:0:
452,289,115057,1,8,0:2:0:0:
434,281,115138,1,10,0:2:0:0:
418,244,115219,1,8,0:2:0:0:
406,202,115300,1,8,0:2:0:0:
367,300,115462,5,8,0:2:0:0:
299,332,115624,1,8,0:2:0:0:
223,290,115786,1,10,0:2:0:0:
203,294,115867,1,8,0:2:0:0:
183,299,115948,1,8,0:2:0:0:
370,291,116111,5,8,0:2:0:0:
302,323,116273,1,8,0:2:0:0:
226,281,116435,1,10,0:2:0:0:
206,285,116516,1,8,0:2:0:0:
186,290,116597,1,8,0:2:0:0:
373,281,116759,6,0,P|377:265|386:239,1,34.4687999999999,8|2,0:2|0:2,0:0:0:0:
304,317,116921,2,0,P|303:286|303:268,1,34.4687999999999,8|0,0:2|0:0,0:0:0:0:
229,273,117084,1,10,0:2:0:0:
209,277,117165,1,8,0:2:0:0:
189,282,117246,1,8,0:2:0:0:
378,273,117408,6,0,P|382:257|391:231,1,34.4687999999999,8|2,0:2|0:2,0:0:0:0:
309,309,117570,2,0,P|308:278|308:260,1,34.4687999999999,8|0,0:2|0:0,0:0:0:0:
234,265,117732,1,10,0:2:0:0:
214,269,117813,1,8,0:2:0:0:
194,274,117894,2,0,P|174:281|156:292,1,34.4687999999999,8|2,0:2|0:2,0:0:0:0:
59,287,118057,5,8,0:2:0:0:
58,276,118138,1,8,0:2:0:0:
56,265,118219,1,8,0:2:0:0:
53,254,118300,1,8,0:2:0:0:
39,232,118381,1,8,0:2:0:0:
76,232,118462,1,8,0:2:0:0:
109,213,118543,1,8,0:2:0:0:
130,181,118624,1,8,0:2:0:0:
135,143,118705,6,0,P|109:130|81:125,1,34.4687999999999,8|8,0:2|0:2,0:0:0:0:
170,253,118867,2,0,P|186:247|201:238,1,34.4687999999999,8|8,0:2|0:2,0:0:0:0:
320,123,119030,2,0,P|303:128|288:137,1,34.4688,8|8,0:2|0:2,0:0:0:0:
330,260,119192,2,0,P|344:268|361:274,1,34.4688,8|8,0:2|0:2,0:0:0:0:
435,197,119354,6,0,L|479:192,1,43.0859999999999,0|0,0:2|0:0,0:0:0:0:
485,127,119597,6,0,L|417:135,1,68.9375999999999
410,72,119840,6,0,L|481:64,1,68.9375999999999,0|2,0:0|0:2,0:0:0:0:
262,166,120002,5,0,0:0:0:0:
252,177,120084,2,0,P|228:132|277:148,1,129.25800492096,2|0,0:2|0:0,0:0:0:0:
341,146,120327,2,0,P|319:89|189:80,1,193.88700738144,10|2,0:2|0:2,0:0:0:0:
151,119,120651,6,0,L|39:114,1,94.7892028869628,4|0,3:2|0:0,0:0:0:0:
29,193,120894,1,0,0:0:0:0:
24,185,120975,2,0,L|140:192,1,94.7892028869628,10|0,0:2|0:0,0:0:0:0:
249,330,121300,1,0,3:2:0:0:
339,277,121462,1,2,0:2:0:0:
426,333,121624,1,10,0:2:0:0:
462,213,121786,1,2,0:2:0:0:
444,215,121867,2,0,P|439:233|436:265,1,47.3946014434814,2|0,0:2|3:2,0:0:0:0:
404,199,122030,6,0,L|504:181,1,94.7892028869628,2|0,0:2|0:0,0:0:0:0:
405,131,122273,2,0,P|358:142|336:179,1,94.7892028869628,10|0,0:2|0:0,0:0:0:0:
348,246,122516,1,2,0:2:0:0:
348,246,122597,1,0,3:2:0:0:
231,116,122759,1,2,0:2:0:0:
156,158,122921,1,10,0:2:0:0:
77,51,123084,1,2,0:2:0:0:
65,56,123165,1,2,0:2:0:0:
16,80,123246,6,0,P|70:92|85:159,1,94.7892028869628,2|0,3:2|0:0,0:0:0:0:
156,119,123489,1,2,0:2:0:0:
163,113,123570,2,0,P|151:167|129:183,1,47.3946014434814,8|0,0:2|0:0,0:0:0:0:
96,206,123732,2,0,L|-3:199,1,94.7892028869628,2|0,0:2|3:2,0:0:0:0:
0,267,123975,2,0,L|94:273,1,94.7892028869628,2|0,0:2|0:0,0:0:0:0:
153,313,124219,2,0,P|162:287|162:260,1,47.3946014434813,10|0,0:2|0:0,0:0:0:0:
247,190,124381,2,0,P|256:216|256:243,1,47.3946014434814,2|0,0:2|0:0,0:0:0:0:
247,323,124543,6,0,B|296:312|296:312|356:329,1,94.7892028869628,2|0,3:2|0:0,0:0:0:0:
408,343,124786,1,2,0:2:0:0:
402,351,124867,2,0,L|402:295,1,47.3946014434814,8|0,0:2|0:0,0:0:0:0:
458,254,125030,2,0,B|409:265|409:265|349:248,1,94.7892028869628,2|0,0:2|3:2,0:0:0:0:
415,149,125273,2,0,L|412:204,1,47.3946014434813,2|0,0:2|0:0,0:0:0:0:
344,146,125435,1,0,0:0:0:0:
340,154,125516,2,0,P|335:111|349:86,1,47.3946014434814,10|0,0:2|0:0,0:0:0:0:
432,41,125678,1,2,0:2:0:0:
417,40,125759,2,0,P|440:32|477:33,1,47.3946014434814,2|0,0:2|3:2,0:0:0:0:
397,81,125921,6,0,P|367:47|300:52,1,94.7892028869628,2|0,0:2|0:0,0:0:0:0:
214,84,126165,2,0,P|256:69|312:107,1,94.7892028869628,10|0,0:2|0:0,0:0:0:0:
252,144,126408,1,2,0:2:0:0:
255,135,126489,2,0,P|242:164|236:205,1,47.3946014434814,0|0,3:2|0:0,0:0:0:0:
131,272,126651,2,0,P|124:249|114:228,1,47.3946014434814,2|0,0:2|0:0,0:0:0:0:
60,197,126813,2,0,L|107:193,1,47.3946014434814,10|0,0:2|0:0,0:0:0:0:
192,228,126975,1,2,0:2:0:0:
202,239,127057,2,0,P|217:266|218:287,1,47.3946014434813,2|0,0:2|3:2,0:0:0:0:
197,319,127219,6,0,P|232:289|279:282,1,94.7892028869628,2|0,0:2|0:0,0:0:0:0:
297,258,127462,2,0,P|340:274|369:311,1,94.7892028869628,10|0,0:2|0:0,0:0:0:0:
390,382,127705,1,2,0:2:0:0:
390,382,127786,1,0,3:2:0:0:
473,338,127948,1,2,0:2:0:0:
433,212,128111,1,10,0:2:0:0:
495,145,128273,1,2,0:2:0:0:
475,145,128354,2,0,P|465:118|470:95,1,47.3946014434814,2|0,0:2|3:2,0:0:0:0:
394,118,128516,6,0,P|418:87|480:86,1,94.7892028869628,2|0,0:2|0:0,0:0:0:0:
387,183,128759,2,0,P|356:176|337:155,1,47.3946014434814,10|0,0:2|0:0,0:0:0:0:
289,108,128921,2,0,L|263:198,1,94.7892028869628,2|0,0:2|3:2,0:0:0:0:
295,114,129165,2,0,L|269:24,1,94.7892028869628,2|0,0:2|0:0,0:0:0:0:
200,36,129408,2,0,L|217:88,1,47.3946014434814,10|0,0:2|0:0,0:0:0:0:
195,191,129570,2,0,L|212:139,1,47.3946014434814,2|2,0:2|0:2,0:0:0:0:
126,100,129732,1,0,3:2:0:0:
117,96,129813,2,0,P|139:119|102:111,1,94.7892028869628,2|0,0:2|0:0,0:0:0:0:
48,71,130057,2,0,P|38:92|41:136,1,47.3946014434813,10|0,0:2|0:2,0:0:0:0:
63,207,130219,1,2,0:2:0:0:
124,230,130300,1,2,0:2:0:0:
186,254,130381,6,0,L|329:239,1,129.25800492096,2|0,3:2|0:0,0:0:0:0:
291,318,130624,1,2,0:2:0:0:
297,324,130705,2,0,L|215:332,1,64.6290024604796,0|0,0:2|0:0,0:0:0:0:
364,292,130867,2,0,L|429:286,1,64.6290024604796,2|0,0:2|0:0,0:0:0:0:
479,209,131030,6,0,L|364:220,1,94.7892028869628,12|0,3:2|0:0,0:0:0:0:
260,215,131273,1,0,0:0:0:0:
267,222,131354,2,0,P|249:181|269:130,1,94.7892028869628,10|0,0:2|0:0,0:0:0:0:
213,175,131597,2,0,L|118:169,1,94.7892028869628,2|0,0:2|0:0,0:0:0:0:
54,164,131840,1,2,0:2:0:0:
103,63,132002,1,10,0:2:0:0:
54,164,132165,1,2,0:2:0:0:
57,182,132246,1,2,0:2:0:0:
60,200,132327,5,0,3:2:0:0:
29,249,132408,2,0,P|64:237|124:269,1,94.7892028869628,2|0,0:2|0:0,0:0:0:0:
156,319,132651,2,0,P|200:330|242:310,1,94.7892028869628,10|0,0:2|0:0,0:0:0:0:
295,242,132894,1,2,0:2:0:0:
290,251,132975,2,0,L|277:181,1,47.3946014434814,0|0,3:2|0:0,0:0:0:0:
299,90,133138,2,0,L|244:136,1,47.3946014434813,2|0,0:2|0:0,0:0:0:0:
163,167,133300,2,0,L|230:190,1,47.3946014434813,10|0,0:2|0:0,0:0:0:0:
340,159,133462,1,2,3:2:0:0:
404,146,133543,1,2,0:2:0:0:
468,131,133624,6,0,L|431:271,1,129.25800492096,6|0,3:2|0:0,0:0:0:0:
440,336,133867,2,0,L|403:196,1,129.25800492096,2|0,0:2|0:0,0:0:0:0:
304,125,134111,2,0,L|211:236,1,129.25800492096,6|0,3:2|0:2,0:0:0:0:
291,325,134354,2,0,L|198:213,1,129.25800492096,2|0,0:2|0:0,0:0:0:0:
162,157,134597,2,0,L|118:220,1,64.6290024604796,14|0,0:2|0:0,0:0:0:0:
151,259,134759,2,0,L|104:196,1,64.6290024604796,2|0,0:2|0:0,0:0:0:0:
74,151,134921,5,14,0:2:0:0:
236,331,135165,1,14,0:2:0:0:
441,203,135408,1,14,0:2:0:0:
294,13,135651,1,14,0:2:0:0:
368,297,135894,1,10,0:2:0:0:
388,133,136057,1,10,0:2:0:0:
385,149,136138,1,2,0:2:0:0:
381,167,136219,5,4,3:2:0:0:
306,197,136381,1,0,3:2:0:0:
231,226,136543,1,10,0:2:0:0:
231,226,136867,1,0,3:2:0:0:
123,155,137030,1,2,0:2:0:0:
35,288,137192,1,10,0:2:0:0:
175,347,137354,1,2,3:2:0:0:
193,350,137435,1,2,3:2:0:0:
211,356,137516,5,4,3:2:0:0:
277,344,137597,2,0,B|258:301|258:301|185:281,1,94.7892028869628,2|0,3:2|0:0,0:0:0:0:
140,269,137840,1,10,0:2:0:0:
35,288,138002,1,0,0:0:0:0:
29,296,138084,1,2,0:2:0:0:
22,305,138165,1,0,3:2:0:0:
24,192,138327,1,2,3:2:0:0:
24,192,138651,1,2,0:2:0:0:
109,216,138813,5,0,3:2:0:0:
143,137,138975,1,0,3:2:0:0:
189,255,139138,1,10,0:2:0:0:
155,334,139300,1,2,0:2:0:0:
250,336,139462,5,0,3:2:0:0:
256,323,139543,1,2,3:2:0:0:
261,310,139624,1,0,3:2:0:0:
267,297,139705,1,0,3:2:0:0:
302,296,139786,5,10,3:2:0:0:
308,283,139867,1,0,3:2:0:0:
313,270,139948,1,2,3:2:0:0:
318,257,140030,1,2,3:2:0:0:
295,196,140111,5,4,3:2:0:0:
363,183,140192,2,0,B|433:198|433:198|456:250,1,129.25800492096,2|0,1:2|1:2,0:0:0:0:
355,116,140435,2,0,L|419:127,1,64.6290024604796,10|0,1:2|1:2,0:0:0:0:
411,61,140597,1,2,1:2:0:0:
411,61,140678,1,2,1:2:0:0:
411,61,140759,6,0,B|346:50|346:50|314:62|314:62|241:50,1,172.343999999999,14|0,3:2|0:0,0:0:0:0:
251,117,141002,2,0,B|321:128|321:128|353:116|353:116|418:127,1,172.343999999999,14|0,0:2|0:0,0:0:0:0:
448,198,141246,2,0,L|352:181,1,86.1719999999998,14|0,0:2|0:0,0:0:0:0:
251,117,141408,6,0,L|258:232,1,112.023594882202,8|0,3:2|0:0,0:0:0:0:
263,298,141651,1,0,0:0:0:0:
263,298,141732,1,10,0:2:0:0:
186,260,141894,1,0,0:0:0:0:
171,264,141975,1,2,0:2:0:0:
156,268,142057,1,0,3:2:0:0:
77,234,142219,1,2,0:2:0:0:
64,162,142381,1,10,0:2:0:0:
152,108,142543,1,2,0:2:0:0:
166,113,142624,1,2,0:2:0:0:
180,118,142705,5,0,3:2:0:0:
251,114,142786,2,0,B|233:68|233:68|165:41,1,103.406396850586,2|0,0:2|0:0,0:0:0:0:
78,114,143030,2,0,B|96:160|96:160|164:187,1,103.406396850586,10|0,0:2|0:0,0:0:0:0:
221,179,143273,1,2,0:2:0:0:
221,179,143354,1,0,3:2:0:0:
397,57,143516,1,2,0:2:0:0:
298,26,143678,1,10,0:2:0:0:
335,166,143840,1,2,0:2:0:0:
334,150,143921,1,2,0:2:0:0:
333,133,144002,6,0,B|385:120|385:120|446:141,1,103.406396850586,2|0,3:2|0:0,0:0:0:0:
379,257,144246,1,2,0:2:0:0:
379,257,144327,2,0,L|382:183,1,51.7031984252928,8|0,0:2|0:0,0:0:0:0:
448,218,144489,2,0,L|443:327,1,103.406396850586,2|0,0:2|3:2,0:0:0:0:
374,360,144732,2,0,L|378:256,1,103.406396850586,2|0,0:2|0:0,0:0:0:0:
299,299,144975,2,0,L|249:291,1,51.7031984252928,10|0,0:2|0:0,0:0:0:0:
259,223,145138,2,0,L|322:233,1,51.7031984252928,2|0,0:2|0:0,0:0:0:0:
198,339,145300,6,0,P|176:284|199:236,1,103.406396850586,2|0,3:2|0:0,0:0:0:0:
181,169,145543,2,0,P|237:186|260:234,1,103.406396850586,2|0,0:2|0:0,0:0:0:0:
333,251,145786,2,0,P|289:291|236:286,1,103.406396850586,2|0,0:2|3:2,0:0:0:0:
329,174,146030,2,0,P|385:191|408:239,1,103.406396850586,2|0,0:2|0:0,0:0:0:0:
448,155,146273,2,0,L|499:146,1,51.7031984252928,10|0,0:2|0:0,0:0:0:0:
390,83,146435,1,2,0:2:0:0:
374,83,146516,1,2,0:2:0:0:
358,83,146597,5,0,3:2:0:0:
316,36,146678,2,0,L|326:180,1,103.406396850586,2|0,0:2|0:0,0:0:0:0:
372,180,146921,2,0,P|327:166|243:201,1,103.406396850586,10|0,0:2|0:0,0:0:0:0:
214,223,147165,2,0,L|229:326,1,103.406396850586,2|0,0:2|0:0,0:0:0:0:
233,350,147408,1,2,0:2:0:0:
298,302,147570,1,10,0:2:0:0:
214,223,147732,1,2,0:2:0:0:
198,225,147813,1,2,0:2:0:0:
182,227,147894,5,0,3:2:0:0:
122,202,147975,2,0,B|142:168|142:168|214:157,1,103.406396850586,2|0,0:2|0:0,0:0:0:0:
115,271,148219,2,0,P|79:262|65:240,1,51.7031984252928,10|0,0:2|0:0,0:0:0:0:
57,175,148381,1,0,0:0:0:0:
57,175,148462,2,0,L|107:82,1,103.406396850586,2|0,0:2|0:0,0:0:0:0:
105,84,148705,1,2,0:2:0:0:
186,97,148867,1,10,0:2:0:0:
281,24,149030,1,2,0:2:0:0:
296,27,149111,1,2,0:2:0:0:
311,30,149192,5,0,3:2:0:0:
370,77,149273,2,0,L|355:202,1,103.406396850586,2|0,0:2|0:0,0:0:0:0:
308,222,149516,2,0,P|292:196|296:160,1,51.7031984252928,10|0,0:2|0:0,0:0:0:0:
397,234,149678,2,0,P|419:206|413:142,1,103.406396850586,2|0,0:2|3:2,0:0:0:0:
370,77,149921,2,0,L|265:95,1,103.406396850586,2|0,0:2|0:0,0:0:0:0:
218,39,150165,2,0,P|199:64|198:91,1,51.7031984252928,10|0,0:2|0:0,0:0:0:0:
209,178,150327,1,2,0:2:0:0:
209,178,150408,2,0,L|154:180,1,51.7031984252928,2|0,0:2|3:2,0:0:0:0:
223,244,150570,6,0,P|256:229|275:161,1,103.406396850586,2|0,0:2|0:0,0:0:0:0:
209,178,150813,2,0,L|116:182,1,51.7031984252928,10|0,0:2|0:0,0:0:0:0:
66,108,150975,1,2,0:2:0:0:
66,108,151057,1,2,0:2:0:0:
66,108,151138,2,0,L|79:221,1,103.406396850586,2|0,3:2|0:0,0:0:0:0:
148,353,151381,2,0,L|136:250,1,103.406396850586,2|0,0:2|0:0,0:0:0:0:
77,210,151624,1,2,0:2:0:0:
209,264,151786,1,12,3:2:0:0:
209,264,151867,6,0,B|255:251|255:251|319:265,1,103.406396850586,2|0,0:2|0:0,0:0:0:0:
383,242,152111,2,0,B|354:203|354:203|293:189,1,103.406396850586,10|0,0:2|0:0,0:0:0:0:
230,180,152354,1,2,0:2:0:0:
230,180,152435,1,0,3:2:0:0:
302,349,152597,1,2,0:2:0:0:
416,356,152759,1,10,0:2:0:0:
480,219,152921,1,2,0:2:0:0:
483,200,153002,1,2,0:2:0:0:
443,147,153084,1,0,3:2:0:0:
458,123,153165,6,0,P|407:137|359:125,1,103.406396850586,2|0,0:2|0:0,0:0:0:0:
302,69,153408,2,0,B|293:41|315:22|315:22|328:46|313:76,1,103.199996850586,10|0,0:2|0:0,0:0:0:0:
249,116,153651,1,2,0:2:0:0:
244,124,153732,1,0,3:2:0:0:
155,77,153894,1,2,0:2:0:0:
214,24,154057,1,10,0:2:0:0:
171,159,154219,1,2,0:2:0:0:
174,173,154300,1,2,0:2:0:0:
185,208,154381,6,0,B|136:192|136:192|46:215,1,129.25800492096,14|0,3:2|0:0,0:0:0:0:
4,295,154624,2,0,L|129:263,1,129.25800492096,2|0,0:2|0:0,0:0:0:0:
187,316,154867,2,0,B|111:335|111:335|62:319,1,129.25800492096,14|0,0:2|0:2,0:0:0:0:
128,263,155111,2,0,B|202:245|202:245|256:277,1,129.25800492096,2|0,0:2|0:0,0:0:0:0:
281,329,155354,2,0,P|308:302|315:270,1,64.6290024604796,14|0,0:2|0:0,0:0:0:0:
340,159,155516,2,0,P|363:186|396:198,1,64.6290024604796,2|0,0:2|0:0,0:0:0:0:
509,155,155678,6,0,P|476:120|399:133,1,129.25800492096,14|0,3:2|0:0,0:0:0:0:
308,54,155921,2,0,P|294:100|343:160,1,129.25800492096,14|0,0:2|0:0,0:0:0:0:
367,255,156165,1,14,0:2:0:0:
367,255,156246,2,0,P|385:228|389:195,1,64.6290024604796,2|0,0:2|0:2,0:0:0:0:
274,168,156408,2,0,B|288:226|288:226|284:237|284:237|299:301,1,129.25800492096,14|0,0:2|0:0,0:0:0:0:
382,317,156651,2,0,L|365:250,1,64.6290024604796,14|0,0:2|0:0,0:0:0:0:
222,284,156813,2,0,L|238:347,1,64.6290024604796,14|0,0:2|0:0,0:0:0:0:
40,173,156975,6,0,L|25:236,1,64.6290024604796,0|2,3:2|0:2,0:0:0:0:
111,193,157138,2,0,L|95:255,1,64.6290024604796,0|0,3:2|0:0,0:0:0:0:
222,284,157300,2,0,L|238:347,1,64.6290024604796,10|0,3:2|0:0,0:0:0:0:
151,297,157462,2,0,L|168:359,1,64.5000024604798,0|2,3:2|0:2,0:0:0:0:
305,130,157624,2,0,L|290:68,1,64.6290024604796,0|0,3:2|0:0,0:0:0:0:
233,151,157786,2,0,L|215:88,1,64.6290024604796,2|0,3:2|0:0,0:0:0:0:
298,228,157948,2,0,L|361:244,1,64.6290024604796,10|0,3:2|0:0,0:0:0:0:
387,149,158111,1,2,3:2:0:0:
402,137,158192,1,2,0:2:0:0:
418,126,158273,6,0,L|399:199,1,64.6290024604796,4|2,3:2|0:2,0:0:0:0:
463,228,158435,2,0,L|444:301,1,64.6290024604796,0|0,3:2|0:0,0:0:0:0:
315,166,158597,2,0,L|296:239,1,64.6290024604796,10|0,3:2|0:0,0:0:0:0:
365,269,158759,2,0,L|346:342,1,64.5645024604797,0|2,3:2|0:2,0:0:0:0:
218,303,158921,2,0,L|145:284,1,64.6290024604796,0|0,3:2|0:0,0:0:0:0:
116,348,159084,2,0,L|68:332,2,32.3145012302399,2|0|0,3:2|0:0|0:0,0:0:0:0:
90,271,159246,1,10,3:2:0:0:
154,204,159408,1,2,3:2:0:0:
152,190,159489,1,2,3:2:0:0:
150,177,159570,6,0,L|70:198,3,64.6290024604797,0|2|0|0,3:2|3:2|3:2|3:2,0:0:0:0:
176,104,159894,1,10,3:2:0:0:
176,104,159975,2,0,L|113:87,2,64.6290024604797,0|0|2,3:2|3:2|3:2,0:0:0:0:
230,55,160219,5,0,3:2:0:0:
254,64,160300,1,0,3:2:0:0:
277,74,160381,1,2,3:2:0:0:
300,83,160462,1,0,3:2:0:0:
323,92,160543,1,10,3:2:0:0:
317,103,160624,1,0,3:2:0:0:
312,115,160705,1,2,3:2:0:0:
307,127,160786,1,0,3:2:0:0:
302,139,160867,5,0,1:2:0:0:
291,131,160948,2,0,L|310:233,1,64.6290024604796,2|0,1:2|1:2,0:0:0:0:
386,249,161111,1,0,1:2:0:0:
397,241,161192,2,0,L|378:343,1,64.6290024604796,2|0,1:2|1:2,0:0:0:0:
316,355,161354,1,2,1:2:0:0:
269,332,161435,1,2,1:2:0:0:
222,353,161516,6,0,L|190:374,4,32.3145012302399,2|0|0|0|0,0:2|0:0|0:2|0:0|0:2,0:0:0:0:
180,291,161759,1,2,0:2:0:0:
180,291,161840,2,0,L|154:309,2,32.3145012302399,0|0|0,0:2|0:0|0:2,0:0:0:0:
139,228,162002,2,0,L|112:245,2,32.3145012302399,2|0|0,0:2|0:0|0:2,0:0:0:0:
93,161,162165,5,14,3:2:0:0:
169,148,162327,1,2,0:2:0:0:
245,134,162489,1,2,0:2:0:0:
166,123,162651,5,2,0:2:0:0:
282,102,162813,1,2,0:2:0:0:
391,146,162975,1,2,3:2:0:0:
391,146,163300,5,6,3:2:0:0:
360,215,163462,1,2,0:2:0:0:
437,212,163624,1,6,3:2:0:0:
391,146,163786,1,2,0:2:0:0:
309,154,163948,1,2,0:2:0:0:
360,215,164111,1,2,0:2:0:0:
463,144,164273,1,2,3:2:0:0:
391,146,164435,1,2,0:2:0:0:
360,215,164597,5,2,3:2:0:0:
363,227,164678,1,0,3:2:0:0:
367,239,164759,1,6,3:2:0:0:
430,323,164921,1,2,0:2:0:0:
353,309,165084,1,2,0:2:0:0:
284,344,165246,1,2,0:2:0:0:
353,309,165408,1,2,0:2:0:0:
210,319,165570,1,2,3:2:0:0:
284,344,165732,1,2,0:2:0:0:
345,211,165894,5,6,3:2:0:0:
270,196,166057,1,2,0:2:0:0:
210,319,166219,1,6,3:2:0:0:
135,304,166381,1,2,0:2:0:0:
70,347,166543,1,2,0:2:0:0:
121,220,166705,5,2,3:2:0:0:
46,198,166867,1,2,3:2:0:0:
144,143,167030,1,2,3:2:0:0:
156,145,167111,1,0,3:2:0:0:
168,148,167192,1,2,3:2:0:0:
74,106,167354,6,0,P|105:76|160:77,1,86.1719999999998,6|2,0:2|0:2,0:0:0:0:
223,93,167678,1,2,0:2:0:0:
223,22,167840,6,0,P|264:33|291:81,1,86.1719999999998,2|2,0:2|0:2,0:0:0:0:
308,144,168165,1,2,3:2:0:0:
244,202,168327,1,2,0:2:0:0:
388,195,168489,1,6,3:2:0:0:
454,140,168651,1,2,0:2:0:0:
380,32,168813,1,6,3:2:0:0:
294,33,168975,1,2,0:2:0:0:
239,99,169138,5,2,0:2:0:0:
239,99,169219,1,0,0:2:0:0:
239,99,169300,1,2,0:2:0:0:
152,91,169462,1,2,3:2:0:0:
66,85,169624,1,2,0:2:0:0:
135,178,169786,1,2,3:2:0:0:
151,174,169867,1,0,3:2:0:0:
167,170,169948,5,6,3:2:0:0:
57,296,170111,1,2,0:2:0:0:
132,337,170273,1,2,0:2:0:0:
132,250,170435,1,2,0:2:0:0:
57,296,170597,1,2,0:2:0:0:
197,290,170759,1,2,3:2:0:0:
270,334,170921,1,2,0:2:0:0:
331,257,171084,1,6,3:2:0:0:
404,301,171246,1,2,0:2:0:0:
467,195,171408,5,6,3:2:0:0:
314,37,171651,1,4,3:2:0:0:
314,37,171732,1,2,0:2:0:0:
281,178,171894,1,6,3:2:0:0:
135,180,172057,2,0,L|108:152,2,21.543,2|0|0,0:2|0:2|0:2,0:2:0:0:
140,247,172219,1,6,3:2:0:0:
130,266,172300,1,0,3:2:0:0:
120,285,172381,1,2,3:2:0:0:
111,304,172462,1,0,3:2:0:0:
55,331,172543,6,0,B|96:319|96:319|154:340,1,86.1719999999998,6|2,3:2|0:2,0:0:0:0:
214,361,172867,2,0,B|255:373|255:373|313:352,1,86.1719999999998,10|2,0:2|0:2,0:0:0:0:
377,265,173192,1,10,0:2:0:0:
377,265,173273,1,0,0:0:0:0:
377,265,173354,1,2,3:2:0:0:
466,215,173516,1,10,0:2:0:0:
377,265,173678,1,6,3:2:0:0:
293,207,173840,6,0,L|305:112,1,86.1719999999998,10|6,0:2|3:2,0:0:0:0:
252,44,174084,1,0,0:0:0:0:
252,44,174165,2,0,L|242:115,1,43.086,10|0,0:2|0:0,0:0:0:0:
179,70,174327,2,0,L|188:12,1,43.0859999999999,2|0,0:2|0:2,0:0:0:0:
113,97,174489,1,10,0:2:0:0:
39,68,174651,1,2,3:2:0:0:
98,22,174813,1,10,0:2:0:0:
48,142,174975,1,2,3:2:0:0:
51,154,175057,1,0,3:2:0:0:
53,166,175138,5,14,3:2:0:0:
110,217,175300,1,2,0:2:0:0:
30,262,175462,2,0,L|55:346,1,86.1719999999998,10|2,0:2|0:2,0:0:0:0:
123,374,175786,1,10,0:2:0:0:
110,217,175948,1,2,3:2:0:0:
203,329,176111,1,10,0:2:0:0:
191,240,176273,1,6,3:2:0:0:
321,240,176435,5,10,0:2:0:0:
309,329,176597,1,6,3:2:0:0:
410,216,176759,1,10,0:2:0:0:
466,299,176921,1,2,0:2:0:0:
397,376,177084,1,10,3:2:0:0:
410,216,177246,1,2,3:2:0:0:
321,240,177408,1,10,3:2:0:0:
308,244,177489,1,0,3:2:0:0:
295,248,177570,1,2,3:2:0:0:
222,304,177732,5,14,3:2:0:0:
136,316,177894,1,2,3:2:0:0:
18,241,178057,1,10,3:2:0:0:
104,229,178219,1,2,3:2:0:0:
146,153,178381,1,10,3:2:0:0:
123,70,178543,1,2,3:2:0:0:
208,58,178705,1,10,3:2:0:0:
201,218,178867,1,6,3:2:0:0:
235,139,179030,5,10,3:2:0:0:
146,153,179192,1,6,3:2:0:0:
291,211,179354,1,10,3:2:0:0:
380,197,179516,1,2,3:2:0:0:
323,125,179678,1,10,3:2:0:0:
310,37,179840,1,2,3:2:0:0:
380,197,180002,1,10,3:2:0:0:
347,282,180165,1,2,3:2:0:0:
342,293,180246,1,0,3:2:0:0:
336,304,180327,5,14,3:2:0:0:
303,294,180408,1,0,3:2:0:0:
268,292,180489,1,2,3:2:0:0:
237,307,180570,1,0,3:2:0:0:
210,328,180651,1,10,3:2:0:0:
177,340,180732,1,0,3:2:0:0:
143,330,180813,1,2,3:2:0:0:
115,309,180894,1,0,3:2:0:0:
96,280,180975,6,0,P|89:252|95:227,1,43.0859999999999,10|0,3:2|3:2,0:0:0:0:
44,181,181138,2,0,P|68:165|94:163,1,43.086,2|0,3:2|3:2,0:0:0:0:
120,80,181300,2,0,P|142:98|151:122,1,43.086,10|0,3:2|3:2,0:0:0:0:
235,136,181462,2,0,P|224:162|204:179,1,43.0859999999999,2|0,3:2|3:2,0:0:0:0:
213,258,181624,2,0,P|184:256|162:242,1,43.0859999999999,14|0,3:2|0:0,0:0:0:0:
102,228,181786,5,6,3:2:0:0:
113,224,181867,1,0,0:2:0:0:
123,221,181948,1,2,0:2:0:0:
133,217,182030,1,0,0:2:0:0:
144,213,182111,1,2,0:2:0:0:
154,210,182192,1,0,0:2:0:0:
165,206,182273,6,0,P|149:190|135:181,1,21.5429999999999,2|0,0:2|0:0,0:0:0:0:
165,206,182354,2,0,P|165:183|161:167,1,21.7866666666666,0|0,0:2|0:0,0:0:0:0:
165,206,182435,2,0,P|181:190|190:176,1,21.7866666666666,2|0,0:2|0:0,0:0:0:0:
165,206,182516,2,0,P|187:206|203:202,1,21.7866666666666,0|0,0:2|0:0,0:0:0:0:
165,206,182597,2,0,P|181:222|195:231,1,21.543,2|0,0:2|0:0,0:0:0:0:
165,206,182678,2,0,P|165:228|168:244,1,21.543,0|0,0:2|0:0,0:0:0:0:
165,206,182759,2,0,P|149:222|140:236,1,21.543,2|0,0:2|0:0,0:0:0:0:
165,206,182840,2,0,P|181:222|195:231,1,21.543,0|0,0:2|0:0,0:0:0:0:
165,206,182921,6,0,B|222:186|222:186|254:205|254:205|305:191|305:191|261:149,1,193.88700738144,0|0,3:2|0:0,0:0:0:0:
273,161,183246,6,0,B|232:121|232:121|239:85|236:46|236:46|267:69|305:79|305:79|316:131|316:131|351:92|351:92|391:93|425:88|425:88|411:117|400:159|400:159|347:176|347:176|390:214|390:214|383:249|385:283|385:283|351:265|320:259|320:259|304:207|304:207|275:197|275:197|253:246|211:260|211:260|261:299|255:357,1,993.430403020223,12|0,3:2|0:0,0:0:0:0:
