osu file format v14

[General]
AudioFilename: audio.mp3
AudioLeadIn: 0
PreviewTime:120651
Countdown: 0
SampleSet: Soft
StackLeniency: 0.4
Mode: 0
LetterboxInBreaks: 0
WidescreenStoryboard: 0

[Editor]
DistanceSpacing: 0.4
BeatDivisor: 4
GridSize: 16
TimelineZoom: 1.599999

[Metadata]
Title:Sthenno
TitleUnicode:Sthenno
Artist:BlackY
ArtistUnicode:BlackY
Creator:Rtyzen
Version:HYPER
Source:
Tags:Comiket C95 pleiades C97 GABRiELLA electronic instrumental beatfloor Rumia- Emilia neonat Ayucchi
BeatmapID:2157174
BeatmapSetID:991780

[Difficulty]
HPDrainRate:5
CircleSize:3.7
OverallDifficulty:7.3
ApproachRate:8.5
SliderMultiplier:1.8
SliderTickRate:1

[Events]
//Background and Video events
0,0,"bg.jpg",0,0
//Break Periods
2,89716,99219
//Storyboard Layer 0 (Background)
//Storyboard Layer 1 (Fail)
//Storyboard Layer 2 (Pass)
//Storyboard Layer 3 (Foreground)
//Storyboard Layer 4 (Overlay)
//Storyboard Sound Samples

[TimingPoints]
3,324.324324324324,4,2,1,60,1,0
1300,-125,4,2,1,60,0,0
21084,-125,4,2,1,20,0,0
21732,-125,4,2,3,60,0,0
21894,-125,4,2,3,30,0,0
22057,-142.857142857143,4,2,1,35,0,0
32435,-142.857142857143,4,2,1,45,0,0
35030,-142.857142857143,4,2,1,50,0,0
37624,-142.857142857143,4,2,1,55,0,0
40219,-142.857142857143,4,2,1,65,0,0
41516,-142.857142857143,4,2,1,75,0,0
42165,-142.857142857143,4,2,1,80,0,0
42813,-125,4,2,1,60,0,0
52543,-125,4,2,1,70,0,0
53192,-125,4,2,1,30,0,0
53516,-125,4,2,1,80,0,0
53597,-125,4,2,1,60,0,0
57732,-125,4,2,1,70,0,0
58381,-125,4,2,1,30,0,0
58705,-125,4,2,1,80,0,0
58746,-125,4,2,1,60,0,0
60975,-125,4,2,1,75,0,0
62921,-125,4,2,1,50,0,0
63570,-125,4,2,1,55,0,0
81732,-125,4,2,1,65,0,0
83030,-125,4,2,1,75,0,0
84327,-125,4,2,3,75,0,0
84489,-125,4,2,3,35,0,0
85625,-125,4,2,3,45,0,0
86922,-125,4,2,3,55,0,0
88057,-125,4,2,3,10,0,0
88219,-125,4,2,3,75,0,0
88867,-125,4,2,1,75,0,0
89192,-125,4,2,3,75,0,0
89273,-125,4,2,1,75,0,0
89516,-125,4,2,1,75,0,0
99894,-153.846153846154,4,2,0,50,0,0
105084,-153.846153846154,4,2,1,60,0,0
107678,-153.846153846154,4,2,1,70,0,0
108975,-153.846153846154,4,2,1,80,0,0
109948,-153.846153846154,4,2,3,60,0,0
110273,-153.846153846154,4,2,1,55,0,0
116759,-117.647058823529,4,2,1,65,0,0
118057,-117.647058823529,4,2,1,75,0,0
118705,-153.846153846154,4,2,1,85,0,0
119354,-153.846153846154,4,2,1,30,0,0
119678,-153.846153846154,4,2,1,45,0,0
119921,-153.846153846154,4,2,1,60,0,0
120084,-153.846153846154,4,2,1,75,0,0
120327,-153.846153846154,4,2,3,90,0,0
120409,-153.846153846154,4,2,1,75,0,0
120651,-100,4,2,1,65,0,1
130381,-100,4,2,1,80,0,1
131030,-100,4,2,3,65,0,1
131354,-100,4,2,1,65,0,1
133624,-83.3333333333333,4,2,1,65,0,1
134921,-83.3333333333333,4,2,1,80,0,1
136057,-83.3333333333333,4,2,1,65,0,1
136543,-100,4,2,1,65,0,1
138813,-100,4,2,1,65,0,0
140192,-100,4,2,1,55,0,0
140759,-83.3333333333333,4,2,1,80,0,0
141408,-100,4,2,3,80,0,1
141490,-100,4,2,1,65,0,1
151138,-100,4,2,1,80,0,1
151786,-100,4,2,3,70,0,1
152111,-100,4,2,1,70,0,1
154381,-83.3333333333333,4,2,1,70,0,1
156975,-83.3333333333333,4,2,1,75,0,1
158273,-83.3333333333333,4,2,1,85,0,1
159408,-83.3333333333333,4,2,1,90,0,1
160867,-83.3333333333333,4,2,1,65,0,1
161516,-83.3333333333333,4,2,1,80,0,1
162165,-83.3333333333333,4,2,3,80,0,0
162327,-83.3333333333333,4,2,3,60,0,0
162975,-125,4,2,1,60,0,0
172543,-100,4,2,1,65,0,0
175138,-100,4,2,1,75,0,0
177732,-100,4,2,1,85,0,0
181948,-100,4,2,1,25,0,0
182111,-100,4,2,1,35,0,0
182273,-100,4,2,1,45,0,0
182435,-100,4,2,1,55,0,0
182597,-100,4,2,1,65,0,0
182759,-100,4,2,1,75,0,0
182921,-100,4,2,1,25,0,0
183246,-100,4,2,3,80,0,0
183327,-100,4,2,1,80,0,0
188597,-100,4,2,3,5,0,0

[Colours]
Combo1 : 157,60,255
Combo2 : 228,228,228
Combo3 : 151,151,255

[HitObjects]
54,47,1300,6,0,P|109:47|145:80,1,72.1439999999998,6|2,3:2|0:2,0:0:0:0:
196,141,1624,2,0,L|186:232,1,72.1439999999998,2|2,0:2|0:2,0:0:0:0:
188,212,1867,1,0,0:2:0:0:
188,212,1948,1,2,0:2:0:0:
356,53,2111,2,0,P|301:53|265:86,1,72.1439999999998,2|0,3:2|0:2,0:0:0:0:
188,212,2435,6,0,L|203:68,1,144.288,6|6,3:2|3:2,0:0:0:0:
340,208,2921,2,0,L|332:136,1,72.1439999999998,2|2,0:2|0:2,0:0:0:0:
258,332,3246,2,0,L|265:260,1,72.1439999999998,2|2,0:2|3:2,0:0:0:0:
359,364,3570,1,2,0:2:0:0:
445,307,3732,1,2,3:2:0:0:
445,307,3813,1,0,3:2:0:0:
445,307,3894,6,0,P|421:246|390:226,1,72.1439999999998,6|2,3:2|0:2,0:0:0:0:
317,169,4219,2,0,L|232:178,1,72.1439999999998,2|2,0:2|0:2,0:0:0:0:
245,176,4462,1,0,0:0:0:0:
245,176,4543,1,2,0:2:0:0:
422,51,4705,2,0,P|404:114|375:137,1,72.1439999999998,2|2,3:2|0:2,0:0:0:0:
245,176,5030,6,0,L|75:194,1,144.288,6|6,3:2|3:2,0:0:0:0:
263,306,5516,2,0,L|178:297,1,72.1439999999998,2|2,0:2|0:2,0:0:0:0:
317,122,5840,1,2,3:2:0:0:
323,226,6002,1,2,3:2:0:0:
411,169,6165,2,0,L|458:163,2,36.072,2|0|2,3:2|3:2|3:2,0:0:0:0:
373,301,6489,6,0,P|326:317|280:300,1,72.1439999999998,6|2,0:2|0:2,0:0:0:0:
104,220,6813,2,0,P|151:204|197:221,1,72.1439999999998,2|2,0:2|0:2,0:0:0:0:
172,207,7057,1,0,0:2:0:0:
172,207,7138,1,2,0:2:0:0:
218,375,7300,2,0,L|220:291,1,72.1439999999998,2|2,3:2|0:2,0:0:0:0:
231,133,7624,6,0,B|295:125|295:125|301:127|301:127|404:116,1,144.288,6|6,3:2|3:2,0:0:0:0:
366,298,8111,2,0,P|339:259|344:221,1,72.1439999999998,2|2,0:2|0:2,0:0:0:0:
512,153,8435,2,0,P|491:195|456:210,1,72.1439999999998,2|2,0:2|3:2,0:0:0:0:
373,119,8759,1,2,0:2:0:0:
466,300,8921,1,2,3:2:0:0:
466,300,9002,1,0,3:2:0:0:
466,300,9084,6,0,L|464:381,1,72.1439999999998,6|2,3:2|0:2,0:0:0:0:
254,267,9408,2,0,P|240:224|266:181,1,72.1439999999998,2|2,0:2|0:2,0:0:0:0:
247,199,9651,1,0,0:0:0:0:
247,199,9732,1,2,0:2:0:0:
379,364,9894,2,0,P|352:339|317:335,1,72.1439999999998,2|2,3:2|0:2,0:0:0:0:
182,137,10219,2,0,P|208:112|243:108,1,72.1439999999998,6|2,3:2|0:2,0:0:0:0:
382,216,10543,6,0,L|248:204,2,108.216,6|4|6,3:2|3:2|3:2,0:0:0:0:
466,125,11192,2,0,L|431:131,1,36.072,2|0,0:2|0:2,0:2:0:0:
460,207,11354,2,0,L|495:201,3,36.072,6|0|2|0,3:2|3:2|3:2|3:2,0:0:0:0:
508,198,11678,6,0,L|499:287,1,72.1439999999998,6|2,3:2|0:2,0:0:0:0:
340,79,12002,2,0,L|349:168,1,72.1439999999998,2|2,0:2|0:2,0:0:0:0:
347,150,12246,1,0,0:2:0:0:
347,150,12327,1,2,0:2:0:0:
249,274,12489,2,0,P|288:258|305:223,1,72.1439999999998,2|2,3:2|0:2,0:0:0:0:
347,150,12813,6,0,L|365:328,1,144.288,6|6,3:2|3:2,0:0:0:0:
241,345,13300,2,0,L|248:273,1,72.1439999999998,2|2,0:2|0:2,0:0:0:0:
439,226,13624,2,0,L|431:154,1,72.1439999999998,2|2,0:2|3:2,0:0:0:0:
237,88,13948,1,2,0:2:0:0:
328,35,14111,1,2,3:2:0:0:
328,35,14192,1,0,3:2:0:0:
328,35,14273,6,0,P|380:56|417:49,1,72.1439999999998,6|2,3:2|0:2,0:0:0:0:
170,142,14597,2,0,P|118:163|81:156,1,72.1439999999998,2|2,0:2|0:2,0:0:0:0:
103,162,14840,1,0,0:0:0:0:
103,162,14921,1,2,0:2:0:0:
313,209,15084,2,0,P|365:188|402:195,1,72.1439999999998,2|2,3:2|0:2,0:0:0:0:
512,304,15408,6,0,L|348:277,1,144.288,6|6,3:2|3:2,0:0:0:0:
227,227,15894,2,0,L|145:240,1,72.1439999999998,2|2,0:2|0:2,0:0:0:0:
294,55,16219,1,2,3:2:0:0:
279,162,16381,1,2,3:2:0:0:
294,55,16543,2,0,L|299:-2,2,36.072,2|0|2,3:2|3:2|3:2,0:0:0:0:
512,151,16867,6,0,P|464:166|432:202,1,72.1439999999998,6|2,3:2|3:2,0:0:0:0:
404,100,17192,2,0,P|369:136|360:184,1,72.1439999999998,2|2,3:2|3:2,0:0:0:0:
284,109,17516,2,0,P|272:158|288:203,1,72.1439999999998,2|2,3:2|3:2,0:0:0:0:
184,176,17840,2,0,P|199:224|235:255,1,72.1439999999998,2|6,3:2|3:2,0:0:0:0:
320,270,18165,6,0,L|400:264,1,72.1439999999998,2|6,3:2|3:2,0:0:0:0:
184,176,18489,2,0,L|104:182,1,72.1439999999998,2|2,3:2|3:2,0:0:0:0:
312,148,18813,2,0,L|306:68,1,72.1439999999998,2|2,3:2|3:2,0:0:0:0:
218,284,19138,2,0,L|224:364,1,72.1439999999998,2|2,3:2|3:2,0:0:0:0:
126,169,19462,6,0,L|129:129,3,36.072,6|0|2|0,3:2|3:2|3:2|3:2,0:0:0:0:
203,124,19786,2,0,L|200:84,3,36.072,2|0|2|0,3:2|3:2|3:2|3:2,0:0:0:0:
280,169,20111,2,0,L|277:129,3,36.072,2|0|2|0,3:2|3:2|3:2|3:2,0:0:0:0:
353,113,20435,2,0,L|356:73,3,36.072,2|0|2|0,3:2|3:2|3:2|3:2,0:0:0:0:
417,172,20759,5,6,3:2:0:0:
417,172,20921,1,6,3:2:0:0:
256,192,21002,12,10,21732,0:2:0:0:
36,94,22057,6,0,L|27:25,2,63.1259980773924,2|2|2,3:2|0:2|3:2,0:0:0:0:
125,155,22543,2,0,L|134:86,2,63.1259980773924,2|2|2,0:2|3:2|0:2,0:0:0:0:
218,87,23030,2,0,L|209:18,1,63.1259980773924,2|2,3:2|0:2,0:0:0:0:
287,164,23354,5,2,3:2:0:0:
303,71,23516,1,2,0:2:0:0:
379,163,23678,2,0,L|388:94,1,63.1259980773924,2|2,3:2|0:2,0:0:0:0:
481,139,24002,1,2,3:2:0:0:
414,13,24165,1,2,0:2:0:0:
481,139,24327,2,0,L|472:70,1,63.1259980773924,2|2,3:2|0:2,0:0:0:0:
445,214,24651,6,0,P|439:258|449:292,2,63.1259980773924,2|2|2,3:2|0:2|3:2,0:0:0:0:
359,293,25138,2,0,P|375:334|401:358,2,63.1259980773924,2|2|2,0:2|3:2|0:2,0:0:0:0:
302,209,25624,2,0,P|274:244|266:278,1,63.1259980773924,2|2,3:2|0:2,0:0:0:0:
235,362,25948,5,2,3:2:0:0:
193,221,26111,1,2,0:2:0:0:
235,362,26273,2,0,P|218:320|192:296,1,63.1259980773924,2|2,3:2|0:2,0:0:0:0:
58,274,26597,2,0,P|101:280|136:269,1,63.1259980773924,2|2,3:2|0:2,0:0:0:0:
226,168,26921,2,0,P|198:203|190:237,1,63.1259980773924,2|2,3:2|0:2,0:0:0:0:
26,44,27246,6,0,L|104:50,1,63.1259980773924,2|2,3:2|0:2,0:0:0:0:
176,56,27570,1,2,3:2:0:0:
64,142,27732,2,0,L|142:136,2,63.1259980773924,2|2|2,0:2|3:2|0:2,0:0:0:0:
17,231,28219,2,0,L|95:237,1,63.1259980773924,2|2,3:2|0:2,0:0:0:0:
236,269,28543,6,0,L|158:275,1,63.1259980773924,2|2,3:2|0:2,0:0:0:0:
8,311,28867,2,0,L|86:317,1,63.1259980773924,2|2,3:2|0:2,0:0:0:0:
173,273,29192,1,2,3:2:0:0:
160,180,29354,1,2,0:2:0:0:
70,315,29516,1,2,3:2:0:0:
83,222,29678,1,2,0:2:0:0:
173,273,29840,6,0,L|235:268,1,63.1259980773924,2|2,3:2|0:2,0:0:0:0:
331,260,30165,1,2,3:2:0:0:
316,125,30327,2,0,P|291:164|295:197,1,63.1259980773924,2|2,0:2|3:2,0:0:0:0:
412,313,30651,1,2,0:2:0:0:
474,214,30813,2,0,B|438:205|438:205|409:222,1,63.1259980773924,2|2,3:2|0:2,0:0:0:0:
260,318,31138,5,2,3:2:0:0:
331,260,31300,1,2,0:2:0:0:
260,318,31462,2,0,L|187:309,1,63.1259980773924,2|2,3:2|0:2,0:0:0:0:
297,177,31786,5,10,0:2:0:0:
390,363,31948,1,10,0:2:0:0:
390,363,32435,6,0,P|404:312|416:301,1,63.1259980773924,6|2,3:2|0:2,0:0:0:0:
492,268,32759,1,10,0:2:0:0:
298,167,32921,1,2,0:2:0:0:
298,167,33002,1,0,0:0:0:0:
298,167,33084,2,0,P|335:204|338:220,1,63.1259980773924,2|2,3:2|0:2,0:0:0:0:
511,161,33408,2,0,P|459:174|444:169,1,63.1259980773924,10|2,0:2|0:2,0:0:0:0:
376,106,33732,5,2,3:2:0:0:
376,106,33894,1,2,0:2:0:0:
259,252,34057,2,0,L|267:328,1,63.1259980773924,10|2,0:2|0:2,0:0:0:0:
182,176,34381,1,2,3:2:0:0:
182,176,34543,1,2,0:2:0:0:
155,356,34705,2,0,L|161:293,1,63.1259980773924,10|2,0:2|0:2,0:0:0:0:
35,173,35030,6,0,P|74:206|113:203,1,63.1259980773924,2|2,3:2|0:2,0:0:0:0:
186,122,35354,1,10,0:2:0:0:
340,88,35516,1,2,0:2:0:0:
340,88,35597,1,0,0:0:0:0:
340,88,35678,2,0,P|301:121|262:118,1,63.1259980773924,2|2,3:2|0:2,0:0:0:0:
133,26,36002,1,10,0:2:0:0:
186,122,36165,1,2,0:2:0:0:
250,212,36327,6,0,L|330:198,1,63.1259980773924,2|2,3:2|0:2,0:0:0:0:
69,214,36651,2,0,L|-11:200,1,63.1259980773924,10|2,0:2|0:2,0:0:0:0:
162,201,36975,1,2,3:2:0:0:
119,328,37138,1,2,0:2:0:0:
249,370,37300,2,0,L|329:356,1,63.1259980773924,10|2,0:2|0:2,0:0:0:0:
426,243,37624,6,0,P|371:222|357:195,1,63.1259980773924,2|2,3:2|0:2,0:0:0:0:
368,125,37948,1,10,0:2:0:0:
241,212,38111,1,2,0:2:0:0:
241,212,38192,1,0,0:0:0:0:
241,212,38273,2,0,P|286:174|317:176,1,63.1259980773924,2|2,3:2|0:2,0:0:0:0:
201,302,38597,2,0,P|172:289|153:264,1,63.1259980773924,10|2,0:2|0:2,0:0:0:0:
164,153,38921,5,2,3:2:0:0:
164,153,39084,1,2,0:2:0:0:
308,262,39246,2,0,L|297:330,1,63.1259980773924,10|2,0:2|0:2,0:0:0:0:
288,174,39570,1,2,3:2:0:0:
288,174,39732,1,2,0:2:0:0:
386,339,39894,2,0,L|396:276,1,63.1259980773924,10|2,0:2|0:2,0:0:0:0:
406,165,40219,5,2,3:2:0:0:
383,170,40300,1,0,0:2:0:0:
360,176,40381,1,2,0:2:0:0:
337,182,40462,1,0,0:2:0:0:
315,189,40543,2,0,L|310:234,3,31.5629990386963,10|0|2|0,0:2|0:2|0:2|0:2,0:0:0:0:
232,174,40867,5,2,3:2:0:0:
209,168,40948,1,0,0:2:0:0:
186,162,41030,1,2,0:2:0:0:
163,156,41111,1,0,0:2:0:0:
141,150,41192,2,0,L|136:105,3,31.5629990386963,10|0|2|0,0:2|0:2|0:2|0:2,0:0:0:0:
80,207,41516,6,0,L|75:252,7,31.5111990386963,2|0|2|0|2|0|2|0,3:2|0:2|0:2|0:2|0:2|0:2|0:2|0:2,0:0:0:0:
60,270,42165,6,0,L|68:309,3,31.4999990386963,2|0|0|0,0:2|0:2|0:2|0:2,0:2:0:0:
91,319,42489,6,0,L|83:358,3,31.4999990386963,2|0|0|0,0:2|0:2|0:2|0:2,0:2:0:0:
82,367,42813,6,0,L|157:348,1,72,6|0,3:2|0:2,0:0:0:0:
305,249,43138,1,8,0:2:0:0:
233,175,43300,1,0,0:2:0:0:
233,175,43381,1,0,0:0:0:0:
233,175,43462,2,0,L|145:193,1,72.1439999999998,0|0,3:2|0:2,0:0:0:0:
1,231,43786,2,0,L|89:249,1,72.1439999999998,8|2,0:2|0:2,0:0:0:0:
152,287,44030,1,2,0:2:0:0:
157,283,44111,6,0,L|150:365,1,72.1439999999998,2|0,3:2|0:2,0:0:0:0:
273,277,44435,1,8,0:2:0:0:
265,185,44597,2,0,L|272:267,1,72.1439999999998,2|0,0:2|3:2,0:0:0:0:
72,302,44921,2,0,L|78:230,1,72.1439999999998,2|8,0:2|0:2,0:0:0:0:
195,123,45246,1,2,0:2:0:0:
5,117,45408,6,0,P|63:131|122:68,1,144.288,0|8,3:2|0:2,0:0:0:0:
235,186,45894,1,0,0:2:0:0:
235,186,45975,1,0,0:0:0:0:
235,186,46057,2,0,L|161:176,1,72.1439999999998,0|2,3:2|0:2,0:0:0:0:
56,295,46381,2,0,L|130:285,1,72.1439999999998,8|2,0:2|0:2,0:0:0:0:
287,256,46705,5,2,3:2:0:0:
259,339,46867,1,2,0:2:0:0:
207,273,47030,1,8,0:2:0:0:
344,320,47192,2,0,L|418:310,2,72.1439999999998,2|2|2,0:2|3:2|0:2,0:0:0:0:
207,273,47678,2,0,L|135:282,1,72.1439999999998,10|2,0:2|0:2,0:0:0:0:
282,167,48002,6,0,P|335:176|361:203,1,72.1439999999998,0|0,3:2|0:2,0:0:0:0:
404,255,48327,1,8,0:2:0:0:
459,110,48489,1,0,0:2:0:0:
459,110,48570,1,0,0:0:0:0:
459,110,48651,2,0,L|455:194,1,72.1439999999998,0|0,3:2|0:2,0:0:0:0:
297,326,48975,2,0,L|293:254,1,72.1439999999998,8|2,0:2|0:2,0:0:0:0:
249,174,49219,1,2,0:2:0:0:
240,171,49300,6,0,L|158:181,1,72.1439999999998,2|0,3:2|0:2,0:0:0:0:
92,138,49624,1,8,0:2:0:0:
266,82,49786,2,0,L|184:92,1,72.1439999999998,2|0,0:2|3:2,0:0:0:0:
26,218,50111,2,0,L|108:228,1,72.1439999999998,2|8,0:2|0:2,0:0:0:0:
114,62,50435,1,2,0:2:0:0:
191,207,50597,6,0,P|192:249|159:287,1,72.1439999999998,0|0,3:2|0:2,0:0:0:0:
110,331,50921,1,8,0:2:0:0:
267,307,51084,1,0,0:2:0:0:
267,307,51165,1,0,0:0:0:0:
267,307,51246,2,0,P|246:343|199:360,1,72.1439999999998,0|2,3:2|0:2,0:0:0:0:
107,172,51570,2,0,P|127:135|174:118,1,72.1439999999998,8|2,0:2|0:2,0:0:0:0:
264,204,51894,6,0,L|181:197,2,72.1439999999998,4|0|8,3:2|0:2|0:2,0:0:0:0:
268,212,52543,6,0,L|143:201,2,108.216,6|4|4,3:2|3:2|3:2,0:0:0:0:
360,184,53192,2,0,L|368:266,1,72.1439999999998,0|0,3:2|0:2,0:0:0:0:
228,361,53516,6,0,P|217:314|232:286,1,72.1439999999998,8|0,0:2|0:2,0:0:0:0:
287,136,53840,1,0,3:2:0:0:
203,197,54002,2,0,L|117:187,1,72.1439999999998,0|8,0:2|0:2,0:0:0:0:
261,45,54327,1,2,0:2:0:0:
261,45,54408,1,2,0:2:0:0:
261,45,54489,6,0,L|347:35,1,72.1439999999998,2|0,3:2|0:2,0:0:0:0:
421,76,54813,1,8,0:2:0:0:
363,219,54975,2,0,P|357:179|378:145,1,72.1439999999998,2|0,0:2|3:2,0:0:0:0:
228,124,55300,2,0,P|242:156|235:191,1,72.1439999999998,2|8,0:2|0:2,0:0:0:0:
153,229,55624,1,2,3:2:0:0:
234,191,55786,6,0,L|75:176,1,144.288,4|8,3:2|0:2,0:0:0:0:
305,301,56273,1,0,0:2:0:0:
305,301,56354,1,0,0:0:0:0:
305,301,56435,2,0,P|345:281|384:283,1,72.1439999999998,0|2,3:2|0:2,0:0:0:0:
320,114,56759,2,0,L|334:196,1,72.1439999999998,8|2,0:2|0:2,0:0:0:0:
209,353,57084,5,2,3:2:0:0:
144,297,57246,1,2,3:2:0:0:
218,256,57408,1,10,0:2:0:0:
225,175,57570,1,2,0:2:0:0:
225,175,57651,1,0,0:2:0:0:
225,175,57732,2,0,L|173:182,3,36.072,2|0|2|0,3:2|0:2|0:2|0:2,0:0:0:0:
176,101,58057,2,0,L|124:94,3,36.072,14|0|2|0,0:2|0:2|0:2|0:2,0:0:0:0:
89,160,58381,6,0,P|104:215|95:251,1,72.1439999999998,4|0,3:2|0:2,0:0:0:0:
30,335,58705,2,0,P|95:318|169:360,1,144.288,8|0,0:2|3:2,0:0:0:0:
276,315,59192,2,0,P|317:330|360:317,1,72.1439999999998,0|8,0:2|0:2,0:0:0:0:
410,263,59516,1,2,0:2:0:0:
487,376,59678,6,0,L|494:280,2,72.1439999999998,2|0|8,3:2|3:2|3:2,0:0:0:0:
410,263,60165,1,2,0:2:0:0:
410,263,60246,1,0,0:0:0:0:
410,263,60327,2,0,P|393:211|402:185,1,72.1439999999998,0|2,3:2|0:2,0:0:0:0:
474,135,60651,2,0,P|491:83|482:57,1,72.1439999999998,8|2,0:2|3:2,0:0:0:0:
410,23,60975,5,4,3:2:0:0:
317,5,61138,1,0,3:2:0:0:
345,101,61300,5,12,3:2:0:0:
252,119,61462,1,0,3:2:0:0:
225,24,61624,5,0,3:2:0:0:
207,26,61705,1,0,3:2:0:0:
189,28,61786,1,2,3:2:0:0:
171,30,61867,1,0,3:2:0:0:
153,32,61948,2,0,L|100:22,3,36.072,8|0|2|0,3:2|3:2|3:2|3:2,0:0:0:0:
92,31,62273,5,4,3:2:0:0:
256,192,62354,12,6,63570,0:2:0:0:
125,16,63894,6,0,L|118:69,3,36.072,2|2|2|2,0:2|0:2|0:2|0:2,0:0:0:0:
194,86,64219,1,2,0:2:0:0:
210,82,64300,1,2,0:2:0:0:
227,78,64381,1,2,0:2:0:0:
245,74,64462,1,2,0:2:0:0:
262,70,64543,2,0,L|255:123,3,36.072,2|2|2|2,0:2|0:2|0:2|0:2,0:0:0:0:
344,107,64867,6,0,L|423:96,1,72.1439999999998,2|2,0:2|0:2,0:0:0:0:
194,169,65192,2,0,L|115:158,1,72.1439999999998,2|2,0:2|0:2,0:0:0:0:
350,195,65516,2,0,L|429:184,1,72.1439999999998,2|2,0:2|0:2,0:0:0:0:
188,257,65840,2,0,L|109:246,1,72.1439999999998,2|2,0:2|0:2,0:0:0:0:
329,294,66165,5,2,0:2:0:0:
329,294,66489,2,0,P|318:248|330:217,1,72.1439999999998,2|2,0:2|0:2,0:0:0:0:
397,164,66813,2,0,L|380:10,1,144.288,2|2,0:2|0:2,0:0:0:0:
130,20,67462,6,0,L|115:164,1,144.288,2|2,0:2|0:2,0:0:0:0:
46,223,67948,1,0,0:0:0:0:
128,256,68111,2,0,P|180:235|243:252,2,108.216,2|2|2,0:2|0:2|0:2,0:0:0:0:
244,333,68759,5,2,0:2:0:0:
244,333,69084,2,0,L|283:338,3,36.072,2|2|2|2,0:2|0:2|0:2|0:2,0:0:0:0:
355,302,69408,1,2,0:2:0:0:
356,275,69489,1,2,0:2:0:0:
368,251,69570,1,2,0:2:0:0:
388,234,69651,1,2,0:2:0:0:
414,226,69732,2,0,L|420:270,3,36,2|2|2|2,0:2|0:2|0:2|0:2,0:0:0:0:
495,259,70057,6,0,L|484:175,1,72.1439999999998,2|2,0:2|0:2,0:0:0:0:
390,26,70381,2,0,L|380:97,1,72.1439999999998,2|2,0:2|0:2,0:0:0:0:
401,279,70705,2,0,L|390:195,1,72.1439999999998,2|2,0:2|0:2,0:0:0:0:
296,46,71030,2,0,L|286:117,1,72.1439999999998,2|2,0:2|0:2,0:0:0:0:
235,206,71354,5,2,0:2:0:0:
235,206,71678,2,0,P|186:182|153:189,1,72.1439999999998,2|2,0:2|0:2,0:0:0:0:
174,296,72002,2,0,P|264:258|324:267,1,144.288,2|2,0:2|0:2,0:0:0:0:
397,41,72651,6,0,P|307:79|247:70,1,144.288,0|2,0:0|0:2,0:0:0:0:
188,20,73138,1,0,0:0:0:0:
116,69,73300,2,0,P|69:73|37:52,1,72.1439999999998,2|2,0:2|0:2,0:0:0:0:
172,151,73624,2,0,P|219:147|251:168,1,72.1439999999998,2|2,0:2|0:2,0:0:0:0:
89,191,73948,5,2,0:2:0:0:
63,305,74273,1,2,0:2:0:0:
84,321,74354,1,2,0:2:0:0:
110,327,74435,1,2,0:2:0:0:
136,322,74516,1,2,0:2:0:0:
158,307,74597,1,2,0:2:0:0:
180,292,74678,1,2,0:2:0:0:
206,287,74759,1,2,0:2:0:0:
232,293,74840,1,2,0:2:0:0:
252,304,74921,2,0,L|242:357,3,36.072,2|2|2|2,0:2|0:2|0:2|0:2,0:0:0:0:
338,290,75246,6,0,L|418:282,1,72.1439999999998,2|2,0:2|0:2,0:0:0:0:
137,192,75570,2,0,L|57:184,1,72.1439999999998,2|2,0:2|0:2,0:0:0:0:
269,24,75894,2,0,L|277:104,1,72.1439999999998,2|2,0:2|0:2,0:0:0:0:
222,203,76219,2,0,L|214:283,1,72.1439999999998,2|2,0:2|0:2,0:0:0:0:
313,351,76543,5,2,0:2:0:0:
313,351,76867,2,0,P|266:347|228:358,1,72.1439999999998,2|2,0:2|0:2,0:0:0:0:
122,332,77192,2,0,P|175:289|176:197,1,144.288,2|2,0:2|0:2,0:0:0:0:
419,256,77840,6,0,P|355:231|275:276,1,144.288,2|2,0:2|0:2,0:0:0:0:
184,217,78327,1,0,0:0:0:0:
247,137,78489,2,0,L|357:149,2,108.216,2|2|2,0:2|0:2|0:2,0:0:0:0:
184,57,79138,5,2,0:2:0:0:
184,57,79462,1,2,0:2:0:0:
161,71,79543,1,2,0:2:0:0:
146,94,79624,1,2,0:2:0:0:
141,120,79705,1,2,0:2:0:0:
143,143,79786,1,2,0:2:0:0:
159,164,79867,1,2,0:2:0:0:
169,189,79948,1,2,0:2:0:0:
170,216,80030,1,2,0:2:0:0:
159,238,80111,2,0,L|110:233,3,36.072,2|2|2|2,0:2|0:2|0:2|0:2,0:0:0:0:
142,323,80435,6,0,L|70:330,1,72.1439999999998,2|2,0:2|0:2,0:0:0:0:
282,247,80759,2,0,L|353:254,1,72.1439999999998,2|2,0:2|0:2,0:0:0:0:
123,234,81084,2,0,L|51:241,1,72.1439999999998,2|2,0:2|0:2,0:0:0:0:
280,157,81408,2,0,L|351:164,1,72.1439999999998,2|2,0:2|0:2,0:0:0:0:
145,80,81732,6,0,P|132:47|140:13,1,72.1439999999998,2|0,0:2|0:2,0:0:0:0:
372,13,82057,2,0,P|379:47|366:80,1,72.1439999999998,0|2,0:2|0:2,0:0:0:0:
149,246,82381,6,0,P|136:212|143:178,1,72.1439999999998,0|0,0:2|0:2,0:0:0:0:
375,178,82705,2,0,P|382:212|369:245,1,72.1439999999998,2|0,0:2|0:2,0:0:0:0:
203,83,83030,5,4,0:2:0:0:
223,65,83111,1,2,0:2:0:0:
248,57,83192,1,0,0:2:0:0:
275,60,83273,1,0,0:2:0:0:
298,73,83354,2,0,P|315:96|323:130,3,36,2|0|0|2,0:2|0:2|0:2|0:2,0:0:0:0:
322,188,83678,5,2,0:2:0:0:
300,216,83759,1,2,0:2:0:0:
267,229,83840,1,2,0:2:0:0:
232,223,83921,1,2,0:2:0:0:
204,201,84002,2,0,L|159:208,3,36,2|2|2|2,0:2|0:2|0:2|0:2,0:0:0:0:
110,264,84327,5,14,0:2:0:0:
256,192,84408,12,2,87894,0:2:0:0:
112,34,88219,5,0,1:2:0:0:
131,52,88300,1,0,1:2:0:0:
140,77,88381,1,0,1:2:0:0:
138,104,88462,1,0,1:2:0:0:
124,127,88543,1,0,1:2:0:0:
109,149,88624,1,0,1:2:0:0:
107,176,88705,1,0,1:2:0:0:
118,200,88786,1,0,1:2:0:0:
140,216,88867,6,0,L|196:205,3,36.072,2|2|0|0,1:2|1:2|1:2|1:2,0:0:0:0:
195,285,89192,2,0,L|251:274,3,36.072,10|0|0|2,1:2|1:2|1:2|1:2,0:0:0:0:
123,349,89516,5,14,1:2:0:0:
77,53,99894,6,0,L|206:62,3,117.113744644165,8|8|8|8,0:2|0:2|0:2|0:2,0:0:0:0:
429,87,101192,6,0,L|313:96,3,117.113744644165,8|8|8|8,0:2|0:2|0:2|0:2,0:0:0:0:
169,134,102489,6,0,P|150:196|189:258,1,117.233994644165,8|8,0:2|0:2,0:0:0:0:
331,307,103138,2,0,P|350:245|311:183,1,117.233994644165,8|8,0:2|0:2,0:0:0:0:
169,241,103786,5,8,0:2:0:0:
330,199,104111,1,8,0:2:0:0:
157,92,104435,5,8,0:2:0:0:
318,50,104759,1,8,0:2:0:0:
169,241,105084,6,0,L|181:163,1,58.6169973220824,8|8,0:2|0:2,0:0:0:0:
157,92,105408,2,0,L|120:84,2,29.3084986610413,10|8|8,0:2|0:2|0:2,0:0:0:0:
252,80,105732,6,0,L|330:92,1,58.6169973220824,8|10,0:2|0:2,0:0:0:0:
401,68,106057,2,0,L|409:31,2,29.3084986610413,10|8|10,0:2|0:2|0:2,0:0:0:0:
413,163,106381,6,0,L|401:241,1,58.6169973220824,8|8,0:2|0:2,0:0:0:0:
425,312,106705,2,0,L|462:320,2,29.3084986610413,10|8|8,0:2|0:2|0:2,0:0:0:0:
330,324,107030,6,0,L|252:312,1,58.6169973220824,8|10,0:2|0:2,0:0:0:0:
181,336,107354,2,0,L|173:373,2,29.3084986610413,10|8|10,0:2|0:2|0:2,0:0:0:0:
80,325,107678,5,8,0:2:0:0:
85,307,107759,1,10,0:2:0:0:
90,289,107840,1,8,0:2:0:0:
95,272,107921,1,8,0:2:0:0:
100,254,108002,1,10,0:2:0:0:
105,236,108084,1,8,0:2:0:0:
109,219,108165,1,10,0:2:0:0:
114,201,108246,1,8,0:2:0:0:
119,185,108327,2,0,L|129:146,3,29.3084986610413,8|10|8|8,0:2|0:2|0:2|0:2,0:0:0:0:
209,130,108651,2,0,L|204:90,3,29.3084986610413,10|8|10|10,0:2|0:2|0:2|0:2,0:0:0:0:
124,45,108975,5,12,0:2:0:0:
124,45,109138,1,12,0:2:0:0:
124,45,109948,2,0,L|116:124,1,58.6169973220824,12|2,0:2|0:2,0:0:0:0:
36,196,110273,6,0,L|161:173,1,117.233994644165,8|10,0:2|0:2,0:0:0:0:
64,278,110921,6,0,L|189:255,1,117.233994644165,8|10,0:2|0:2,0:0:0:0:
476,196,111570,6,0,L|351:173,1,117.233994644165,8|10,0:2|0:2,0:0:0:0:
448,278,112219,6,0,L|323:255,1,117.233994644165,8|10,0:2|0:2,0:0:0:0:
256,176,112705,1,8,0:2:0:0:
179,236,112867,6,0,P|164:275|200:350,1,117.233994644165,8|10,0:2|0:2,0:0:0:0:
334,123,113516,6,0,P|349:84|313:9,1,117.233994644165,8|10,0:2|0:2,0:0:0:0:
107,131,114165,6,0,P|141:160|172:164,1,58.6169973220824,8|8,0:2|0:2,0:0:0:0:
247,146,114489,2,0,P|238:199|238:256,1,87.9254959831238,10|10,0:2|0:2,0:0:0:0:
239,253,114813,2,0,P|247:293|247:319,1,58.6169973220824,8|8,0:2|0:2,0:0:0:0:
306,360,115057,1,8,0:2:0:0:
316,364,115138,2,0,L|358:358,3,29.3084986610413,10|8|8|10,0:2|0:2|0:2|0:2,0:0:0:0:
378,339,115462,6,0,L|455:349,1,58.6169973220824,8|8,0:2|0:2,0:0:0:0:
489,271,115786,2,0,L|498:237,2,29.3084986610413,10|8|8,0:2|0:2|0:2,0:0:0:0:
335,261,116111,6,0,L|258:271,1,58.6169973220824,8|8,0:2|0:2,0:0:0:0:
224,193,116435,2,0,L|215:159,2,29.3084986610413,10|8|8,0:2|0:2|0:2,0:0:0:0:
376,177,116759,6,0,L|459:187,1,76.6530014591215,8|8,0:2|0:2,0:0:0:0:
481,104,117084,1,10,0:2:0:0:
481,104,117165,1,8,0:2:0:0:
481,104,117246,1,8,0:2:0:0:
309,109,117408,6,0,L|226:119,1,76.6530014591215,8|8,0:2|0:2,0:0:0:0:
189,47,117732,1,10,0:2:0:0:
189,47,117813,1,8,0:2:0:0:
189,47,117894,1,8,0:2:0:0:
105,83,118057,5,8,0:2:0:0:
87,106,118138,1,8,0:2:0:0:
81,134,118219,1,8,0:2:0:0:
87,162,118300,1,8,0:2:0:0:
101,181,118381,1,8,0:2:0:0:
118,204,118462,1,8,0:2:0:0:
124,232,118543,1,8,0:2:0:0:
118,260,118624,1,8,0:2:0:0:
100,283,118705,2,0,L|91:317,3,29.3084986610413,8|8|8|8,0:2|0:2|0:2|0:2,0:0:0:0:
180,331,119030,2,0,L|189:365,3,29.3084986610413,8|8|8|8,0:2|0:2|0:2|0:2,0:0:0:0:
256,192,119354,12,10,120327,0:2:0:0:
68,114,120651,6,0,P|117:125|193:81,1,135.27,4|0,3:2|0:0,0:0:0:0:
195,89,120975,2,0,P|187:146|186:211,1,90.1799999999998,10|0,0:2|0:0,0:0:0:0:
189,192,121219,1,2,0:2:0:0:
359,214,121462,2,0,P|367:271|369:310,1,90.1799999999998,2|10,0:2|0:2,0:0:0:0:
442,109,121786,5,2,0:2:0:0:
442,109,121867,1,2,0:2:0:0:
442,109,121948,2,0,P|393:120|317:76,1,135.27,0|0,3:2|0:0,0:0:0:0:
322,82,122273,1,10,0:2:0:0:
232,20,122435,2,0,P|172:12|97:106,1,180.36,0|2,0:0|0:2,0:0:0:0:
120,187,122921,1,10,0:2:0:0:
33,150,123084,5,2,0:2:0:0:
26,145,123165,1,2,0:2:0:0:
18,138,123246,2,0,P|76:144|126:143,1,90.1799999999998,2|0,3:2|0:0,0:0:0:0:
129,133,123489,2,0,P|173:133|218:139,1,90.1799999999998,2|0,0:2|0:0,0:0:0:0:
232,153,123732,2,0,P|230:223|257:290,2,135.27,2|2|10,0:2|0:2|0:2,0:0:0:0:
258,60,124381,1,2,0:2:0:0:
350,35,124543,6,0,P|405:58|446:53,1,90.1799999999998,2|0,3:2|0:0,0:0:0:0:
457,45,124786,2,0,P|453:104|470:141,1,90.1799999999998,2|0,0:2|0:0,0:0:0:0:
481,149,125030,2,0,P|423:162|393:190,1,90.1799999999998,2|0,0:2|3:2,0:0:0:0:
390,203,125273,2,0,P|360:152|323:132,1,90.1799999999998,2|0,0:2|0:0,0:0:0:0:
316,137,125516,1,10,0:2:0:0:
186,189,125678,5,2,0:2:0:0:
186,189,125759,1,2,0:2:0:0:
186,189,125840,2,0,P|221:228|309:223,1,135.27,0|0,3:2|0:0,0:0:0:0:
298,223,126165,2,0,P|310:284|301:365,2,135.27,10|2|2,0:2|0:2|0:2,0:0:0:0:
381,161,126813,1,10,0:2:0:0:
486,187,126975,5,2,0:2:0:0:
486,187,127057,1,2,0:2:0:0:
486,187,127138,2,0,P|509:140|473:62,1,135.27,0|0,3:2|0:0,0:0:0:0:
470,54,127462,2,0,L|329:69,2,135.27,10|2|2,0:2|0:2|0:2,0:0:0:0:
268,18,128111,1,10,0:2:0:0:
140,59,128273,5,2,0:2:0:0:
129,62,128354,1,2,0:2:0:0:
118,63,128435,2,0,P|164:81|213:85,1,90.1799999999998,0|0,3:2|0:0,0:0:0:0:
271,31,128759,1,10,0:2:0:0:
288,168,128921,2,0,P|221:173|147:195,2,135.27,2|2|10,0:2|0:2|0:2,0:0:0:0:
318,315,129570,5,2,0:2:0:0:
318,315,129651,1,2,0:2:0:0:
318,315,129732,2,0,P|287:270|191:256,1,135.27,0|0,3:2|0:0,0:0:0:0:
198,241,130057,2,0,P|195:205|198:182,1,45.09,10|0,0:2|0:2,0:0:0:0:
203,89,130219,5,2,0:2:0:0:
203,89,130300,1,2,0:2:0:0:
203,89,130381,2,0,P|246:79|307:69,1,90.1799999999998,2|0,3:2|0:0,0:0:0:0:
283,161,130624,2,0,P|240:171|179:181,1,90.1799999999998,2|0,0:2|0:0,0:0:0:0:
195,196,130867,2,0,P|195:218|198:241,1,45.09,2|0,0:2|0:0,0:0:0:0:
268,341,131030,6,0,P|321:361|382:307,1,135.27,12|0,3:2|0:0,0:0:0:0:
379,297,131354,2,0,P|376:227|384:168,1,90.1799999999998,10|0,0:2|0:0,0:0:0:0:
379,192,131597,1,2,0:2:0:0:
327,20,131840,2,0,P|266:37|228:39,1,90.1799999999998,2|10,0:2|0:2,0:0:0:0:
101,112,132165,5,2,0:2:0:0:
90,120,132246,1,2,0:2:0:0:
79,128,132327,2,0,P|141:134|217:169,1,135.27,0|0,3:2|0:0,0:0:0:0:
207,162,132651,1,10,0:2:0:0:
251,273,132813,2,0,P|326:212|415:192,1,180.36,0|2,0:0|0:2,0:0:0:0:
473,250,133300,1,10,0:2:0:0:
450,131,133462,5,2,3:2:0:0:
452,118,133543,1,2,0:2:0:0:
452,107,133624,2,0,P|386:117|277:121,1,162.323995056153,6|2,3:2|0:2,0:0:0:0:
290,121,133948,1,0,0:2:0:0:
273,213,134111,6,0,P|192:201|111:198,1,162.323995056153,6|2,3:2|0:2,0:0:0:0:
112,197,134435,1,0,0:0:0:0:
9,222,134597,6,0,P|4:159|5:101,1,108.215996704102,14|2,0:2|0:2,0:0:0:0:
5,115,134921,6,0,P|60:146|120:149,1,108.215996704102,14|0,0:2|0:0,0:0:0:0:
87,170,135165,6,0,P|150:169|203:141,1,108.215996704102,14|0,0:2|0:0,0:0:0:0:
185,176,135408,6,0,P|239:143|271:93,1,108.215996704102,14|0,0:2|0:2,0:0:0:0:
272,132,135651,6,0,P|303:77|306:17,1,108.215996704102,14|0,0:2|0:0,0:0:0:0:
312,17,135894,6,0,P|322:65|333:91,1,54.1079983520506,10|0,0:2|0:0,0:0:0:0:
414,65,136057,2,0,P|421:90|425:117,1,54.1079983520506,10|2,0:2|0:2,0:0:0:0:
390,198,136219,2,0,P|328:174|268:164,1,108.215996704102,4|0,3:2|3:2,0:0:0:0:
72,280,136543,6,0,P|134:267|209:201,2,135.27,10|2|2,0:2|0:2|0:2,0:0:0:0:
126,170,137192,2,0,P|97:188|73:191,1,45.09,10|0,0:2|0:0,0:0:0:0:
46,68,137354,5,2,3:2:0:0:
46,68,137435,1,2,3:2:0:0:
46,68,137516,2,0,P|92:77|148:83,1,90.1799999999998,4|0,3:2|0:0,0:0:0:0:
224,126,137840,2,0,P|288:98|386:90,1,135.27,10|2,0:2|0:2,0:0:0:0:
364,89,138165,1,0,3:2:0:0:
438,163,138327,1,2,3:2:0:0:
438,163,138651,1,2,0:2:0:0:
358,223,138813,6,0,P|353:270|362:315,1,90.1799999999998,0|0,3:2|3:2,0:0:0:0:
151,311,139138,2,0,P|159:267|154:223,1,90.1799999999998,10|2,0:2|0:2,0:0:0:0:
54,150,139462,1,0,3:2:0:0:
38,120,139543,1,2,3:2:0:0:
38,86,139624,1,0,3:2:0:0:
53,57,139705,1,0,3:2:0:0:
80,37,139786,1,10,3:2:0:0:
113,36,139867,1,0,3:2:0:0:
143,50,139948,1,2,3:2:0:0:
164,76,140030,1,2,3:2:0:0:
171,109,140111,5,4,3:2:0:0:
168,128,140192,2,0,P|157:176|145:256,1,90.1799999999998,2|0,1:2|1:2,0:0:0:0:
156,229,140435,2,0,P|165:272|171:317,1,90.1799999999998,10|2,1:2|1:2,0:0:0:0:
97,335,140678,1,2,1:2:0:0:
97,335,140759,6,0,P|170:325|220:330,1,108.215996704102,14|0,3:2|0:0,0:0:0:0:
252,336,141002,6,0,P|305:337|358:328,1,108.215996704102,14|0,0:2|0:0,0:0:0:0:
393,317,141246,6,0,P|466:307|495:311,1,54.1079983520506,14|0,0:2|0:0,0:0:0:0:
452,337,141408,6,0,P|470:272|517:204,1,135.27,8|0,3:2|0:0,0:0:0:0:
497,206,141732,2,0,P|442:185|419:122,1,90.1799999999998,10|0,0:2|0:0,0:0:0:0:
421,146,141975,1,2,0:2:0:0:
254,128,142219,2,0,P|252:172|254:217,1,90.1799999999998,2|10,0:2|0:2,0:0:0:0:
140,345,142543,5,2,0:2:0:0:
140,345,142624,1,2,0:2:0:0:
140,345,142705,2,0,P|122:280|75:212,1,135.27,0|0,3:2|0:0,0:0:0:0:
85,223,143030,1,10,0:2:0:0:
82,125,143192,2,0,P|110:77|237:91,1,180.36,0|2,0:0|0:2,0:0:0:0:
290,151,143678,1,10,0:2:0:0:
382,69,143840,5,2,0:2:0:0:
382,69,143921,1,2,0:2:0:0:
382,69,144002,2,0,P|422:106|435:146,1,90.1799999999998,2|0,3:2|0:0,0:0:0:0:
435,155,144246,2,0,P|378:172|334:195,1,90.1799999999998,2|0,0:2|0:0,0:0:0:0:
331,199,144489,2,0,P|312:262|312:338,2,135.27,2|2|10,0:2|0:2|0:2,0:0:0:0:
196,272,145138,1,2,0:2:0:0:
91,257,145300,6,0,P|42:219|3:195,1,90.1799999999998,2|0,3:2|0:0,0:0:0:0:
2,193,145543,2,0,P|40:143|64:104,1,90.1799999999998,2|0,0:2|0:0,0:0:0:0:
66,103,145786,2,0,P|116:140|155:164,1,90.1799999999998,2|0,0:2|3:2,0:0:0:0:
155,167,146030,2,0,P|118:216|94:255,1,90.1799999999998,2|0,0:2|0:0,0:0:0:0:
91,257,146273,1,10,0:2:0:0:
15,312,146435,5,2,0:2:0:0:
15,312,146516,1,2,0:2:0:0:
15,312,146597,2,0,P|51:364|137:349,1,135.27,0|0,3:2|0:0,0:0:0:0:
150,340,146921,2,0,P|186:311|287:332,2,135.27,10|2|2,0:2|0:2|0:2,0:0:0:0:
347,358,147570,1,10,0:2:0:0:
408,288,147732,5,2,0:2:0:0:
408,288,147813,1,2,0:2:0:0:
408,288,147894,2,0,P|402:182|408:153,1,135.27,0|0,3:2|0:0,0:0:0:0:
406,125,148219,2,0,P|350:117|300:43,2,135.27,10|2|2,0:2|0:2|0:2,0:0:0:0:
391,29,148867,1,10,0:2:0:0:
247,151,149030,1,2,0:2:0:0:
238,160,149111,1,2,0:2:0:0:
229,170,149192,6,0,P|218:108|218:65,1,90.1799999999998,0|0,3:2|0:0,0:0:0:0:
126,141,149516,1,10,0:2:0:0:
149,243,149678,2,0,P|193:213|283:207,2,135.27,2|2|10,0:2|0:2|0:2,0:0:0:0:
65,332,150327,5,2,0:2:0:0:
56,342,150408,1,2,0:2:0:0:
47,352,150489,2,0,P|142:328|185:340,1,135.27,0|0,3:2|0:0,0:0:0:0:
203,344,150813,2,0,P|238:345|261:342,1,45.09,10|0,0:2|0:0,0:0:0:0:
348,313,150975,1,2,0:2:0:0:
348,313,151057,1,2,0:2:0:0:
348,313,151138,6,0,P|402:335|453:341,1,90.1799999999998,2|0,3:2|0:0,0:0:0:0:
347,210,151381,2,0,P|293:232|242:238,1,90.1799999999998,2|0,0:2|0:0,0:0:0:0:
432,202,151624,2,0,P|436:244|433:274,1,45.09,2|0,0:2|0:0,0:0:0:0:
393,117,151786,6,0,P|410:63|439:32,1,90.1799999999998,12|0,3:2|0:0,0:0:0:0:
310,87,152111,2,0,P|319:33|335:-5,1,90.1799999999998,10|0,0:2|0:0,0:0:0:0:
202,87,152435,2,0,P|193:33|177:-5,1,90.1799999999998,0|2,3:2|0:2,0:0:0:0:
119,117,152759,2,0,P|102:63|73:32,1,90.1799999999998,10|2,0:2|0:2,0:0:0:0:
144,209,153084,6,0,P|201:198|248:168,1,90.1799999999998,0|0,3:2|0:0,0:0:0:0:
180,364,153408,2,0,P|141:320|92:294,1,90.1799999999998,10|0,0:2|0:0,0:0:0:0:
297,256,153732,2,0,P|278:310|280:366,1,90.1799999999998,0|2,3:2|0:2,0:0:0:0:
115,303,154057,2,0,P|125:259|121:234,1,45.09,10|0,0:2|0:0,0:0:0:0:
86,184,154219,1,2,0:2:0:0:
86,184,154300,1,2,0:2:0:0:
86,184,154381,6,0,P|179:167|259:147,1,162.323995056153,14|2,3:2|0:2,0:0:0:0:
244,150,154705,1,0,0:2:0:0:
302,225,154867,6,0,P|395:208|475:188,1,162.323995056153,14|2,0:2|0:2,0:0:0:0:
460,191,155192,1,0,0:0:0:0:
391,349,155354,2,0,P|382:280|383:235,1,108.215996704102,14|2,0:2|0:2,0:0:0:0:
386,151,155678,6,0,P|318:133|288:104,1,108.215996704102,14|0,3:2|0:0,0:0:0:0:
266,97,155921,2,0,P|227:156|191:175,1,108.215996704102,14|0,0:2|0:0,0:0:0:0:
177,194,156165,2,0,P|221:248|228:289,1,108.215996704102,14|0,0:2|0:2,0:0:0:0:
241,308,156408,2,0,P|306:282|347:288,1,108.215996704102,14|0,0:2|0:0,0:0:0:0:
361,296,156651,1,14,0:2:0:0:
463,331,156813,1,14,0:2:0:0:
501,229,156975,6,0,L|483:115,1,108.215996704102,0|0,3:2|3:2,0:0:0:0:
402,43,157300,2,0,L|385:149,1,108.215996704102,10|0,3:2|3:2,0:0:0:0:
368,237,157624,2,0,L|351:343,1,108.215996704102,0|2,3:2|3:2,0:0:0:0:
270,247,157948,2,0,L|252:133,1,108.215996704102,10|2,3:2|3:2,0:0:0:0:
233,59,158192,1,2,0:2:0:0:
230,49,158273,6,0,P|163:65|116:61,1,108.215996704102,4|0,3:2|3:2,0:0:0:0:
63,165,158597,2,0,P|79:232|75:279,1,108.215996704102,10|0,3:2|3:2,0:0:0:0:
179,332,158921,2,0,P|246:316|293:320,1,108.215996704102,0|2,3:2|3:2,0:0:0:0:
346,216,159246,2,0,P|330:149|334:102,1,108.215996704102,10|2,3:2|3:2,0:0:0:0:
195,43,159570,5,0,3:2:0:0:
163,68,159651,1,2,3:2:0:0:
150,106,159732,1,0,3:2:0:0:
160,145,159813,1,0,3:2:0:0:
186,168,159894,1,10,3:2:0:0:
217,192,159975,1,0,3:2:0:0:
233,229,160057,1,0,3:2:0:0:
229,269,160138,1,2,3:2:0:0:
203,299,160219,6,0,P|191:332|194:367,3,54.1079983520506,0|0|2|0,3:2|3:2|3:2|3:2,0:0:0:0:
321,350,160543,2,0,P|319:323|309:299,3,54.1079983520506,10|0|2|0,3:2|3:2|3:2|3:2,0:0:0:0:
256,192,160867,12,14,162165,3:2:0:0:
76,56,162975,6,0,P|107:94|156:98,1,72.1439999999998,2|0,3:2|0:2,0:0:0:0:
280,155,163300,2,0,L|116:186,1,144.288,6|6,3:2|3:2,0:0:0:0:
109,320,163786,2,0,P|132:276|179:263,1,72.1439999999998,2|2,0:2|0:2,0:0:0:0:
248,288,164111,2,0,L|352:278,1,72.1439999999998,2|2,0:2|3:2,0:0:0:0:
401,243,164435,1,2,0:2:0:0:
331,105,164597,1,2,3:2:0:0:
331,105,164678,1,0,3:2:0:0:
331,105,164759,6,0,P|328:160|357:193,1,72.1439999999998,6|2,3:2|0:2,0:0:0:0:
405,311,165084,2,0,P|408:256|379:223,1,72.1439999999998,2|2,0:2|0:2,0:0:0:0:
401,243,165327,1,0,0:0:0:0:
401,243,165408,1,2,0:2:0:0:
248,288,165570,2,0,L|352:278,1,72.1439999999998,2|2,3:2|0:2,0:0:0:0:
405,311,165894,6,0,P|409:222|363:169,1,144.288,6|6,3:2|3:2,0:0:0:0:
199,140,166381,2,0,L|196:232,1,72.1439999999998,2|2,0:2|0:2,0:0:0:0:
294,125,166705,1,2,3:2:0:0:
295,36,166867,1,2,3:2:0:0:
294,125,167030,2,0,L|292:171,2,36.072,2|0|2,3:2|3:2|3:2,0:0:0:0:
295,269,167354,6,0,P|345:247|391:247,1,72.1439999999998,6|2,0:2|0:2,0:0:0:0:
204,217,167678,2,0,P|153:195|107:195,1,72.1439999999998,2|2,0:2|0:2,0:0:0:0:
137,194,167921,1,0,0:2:0:0:
137,194,168002,1,2,0:2:0:0:
210,373,168165,2,0,P|212:317|221:277,1,72.1439999999998,2|2,3:2|0:2,0:0:0:0:
90,130,168489,6,0,P|105:202|93:299,1,144.288,6|6,3:2|3:2,0:0:0:0:
245,213,168975,2,0,L|236:112,1,72.1439999999998,2|2,0:2|0:2,0:0:0:0:
90,130,169300,2,0,L|99:29,1,72.1439999999998,2|2,0:2|3:2,0:0:0:0:
179,77,169624,1,2,0:2:0:0:
73,222,169786,1,2,3:2:0:0:
73,222,169867,1,0,3:2:0:0:
73,222,169948,6,0,B|111:217|111:217|114:218|114:218|170:210,1,72.1439999999998,6|2,3:2|0:2,0:0:0:0:
321,96,170273,2,0,P|264:85|226:102,1,72.1439999999998,2|2,0:2|0:2,0:0:0:0:
224,249,170597,1,2,0:2:0:0:
331,213,170759,2,0,P|286:175|245:171,1,72.1439999999998,2|2,3:2|0:2,0:0:0:0:
74,319,171084,2,0,L|167:309,1,72.1439999999998,6|2,3:2|0:2,0:0:0:0:
274,346,171408,6,0,P|329:316|401:308,2,108.216,6|4|6,3:2|3:2|3:2,0:0:0:0:
145,311,172057,2,0,L|146:254,1,36.072,2|0,0:2|0:2,0:2:0:0:
230,230,172219,2,0,L|229:265,3,36.072,6|0|2|0,3:2|3:2|3:2|3:2,0:0:0:0:
310,194,172543,6,0,L|424:196,1,90.1799999999998,6|2,3:2|0:2,0:0:0:0:
153,162,172867,2,0,L|39:164,1,90.1799999999998,10|2,0:2|0:2,0:0:0:0:
228,265,173192,2,0,L|226:379,1,90.1799999999998,10|2,0:2|3:2,0:0:0:0:
251,103,173516,2,0,L|253:-11,1,90.1799999999998,10|6,0:2|3:2,0:0:0:0:
132,233,173840,6,0,P|75:255|28:255,1,90.1799999999998,10|6,0:2|3:2,0:0:0:0:
89,148,174165,2,0,P|28:154|-17:142,1,90.1799999999998,10|2,0:2|0:2,0:0:0:0:
153,73,174489,2,0,P|97:48|63:15,1,90.1799999999998,10|2,0:2|3:2,0:0:0:0:
253,95,174813,2,0,P|231:38|231:-9,1,90.1799999999998,10|2,0:2|3:2,0:0:0:0:
331,44,175057,1,0,3:2:0:0:
342,56,175138,6,0,P|329:117|324:169,1,90.1799999999998,14|2,3:2|0:2,0:0:0:0:
170,232,175462,2,0,P|183:171|188:119,1,90.1799999999998,10|2,0:2|0:2,0:0:0:0:
170,56,175786,2,0,P|183:117|188:169,1,90.1799999999998,10|2,0:2|3:2,0:0:0:0:
342,232,176111,2,0,P|329:171|324:119,1,90.1799999999998,10|6,0:2|3:2,0:0:0:0:
249,20,176435,6,0,P|205:28|169:55,1,90.1799999999998,10|6,0:2|3:2,0:0:0:0:
314,152,176759,2,0,P|328:109|322:65,1,90.1799999999998,10|2,0:2|0:2,0:0:0:0:
167,142,177084,2,0,P|196:175|237:192,1,90.1799999999998,10|2,3:2|3:2,0:0:0:0:
184,281,177408,2,0,L|206:356,2,45.09,10|0|2,3:2|3:2|3:2,0:0:0:0:
75,147,177732,5,14,3:2:0:0:
100,267,177894,1,2,3:2:0:0:
172,134,178057,5,10,3:2:0:0:
197,254,178219,1,2,3:2:0:0:
259,127,178381,5,10,3:2:0:0:
284,251,178543,1,2,3:2:0:0:
345,172,178705,5,10,3:2:0:0:
374,271,178867,2,0,P|414:238|456:227,1,90.1799999999998,6|10,3:2|3:2,0:0:0:0:
345,84,179192,2,0,P|353:135|342:177,1,90.1799999999998,6|10,3:2|3:2,0:0:0:0:
259,127,179516,1,2,3:2:0:0:
251,221,179678,6,0,L|156:231,1,90.1799999999998,10|2,3:2|3:2,0:0:0:0:
77,109,180002,2,0,L|172:119,1,90.1799999999998,10|2,3:2|3:2,0:0:0:0:
122,316,180327,5,14,3:2:0:0:
97,302,180408,1,0,3:2:0:0:
77,282,180489,1,2,3:2:0:0:
66,257,180570,1,0,3:2:0:0:
63,229,180651,1,10,3:2:0:0:
70,202,180732,1,0,3:2:0:0:
85,178,180813,1,2,3:2:0:0:
107,161,180894,1,0,3:2:0:0:
134,152,180975,2,0,L|144:93,3,45.0899999999999,10|0|2|0,3:2|3:2|3:2|3:2,0:0:0:0:
62,64,181300,2,0,L|52:5,3,45.09,10|0|2|0,3:2|3:2|3:2|3:2,0:0:0:0:
180,14,181624,5,14,3:2:0:0:
180,17,181786,2,0,B|238:54|303:30|303:30|284:96|327:150|327:150|258:154|220:211|220:211|195:147|129:129|129:129|182:86|180:17,1,630.149999999998,6|0,3:2|3:2,0:0:0:0:
179,26,183246,5,12,3:2:0:0:
256,192,183327,12,0,188597,0:0:0:0:
