osu file format v14

[General]
AudioFilename: audio.mp3
AudioLeadIn: 0
PreviewTime: 120651
Countdown: 0
SampleSet: Soft
StackLeniency: 0.7
Mode: 0
LetterboxInBreaks: 0
WidescreenStoryboard: 0

[Editor]
DistanceSpacing: 1.7
BeatDivisor: 4
GridSize: 4
TimelineZoom: 1.599999

[Metadata]
Title:Sthenno
TitleUnicode:Sthenno
Artist:BlackY
ArtistUnicode:BlackY
Creator:Rtyzen
Version:Emilia's INFINITE
Source:
Tags:Comiket C95 pleiades C97 GABRiELLA electronic instrumental beatfloor Rumia- Emilia neonat Ayucchi
BeatmapID:2326783
BeatmapSetID:991780

[Difficulty]
HPDrainRate:5.6
CircleSize:3.5
OverallDifficulty:7.8
ApproachRate:9.4
SliderMultiplier:2.9
SliderTickRate:1

[Events]
//Background and Video events
0,0,"bg.jpg",0,0
//Break Periods
2,89758,99303
//Storyboard Layer 0 (Background)
//Storyboard Layer 1 (Fail)
//Storyboard Layer 2 (Pass)
//Storyboard Layer 3 (Foreground)
//Storyboard Layer 4 (Overlay)
//Storyboard Sound Samples

[TimingPoints]
3,324.324324324324,4,2,1,60,1,0
1300,-125,4,2,1,60,0,0
2111,-250,4,2,1,60,0,0
2435,-125,4,2,1,60,0,0
4705,-250,4,2,1,60,0,0
5030,-125,4,2,1,60,0,0
7300,-250,4,2,1,60,0,0
7624,-125,4,2,1,60,0,0
9894,-250,4,2,1,60,0,0
10219,-125,4,2,1,60,0,0
10543,-83.3333333333333,4,2,1,60,0,0
11192,-125,4,2,1,60,0,0
12489,-250,4,2,1,60,0,0
12813,-125,4,2,1,60,0,0
15084,-250,4,2,1,60,0,0
15408,-125,4,2,1,60,0,0
20921,-500,4,2,1,60,0,0
21084,-500,4,2,1,20,0,0
21732,-500,4,2,3,60,0,0
21894,-500,4,2,3,30,0,0
22057,-166.666666666667,4,2,1,35,0,0
32435,-166.666666666667,4,2,1,45,0,0
32516,-125,4,2,1,45,0,0
35030,-125,4,2,1,50,0,0
37624,-125,4,2,1,55,0,0
40219,-125,4,2,1,65,0,0
40381,-100,4,2,1,65,0,0
41516,-100,4,2,1,75,0,0
42165,-100,4,2,1,80,0,0
42813,-100,4,2,1,60,0,0
44111,-111.111111111111,4,2,1,60,0,0
52057,-125,4,2,1,60,0,0
52543,-76.9230769230769,4,2,1,70,0,0
53192,-200,4,2,1,30,0,0
53516,-100,4,2,1,80,0,0
53597,-100,4,2,1,60,0,0
57732,-100,4,2,1,70,0,0
58381,-200,4,2,1,30,0,0
58705,-100,4,2,1,80,0,0
58746,-100,4,2,1,60,0,0
60975,-100,4,2,1,75,0,0
62273,-166.666666666667,4,2,1,75,0,0
62921,-166.666666666667,4,2,1,50,0,0
63570,-125,4,2,1,55,0,0
81732,-125,4,2,1,65,0,0
82705,-100,4,2,1,65,0,0
83030,-100,4,2,1,75,0,0
84327,-100,4,2,3,75,0,0
84489,-100,4,2,3,35,0,0
85625,-100,4,2,3,45,0,0
86922,-100,4,2,3,55,0,0
88057,-100,4,2,3,10,0,0
88219,-100,4,2,3,75,0,0
88867,-100,4,2,1,75,0,0
88948,-76.9230769230769,4,2,1,75,0,0
89192,-76.9230769230769,4,2,3,75,0,0
89273,-76.9230769230769,4,2,1,75,0,0
99894,-76.9230769230769,4,2,0,50,0,0
99975,-250,4,2,0,50,0,0
100705,-125,4,2,0,50,0,0
101273,-250,4,2,0,50,0,0
102002,-125,4,2,0,50,0,0
102489,-250,4,2,0,50,0,0
103462,-125,4,2,0,50,0,0
103786,-250,4,2,0,50,0,0
104759,-125,4,2,0,50,0,0
105084,-100,4,2,1,60,0,0
107678,-100,4,2,1,70,0,0
108975,-100,4,2,1,80,0,0
109300,-200,4,2,1,80,0,0
109948,-125,4,2,3,60,0,0
110273,-125,4,2,1,55,0,0
114813,-200,4,2,1,55,0,0
115138,-125,4,2,1,55,0,0
116759,-125,4,2,1,65,0,0
118057,-125,4,2,1,75,0,0
118705,-125,4,2,1,85,0,0
119354,-200,4,2,1,30,0,0
119597,-100,4,2,1,30,0,0
119678,-100,4,2,1,45,0,0
119921,-100,4,2,1,60,0,0
120002,-66.6666666666667,4,2,1,60,0,0
120084,-66.6666666666667,4,2,1,75,0,0
120246,-50,4,2,1,75,0,0
120327,-50,4,2,3,90,0,0
120408,-50,4,2,1,75,0,0
120651,-50,4,2,1,65,0,1
120732,-83.3333333333333,4,2,1,65,0,1
130381,-83.3333333333333,4,2,1,80,0,1
130705,-200,4,2,1,80,0,1
131030,-200,4,2,3,65,0,1
131111,-83.3333333333333,4,2,3,65,0,1
131354,-83.3333333333333,4,2,1,65,0,1
134921,-83.3333333333333,4,2,1,80,0,1
136057,-83.3333333333333,4,2,1,65,0,1
138813,-83.3333333333333,4,2,1,65,0,0
140192,-125,4,2,1,55,0,0
140759,-50,4,2,1,80,0,0
141408,-50,4,2,3,80,0,1
141489,-83.3333333333333,4,2,1,65,0,1
141732,-83.3333333333333,4,2,1,65,0,1
151138,-83.3333333333333,4,2,1,80,0,1
151462,-200,4,2,1,80,0,1
151786,-200,4,2,3,70,0,1
151867,-83.3333333333333,4,2,3,70,0,1
152111,-83.3333333333333,4,2,1,70,0,1
156975,-83.3333333333333,4,2,1,75,0,1
158273,-83.3333333333333,4,2,1,85,0,1
159408,-83.3333333333333,4,2,1,90,0,1
160867,-83.3333333333333,4,2,1,65,0,0
160948,-100,4,2,1,65,0,0
161516,-50,4,2,1,80,0,1
162165,-125,4,2,3,80,0,0
162327,-125,4,2,3,60,0,0
162975,-250,4,2,1,60,0,0
163300,-125,4,2,1,60,0,0
165570,-250,4,2,1,60,0,0
165894,-125,4,2,1,60,0,0
168165,-250,4,2,1,60,0,0
168489,-125,4,2,1,60,0,0
170759,-250,4,2,1,60,0,0
171084,-125,4,2,1,60,0,0
171408,-83.3333333333333,4,2,1,60,0,0
172057,-125,4,2,1,60,0,0
172543,-500,4,2,1,65,0,0
173192,-250,4,2,1,65,0,0
174489,-500,4,2,1,65,0,0
175138,-500,4,2,1,75,0,0
175786,-250,4,2,1,75,0,0
177084,-125,4,2,1,75,0,0
177732,-125,4,2,1,85,0,0
181948,-125,4,2,1,25,0,0
182111,-125,4,2,1,35,0,0
182273,-125,4,2,1,45,0,0
182435,-125,4,2,1,55,0,0
182597,-125,4,2,1,65,0,0
182759,-125,4,2,1,75,0,0
182921,-125,4,2,1,25,0,0
183246,-125,4,2,3,80,0,0
183327,-125,4,2,1,80,0,0
188597,-125,4,2,3,5,0,0

[Colours]
Combo1 : 157,60,255
Combo2 : 228,228,228
Combo3 : 151,151,255

[HitObjects]
256,192,3,12,0,1138,0:0:0:0:
188,300,1300,6,0,P|212:341|237:356,1,58.1159999999999,6|0,3:2|0:0,0:0:0:0:
109,217,1462,2,0,P|60:218|34:232,1,58.1159999999999,2|0,0:2|0:0,0:0:0:0:
219,191,1624,2,0,P|242:149|243:119,1,58.1159999999999,2|0,0:2|0:0,0:0:0:0:
96,6,1786,1,2,0:2:0:0:
96,6,1867,1,0,0:2:0:0:
96,6,1948,2,0,L|162:16,1,58.1159999999999,2|0,0:2|0:0,0:0:0:0:
223,62,2111,6,0,L|299:49,1,58.1159999999998,2|0,3:2|0:2,0:0:0:0:
354,16,2435,6,0,L|428:29,1,58.1159999999999,6|0,3:2|0:0,0:0:0:0:
354,16,2759,6,0,L|428:29,1,58.1159999999999,6|0,3:2|0:0,0:0:0:0:
251,145,2921,2,0,P|234:196|240:234,1,58.1159999999999,2|0,0:2|0:0,0:0:0:0:
146,215,3084,1,2,0:2:0:0:
146,215,3165,1,0,0:2:0:0:
146,215,3246,6,0,P|84:187|59:187,1,58.1159999999998,2|0,0:2|0:0,0:0:0:0:
135,358,3408,2,0,L|150:271,1,58.1159999999999,2|0,3:2|0:0,0:0:0:0:
230,384,3570,1,2,0:2:0:0:
244,382,3651,1,0,0:2:0:0:
258,380,3732,1,2,3:2:0:0:
273,378,3813,1,0,3:2:0:0:
287,376,3894,6,0,P|319:364|346:336,1,58.1159999999999,6|0,3:2|0:0,0:0:0:0:
351,166,4057,2,0,P|325:144|287:135,1,58.1159999999998,2|0,0:2|0:0,0:0:0:0:
138,216,4219,2,0,P|132:249|143:286,1,58.1159999999998,2|0,0:2|0:0,0:0:0:0:
0,198,4381,2,0,L|78:181,1,58.1159999999999,2|0,0:2|0:0,0:0:0:0:
219,258,4543,2,0,L|206:329,1,58.1159999999999,2|0,0:2|0:0,0:0:0:0:
205,118,4705,6,0,L|217:191,1,58.1159999999999,2|2,3:2|0:2,0:0:0:0:
274,0,5030,6,0,L|262:75,1,58.1159999999998,6|0,3:2|0:0,0:0:0:0:
274,0,5354,6,0,L|262:75,1,58.1159999999999,6|0,3:2|0:0,0:0:0:0:
313,126,5516,2,0,P|360:107|396:107,1,58.1159999999999,2|0,0:2|0:0,0:0:0:0:
185,34,5678,2,0,P|155:5|100:1,1,58.1159999999999,2|0,0:2|0:0,0:0:0:0:
55,91,5840,6,0,L|138:75,1,58.1159999999999,2|0,3:2|0:0,0:0:0:0:
201,184,6002,2,0,L|217:108,1,58.1159999999999,2|0,3:2|0:0,0:0:0:0:
361,25,6165,1,2,3:2:0:0:
374,25,6246,1,0,3:2:0:0:
388,27,6327,1,2,3:2:0:0:
402,30,6408,1,0,0:0:0:0:
414,38,6489,6,0,P|445:77|451:122,1,58.1159999999999,6|0,0:2|0:0,0:0:0:0:
291,178,6651,2,0,P|309:130|345:103,1,58.1159999999999,2|0,0:2|0:0,0:0:0:0:
241,245,6813,2,0,P|208:205|203:160,1,58.1159999999999,2|0,0:2|0:0,0:0:0:0:
218,102,6975,2,0,L|162:116,1,58.1159999999999,2|0,0:2|0:2,0:0:0:0:
10,56,7138,2,0,L|-4:-17,1,58.1159999999998,2|0,0:2|0:0,0:0:0:0:
42,187,7300,6,0,L|56:113,1,58.1159999999998,2|2,3:2|0:2,0:0:0:0:
13,320,7624,6,0,L|-1:246,1,58.1159999999999,6|0,3:2|0:0,0:0:0:0:
13,320,7948,6,0,L|-1:246,1,58.1159999999999,6|0,3:2|0:0,0:0:0:0:
83,375,8111,2,0,P|131:357|158:329,1,58.1159999999998,2|0,0:2|0:0,0:0:0:0:
191,152,8273,1,2,0:2:0:0:
191,152,8354,1,0,0:2:0:0:
191,152,8435,6,0,P|151:119|113:110,1,58.1159999999999,2|0,0:2|0:0,0:0:0:0:
293,295,8597,2,0,L|278:378,1,58.1159999999999,2|0,3:2|0:0,0:0:0:0:
414,384,8759,1,2,0:2:0:0:
428,381,8840,1,0,0:2:0:0:
442,378,8921,1,2,3:2:0:0:
456,375,9002,1,0,3:2:0:0:
470,372,9084,6,0,P|421:356|399:332,1,58.1159999999998,6|0,3:2|0:0,0:0:0:0:
293,295,9246,2,0,P|331:260|363:253,1,58.1159999999998,2|0,0:2|0:0,0:0:0:0:
448,180,9408,2,0,P|459:230|449:261,1,58.1159999999998,2|0,0:2|0:0,0:0:0:0:
258,211,9570,2,0,L|168:195,1,58.1159999999999,2|0,0:2|0:0,0:0:0:0:
150,373,9732,2,0,L|137:309,1,58.1159999999999,2|0,0:2|0:2,0:0:0:0:
64,262,9894,6,0,L|77:198,1,58.1159999999999,2|2,3:2|0:2,0:0:0:0:
46,127,10219,6,0,L|33:63,1,58.1159999999998,6|0,3:2|0:0,0:0:0:0:
27,65,10543,6,0,B|106:77|106:77|114:70|114:70|220:88,1,174.347994689942,6|2,3:2|0:2,0:0:0:0:
360,77,10786,2,0,B|327:43|335:-4|335:-4|323:42|253:62,1,174.347994689942,4|0,3:2|0:0,0:0:0:0:
427,126,11030,2,0,L|538:108,1,87.1739973449706,6|0,3:2|0:0,0:0:0:0:
259,267,11192,6,0,L|252:305,2,29.058,2|0|0,0:2|0:2|0:2,0:2:0:0:
97,189,11354,2,0,P|154:160|184:165,1,58.1159999999999,6|0,3:2|3:2,0:0:0:0:
312,362,11516,5,2,3:2:0:0:
387,350,11597,1,0,3:2:0:0:
462,338,11678,6,0,P|495:302|466:209,1,116.232,6|2,3:2|0:2,0:0:0:0:
229,149,12002,2,0,L|294:135,1,58.1159999999999,2|0,0:2|0:0,0:0:0:0:
129,50,12165,1,2,0:2:0:0:
129,50,12246,1,0,0:2:0:0:
129,50,12327,2,0,P|169:60|193:91,1,58.1159999999999,2|0,0:2|0:0,0:0:0:0:
289,283,12489,6,0,P|277:243|292:207,1,58.1159999999999,2|2,3:2|0:2,0:0:0:0:
411,28,12813,6,0,P|382:57|343:62,1,58.1159999999999,6|0,3:2|0:0,0:0:0:0:
411,28,13138,6,0,P|382:57|343:62,1,58.1159999999998,6|0,3:2|0:0,0:0:0:0:
512,119,13300,2,0,L|405:101,1,58.1159999999998,2|0,0:2|0:0,0:0:0:0:
275,38,13462,1,2,0:2:0:0:
275,38,13543,1,0,0:2:0:0:
275,38,13624,6,0,L|288:135,1,58.1159999999999,2|0,0:2|0:0,0:0:0:0:
203,188,13786,2,0,L|96:206,1,58.1159999999999,2|0,3:2|0:0,0:0:0:0:
14,142,13948,1,2,0:2:0:0:
28,144,14030,1,0,0:2:0:0:
42,146,14111,1,2,3:2:0:0:
56,149,14192,1,0,3:2:0:0:
71,151,14273,6,0,L|52:11,1,116.232,6|2,3:2|0:2,0:0:0:0:
334,10,14597,2,0,L|244:-7,1,58.1159999999999,2|0,0:2|0:0,0:0:0:0:
239,171,14759,2,0,L|295:181,1,58.1159999999999,2|0,0:2|0:0,0:0:0:0:
425,102,14921,2,0,P|375:109|346:127,1,58.1159999999999,2|0,0:2|0:0,0:0:0:0:
252,311,15084,6,0,P|269:264|268:230,1,58.1159999999998,2|2,3:2|0:2,0:0:0:0:
157,56,15408,6,0,P|188:94|218:110,1,58.1159999999999,6|0,3:2|0:0,0:0:0:0:
157,56,15732,6,0,P|188:94|218:110,1,58.1159999999999,6|0,3:2|0:0,0:0:0:0:
24,105,15894,2,0,L|119:91,1,58.1159999999999,2|0,0:2|0:0,0:0:0:0:
271,57,16057,2,0,L|260:-10,1,58.1159999999998,2|0,0:2|0:0,0:0:0:0:
265,146,16219,6,0,L|254:213,1,58.1159999999998,2|0,3:2|0:0,0:0:0:0:
512,317,16381,2,0,L|417:303,1,58.1159999999999,2|0,3:2|0:0,0:0:0:0:
378,339,16543,1,2,3:2:0:0:
364,337,16624,1,0,3:2:0:0:
349,335,16705,1,2,3:2:0:0:
335,333,16786,1,0,0:0:0:0:
321,331,16867,5,6,3:2:0:0:
212,372,17030,1,2,3:2:0:0:
109,317,17192,1,2,3:2:0:0:
84,202,17354,1,2,3:2:0:0:
232,14,17516,5,2,3:2:0:0:
244,19,17678,1,2,3:2:0:0:
243,7,17840,1,2,3:2:0:0:
12,96,18002,6,0,L|22:185,1,58.1159999999999,6|0,3:2|0:0,0:0:0:0:
0,17,18165,1,2,3:2:0:0:
12,96,18327,2,0,L|22:185,1,58.1159999999999,6|0,3:2|0:0,0:0:0:0:
150,271,18489,5,2,3:2:0:0:
161,278,18651,1,2,3:2:0:0:
162,266,18813,1,2,3:2:0:0:
90,384,18975,1,2,3:2:0:0:
290,270,19138,1,2,3:2:0:0:
90,154,19300,1,2,3:2:0:0:
90,154,19381,1,0,3:2:0:0:
90,154,19462,6,0,P|75:212|45:239,1,58.1159999999999,6|0,3:2|3:2,0:0:0:0:
48,67,19624,5,2,3:2:0:0:
68,59,19705,1,0,3:2:0:0:
89,61,19786,5,2,3:2:0:0:
137,81,19867,1,0,3:2:0:0:
172,119,19948,1,2,3:2:0:0:
222,132,20030,1,0,3:2:0:0:
273,124,20111,2,0,P|306:101|325:72,1,58.1159999999998,2|0,3:2|3:2,0:0:0:0:
291,223,20273,5,2,3:2:0:0:
291,223,20354,1,0,3:2:0:0:
291,223,20435,2,0,P|305:280|298:309,1,58.1159999999999,2|0,3:2|3:2,0:0:0:0:
232,42,20597,5,2,3:2:0:0:
232,42,20678,1,0,3:2:0:0:
232,42,20759,2,0,P|181:11|145:10,1,58.1159999999999,6|0,3:2|0:0,0:0:0:0:
512,140,20921,6,0,P|452:150|406:191,1,116.053166666666,6|2,3:2|0:2,0:0:0:0:
5,67,21732,5,10,0:2:0:0:
5,67,22057,6,0,L|105:54,1,87.1739973449706,2|2,3:2|0:2,0:0:0:0:
161,5,22381,1,2,3:2:0:0:
250,118,22543,1,2,0:2:0:0:
408,17,22705,1,2,3:2:0:0:
405,26,22786,2,0,P|343:69|307:62,1,86.9999973449708
328,63,23030,2,0,P|371:67|407:92,1,87.1739973449706,2|2,3:2|0:2,0:0:0:0:
480,139,23354,6,0,L|325:153,1,130.760996017456,2|0,3:2|0:0,0:0:0:0:
342,144,23678,2,0,L|324:254,1,87.1739973449706,2|2,3:2|0:2,0:0:0:0:
167,45,24002,1,2,3:2:0:0:
169,57,24084,2,0,L|187:167,1,87.1739973449706
186,155,24327,1,2,3:2:0:0:
95,137,24489,2,0,P|87:105|94:75,1,43.4999986724854,2|0,0:2|0:0,0:0:0:0:
260,94,24651,5,2,3:2:0:0:
270,88,24732,2,0,L|366:78,1,87.1739973449706
406,150,24975,2,0,P|368:161|345:157,1,43.5869986724854,2|0,3:2|0:0,0:0:0:0:
323,0,25138,2,0,P|375:-4|424:38,1,87.1739973449706,2|2,0:2|3:2,0:0:0:0:
412,19,25381,2,0,P|459:45|512:33,1,87.1739973449706
500,38,25624,2,0,L|492:94,1,43.5869986724854,2|0,3:2|0:0,0:0:0:0:
406,150,25786,2,0,L|414:206,1,43.5869986724854,2|0,0:2|0:0,0:0:0:0:
483,344,25948,5,2,3:2:0:0:
491,338,26030,2,0,P|514:292|503:239,1,87.1739973449706
397,330,26273,2,0,L|297:341,1,87.1739973449706,2|2,3:2|0:2,0:0:0:0:
231,371,26516,1,0,0:0:0:0:
231,371,26597,1,2,3:2:0:0:
231,371,26678,2,0,P|205:329|211:279,1,87.1739973449706
119,344,26921,2,0,L|4:333,1,87.1739973449706,2|2,3:2|0:2,0:0:0:0:
0,221,27165,1,0,0:0:0:0:
7,216,27246,5,2,3:2:0:0:
14,211,27327,2,0,P|78:236|93:275,1,87.1739973449706
141,180,27570,2,0,L|129:77,1,87.1739973449706,2|2,3:2|0:2,0:0:0:0:
191,35,27813,2,0,P|228:43|246:57,1,43.5869986724854,0|2,0:0|3:2,0:0:0:0:
305,184,27975,2,0,P|251:200|218:246,1,87.1739973449706
196,304,28219,2,0,P|204:359|230:394,1,87.1739973449706,2|2,3:2|0:2,0:0:0:0:
115,361,28462,2,0,L|44:371,1,43.5869986724854,0|2,0:0|3:2,0:0:0:0:
283,323,28624,6,0,L|383:337,1,87.1739973449706
449,289,28867,2,0,P|437:233|401:202,1,87.1739973449706,2|2,3:2|0:2,0:0:0:0:
353,113,29111,1,0,0:0:0:0:
353,113,29192,1,2,3:2:0:0:
353,113,29273,2,0,L|366:8,1,87.1739973449706
512,41,29516,2,0,P|468:84|419:86,1,87.1739973449706,2|2,3:2|0:2,0:0:0:0:
266,128,29759,2,0,P|227:142|211:158,1,43.5869986724854,0|2,0:0|3:2,0:0:0:0:
72,78,29921,6,0,L|181:88,1,87.1739973449706
0,136,30165,2,0,P|41:181|43:236,1,87.1739973449706,2|2,3:2|0:2,0:0:0:0:
0,22,30408,2,0,P|32:1|56:-4,1,43.5869986724854,0|2,0:0|3:2,0:0:0:0:
205,0,30570,2,0,P|251:36|301:31,1,87.1739973449706
458,0,30813,2,0,L|353:14,1,87.1739973449706,2|2,3:2|0:2,0:0:0:0:
328,125,31057,2,0,L|320:187,1,43.5869986724853,0|2,0:0|3:2,0:0:0:0:
488,373,31219,6,0,P|488:325|437:277,1,87.1739973449706
288,248,31462,2,0,L|188:265,1,87.1739973449706,2|2,3:2|0:2,0:0:0:0:
127,224,31705,1,0,0:0:0:0:
114,222,31786,1,10,0:2:0:0:
400,348,31948,2,0,L|424:143,1,174.347994689942,10|2,0:2|0:2,0:0:0:0:
286,23,32435,5,6,3:2:0:0:
275,18,32516,2,0,P|281:95|327:130,1,116.232
488,129,32759,2,0,P|422:96|392:104,1,58.1159999999999,10|0,0:2|0:0,0:0:0:0:
283,205,32921,1,2,0:2:0:0:
283,205,33002,1,0,0:0:0:0:
283,205,33084,2,0,L|194:224,1,58.1159999999998,2|0,3:2|0:0,0:0:0:0:
97,172,33246,2,0,L|113:109,1,58.1159999999998,2|0,0:2|0:0,0:0:0:0:
0,273,33408,2,0,L|52:390,1,116.232,10|2,0:2|0:2,0:0:0:0:
124,315,33651,1,0,0:0:0:0:
124,315,33732,5,2,3:2:0:0:
124,315,33813,2,0,L|213:334,1,58.1159999999999,0|2,0:0|0:2,0:0:0:0:
300,144,33975,1,0,0:0:0:0:
308,136,34057,2,0,L|289:2,1,116.232,10|2,0:2|0:2,0:0:0:0:
343,222,34300,1,0,0:0:0:0:
343,222,34381,1,2,3:2:0:0:
343,222,34462,2,0,P|270:227|218:169,1,116.232
126,136,34705,2,0,P|175:146|198:165,1,58.1159999999999,10|0,0:2|0:0,0:0:0:0:
346,362,34867,2,0,P|330:313|335:284,1,58.1159999999999,2|0,0:2|0:0,0:0:0:0:
432,59,35030,5,2,3:2:0:0:
432,59,35111,2,0,P|394:115|305:129,1,116.232
238,57,35354,2,0,L|227:-2,1,58.1159999999999,10|0,0:2|0:0,0:0:0:0:
275,171,35516,2,0,L|264:228,1,58.1159999999999,2|0,0:2|0:0,0:0:0:0:
440,332,35678,1,2,3:2:0:0:
434,322,35759,2,0,L|418:189,1,116.232
200,297,36002,2,0,P|243:307|270:328,1,58.1159999999999,10|0,0:2|0:0,0:0:0:0:
77,384,36165,2,0,P|122:357|158:350,1,58.1159999999998,2|0,0:2|0:0,0:0:0:0:
8,270,36327,5,2,3:2:0:0:
1,260,36408,2,0,L|14:137,1,116.232
161,27,36651,2,0,P|205:71|194:153,1,116.232,10|2,0:2|0:2,0:0:0:0:
141,183,36894,1,0,0:0:0:0:
141,183,36975,2,0,P|106:207|67:216,1,58.1159999999999,2|0,3:2|0:0,0:0:0:0:
276,0,37138,2,0,P|319:21|348:23,1,58.1159999999998,2|0,0:2|0:0,0:0:0:0:
57,51,37300,2,0,L|-1:43,1,58.1159999999998,10|0,0:2|0:0,0:0:0:0:
208,122,37462,2,0,L|265:115,1,58.1159999999999,2|0,0:2|0:0,0:0:0:0:
368,243,37624,5,2,3:2:0:0:
359,250,37705,2,0,P|292:240|259:181,1,116.232
219,355,37948,2,0,P|275:329|296:327,1,58.1159999999999,10|0,0:2|0:0,0:0:0:0:
447,190,38111,2,0,P|436:158|400:123,1,58.1159999999998,2|0,0:2|0:0,0:0:0:0:
233,7,38273,1,2,3:2:0:0:
224,14,38354,2,0,L|209:174,1,116.232
150,253,38597,2,0,P|136:183|82:149,1,116.232,10|2,0:2|0:2,0:0:0:0:
20,86,38840,1,0,0:0:0:0:
20,86,38921,5,2,3:2:0:0:
20,86,39002,2,0,P|74:75|102:55,1,58.1159999999999,0|2,0:0|0:2,0:0:0:0:
307,53,39165,1,0,0:0:0:0:
307,53,39246,2,0,L|299:136,1,58.1159999999998,10|0,0:2|0:0,0:0:0:0:
468,0,39408,2,0,L|372:28,1,58.1159999999999,2|0,0:2|0:0,0:0:0:0:
216,159,39570,1,2,3:2:0:0:
225,151,39651,2,0,P|304:175|326:245,1,116.232
408,298,39894,2,0,P|420:253|435:227,1,58.1159999999999,10|0,0:2|0:0,0:0:0:0:
150,329,40057,2,0,P|161:355|166:384,1,58.1159999999998,2|0,0:2|0:0,0:0:0:0:
0,306,40219,5,2,3:2:0:0:
0,306,40300,1,0,0:2:0:0:
0,306,40381,2,0,P|36:284|83:277,1,72.6449999999999,2|0,0:2|0:2,0:0:0:0:
45,169,40543,5,10,0:2:0:0:
45,169,40624,1,0,0:2:0:0:
45,169,40705,2,0,P|86:175|127:200,1,72.5724999999999,2|0,0:2|0:2,0:0:0:0:
201,12,40867,5,2,3:2:0:0:
201,12,40948,1,0,0:2:0:0:
201,12,41030,2,0,P|228:43|243:88,1,72.6449999999999,2|0,0:2|0:2,0:0:0:0:
512,75,41192,5,10,0:2:0:0:
512,75,41273,1,0,0:2:0:0:
512,75,41354,2,0,P|513:117|495:161,1,72.6449999999999,2|0,0:2|0:2,0:0:0:0:
337,377,41516,5,2,3:2:0:0:
331,382,41597,1,0,0:2:0:0:
324,384,41678,1,2,0:2:0:0:
317,380,41759,1,0,0:2:0:0:
315,374,41840,1,2,0:2:0:0:
317,367,41921,1,0,0:2:0:0:
323,363,42002,1,2,0:2:0:0:
331,364,42084,1,0,0:2:0:0:
336,369,42165,6,0,P|328:319|299:287,1,72.6449999999998,2|0,0:2|0:2,0:2:0:0:
183,84,42327,2,0,P|230:102|272:92,1,72.6449999999999,0|0,0:2|0:2,0:0:0:0:
416,213,42489,6,0,L|409:173,7,36.3224999999999,2|0|0|0|0|0|0|0,0:2|0:2|0:2|0:2|0:2|0:2|0:2|0:2,0:2:0:0:
417,226,42813,6,0,P|440:168|523:138,1,145.29,6|0,3:2|0:2,0:0:0:0:
112,30,43138,1,8,0:2:0:0:
142,154,43300,1,0,0:2:0:0:
236,0,43462,1,0,3:2:0:0:
265,124,43624,1,0,0:2:0:0:
188,77,43786,1,8,0:2:0:0:
0,225,43948,1,2,0:2:0:0:
0,225,44030,1,2,0:2:0:0:
0,225,44111,6,0,B|108:193|81:299|200:259,1,196.141494026184,2|0,3:2|0:0,0:0:0:0:
379,252,44435,2,0,L|310:241,1,65.3804980087279,8|0,0:2|0:0,0:0:0:0:
199,374,44597,1,2,0:2:0:0:
199,374,44678,1,0,0:0:0:0:
199,374,44759,2,0,P|280:378|327:305,1,130.760996017456,0|2,3:2|0:2,0:0:0:0:
180,169,45084,1,8,0:2:0:0:
306,235,45246,1,2,0:2:0:0:
512,0,45408,6,0,P|415:-11|343:72,1,196.141494026184,0|0,3:2|0:0,0:0:0:0:
341,47,45732,2,0,L|359:179,1,130.760996017456,8|0,0:2|0:2,0:0:0:0:
131,221,46057,1,0,3:2:0:0:
192,379,46219,1,2,0:2:0:0:
299,247,46381,1,8,0:2:0:0:
207,282,46543,1,2,0:2:0:0:
237,88,46705,5,2,3:2:0:0:
47,219,46867,2,0,P|63:272|94:304,1,65.3804980087279,2|0,0:2|0:0,0:0:0:0:
312,55,47030,2,0,P|265:10|189:22,1,130.760996017456,8|2,0:2|0:2,0:0:0:0:
2,143,47354,1,2,3:2:0:0:
2,143,47435,1,0,0:0:0:0:
2,143,47516,1,2,0:2:0:0:
178,268,47678,1,10,0:2:0:0:
202,384,47840,1,2,0:2:0:0:
343,291,48002,6,0,P|410:225|516:251,1,196.141494026184,0|0,3:2|0:0,0:0:0:0:
512,237,48327,2,0,L|493:377,1,130.760996017456,8|0,0:2|0:2,0:0:0:0:
394,124,48651,1,0,3:2:0:0:
351,0,48813,1,0,0:2:0:0:
479,25,48975,1,8,0:2:0:0:
244,194,49138,1,2,0:2:0:0:
244,194,49219,1,2,0:2:0:0:
244,194,49300,6,0,P|151:258|56:203,1,196.141494026184,2|0,3:2|0:0,0:0:0:0:
0,30,49624,2,0,L|93:14,1,65.3804980087279,8|0,0:2|0:0,0:0:0:0:
296,124,49786,1,2,0:2:0:0:
296,124,49867,1,0,0:0:0:0:
296,124,49948,2,0,P|330:183|301:261,1,130.760996017456,0|2,3:2|0:2,0:0:0:0:
97,377,50273,1,8,0:2:0:0:
73,226,50435,1,2,0:2:0:0:
316,384,50597,6,0,P|378:313|524:347,1,196.141494026184,0|0,3:2|0:0,0:0:0:0:
482,318,50921,2,0,L|508:179,1,130.760996017456,8|0,0:2|0:2,0:0:0:0:
159,36,51246,1,0,3:2:0:0:
194,183,51408,1,2,0:2:0:0:
340,147,51570,1,8,0:2:0:0:
306,0,51732,1,2,0:2:0:0:
249,91,51894,5,4,3:2:0:0:
0,150,52057,2,0,L|83:157,1,58.1159999999998,0|0,0:2|0:0,0:0:0:0:
135,384,52219,2,0,L|118:244,1,116.232,8|0,0:2|0:2,0:0:0:0:
365,0,52543,6,0,B|356:54|356:54|341:73|341:73|323:187,1,188.876991371154,6|0,3:2|0:0,0:0:0:0:
294,262,52786,1,4,3:2:0:0:
300,269,52867,2,0,P|346:267|383:240,1,94.4384956855774,0|0,3:2|0:0,0:0:0:0:
512,127,53030,2,0,P|479:93|434:84,1,94.4384956855774,4|0,3:2|0:0,0:0:0:0:
212,174,53192,6,0,L|193:311,1,108.9675,0|0,3:2|0:0,0:0:0:0:
202,290,53516,6,0,P|145:348|55:335,1,145.29,8|0,0:2|0:2,0:0:0:0:
9,107,53840,1,0,3:2:0:0:
204,168,54002,1,0,0:2:0:0:
121,92,54165,1,8,0:2:0:0:
367,7,54327,1,2,0:2:0:0:
367,7,54408,1,2,0:2:0:0:
367,7,54489,6,0,B|390:124|261:97|316:259,1,217.934999999999,2|0,3:2|0:0,0:0:0:0:
209,48,54813,2,0,L|318:32,1,72.6449999999999,8|0,0:2|0:0,0:0:0:0:
512,142,54975,1,2,0:2:0:0:
512,142,55057,1,0,0:0:0:0:
512,142,55138,2,0,P|447:191|374:164,1,145.29,0|2,3:2|0:2,0:0:0:0:
96,157,55462,2,0,P|137:130|189:128,1,72.6449999999999,8|0,0:2|0:0,0:0:0:0:
368,260,55624,2,0,P|327:287|275:289,1,72.6449999999999,2|0,3:2|0:0,0:0:0:0:
31,206,55786,6,0,P|117:216|118:351,1,217.934999999999,4|0,3:2|0:0,0:0:0:0:
143,337,56111,2,0,L|-10:362,1,145.29,8|0,0:2|0:2,0:0:0:0:
226,216,56435,1,0,3:2:0:0:
332,183,56597,1,2,0:2:0:0:
414,259,56759,1,8,0:2:0:0:
356,74,56921,1,2,0:2:0:0:
308,297,57084,6,0,P|288:348|241:380,1,72.6449999999998,2|0,3:2|0:0,0:0:0:0:
245,105,57246,2,0,P|210:62|206:5,1,72.6449999999998,2|0,3:2|0:0,0:0:0:0:
442,146,57408,2,0,P|496:137|547:162,1,72.6449999999999,10|0,0:2|0:0,0:0:0:0:
293,0,57570,1,2,0:2:0:0:
293,0,57651,1,0,0:2:0:0:
293,0,57732,6,0,L|283:54,6,36.3224999999999,2|0|0|0|2|0|0,3:2|0:0|0:2|0:0|0:2|0:2|0:2,0:0:0:0:
61,71,58057,2,0,P|105:42|142:41,1,72.6449999999998,14|0,0:2|0:2,0:0:0:0:
361,81,58219,2,0,L|406:72,2,36.3225,2|0|0,0:2|0:2|0:2,0:2:0:0:
218,194,58381,6,0,L|101:180,1,108.9675,4|0,3:2|0:0,0:0:0:0:
102,176,58705,6,0,P|82:261|137:318,1,145.29,8|0,0:2|0:2,0:0:0:0:
320,180,59030,1,0,3:2:0:0:
364,43,59192,1,0,0:2:0:0:
462,150,59354,1,8,0:2:0:0:
277,90,59516,1,2,0:2:0:0:
277,90,59597,1,2,0:2:0:0:
277,90,59678,6,0,P|226:81|186:49,1,72.6449999999999,2|0,3:2|0:0,0:0:0:0:
463,50,59840,2,0,P|495:10|543:-8,1,72.6449999999999,0|0,3:2|0:0,0:0:0:0:
405,232,60002,2,0,P|426:286|386:380,1,145.29,8|2,3:2|0:2,0:0:0:0:
320,339,60246,1,0,0:0:0:0:
320,339,60327,2,0,L|232:323,1,72.6449999999999,0|0,3:2|0:0,0:0:0:0:
0,204,60489,2,0,L|88:188,1,72.6449999999999,2|0,0:2|0:0,0:0:0:0:
215,76,60651,1,8,0:2:0:0:
148,339,60813,1,2,3:2:0:0:
421,318,60975,6,0,P|401:380|377:403,1,72.6449999999999,4|0,3:2|0:0,0:0:0:0:
458,243,61138,2,0,P|501:291|509:323,1,72.6449999999998,0|0,3:2|0:0,0:0:0:0:
416,137,61300,2,0,P|479:123|511:132,1,72.6449999999998,12|0,3:2|0:0,0:0:0:0:
265,66,61462,2,0,P|285:3|308:-19,1,72.6449999999999,0|0,3:2|0:0,0:0:0:0:
132,236,61624,5,0,3:2:0:0:
138,241,61705,1,0,3:2:0:0:
144,248,61786,1,2,3:2:0:0:
150,256,61867,1,0,3:2:0:0:
154,263,61948,1,8,3:2:0:0:
157,272,62030,1,0,3:2:0:0:
160,281,62111,1,2,3:2:0:0:
161,290,62192,1,0,3:2:0:0:
162,299,62273,6,0,L|142:393,1,87.1739973449706,4|2,3:2|0:2,0:0:0:0:
61,188,62597,2,0,P|104:156|145:154,1,87.1739973449706,2|2,0:2|0:2,0:0:0:0:
260,304,62921,2,0,P|314:340|351:338,1,87.1739973449706,2|2,0:2|0:2,0:0:0:0:
416,267,63246,2,0,L|422:232,7,21.7934993362427,2|0|0|0|2|0|0|0,0:2|0:2|0:2|0:2|0:2|0:2|0:2|0:2,0:2:0:0:
423,277,63570,6,0,P|475:265|514:214,1,116.232,6|0,0:2|0:0,0:0:0:0:
339,187,63894,1,2,0:2:0:0:
339,172,63975,1,2,0:2:0:0:
342,158,64057,1,2,0:2:0:0:
347,144,64138,1,2,0:2:0:0:
355,132,64219,5,2,0:2:0:0:
366,77,64300,1,2,0:2:0:0:
334,30,64381,1,2,0:2:0:0:
279,18,64462,1,2,0:2:0:0:
232,49,64543,2,0,P|217:87|216:126,1,58.1159999999999,2|2,0:2|0:2,0:0:0:0:
471,12,64705,2,0,P|419:2|387:-20,1,58.1159999999999,2|2,0:2|0:2,0:0:0:0:
144,8,64867,5,2,0:2:0:0:
129,6,64948,1,2,0:2:0:0:
115,4,65030,1,2,0:2:0:0:
100,2,65111,1,2,0:2:0:0:
86,0,65192,2,0,L|107:129,1,116.232,2|2,0:2|0:2,0:0:0:0:
116,220,65435,1,2,0:2:0:0:
99,196,65516,5,2,0:2:0:0:
113,195,65597,1,2,0:2:0:0:
127,192,65678,1,2,0:2:0:0:
141,186,65759,1,2,0:2:0:0:
153,179,65840,5,2,0:2:0:0:
133,200,65921,1,2,0:2:0:0:
121,226,66002,1,2,0:2:0:0:
118,255,66084,1,2,0:2:0:0:
123,283,66165,6,0,P|83:230|-4:238,1,116.232,2|0,0:2|0:0,0:0:0:0:
105,382,66489,1,2,0:2:0:0:
211,253,66651,1,2,0:2:0:0:
211,253,66732,1,2,0:2:0:0:
211,253,66813,2,0,P|233:209|236:173,1,58.1159999999999,2|2,0:2|0:2,0:0:0:0:
206,99,66975,1,0,0:0:0:0:
381,0,67138,6,0,P|323:37|239:11,1,116.232,2|0,0:2|0:0,0:0:0:0:
196,9,67381,2,0,L|50:27,1,116.232,2|0,0:2|0:0,0:0:0:0:
212,93,67624,2,0,P|188:137|186:167,1,58.1159999999999
300,260,67786,2,0,P|291:174|219:145,1,116.232,2|0,0:2|0:0,0:0:0:0:
172,328,68030,1,2,0:2:0:0:
168,336,68111,2,0,B|215:362|215:362|371:335,2,174.348,2|2|2,0:2|0:2|0:2,0:0:0:0:
411,384,68678,1,2,0:2:0:0:
418,380,68759,6,0,P|451:310|429:255,1,116.232,2|0,0:2|0:0,0:0:0:0:
363,153,69084,1,2,0:2:0:0:
373,163,69165,1,2,0:2:0:0:
384,171,69246,1,2,0:2:0:0:
398,177,69327,1,2,0:2:0:0:
412,180,69408,5,2,0:2:0:0:
369,186,69489,1,2,0:2:0:0:
325,192,69570,1,2,0:2:0:0:
282,198,69651,1,2,0:2:0:0:
239,203,69732,2,0,L|229:285,1,58.1159999999999,2|2,0:2|0:2,0:0:0:0:
431,98,69894,2,0,L|421:16,1,58.1159999999999,2|2,0:2|0:2,0:0:0:0:
228,123,70057,6,0,P|181:145|162:169,1,58.1159999999998,2|2,0:2|0:2,0:0:0:0:
6,209,70219,2,0,P|48:238|78:243,1,58.1159999999998,2|2,0:2|0:2,0:0:0:0:
192,358,70381,2,0,P|196:306|185:277,1,58.1159999999999,2|2,0:2|0:2,0:0:0:0:
142,232,70543,1,2,0:2:0:0:
77,62,70705,6,0,L|68:-11,1,58.1159999999999,2|2,0:2|0:2,0:0:0:0:
43,137,70867,2,0,P|104:140|158:70,1,116.232,2|2,0:2|0:2,0:0:0:0:
181,30,71111,1,2,0:2:0:0:
186,24,71192,2,0,P|232:9|265:14,1,58.1159999999998,2|2,0:2|0:2,0:0:0:0:
354,131,71354,6,0,L|336:287,1,116.232,2|0,0:2|0:0,0:0:0:0:
340,246,71678,2,0,P|370:225|402:219,1,58.1159999999999,2|2,0:2|0:2,0:0:0:0:
512,98,71840,1,2,0:2:0:0:
512,98,71921,1,2,0:2:0:0:
512,98,72002,2,0,P|472:61|438:55,1,58.1159999999999,2|2,0:2|0:2,0:0:0:0:
392,36,72165,1,0,0:0:0:0:
356,338,72327,6,0,P|302:380|227:360,1,116.232,2|0,0:2|0:0,0:0:0:0:
177,279,72570,2,0,P|223:291|245:326,1,58.1159999999999,2|0,0:2|0:0,0:0:0:0:
174,362,72732,2,0,L|41:381,1,116.232,2|0,0:2|0:0,0:0:0:0:
81,287,72975,2,0,P|78:209|0:213,1,174.348,2|2,0:2|0:2,0:0:0:0:
5,218,73300,2,0,P|38:211|70:182,1,58.1159999999998,2|2,0:2|0:2,0:0:0:0:
112,122,73462,1,2,0:2:0:0:
112,122,73624,2,0,P|156:147|191:146,1,58.1159999999999,2|2,0:2|0:2,0:0:0:0:
253,145,73786,1,2,0:2:0:0:
253,145,73948,6,0,L|232:294,1,116.232,2|0,0:2|0:0,0:0:0:0:
350,384,74273,1,2,0:2:0:0:
353,369,74354,1,2,0:2:0:0:
353,355,74435,1,2,0:2:0:0:
349,341,74516,1,2,0:2:0:0:
343,328,74597,5,2,0:2:0:0:
320,292,74678,1,2,0:2:0:0:
327,250,74759,1,2,0:2:0:0:
360,223,74840,1,2,0:2:0:0:
402,226,74921,2,0,P|430:249|444:281,1,58.1159999999999,2|2,0:2|0:2,0:0:0:0:
249,351,75084,1,2,0:2:0:0:
249,351,75165,1,2,0:2:0:0:
249,351,75246,6,0,P|212:363|185:387,1,58.1159999999998,2|2,0:2|0:2,0:0:0:0:
40,287,75408,2,0,L|178:299,1,116.232,2|2,0:2|0:2,0:0:0:0:
234,216,75651,1,2,0:2:0:0:
240,210,75732,2,0,P|232:168|206:137,1,58.1159999999999,2|2,0:2|0:2,0:0:0:0:
167,0,75894,5,2,0:2:0:0:
169,11,75975,1,2,0:2:0:0:
171,22,76057,1,2,0:2:0:0:
335,90,76219,1,2,0:2:0:0:
333,101,76300,1,2,0:2:0:0:
331,112,76381,5,2,0:2:0:0:
364,102,76462,1,2,0:2:0:0:
397,93,76543,2,0,L|510:128,1,116.232,2|0,0:2|0:0,0:0:0:0:
329,5,76867,2,0,P|287:16|260:40,1,58.1159999999999,2|2,0:2|0:2,0:0:0:0:
297,204,77030,1,2,0:2:0:0:
297,204,77111,1,2,0:2:0:0:
297,204,77192,2,0,P|364:209|414:158,1,116.232,2|0,0:2|0:0,0:0:0:0:
89,293,77516,2,0,P|95:348|15:302,1,174.348,2|2,0:2|0:2,0:0:0:0:
19,246,77840,5,2,0:2:0:0:
19,246,78002,1,0,0:0:0:0:
329,251,78165,2,0,P|263:287|249:214,1,174.348,2|2,0:2|0:2,0:0:0:0:
380,324,78489,2,0,P|333:361|262:370,1,116.232,2|0,0:2|0:0,0:0:0:0:
197,340,78732,2,0,P|164:290|171:190,1,116.232,2|0,0:2|0:0,0:0:0:0:
95,348,78975,2,0,P|61:363|31:385,1,58.1159999999999,2|2,0:2|0:2,0:0:0:0:
15,239,79138,6,0,L|37:103,1,116.232,2|0,0:2|0:0,0:0:0:0:
148,1,79462,1,2,0:2:0:0:
151,14,79543,1,2,0:2:0:0:
158,27,79624,1,2,0:2:0:0:
167,39,79705,1,2,0:2:0:0:
178,48,79786,5,2,0:2:0:0:
221,42,79867,1,2,0:2:0:0:
264,36,79948,1,2,0:2:0:0:
307,29,80030,1,2,0:2:0:0:
350,23,80111,2,0,L|336:104,1,58.1159999999998,2|2,0:2|0:2,0:0:0:0:
160,228,80273,2,0,L|149:170,1,58.1159999999998,2|2,0:2|0:2,0:0:0:0:
245,290,80435,5,2,0:2:0:0:
245,290,80516,1,2,0:2:0:0:
245,290,80597,2,0,P|261:336|255:378,1,58.1159999999999,2|2,0:2|0:2,0:0:0:0:
496,283,80759,2,0,L|358:265,1,116.232,2|2,0:2|0:2,0:0:0:0:
323,206,81002,1,2,0:2:0:0:
328,200,81084,6,0,P|365:184|404:189,1,58.1159999999998,2|2,0:2|0:2,0:0:0:0:
429,337,81246,2,0,P|392:353|353:348,1,58.1159999999998,2|2,0:2|0:2,0:0:0:0:
180,342,81408,1,2,0:2:0:0:
165,340,81489,1,2,0:2:0:0:
151,338,81570,1,2,0:2:0:0:
136,336,81651,1,2,0:2:0:0:
122,334,81732,6,0,P|62:371|-17:346,1,116.232,2|0,0:2|0:2,0:0:0:0:
41,172,82057,2,0,P|91:186|114:212,1,58.1159999999998,0|2,0:2|0:2,0:0:0:0:
204,71,82219,2,0,P|191:20|202:-12,1,58.1159999999998,2|2,0:2|0:2,0:0:0:0:
117,98,82381,1,0,0:2:0:0:
117,98,82462,2,0,L|261:118,1,116.232,2|0,0:2|0:2,0:0:0:0:
208,204,82705,6,0,B|285:189|285:189|306:141|383:143,1,145.29,2|0,0:2|0:2,0:0:0:0:
467,121,82948,1,2,0:2:0:0:
467,121,83030,6,0,P|418:91|385:91,1,72.6449999999998,4|2,0:2|0:2,0:0:0:0:
335,264,83192,2,0,P|384:294|417:294,1,72.6449999999998,0|0,0:2|0:2,0:0:0:0:
512,249,83354,1,2,0:2:0:0:
512,249,83435,1,0,0:2:0:0:
512,249,83516,1,0,0:2:0:0:
289,356,83678,6,0,L|185:369,1,72.6449999999999,2|2,0:2|0:2,0:0:0:0:
17,372,83840,2,0,P|31:282|117:237,1,145.29,2|2,0:2|0:2,0:0:0:0:
60,166,84084,1,2,0:2:0:0:
60,166,84165,2,0,P|106:172|144:214,1,72.6449999999998,2|2,0:2|0:2,0:0:0:0:
379,379,84327,5,14,0:2:0:0:
256,192,84408,12,0,88057,0:2:0:0:
169,34,88219,5,0,1:2:0:0:
216,58,88300,1,0,1:2:0:0:
255,94,88381,1,0,1:2:0:0:
282,140,88462,1,0,1:2:0:0:
294,193,88543,1,0,1:2:0:0:
291,246,88624,1,0,1:2:0:0:
273,297,88705,1,0,1:2:0:0:
240,340,88786,1,0,1:2:0:0:
232,345,88867,5,2,1:2:0:0:
224,350,88948,6,0,B|241:291|298:277|298:277|324:323|374:318,1,188.876991371154,2|0,1:2|1:2,0:0:0:0:
470,113,89192,2,0,B|472:70|440:15|374:17|374:17|399:60,1,188.876991371155,10|0,1:2|1:2,0:0:0:0:
142,184,89435,1,2,1:2:0:0:
131,189,89516,6,0,L|50:175,1,47.2192478427887,14|0,1:2|0:0,0:0:0:0:
0,338,99894,5,2,0:2:0:0:
8,342,99975,2,0,L|83:330,1,58.1159999999999,2|0,0:2|0:0,0:0:0:0:
146,342,100219,2,0,L|221:330,1,58.1159999999998,2|0,0:2|0:0,0:0:0:0:
284,342,100462,2,0,L|359:330,1,58.1159999999999,2|0,0:2|0:0,0:0:0:0:
348,329,100705,6,0,P|388:345|410:367,1,58.1159999999999,2|0,0:2|0:0,0:0:0:0:
512,283,100867,2,0,P|505:240|513:210,1,58.1159999999999,2|0,0:2|0:0,0:0:0:0:
391,164,101030,1,2,0:2:0:0:
391,164,101111,2,0,P|357:190|327:198,1,58.1159999999998,2|0,0:2|0:2,0:0:0:0:
338,191,101273,6,0,L|263:179,1,58.1159999999998,2|0,0:2|0:0,0:0:0:0:
200,191,101516,2,0,L|125:179,1,58.1159999999998,2|0,0:2|0:0,0:0:0:0:
62,191,101759,2,0,L|-13:179,1,58.1159999999999,2|0,0:2|0:0,0:0:0:0:
0,188,102002,6,0,P|5:225|32:257,1,58.1159999999999,2|0,0:2|0:0,0:0:0:0:
40,384,102165,2,0,P|59:314|129:283,1,116.232,2|2,0:2|0:2,0:0:0:0:
169,318,102408,1,2,0:2:0:0:
164,327,102489,6,0,L|239:315,1,58.1159999999999,2|0,0:2|0:0,0:0:0:0:
302,327,102732,2,0,L|377:315,1,58.1159999999999,2|0,0:2|0:0,0:0:0:0:
440,327,102975,2,0,L|515:315,1,58.1159999999999,2|0,0:2|0:2,0:0:0:0:
364,322,103219,2,0,L|306:331,1,58.1159999999998,2|0,0:2|0:0,0:0:0:0:
226,322,103462,6,0,L|168:331,1,58.1159999999999,2|0,0:2|0:0,0:0:0:0:
88,322,103624,2,0,L|30:331,1,58.1159999999999,2|0,0:2|0:0,0:0:0:0:
26,327,103786,6,0,L|101:315,1,58.1159999999999,2|0,0:2|0:0,0:0:0:0:
164,327,104030,2,0,L|239:315,1,58.1159999999998,2|0,0:2|0:0,0:0:0:0:
302,327,104273,2,0,L|377:315,1,58.1159999999999,2|0,0:2|0:2,0:0:0:0:
440,327,104516,2,0,L|515:315,1,58.1159999999999,2|0,0:2|0:0,0:0:0:0:
408,248,104759,6,0,L|416:190,1,58.1159999999999,2|0,0:2|0:0,0:0:0:0:
302,327,104921,2,0,L|310:384,1,58.1159999999999,2|2,0:2|0:2,0:0:0:0:
198,224,105084,6,0,P|262:243|282:285,1,72.6449999999998,8|2,0:2|0:2,0:0:0:0:
99,339,105246,2,0,P|139:307|194:304,1,72.6449999999998,8|0,0:2|0:0,0:0:0:0:
314,178,105408,1,10,0:2:0:0:
314,178,105489,1,8,0:2:0:0:
314,178,105570,2,0,L|298:80,1,72.6449999999999,8|2,0:2|0:2,0:0:0:0:
192,9,105732,6,0,P|230:81|259:95,1,72.6449999999999,8|0,0:2|0:0,0:0:0:0:
463,131,105894,2,0,P|381:127|355:146,1,72.6449999999999,10|0,0:2|0:0,0:0:0:0:
221,304,106057,1,10,0:2:0:0:
221,304,106138,1,8,0:2:0:0:
221,304,106219,2,0,P|264:235|261:202,1,72.6449999999998,10|2,0:2|0:2,0:0:0:0:
146,120,106381,6,0,L|32:110,1,72.6449999999999,8|2,0:2|0:2,0:0:0:0:
341,6,106543,2,0,L|455:-4,1,72.6449999999999,8|0,0:2|0:0,0:0:0:0:
467,170,106705,1,10,0:2:0:0:
467,170,106786,1,8,0:2:0:0:
467,170,106867,2,0,P|421:210|383:218,1,72.6449999999999,8|2,0:2|0:2,0:0:0:0:
222,80,107030,6,0,P|280:98|305:128,1,72.6449999999998,8|0,0:2|0:0,0:0:0:0:
267,336,107192,2,0,P|254:276|267:239,1,72.6449999999998,10|0,0:2|0:0,0:0:0:0:
13,228,107354,1,10,0:2:0:0:
13,228,107435,1,8,0:2:0:0:
13,228,107516,2,0,L|108:212,1,72.6449999999999,10|2,0:2|0:2,0:0:0:0:
134,384,107678,5,8,0:2:0:0:
137,366,107759,1,10,0:2:0:0:
144,349,107840,1,8,0:2:0:0:
154,334,107921,1,8,0:2:0:0:
167,321,108002,5,10,0:2:0:0:
189,293,108084,1,8,0:2:0:0:
197,258,108165,1,10,0:2:0:0:
188,223,108246,1,8,0:2:0:0:
164,197,108327,5,8,0:2:0:0:
136,152,108408,1,10,0:2:0:0:
159,105,108489,1,8,0:2:0:0:
210,98,108570,1,8,0:2:0:0:
252,69,108651,6,0,P|256:27|239:-10,1,72.6449999999999,10|8,0:2|0:2,0:0:0:0:
80,228,108813,2,0,P|41:244|17:278,1,72.6449999999999,10|10,0:2|0:2,0:0:0:0:
282,164,108975,5,12,0:2:0:0:
282,164,109138,1,12,0:2:0:0:
416,34,109300,2,0,P|467:51|490:82,1,72.6449999999998,2|2,0:2|0:2,0:0:0:0:
373,176,109543,1,2,0:2:0:0:
377,186,109624,2,0,L|358:290,1,72.6449999999999,2|0,0:2|0:0,0:0:0:0:
337,289,109867,1,2,0:2:0:0:
337,289,109948,6,0,P|346:331|372:356,1,58.1159999999999,12|0,0:2|0:0,0:0:0:0:
512,256,110111,2,0,P|503:214|477:189,1,58.1159999999998,2|0,0:2|0:0,0:0:0:0:
462,342,110273,5,8,0:2:0:0:
463,327,110597,1,10,0:2:0:0:
477,329,110921,1,8,0:2:0:0:
476,343,111246,1,10,0:2:0:0:
462,342,111570,5,8,0:2:0:0:
463,327,111894,1,10,0:2:0:0:
477,329,112219,1,8,0:2:0:0:
476,343,112543,1,10,0:2:0:0:
384,375,112705,1,8,0:2:0:0:
309,314,112867,5,8,0:2:0:0:
295,316,113192,1,10,0:2:0:0:
281,318,113516,1,8,0:2:0:0:
267,320,113840,1,10,0:2:0:0:
44,37,114165,5,8,0:2:0:0:
44,37,114327,1,8,0:2:0:0:
44,37,114489,1,10,0:2:0:0:
12,245,114732,5,10,0:2:0:0:
12,245,114813,2,0,P|47:241|80:255,1,72.6449999999999,8|8,0:2|0:2,0:0:0:0:
148,315,115057,1,8,0:2:0:0:
148,315,115138,2,0,P|159:353|187:382,1,58.1159999999998,10|8,0:2|0:2,0:0:0:0:
161,227,115300,2,0,P|187:197|199:158,1,58.1159999999998,8|10,0:2|0:2,0:0:0:0:
184,58,115462,5,8,0:2:0:0:
344,103,115624,1,8,0:2:0:0:
504,149,115786,1,10,0:2:0:0:
508,155,115867,1,8,0:2:0:0:
512,162,115948,1,8,0:2:0:0:
216,67,116111,5,8,0:2:0:0:
344,103,116273,1,8,0:2:0:0:
473,140,116435,1,10,0:2:0:0:
476,146,116516,1,8,0:2:0:0:
479,153,116597,1,8,0:2:0:0:
317,200,116759,5,8,0:2:0:0:
344,103,116921,1,8,0:2:0:0:
371,7,117084,1,10,0:2:0:0:
378,3,117165,1,8,0:2:0:0:
384,0,117246,1,8,0:2:0:0:
327,166,117408,5,8,0:2:0:0:
344,103,117570,1,8,0:2:0:0:
362,38,117732,1,10,0:2:0:0:
369,35,117813,1,8,0:2:0:0:
375,31,117894,1,8,0:2:0:0:
482,105,118057,5,8,0:2:0:0:
483,118,118138,1,8,0:2:0:0:
485,131,118219,1,8,0:2:0:0:
487,145,118300,1,8,0:2:0:0:
489,158,118381,1,8,0:2:0:0:
491,172,118462,1,8,0:2:0:0:
493,185,118543,1,8,0:2:0:0:
495,199,118624,1,8,0:2:0:0:
497,212,118705,1,8,0:2:0:0:
499,226,118786,1,8,0:2:0:0:
500,239,118867,1,8,0:2:0:0:
502,253,118948,1,8,0:2:0:0:
504,266,119030,1,8,0:2:0:0:
506,280,119111,1,8,0:2:0:0:
508,293,119192,1,8,0:2:0:0:
510,306,119273,1,8,0:2:0:0:
512,320,119354,6,0,P|477:296|427:318,1,72.6449999999999,0|0,0:2|0:0,0:0:0:0:
309,359,119597,2,0,B|374:341|374:341|406:395|482:375,1,145.29
309,359,119840,2,0,L|333:270,1,72.6449999999999,0|2,0:0|0:2,0:0:0:0:
393,146,120002,6,0,B|309:116|309:116|303:125|303:125|317:198|317:198|278:218,1,217.935008296967
209,384,120246,2,0,B|238:297|238:297|234:303|234:303|197:249|197:249|186:245|186:245|136:277|136:277|144:366,1,290.58
181,161,120489,2,0,P|176:136|182:162,1,145.29,0|2,0:0|0:2,0:0:0:0:
29,20,120651,5,4,3:2:0:0:
29,20,120732,2,0,P|98:73|199:43,1,174.347994689942,2|0,0:2|0:0,0:0:0:0:
299,2,120975,2,0,L|508:24,1,174.347994689942,10|0,0:2|0:0,0:0:0:0:
340,145,121219,1,2,0:2:0:0:
340,145,121300,6,0,P|274:118|252:64,1,87.1739973449706,0|0,3:2|0:0,0:0:0:0:
443,250,121462,2,0,P|499:206|557:214,1,87.1739973449706,2|0,0:2|0:0,0:0:0:0:
300,286,121624,2,0,P|309:356|273:402,1,87.1739973449706,10|0,0:2|0:0,0:0:0:0:
212,233,121786,1,2,0:2:0:0:
212,233,121867,2,0,L|116:252,1,87.1739973449706,2|0,0:2|3:2,0:0:0:0:
18,98,122030,6,0,P|109:87|165:199,1,174.347994689942,2|0,0:2|0:0,0:0:0:0:
203,23,122273,2,0,L|418:-6,1,174.347994689942,10|0,0:2|0:0,0:0:0:0:
328,140,122516,1,2,0:2:0:0:
328,140,122597,6,0,P|280:136|221:75,1,87.1739973449706,0|0,3:2|0:0,0:0:0:0:
450,57,122759,2,0,P|477:17|559:-3,1,87.1739973449706,2|0,0:2|0:0,0:0:0:0:
480,232,122921,2,0,P|429:261|414:381,1,174.347994689942,10|2,0:2|0:2,0:0:0:0:
336,223,123165,1,2,0:2:0:0:
336,223,123246,6,0,L|298:7,1,174.347994689942,2|0,3:2|0:0,0:0:0:0:
415,137,123489,2,0,P|471:141|509:122,1,86.9999973449708,2|8,0:2|0:2,0:0:0:0:
220,110,123651,1,0,0:0:0:0:
220,110,123732,2,0,L|200:216,1,87.1739973449706,2|0,0:2|0:0,0:0:0:0:
205,362,123894,5,0,3:2:0:0:
205,362,123975,2,0,P|134:309|16:352,1,174.347994689942,2|0,0:2|0:0,0:0:0:0:
0,244,124219,2,0,P|75:216|132:218,1,87.1739973449706,10|0,0:2|0:0,0:0:0:0:
254,270,124381,2,0,P|296:329|305:368,1,87.1739973449706,2|0,0:2|0:0,0:0:0:0:
153,143,124543,6,0,P|147:32|80:-3,1,174.347994689942,2|0,3:2|0:0,0:0:0:0:
260,85,124786,1,2,0:2:0:0:
260,85,124867,2,0,P|305:110|370:105,1,87.1739973449706,8|0,0:2|0:0,0:0:0:0:
512,33,125030,6,0,L|301:15,1,174.347994689942,2|0,0:2|3:2,0:0:0:0:
439,113,125273,2,0,P|349:163|370:266,1,174.347994689942,2|0,0:2|0:0,0:0:0:0:
257,379,125516,2,0,P|205:308|161:299,1,87.1739973449706,10|0,0:2|0:0,0:0:0:0:
61,165,125678,2,0,L|158:186,1,87.1739973449706,2|2,0:2|0:2,0:0:0:0:
257,223,125840,1,0,3:2:0:0:
257,223,125921,6,0,L|430:201,1,174.347994689942,2|0,0:2|0:0,0:0:0:0:
431,10,126165,2,0,P|347:62|384:163,1,174.347994689942,10|0,0:2|0:0,0:0:0:0:
510,254,126408,1,2,0:2:0:0:
510,254,126489,6,0,P|496:320|466:350,1,87.1739973449706,0|0,3:2|0:0,0:0:0:0:
512,108,126651,2,0,L|365:86,1,87.1739973449706,2|0,0:2|0:0,0:0:0:0:
167,204,126813,2,0,P|171:247|193:285,1,87.1739973449706,10|0,0:2|0:0,0:0:0:0:
0,367,126975,2,0,L|135:342,1,87.1739973449706,2|2,0:2|0:2,0:0:0:0:
280,167,127138,5,0,3:2:0:0:
280,167,127219,2,0,L|61:139,1,174.347994689942,2|0,0:2|0:0,0:0:0:0:
233,23,127462,2,0,P|320:26|320:124,1,174.347994689942,10|0,0:2|0:0,0:0:0:0:
350,242,127705,1,2,0:2:0:0:
350,242,127786,6,0,P|375:177|429:152,1,87.1739973449706,0|0,3:2|0:0,0:0:0:0:
512,36,127948,2,0,P|447:11|422:-43,1,87.1739973449706,2|0,0:2|0:0,0:0:0:0:
441,240,128111,2,0,P|348:300|363:376,1,174.347994689942,10|2,0:2|0:2,0:0:0:0:
483,346,128354,1,2,0:2:0:0:
483,346,128435,5,0,3:2:0:0:
483,346,128516,2,0,L|509:134,1,174.347994689942,2|0,0:2|0:0,0:0:0:0:
449,105,128759,2,0,P|390:123|351:174,1,87.1739973449706,10|0,0:2|0:0,0:0:0:0:
393,384,128921,6,0,P|301:319|194:338,1,174.347994689942,2|0,0:2|3:2,0:0:0:0:
149,265,129165,2,0,L|108:48,1,174.347994689942,2|0,0:2|0:0,0:0:0:0:
277,145,129408,2,0,P|251:216|205:250,1,87.1739973449706,10|0,0:2|0:0,0:0:0:0:
20,101,129570,2,0,P|46:30|92:-4,1,87.1739973449706,2|2,0:2|0:2,0:0:0:0:
360,88,129732,5,0,3:2:0:0:
360,88,129813,2,0,P|261:98|196:5,1,174.347994689942,2|0,0:2|0:0,0:0:0:0:
466,0,130057,2,0,P|419:41|448:152,1,174.347994689942,10|2,0:2|0:2,0:0:0:0:
512,243,130300,1,2,0:2:0:0:
512,243,130381,6,0,L|307:210,1,174.347994689942,2|0,3:2|0:0,0:0:0:0:
288,307,130624,1,2,0:2:0:0:
288,307,130705,6,0,L|274:242,1,36.3224999999999,0|0,0:2|0:0,0:0:0:0:
256,157,130867,2,0,L|263:192,1,36.3224999999999,2|0,0:2|0:0,0:0:0:0:
202,366,131030,5,12,3:2:0:0:
202,366,131111,2,0,P|114:304|34:328,1,174.347994689942,2|0,0:2|0:0,0:0:0:0:
6,220,131354,2,0,L|34:4,1,174.347994689942,10|0,0:2|0:0,0:0:0:0:
165,114,131597,1,2,0:2:0:0:
165,114,131678,6,0,L|181:224,1,87.1739973449706,0|0,3:2|0:0,0:0:0:0:
345,41,131840,2,0,P|262:12|226:31,1,87.1739973449706,2|0,0:2|0:0,0:0:0:0:
242,267,132002,2,0,P|320:275|381:175,1,174.347994689942,10|2,0:2|0:2,0:0:0:0:
512,111,132246,1,2,0:2:0:0:
512,111,132327,5,0,3:2:0:0:
512,111,132408,2,0,L|308:136,1,174.347994689942,2|0,0:2|0:0,0:0:0:0:
143,0,132651,2,0,P|238:25|248:126,1,174.347994689942,10|0,0:2|0:0,0:0:0:0:
160,226,132894,1,2,0:2:0:0:
160,226,132975,6,0,P|95:245|69:272,1,87.1739973449706,0|0,3:2|0:0,0:0:0:0:
239,384,133138,2,0,P|255:318|244:282,1,87.1739973449706,2|0,0:2|0:0,0:0:0:0:
94,151,133300,2,0,L|8:141,1,87.1739973449706,10|0,0:2|0:0,0:0:0:0:
367,182,133462,2,0,L|280:171,1,87.1739973449706,2|2,3:2|0:2,0:0:0:0:
491,366,133624,6,0,P|491:265|381:248,1,174.347994689942,6|0,3:2|0:0,0:0:0:0:
174,303,133867,1,2,0:2:0:0:
174,303,133948,2,0,L|289:287,1,87.1739973449706,0|0,0:2|0:0,0:0:0:0:
39,88,134111,6,0,P|91:109|77:245,1,174.347994689942,6|0,3:2|0:2,0:0:0:0:
31,173,134354,2,0,L|8:-23,1,174.347994689942,2|0,0:2|0:0,0:0:0:0:
182,78,134597,2,0,P|230:116|293:124,1,87.1739973449706,14|0,0:2|0:0,0:0:0:0:
82,300,134759,2,0,P|25:322|-13:373,1,87.1739973449706,2|0,0:2|0:0,0:0:0:0:
163,384,134921,6,0,L|175:289,1,87.1739973449706,14|0,0:2|0:0,0:0:0:0:
393,344,135084,1,0,0:0:0:0:
393,344,135165,6,0,L|306:303,1,87.1739973449706,14|0,0:2|0:2,0:0:0:0:
427,113,135327,1,0,0:0:0:0:
427,113,135408,6,0,L|361:182,1,87.1739973449706,14|0,0:2|0:0,0:0:0:0:
217,9,135570,1,0,0:2:0:0:
217,9,135651,6,0,L|262:92,1,87.1739973449706,14|0,0:2|0:0,0:0:0:0:
54,176,135813,1,0,0:0:0:0:
54,176,135894,6,0,L|147:158,1,87.1739973449706,10|0,0:2|0:0,0:0:0:0:
491,177,136057,1,10,0:2:0:0:
491,177,136138,1,2,0:2:0:0:
491,177,136219,6,0,P|515:115|487:53,1,87.1739973449706,4|2,3:2|0:2,0:0:0:0:
280,4,136381,2,0,P|256:66|284:128,1,87.1739973449706,0|0,3:2|0:0,0:0:0:0:
457,286,136543,2,0,P|462:193|355:165,1,174.347994689942,10|0,0:2|0:0,0:0:0:0:
304,317,136786,1,2,0:2:0:0:
304,317,136867,6,0,P|338:346|416:340,1,87.1739973449706,0|0,3:2|0:0,0:0:0:0:
168,241,137030,2,0,L|313:215,1,87.1739973449706,2|0,0:2|0:0,0:0:0:0:
2,353,137192,2,0,L|188:372,1,174.347994689942,10|2,0:2|3:2,0:0:0:0:
81,280,137435,1,2,3:2:0:0:
81,280,137516,5,4,3:2:0:0:
81,280,137597,2,0,P|81:201|184:152,1,174.347994689942,2|0,3:2|0:0,0:0:0:0:
257,82,137840,2,0,L|46:52,1,174.347994689942,10|0,0:2|0:0,0:0:0:0:
0,47,138084,1,2,0:2:0:0:
0,47,138165,6,0,P|22:113|57:135,1,87.1739973449706,0|0,3:2|0:0,0:0:0:0:
168,241,138327,1,2,3:2:0:0:
168,241,138489,1,10,0:2:0:0:
168,241,138651,2,0,L|286:220,1,87.1739973449706,2|2,0:2|0:2,0:0:0:0:
323,133,138813,6,0,P|275:108|219:119,1,87.1739973449706,0|2,3:2|0:2,0:0:0:0:
382,220,138975,2,0,P|336:249|317:303,1,87.1739973449706,0|0,3:2|0:0,0:0:0:0:
500,306,139138,2,0,P|502:360|539:403,1,87.1739973449706,10|0,0:2|0:0,0:0:0:0:
512,199,139300,2,0,L|491:19,1,174.347994689942,2|0,0:2|3:2,0:0:0:0:
497,17,139543,5,2,3:2:0:0:
476,11,139624,1,0,3:2:0:0:
454,12,139705,1,0,3:2:0:0:
433,19,139786,1,10,3:2:0:0:
416,32,139867,1,0,3:2:0:0:
386,49,139948,1,2,3:2:0:0:
352,55,140030,1,2,3:2:0:0:
318,47,140111,5,4,3:2:0:0:
321,55,140192,2,0,P|255:47|202:-2,1,116.232,2|0,1:2|1:2,0:0:0:0:
128,54,140435,2,0,L|152:222,1,116.232,10|2,1:2|1:2,0:0:0:0:
107,246,140678,1,2,1:2:0:0:
107,246,140759,6,0,B|119:206|119:206|5:158|5:158|-3:165|-3:165|26:289,1,290.579999999999,14|0,3:2|0:0,0:0:0:0:
207,219,141002,2,0,B|258:237|258:237|285:280|285:280|296:282|296:282|199:313|199:313|157:388,1,290.579999999999,14|0,0:2|0:0,0:0:0:0:
415,305,141246,2,0,B|412:368|412:368|366:264,1,145.29,14|0,0:2|0:0,0:0:0:0:
496,306,141408,5,8,3:2:0:0:
496,306,141489,2,0,P|439:221|487:124,1,174.347994689942,2|0,0:2|0:0,0:0:0:0:
481,15,141732,2,0,L|258:66,1,174.347994689942,10|0,0:2|0:0,0:0:0:0:
172,104,141975,1,2,0:2:0:0:
172,104,142057,6,0,P|237:130|288:116,1,87.1739973449706,0|0,3:2|0:0,0:0:0:0:
267,319,142219,2,0,P|211:362|198:413,1,87.1739973449706,2|0,0:2|0:0,0:0:0:0:
33,293,142381,2,0,P|23:223|-14:186,1,87.1739973449706,10|0,0:2|0:0,0:0:0:0:
78,23,142543,1,2,0:2:0:0:
78,23,142624,2,0,L|178:5,1,87.1739973449706,2|0,0:2|3:2,0:0:0:0:
294,202,142786,6,0,P|317:85|379:69,1,174.347994689942,2|0,0:2|0:0,0:0:0:0:
193,238,143030,2,0,L|410:272,1,174.347994689942,10|0,0:2|0:0,0:0:0:0:
512,358,143273,1,2,0:2:0:0:
512,358,143354,6,0,P|452:368|414:410,1,87.1739973449706,0|0,3:2|0:0,0:0:0:0:
454,209,143516,2,0,L|430:83,1,87.1739973449706,2|0,0:2|0:0,0:0:0:0:
301,351,143678,2,0,L|106:378,1,174.347994689942,10|2,0:2|0:2,0:0:0:0:
0,258,143921,1,2,0:2:0:0:
0,258,144002,6,0,P|10:142|87:105,1,174.347994689942,2|0,3:2|0:0,0:0:0:0:
159,8,144246,1,2,0:2:0:0:
159,8,144327,2,0,P|223:31|243:75,1,87.1739973449706,8|0,0:2|0:0,0:0:0:0:
15,40,144489,6,0,P|105:105|176:83,1,174.347994689942,2|0,0:2|3:2,0:0:0:0:
331,173,144732,2,0,L|351:-48,1,174.347994689942,2|0,0:2|0:0,0:0:0:0:
230,148,144975,2,0,P|235:221|276:264,1,87.1739973449706,10|0,0:2|0:0,0:0:0:0:
431,197,145138,2,0,P|425:123|384:80,1,87.1739973449706,2|0,0:2|0:0,0:0:0:0:
181,332,145300,6,0,P|282:264|359:290,1,174.347994689942,2|0,3:2|0:0,0:0:0:0:
466,384,145543,1,2,0:2:0:0:
466,384,145624,2,0,P|401:358|360:288,1,87.1739973449706,8|0,0:2|0:0,0:0:0:0:
254,384,145786,6,0,L|8:350,1,174.347994689942,2|0,0:2|3:2,0:0:0:0:
0,247,146030,2,0,L|222:212,1,174.347994689942,2|0,0:2|0:0,0:0:0:0:
288,161,146273,2,0,P|249:144|210:88,1,87.1739973449706,10|0,0:2|0:0,0:0:0:0:
391,1,146435,1,2,0:2:0:0:
391,1,146516,2,0,L|369:127,1,87.1739973449706,2|0,0:2|3:2,0:0:0:0:
453,321,146678,6,0,P|518:241|482:133,1,174.347994689942,2|0,0:2|0:0,0:0:0:0:
363,381,146921,2,0,P|290:311|195:333,1,174.347994689942,10|0,0:2|0:0,0:0:0:0:
58,378,147165,1,2,0:2:0:0:
58,378,147246,6,0,P|124:371|158:337,1,87.1739973449706,0|0,3:2|0:0,0:0:0:0:
211,223,147408,2,0,L|96:207,1,87.1739973449706,2|0,0:2|0:0,0:0:0:0:
116,35,147570,2,0,P|89:95|101:142,1,87.1739973449706,10|0,0:2|0:0,0:0:0:0:
384,256,147732,2,0,P|344:202|298:189,1,87.1739973449706,2|2,0:2|0:2,0:0:0:0:
476,0,147894,5,0,3:2:0:0:
476,0,147975,2,0,L|446:210,1,174.347994689942,2|0,0:2|0:0,0:0:0:0:
178,98,148219,2,0,P|258:111|331:27,1,174.347994689942,10|0,0:2|0:0,0:0:0:0:
226,206,148462,1,2,0:2:0:0:
226,206,148543,6,0,P|250:268|244:313,1,87.1739973449706,0|0,3:2|0:0,0:0:0:0:
16,172,148705,2,0,L|155:143,1,87.1739973449706,2|0,0:2|0:0,0:0:0:0:
196,379,148867,2,0,L|57:350,1,87.1739973449706,10|0,0:2|0:0,0:0:0:0:
358,327,149030,1,2,0:2:0:0:
358,327,149111,2,0,P|382:274|380:217,1,87.1739973449706,2|0,0:2|3:2,0:0:0:0:
512,147,149273,6,0,L|277:114,1,174.347994689942,2|0,0:2|0:0,0:0:0:0:
160,43,149516,2,0,P|197:14|251:10,1,87.1739973449706,10|0,0:2|0:0,0:0:0:0:
283,225,149678,2,0,P|299:145|208:92,1,174.347994689942,2|0,0:2|3:2,0:0:0:0:
210,332,149921,2,0,P|282:276|398:289,1,174.347994689942,2|0,0:2|0:0,0:0:0:0:
179,216,150165,6,0,P|136:210|86:171,1,87.1739973449706,10|0,0:2|0:0,0:0:0:0:
68,383,150327,1,2,0:2:0:0:
68,383,150408,2,0,L|53:280,1,87.1739973449706,2|0,0:2|3:2,0:0:0:0:
0,172,150570,6,0,L|33:-47,1,174.347994689942,2|0,0:2|0:0,0:0:0:0:
195,34,150813,2,0,P|272:108|204:202,1,174.347994689942,10|2,0:2|0:2,0:0:0:0:
352,56,151057,1,2,0:2:0:0:
352,56,151138,6,0,P|453:63|489:4,1,174.347994689942,2|0,3:2|0:0,0:0:0:0:
360,161,151381,1,2,0:2:0:0:
360,161,151462,6,0,L|351:213,1,36.3224999999999,0|0,0:2|0:0,0:0:0:0:
334,311,151624,2,0,L|340:275,1,36.3224999999999,2|0,0:2|0:0,0:0:0:0:
512,321,151786,5,12,3:2:0:0:
512,321,151867,2,0,P|511:216|433:171,1,174.347994689942,2|0,0:2|0:0,0:0:0:0:
433,384,152111,2,0,L|216:347,1,174.347994689942,10|0,0:2|0:0,0:0:0:0:
118,304,152354,1,2,0:2:0:0:
118,304,152435,6,0,P|97:343|102:392,1,87.1739973449706,0|0,3:2|0:0,0:0:0:0:
138,153,152597,2,0,P|113:115|69:94,1,87.1739973449706,2|0,0:2|0:0,0:0:0:0:
258,245,152759,2,0,P|302:242|342:214,1,87.1739973449706,10|0,0:2|0:0,0:0:0:0:
432,46,152921,1,2,0:2:0:0:
432,46,153002,2,0,L|307:31,1,87.1739973449706,2|0,0:2|3:2,0:0:0:0:
512,124,153165,6,0,L|286:144,1,174.347994689942,2|0,0:2|0:0,0:0:0:0:
156,0,153408,2,0,P|229:21|209:141,1,174.347994689942,10|0,0:2|0:0,0:0:0:0:
19,105,153651,1,2,0:2:0:0:
19,105,153732,6,0,P|82:71|117:70,1,87.1739973449706,0|0,3:2|0:0,0:0:0:0:
270,202,153894,2,0,P|267:273|251:304,1,87.1739973449706,2|0,0:2|0:0,0:0:0:0:
7,384,154057,2,0,L|30:188,1,174.347994689942,10|2,0:2|0:2,0:0:0:0:
23,203,154300,1,2,0:2:0:0:
19,194,154381,6,0,P|70:175|113:273,1,174.347994689942,14|0,3:2|0:0,0:0:0:0:
265,310,154624,2,0,B|224:302|209:250|209:250|214:306|162:337,1,174.347994689942,2|0,0:2|0:0,0:0:0:0:
302,384,154867,6,0,P|294:306|406:291,1,174.347994689942,14|0,0:2|0:2,0:0:0:0:
511,223,155111,2,0,B|470:231|455:283|455:283|460:227|408:196,1,174.347994689942,2|0,0:2|0:0,0:0:0:0:
315,134,155354,2,0,L|474:107,1,87.1739973449706,14|0,0:2|0:0,0:0:0:0:
87,170,155516,2,0,L|246:143,1,87.1739973449706,2|0,0:2|0:0,0:0:0:0:
0,13,155678,6,0,P|72:0|95:96,1,174.347994689942,14|0,3:2|0:0,0:0:0:0:
87,170,155921,2,0,B|50:192|54:246|54:246|39:194|-1:186,1,174.347994689942,14|0,0:2|0:0,0:0:0:0:
141,236,156165,1,14,0:2:0:0:
150,241,156246,2,0,P|177:287|159:333,1,87.1739973449706,2|0,0:2|0:2,0:0:0:0:
426,125,156408,6,0,B|389:102|393:48|393:48|378:100|337:108,1,174.347994689942,14|0,0:2|0:0,0:0:0:0:
254,85,156651,2,0,P|235:24|271:-34,1,87.1739973449706,14|0,0:2|0:0,0:0:0:0:
512,132,156813,2,0,P|498:172|466:200,1,87.1739973449706,14|0,0:2|0:0,0:0:0:0:
186,182,156975,6,0,L|318:163,1,87.1739973449706,0|2,3:2|0:2,0:0:0:0:
16,70,157138,2,0,P|82:80|121:120,1,87.1739973449706,0|0,3:2|0:0,0:0:0:0:
141,321,157300,2,0,P|99:373|45:386,1,87.1739973449706,10|0,3:2|0:0,0:0:0:0:
55,244,157462,2,0,L|34:129,1,87.1739973449706,0|2,3:2|0:2,0:0:0:0:
328,0,157624,6,0,L|312:85,1,87.1739973449706,0|0,3:2|0:0,0:0:0:0:
485,95,157786,2,0,P|408:49|365:57,1,87.1739973449706,2|0,3:2|0:0,0:0:0:0:
237,140,157948,2,0,P|235:229|264:262,1,87.1739973449706,10|0,3:2|0:0,0:0:0:0:
400,333,158111,2,0,P|478:289|492:248,1,87.1739973449706,2|2,3:2|0:2,0:0:0:0:
198,380,158273,5,4,3:2:0:0:
198,380,158354,2,0,P|166:282|46:300,1,174.347994689942,2|0,0:2|0:0,0:0:0:0:
0,173,158597,2,0,L|152:153,1,87.1739973449706,10|0,3:2|0:0,0:0:0:0:
314,208,158759,6,0,P|296:289|260:318,1,87.1739973449706,0|2,3:2|0:2,0:0:0:0:
410,70,158921,2,0,L|543:54,1,87.1739973449706,0|0,3:2|0:0,0:0:0:0:
157,6,159084,2,0,P|220:15|254:55,1,87.1739973449706,2|0,3:2|0:0,0:0:0:0:
400,249,159246,2,0,P|444:198|433:124,1,87.1739973449706,10|0,3:2|0:0,0:0:0:0:
176,99,159408,5,2,3:2:0:0:
176,99,159489,1,2,3:2:0:0:
176,99,159570,5,0,3:2:0:0:
154,101,159651,1,2,3:2:0:0:
132,99,159732,1,0,3:2:0:0:
112,91,159813,1,0,3:2:0:0:
94,79,159894,5,10,3:2:0:0:
57,70,159975,1,0,3:2:0:0:
26,90,160057,1,0,3:2:0:0:
17,126,160138,1,2,3:2:0:0:
36,157,160219,5,0,3:2:0:0:
70,199,160300,1,0,3:2:0:0:
91,249,160381,1,2,3:2:0:0:
96,303,160462,1,0,3:2:0:0:
85,356,160543,5,10,3:2:0:0:
80,292,160624,1,0,3:2:0:0:
115,239,160705,1,2,3:2:0:0:
176,218,160786,1,0,3:2:0:0:
236,238,160867,1,0,1:2:0:0:
241,245,160948,6,0,P|312:259|361:190,1,145.29,2|0,1:2|1:2,0:0:0:0:
419,148,161192,2,0,P|403:87|372:60,1,72.6449999999998,2|0,1:2|1:2,0:0:0:0:
265,8,161354,1,2,1:2:0:0:
265,8,161435,1,2,1:2:0:0:
265,8,161516,6,0,B|223:131|223:131|213:139|213:139|142:151|142:151|143:143|143:143|100:246,1,290.579999999999,2|0,0:2|0:2,0:0:0:0:
44,322,161759,2,0,B|55:352|55:352|25:380|25:380|-9:354|-9:354|4:318|4:318|180:289,1,290.579999999999,2|0,0:2|0:2,0:0:0:0:
350,214,162002,2,0,B|317:162|317:162|339:156|339:156|336:281,1,145.29,2|0,0:2|0:2,0:0:0:0:
467,384,162165,6,0,P|426:338|397:329,1,58.1159999999998,14|0,3:2|0:0,0:0:0:0:
209,260,162327,2,0,P|268:247|290:226,1,58.1159999999999,2|0,0:2|0:0,0:0:0:0:
445,98,162489,2,0,P|425:156|433:185,1,58.1159999999999,2|0,0:2|0:0,0:0:0:0:
336,337,162651,1,2,0:2:0:0:
336,337,162732,1,0,0:2:0:0:
336,337,162813,2,0,L|351:245,1,58.1159999999999,2|0,0:2|0:0,0:0:0:0:
331,197,162975,6,0,L|316:105,1,58.1159999999999,2|0,3:2|0:2,0:0:0:0:
365,62,163300,6,0,L|380:-30,1,58.1159999999998,6|0,3:2|0:0,0:0:0:0:
365,62,163624,6,0,L|380:-30,1,58.1159999999999,6|0,3:2|0:0,0:0:0:0:
222,89,163786,2,0,P|267:69|305:70,1,58.1159999999999,2|0,0:2|0:0,0:0:0:0:
451,132,163948,1,2,0:2:0:0:
451,132,164030,1,0,0:2:0:0:
451,132,164111,6,0,P|496:151|540:145,1,58.1159999999998,2|0,0:2|0:0,0:0:0:0:
350,204,164273,2,0,L|366:292,1,58.1159999999998,2|0,3:2|0:0,0:0:0:0:
275,303,164435,1,2,0:2:0:0:
260,300,164516,1,0,0:2:0:0:
246,297,164597,1,2,3:2:0:0:
232,295,164678,1,0,3:2:0:0:
217,292,164759,6,0,P|166:301|140:319,1,58.1159999999999,6|0,3:2|0:0,0:0:0:0:
0,384,164921,2,0,P|17:335|14:303,1,58.1159999999999,2|0,0:2|0:0,0:0:0:0:
28,151,165084,2,0,P|61:190|90:203,1,58.1159999999998,2|0,0:2|0:0,0:0:0:0:
139,57,165246,1,2,0:2:0:0:
139,57,165327,1,0,0:0:0:0:
139,57,165408,2,0,L|126:-30,1,58.1159999999999,2|0,0:2|0:0,0:0:0:0:
191,178,165570,6,0,L|204:91,1,58.1159999999999,2|2,3:2|0:2,0:0:0:0:
252,306,165894,6,0,L|239:219,1,58.1159999999999,6|0,3:2|0:0,0:0:0:0:
252,306,166219,6,0,L|239:219,1,58.1159999999998,6|0,3:2|0:0,0:0:0:0:
346,331,166381,2,0,P|325:379|297:402,1,58.1159999999999,2|0,0:2|0:0,0:0:0:0:
448,298,166543,1,2,0:2:0:0:
448,298,166624,1,0,0:0:0:0:
448,298,166705,6,0,L|519:313,1,58.1159999999999,2|0,3:2|0:0,0:0:0:0:
313,181,166867,2,0,L|256:169,1,58.1159999999999,2|0,3:2|0:0,0:0:0:0:
107,287,167030,1,2,3:2:0:0:
96,296,167111,1,0,3:2:0:0:
84,304,167192,1,2,3:2:0:0:
70,310,167273,1,0,0:0:0:0:
56,314,167354,6,0,P|61:273|86:244,1,58.1159999999999,6|0,0:2|0:0,0:0:0:0:
26,72,167516,2,0,P|59:96|72:132,1,58.1159999999999,2|0,0:2|0:0,0:0:0:0:
251,166,167678,2,0,P|213:182|175:175,1,58.1159999999999,2|0,0:2|0:0,0:0:0:0:
353,218,167840,1,2,0:2:0:0:
353,218,167921,1,0,0:2:0:0:
353,218,168002,2,0,L|423:228,1,58.1159999999999,2|0,0:2|0:0,0:0:0:0:
215,264,168165,6,0,L|272:255,1,58.1159999999998,2|2,3:2|0:2,0:0:0:0:
80,300,168489,6,0,L|137:308,1,58.1159999999999,6|0,3:2|0:0,0:0:0:0:
80,300,168813,6,0,L|137:308,1,58.1159999999999,6|0,3:2|0:0,0:0:0:0:
17,238,168975,2,0,P|66:213|100:215,1,58.1159999999999,2|0,0:2|0:0,0:0:0:0:
210,353,169138,2,0,P|247:382|287:382,1,58.1159999999998,2|0,0:2|0:2,0:0:0:0:
169,220,169300,6,0,L|161:154,1,58.1159999999998,2|0,0:2|0:0,0:0:0:0:
271,15,169462,2,0,L|264:72,1,58.1159999999999,2|0,3:2|0:0,0:0:0:0:
315,164,169624,1,2,0:2:0:0:
315,164,169705,1,0,0:2:0:0:
315,164,169786,1,2,3:2:0:0:
315,164,169867,1,0,3:2:0:0:
315,164,169948,6,0,P|365:159|394:140,1,58.1159999999999,6|0,3:2|0:0,0:0:0:0:
206,303,170111,2,0,P|185:348|187:383,1,58.1159999999998,2|0,0:2|0:0,0:0:0:0:
140,139,170273,2,0,P|110:98|79:82,1,58.1159999999998,2|0,0:2|0:0,0:0:0:0:
217,9,170435,1,2,0:2:0:0:
217,9,170516,1,0,0:0:0:0:
217,9,170597,2,0,L|229:83,1,58.1159999999999,2|0,0:2|0:2,0:0:0:0:
266,144,170759,6,0,L|254:218,1,58.1159999999999,2|2,3:2|0:2,0:0:0:0:
225,281,171084,6,0,L|237:355,1,58.1159999999998,6|0,3:2|0:0,0:0:0:0:
232,346,171408,6,0,P|311:361|316:268,1,174.347994689942,6|2,3:2|0:2,0:0:0:0:
512,257,171651,2,0,B|526:254|526:254|501:187|501:187|432:199|432:199|437:218,1,174.347994689942,4|0,3:2|0:0,0:0:0:0:
383,84,171894,2,0,L|404:-12,1,87.1739973449706,6|0,3:2|0:0,0:0:0:0:
232,23,172057,6,0,L|241:69,2,29.058,2|0|0,0:2|0:2|0:2,0:2:0:0:
16,118,172219,2,0,P|63:96|96:98,1,58.1159999999998,6|0,3:2|3:2,0:0:0:0:
166,196,172381,5,2,3:2:0:0:
155,276,172462,1,0,3:2:0:0:
145,356,172543,6,0,L|150:388,1,29.0579999999999,6|2,3:2|0:2,0:0:0:0:
231,323,172867,2,0,L|236:355,1,29.0579999999999,10|2,0:2|0:2,0:0:0:0:
317,290,173192,6,0,L|322:322,1,29.058,10|0,0:2|0:0,0:0:0:0:
356,206,173354,1,2,3:2:0:0:
410,308,173516,2,0,L|415:340,1,29.0579999999999,10|0,0:2|0:0,0:0:0:0:
356,206,173678,1,6,3:2:0:0:
503,326,173840,2,0,L|508:358,1,29.0579999999999,10|0,0:2|0:0,0:0:0:0:
344,106,174002,6,0,L|348:77,1,29.0579999999999,6|0,3:2|0:0,0:0:0:0:
260,39,174165,2,0,L|264:10,1,29.058,10|0,0:2|0:0,0:0:0:0:
158,148,174327,5,2,0:2:0:0:
158,148,174408,1,0,0:2:0:0:
158,148,174489,2,0,L|153:119,1,29.0579999999999,10|2,0:2|3:2,0:0:0:0:
73,183,174813,2,0,L|68:154,1,29.0579999999999,10|2,0:2|3:2,0:0:0:0:
0,73,175057,1,0,3:2:0:0:
0,73,175138,6,0,L|41:79,1,29.058,14|2,3:2|0:2,0:0:0:0:
158,235,175462,2,0,L|199:241,1,29.0579999999999,10|2,0:2|0:2,0:0:0:0:
274,162,175786,6,0,L|315:156,1,29.0579999999999,10|0,0:2|0:0,0:0:0:0:
357,84,175948,1,2,3:2:0:0:
378,202,176111,2,0,L|419:196,1,29.058,10|0,0:2|0:2,0:0:0:0:
357,84,176273,1,6,3:2:0:0:
482,242,176435,2,0,L|523:236,1,29.0579999999999,10|0,0:2|0:0,0:0:0:0:
315,384,176597,6,0,L|274:378,1,29.0579999999999,6|0,3:2|0:0,0:0:0:0:
283,299,176759,2,0,L|242:293,1,29.0579999999999,10|0,0:2|0:0,0:0:0:0:
75,306,176921,1,2,0:2:0:0:
75,306,177002,1,0,0:0:0:0:
75,306,177084,6,0,P|100:344|148:357,1,58.1159999999998,10|0,3:2|0:0,0:0:0:0:
291,196,177246,2,0,P|311:154|299:106,1,58.1159999999998,2|0,3:2|0:0,0:0:0:0:
89,64,177408,5,10,3:2:0:0:
60,62,177489,1,0,3:2:0:0:
34,72,177570,1,2,3:2:0:0:
220,150,177732,5,14,3:2:0:0:
404,22,177894,1,2,3:2:0:0:
422,245,178057,1,10,3:2:0:0:
349,139,178219,1,2,3:2:0:0:
409,10,178381,5,10,3:2:0:0:
428,255,178543,1,2,3:2:0:0:
207,151,178705,1,10,3:2:0:0:
207,151,178786,1,0,0:0:0:0:
207,151,178867,6,0,L|120:136,1,58.1159999999999,6|0,3:2|0:0,0:0:0:0:
66,130,179030,1,10,3:2:0:0:
207,151,179192,2,0,L|120:136,1,58.1159999999998,6|0,3:2|0:0,0:0:0:0:
66,130,179354,1,10,3:2:0:0:
306,222,179516,5,2,3:2:0:0:
317,219,179678,1,10,3:2:0:0:
314,230,179840,1,2,3:2:0:0:
366,371,180002,5,10,3:2:0:0:
364,356,180084,1,0,0:0:0:0:
365,342,180165,1,2,3:2:0:0:
368,328,180246,1,0,3:2:0:0:
375,315,180327,5,14,3:2:0:0:
389,274,180408,1,0,3:2:0:0:
382,232,180489,1,2,3:2:0:0:
356,197,180570,1,0,3:2:0:0:
317,179,180651,2,0,P|290:159|271:108,1,58.1159999999999,10|0,3:2|3:2,0:0:0:0:
187,82,180813,5,2,3:2:0:0:
187,82,180894,1,0,3:2:0:0:
187,82,180975,2,0,P|190:47|225:5,1,58.1159999999999,10|0,3:2|3:2,0:0:0:0:
292,270,181138,5,2,3:2:0:0:
292,270,181219,1,0,3:2:0:0:
292,270,181300,2,0,P|288:304|253:346,1,58.1159999999998,10|0,3:2|3:2,0:0:0:0:
53,161,181462,5,2,3:2:0:0:
53,161,181543,1,0,3:2:0:0:
53,161,181624,2,0,L|150:143,1,58.1159999999999,14|0,3:2|0:0,0:0:0:0:
393,270,181786,5,6,3:2:0:0:
392,278,181867,1,0,0:2:0:0:
391,286,181948,1,2,0:2:0:0:
389,294,182030,1,0,0:2:0:0:
388,302,182111,1,2,0:2:0:0:
386,310,182192,1,0,0:2:0:0:
385,318,182273,1,2,0:2:0:0:
384,327,182354,1,0,0:2:0:0:
382,335,182435,1,2,0:2:0:0:
381,343,182516,1,0,0:2:0:0:
379,351,182597,1,2,0:2:0:0:
378,359,182678,1,0,0:2:0:0:
376,367,182759,1,2,0:2:0:0:
375,376,182840,1,0,0:2:0:0:
374,384,182921,1,0,3:2:0:0:
122,56,183246,5,12,3:2:0:0:
256,192,183327,12,0,188597,0:0:0:0:
