osu file format v14

[General]
AudioFilename: audio.mp3
AudioLeadIn: 0
PreviewTime: 120651
Countdown: 0
SampleSet: Soft
StackLeniency: 0.4
Mode: 0
LetterboxInBreaks: 0
WidescreenStoryboard: 0

[Editor]
Bookmarks: 84327,87894,89516,99894,110273,115138
DistanceSpacing: 0.2
BeatDivisor: 4
GridSize: 16
TimelineZoom: 1.599999

[Metadata]
Title:Sthenno
TitleUnicode:Sthenno
Artist:BlackY
ArtistUnicode:BlackY
Creator:Rtyzen
Version:Ayucchi's ADVANCED
Source:
Tags:Comiket C95 pleiades C97 GABRiELLA electronic instrumental beatfloor Rumia- Emilia neonat Ayucchi
BeatmapID:2278694
BeatmapSetID:991780

[Difficulty]
HPDrainRate:4
CircleSize:3.5
OverallDifficulty:6.5
ApproachRate:8
SliderMultiplier:1.3
SliderTickRate:1

[Events]
//Background and Video events
0,0,"bg.jpg",0,0
//Break Periods
2,89716,99144
//Storyboard Layer 0 (Background)
//Storyboard Layer 1 (Fail)
//Storyboard Layer 2 (Pass)
//Storyboard Layer 3 (Foreground)
//Storyboard Layer 4 (Overlay)
//Storyboard Sound Samples

[TimingPoints]
3,324.324324324324,4,2,1,60,1,0
21084,-100,4,2,1,20,0,0
21732,-100,4,2,3,60,0,0
21894,-100,4,2,3,30,0,0
22057,-100,4,2,1,35,0,0
32435,-100,4,2,1,45,0,0
35030,-100,4,2,1,50,0,0
37624,-100,4,2,1,55,0,0
40219,-100,4,2,1,65,0,0
41516,-100,4,2,1,75,0,0
42165,-100,4,2,1,80,0,0
42813,-100,4,2,1,60,0,0
43138,-90.9090909090909,4,2,1,60,0,0
52543,-90.9090909090909,4,2,1,70,0,0
53192,-133.333333333333,4,2,1,30,0,0
53516,-90.9090909090909,4,2,1,80,0,0
53597,-90.9090909090909,4,2,1,60,0,0
57732,-90.9090909090909,4,2,1,70,0,0
58381,-90.9090909090909,4,2,1,30,0,0
58705,-90.9090909090909,4,2,1,80,0,0
58746,-90.9090909090909,4,2,1,60,0,0
60975,-90.9090909090909,4,2,1,75,0,0
62921,-90.9090909090909,4,2,1,50,0,0
63570,-90.9090909090909,4,2,1,55,0,0
63894,-100,4,2,1,55,0,0
81732,-100,4,2,1,65,0,0
83030,-100,4,2,1,75,0,0
84327,-100,4,2,3,75,0,0
84489,-100,4,2,3,35,0,0
85625,-100,4,2,3,45,0,0
86922,-100,4,2,3,55,0,0
88057,-100,4,2,3,10,0,0
88219,-100,4,2,3,75,0,0
88867,-100,4,2,1,75,0,0
89192,-100,4,2,3,75,0,0
89273,-100,4,2,1,75,0,0
89516,-100,4,2,1,75,0,0
99894,-100,4,2,0,50,0,0
105084,-100,4,2,1,60,0,0
107678,-100,4,2,1,70,0,0
108975,-100,4,2,1,80,0,0
109948,-100,4,2,3,60,0,0
110273,-100,4,2,1,55,0,0
116759,-100,4,2,1,65,0,0
118057,-100,4,2,1,75,0,0
118705,-100,4,2,1,85,0,0
119354,-100,4,2,1,30,0,0
119678,-100,4,2,1,45,0,0
119921,-100,4,2,1,60,0,0
120084,-100,4,2,1,75,0,0
120327,-100,4,2,3,90,0,0
120409,-100,4,2,1,75,0,0
120651,-83.3333333333333,4,2,1,65,0,1
130381,-83.3333333333333,4,2,1,80,0,1
131030,-83.3333333333333,4,2,3,65,0,1
131354,-83.3333333333333,4,2,1,65,0,1
134921,-83.3333333333333,4,2,1,80,0,1
136057,-83.3333333333333,4,2,1,65,0,1
138813,-83.3333333333333,4,2,1,65,0,0
140192,-83.3333333333333,4,2,1,55,0,0
140759,-83.3333333333333,4,2,1,80,0,0
141408,-83.3333333333333,4,2,3,80,0,1
141490,-83.3333333333333,4,2,1,65,0,1
151138,-83.3333333333333,4,2,1,80,0,1
151786,-83.3333333333333,4,2,3,70,0,1
152111,-83.3333333333333,4,2,1,70,0,1
156975,-83.3333333333333,4,2,1,75,0,1
158273,-83.3333333333333,4,2,1,85,0,1
159408,-83.3333333333333,4,2,1,90,0,1
160867,-83.3333333333333,4,2,1,65,0,1
161516,-83.3333333333333,4,2,1,80,0,1
162165,-83.3333333333333,4,2,3,80,0,0
162327,-83.3333333333333,4,2,3,60,0,0
162975,-83.3333333333333,4,2,1,60,0,0
172543,-83.3333333333333,4,2,1,65,0,0
175138,-83.3333333333333,4,2,1,75,0,0
177732,-83.3333333333333,4,2,1,85,0,0
181948,-83.3333333333333,4,2,1,25,0,0
182111,-83.3333333333333,4,2,1,35,0,0
182273,-83.3333333333333,4,2,1,45,0,0
182435,-83.3333333333333,4,2,1,55,0,0
182597,-83.3333333333333,4,2,1,65,0,0
182759,-83.3333333333333,4,2,1,75,0,0
182921,-83.3333333333333,4,2,1,25,0,0
183246,-83.3333333333333,4,2,3,80,0,0
183327,-83.3333333333333,4,2,1,80,0,0
188597,-83.3333333333333,4,2,3,5,0,0

[Colours]
Combo1 : 157,60,255
Combo2 : 228,228,228
Combo3 : 151,151,255

[HitObjects]
41,247,1300,6,0,L|123:243,1,65.1299999999999,6|2,3:2|0:2,0:0:0:0:
201,219,1624,2,0,P|190:291|236:348,1,130.26,2|2,0:2|0:2,0:0:0:0:
277,266,2111,2,0,P|310:265|345:287,1,65.1299999999998,2|0,3:2|0:2,0:0:0:0:
384,355,2435,5,6,3:2:0:0:
471,217,2759,2,0,L|394:227,1,65.1299999999999,6|2,3:2|0:2,0:0:0:0:
345,164,3084,1,2,0:2:0:0:
378,90,3246,2,0,P|384:58|359:15,1,65.1299999999998,2|2,0:2|3:2,0:0:0:0:
284,40,3570,2,0,P|278:72|303:115,1,65.1299999999999,2|2,0:2|3:2,0:0:0:0:
345,164,3894,6,0,P|323:180|263:177,1,65.1299999999999,6|2,3:2|0:2,0:0:0:0:
212,141,4219,2,0,L|79:158,1,130.26,2|2,0:2|0:2,0:0:0:0:
25,96,4705,2,0,P|3:126|5:174,1,65.1299999999999,2|2,3:2|0:2,0:0:0:0:
33,229,5030,5,6,3:2:0:0:
105,73,5354,2,0,L|169:65,2,65.1299999999999,6|2|2,3:2|0:2|0:2,0:0:0:0:
159,153,5840,1,2,3:2:0:0:
242,123,6002,1,2,3:2:0:0:
312,175,6165,2,0,L|314:220,3,32.565,2|0|2|0,3:2|3:2|3:2|0:0,0:0:0:0:
323,230,6489,6,0,P|359:234|408:230,1,65.1299999999999,6|2,0:2|0:2,0:0:0:0:
463,182,6813,2,0,P|479:247|445:306,1,130.26,2|2,0:2|0:2,0:0:0:0:
372,327,7300,2,0,P|336:323|287:327,1,65.1299999999998,2|2,3:2|0:2,0:0:0:0:
242,383,7624,5,6,3:2:0:0:
210,228,7948,2,0,L|139:241,1,65.1299999999999,6|2,3:2|0:2,0:0:0:0:
62,203,8273,1,2,0:2:0:0:
2,262,8435,2,0,P|-3:298|6:331,1,65.1299999999999,2|2,0:2|3:2,0:0:0:0:
83,361,8759,2,0,P|88:325|79:292,1,65.1299999999999,2|2,0:2|3:2,0:0:0:0:
2,262,9084,6,0,L|16:183,1,65.1299999999998,6|2,3:2|0:2,0:0:0:0:
2,116,9408,2,0,B|57:112|57:112|75:133|75:133|123:130,1,130.26,2|2,0:2|0:2,0:0:0:0:
133,46,9894,2,0,P|165:52|192:79,1,65.1299999999999,2|2,3:2|0:2,0:0:0:0:
221,151,10219,5,6,3:2:0:0:
348,41,10543,2,0,P|403:37|461:45,2,97.6949999999998,6|4|6,3:2|3:2|3:2,0:0:0:0:
305,122,11192,1,2,0:2:0:0:
375,178,11354,2,0,L|372:216,3,32.565,6|0|2|0,3:2|3:2|3:2|3:2,0:0:0:0:
356,241,11678,6,0,P|394:230|440:255,1,65.1299999999999,6|2,3:2|0:2,0:0:0:0:
492,304,12002,2,0,L|501:172,1,130.26,2|2,0:2|0:2,0:0:0:0:
470,98,12489,2,0,L|403:105,1,65.1299999999999,2|2,3:2|0:2,0:0:0:0:
337,52,12813,5,6,3:2:0:0:
250,199,13138,2,0,L|241:111,1,65.1299999999998,6|2,3:2|0:2,0:0:0:0:
168,87,13462,1,2,0:2:0:0:
99,145,13624,2,0,P|63:157|31:152,1,65.1299999999999,2|2,0:2|3:2,0:0:0:0:
24,60,13948,2,0,P|60:48|92:53,1,65.1299999999999,2|2,0:2|3:2,0:0:0:0:
168,87,14273,6,0,P|185:113|188:151,1,65.1299999999998,6|2,3:2|0:2,0:0:0:0:
140,217,14597,2,0,L|162:360,1,130.26,2|2,0:2|0:2,0:0:0:0:
232,276,15084,2,0,P|269:272|298:286,1,65.1299999999998,2|2,3:2|0:2,0:0:0:0:
342,352,15408,5,6,3:2:0:0:
452,224,15732,2,0,P|467:262|462:295,2,65.1299999999999,6|2|2,3:2|0:2|0:2,0:0:0:0:
370,249,16219,1,2,3:2:0:0:
321,181,16381,1,2,3:2:0:0:
371,114,16543,2,0,P|386:125|397:144,3,32.565,2|0|2|0,3:2|3:2|3:2|0:0,0:0:0:0:
407,154,16867,6,0,P|421:114|448:84,1,65.1299999999999,6|2,3:2|3:2,0:0:0:0:
391,23,17192,2,0,P|349:30|309:22,1,65.1299999999998,2|2,3:2|3:2,0:0:0:0:
285,102,17516,2,0,P|312:134|325:172,1,65.1299999999999,2|2,3:2|3:2,0:0:0:0:
233,172,17840,1,2,3:2:0:0:
233,172,18002,6,0,L|165:181,1,65.1299999999999,6|2,3:2|3:2,0:0:0:0:
99,132,18327,1,6,3:2:0:0:
31,182,18489,2,0,B|11:221|36:264,1,65.1299999999999,2|2,3:2|3:2,0:0:0:0:
109,239,18813,2,0,B|129:278|104:321,1,65.1299999999999,2|2,3:2|3:2,0:0:0:0:
83,375,19138,1,2,3:2:0:0:
184,367,19300,1,2,3:2:0:0:
184,367,19381,1,0,3:2:0:0:
184,367,19462,6,0,L|219:373,3,32.565,6|0|2|0,3:2|3:2|3:2|3:2,0:0:0:0:
243,345,19786,2,0,L|278:339,3,32.565,2|0|2|0,3:2|3:2|3:2|3:2,0:0:0:0:
305,365,20111,2,0,L|340:371,3,32.565,2|0|2|0,3:2|3:2|3:2|3:2,0:0:0:0:
364,343,20435,2,0,L|399:337,3,32.565,2|0|2|0,3:2|3:2|3:2|3:2,0:0:0:0:
427,353,20759,5,6,3:2:0:0:
416,257,20921,2,0,B|473:222|485:133|435:76|349:121|374:185,1,260.119166666666,6|2,3:2|0:2,0:0:0:0:
313,249,21732,2,0,P|267:237|201:250,1,97.6949999999998,10|0,0:2|0:0,0:0:0:0:
205,259,22057,6,0,P|186:199|223:115,1,130.26,2|2,3:2|3:2,0:0:0:0:
266,80,22543,1,2,0:2:0:0:
339,131,22705,1,2,3:2:0:0:
339,131,22867,2,0,L|416:121,1,65.1299999999999,2|2,0:2|3:2,0:0:0:0:
486,155,23192,1,2,0:2:0:0:
486,155,23354,6,0,B|458:212|458:212|468:287,1,130.26,2|2,3:2|3:2,0:0:0:0:
491,360,23840,1,2,0:2:0:0:
404,333,24002,2,0,L|324:340,1,65.1299999999999,2|2,3:2|0:2,0:0:0:0:
274,384,24327,2,0,L|194:377,1,65.1299999999999,2|2,3:2|0:2,0:0:0:0:
142,326,24651,6,0,P|142:289|156:261,1,65.1299999999999,2|2,3:2|0:2,0:0:0:0:
242,284,24975,1,2,3:2:0:0:
242,284,25138,2,0,B|245:238|245:238|232:214|232:214|240:142,1,130.26,2|2,0:2|0:2,0:0:0:0:
209,73,25624,1,2,3:2:0:0:
130,98,25786,1,2,0:2:0:0:
130,98,25948,6,0,P|94:88|54:97,1,65.1299999999999,2|2,3:2|0:2,0:0:0:0:
22,175,26273,2,0,P|58:185|98:176,1,65.1299999999998,2|2,3:2|0:2,0:0:0:0:
177,170,26597,2,0,L|168:254,1,65.1299999999999,2|2,3:2|0:2,0:0:0:0:
88,275,26921,2,0,L|97:359,1,65.1299999999999,2|2,3:2|0:2,0:0:0:0:
173,376,27246,6,0,P|199:352|256:348,1,65.1299999999998,2|2,3:2|0:2,0:0:0:0:
298,383,27570,2,0,L|451:355,1,130.26,2|2,3:2|3:2,0:0:0:0:
454,273,28057,2,0,L|388:285,1,65.1299999999998,2|2,0:2|3:2,0:0:0:0:
317,236,28381,1,2,0:2:0:0:
317,236,28543,6,0,P|300:173|346:117,1,130.26,2|2,3:2|3:2,0:0:0:0:
420,114,29030,1,2,0:2:0:0:
420,114,29192,2,0,L|497:126,1,65.1299999999998,2|2,3:2|0:2,0:0:0:0:
512,42,29516,2,0,L|435:30,1,65.1299999999999,2|2,3:2|0:2,0:0:0:0:
362,54,29840,6,0,P|340:76|338:129,1,65.1299999999999,2|2,3:2|0:2,0:0:0:0:
344,195,30165,1,2,3:2:0:0:
344,195,30327,2,0,L|272:181,1,65.1299999999999,2|2,0:2|3:2,0:0:0:0:
241,105,30651,1,2,0:2:0:0:
241,105,30813,2,0,L|169:119,1,65.1299999999999,2|2,3:2|0:2,0:0:0:0:
106,168,31138,6,0,P|115:212|98:248,1,65.1299999999998,2|2,3:2|0:2,0:0:0:0:
23,181,31462,2,0,P|17:149|27:119,1,65.1299999999999,2|2,3:2|0:2,0:0:0:0:
96,69,31786,1,10,0:2:0:0:
96,69,31948,2,0,P|146:91|219:29,1,130.26,10|2,0:2|0:2,0:0:0:0:
270,5,32435,5,6,3:2:0:0:
270,5,32597,1,2,0:2:0:0:
302,87,32759,2,0,L|292:172,1,65.1299999999999,10|2,0:2|0:2,0:0:0:0:
206,170,33084,1,2,3:2:0:0:
206,170,33246,2,0,L|216:255,1,65.1299999999998,2|10,0:2|0:2,0:0:0:0:
297,283,33570,1,2,0:2:0:0:
297,283,33732,6,0,P|235:271|174:316,1,130.26,2|10,3:2|0:2,0:0:0:0:
143,383,34219,1,2,0:2:0:0:
67,343,34381,2,0,L|-16:356,1,65.1299999999999,2|2,3:2|0:2,0:0:0:0:
15,264,34705,2,0,L|98:251,1,65.1299999999999,10|2,0:2|0:2,0:0:0:0:
167,255,35030,6,0,P|169:201|114:149,1,130.26,2|10,3:2|0:2,0:0:0:0:
30,175,35516,2,0,L|15:100,1,65.1299999999999,2|2,0:2|3:2,0:0:0:0:
16,26,35840,1,2,0:2:0:0:
16,26,36002,2,0,L|109:46,1,65.1299999999999,10|2,0:2|0:2,0:0:0:0:
135,108,36327,6,0,P|172:119|219:92,1,65.1299999999999,2|2,3:2|0:2,0:0:0:0:
205,26,36651,2,0,P|242:15|289:42,1,65.1299999999999,10|2,0:2|0:2,0:0:0:0:
316,97,36975,2,0,L|326:171,1,65.1299999999999,2|2,3:2|0:2,0:0:0:0:
410,186,37300,2,0,L|400:260,1,65.1299999999998,10|2,0:2|0:2,0:0:0:0:
316,295,37624,5,2,3:2:0:0:
316,295,37786,1,2,0:2:0:0:
385,360,37948,2,0,P|444:333|500:372,1,130.26,10|2,0:2|3:2,0:0:0:0:
512,265,38435,2,0,L|503:191,1,65.1299999999999,2|10,0:2|0:2,0:0:0:0:
428,165,38759,1,2,0:2:0:0:
428,165,38921,6,0,L|437:91,1,65.1299999999999,2|2,3:2|0:2,0:0:0:0:
501,47,39246,1,10,0:2:0:0:
424,8,39408,1,2,0:2:0:0:
424,8,39570,2,0,P|396:0|341:16,1,65.1299999999999,2|2,3:2|0:2,0:0:0:0:
347,89,39894,2,0,P|319:97|264:81,1,65.1299999999999,10|2,0:2|0:2,0:0:0:0:
205,39,40219,6,0,L|195:124,1,65.1299999999998,2|2,3:2|0:2,0:0:0:0:
114,119,40543,2,0,L|124:204,1,65.1299999999999,10|2,0:2|0:2,0:0:0:0:
209,193,40867,2,0,L|199:278,1,65.1299999999999,2|2,3:2|0:2,0:0:0:0:
118,273,41192,2,0,L|128:358,1,65.1299999999999,10|2,0:2|0:2,0:0:0:0:
201,378,41516,5,2,3:2:0:0:
256,192,41597,12,6,42813,3:2:0:0:
37,357,43138,6,0,L|27:271,1,71.6430021820067,8|0,0:2|0:2,0:0:0:0:
78,209,43462,1,0,3:2:0:0:
154,253,43624,2,0,L|164:339,1,71.6430021820068,0|8,0:2|0:2,0:0:0:0:
252,309,43948,1,2,0:2:0:0:
257,220,44111,6,0,B|297:233|331:213|322:206|356:188|407:210,1,143.286004364014,2|8,3:2|0:2,0:0:0:0:
366,291,44597,1,2,0:2:0:0:
441,341,44759,2,0,P|459:306|448:256,1,71.6430021820068,0|2,3:2|0:2,0:0:0:0:
394,205,45084,2,0,P|376:170|387:120,1,71.6430021820067,8|2,0:2|0:2,0:0:0:0:
461,106,45408,6,0,P|412:53|343:58,1,143.286004364014,0|8,3:2|0:2,0:0:0:0:
290,127,45894,2,0,L|210:138,1,71.6430021820068,0|0,0:2|3:2,0:0:0:0:
204,48,46219,1,2,0:2:0:0:
133,103,46381,2,0,P|128:150|149:198,1,71.6430021820068,8|2,0:2|0:2,0:0:0:0:
208,227,46705,6,0,L|295:237,1,71.6430021820068,2|2,3:2|0:2,0:0:0:0:
229,319,47030,2,0,L|142:329,1,71.6430021820067,8|2,0:2|0:2,0:0:0:0:
71,344,47354,2,0,P|62:300|84:249,1,71.6430021820068,2|2,3:2|0:2,0:0:0:0:
125,208,47678,2,0,P|134:164|112:113,1,71.6430021820068,10|2,0:2|0:2,0:0:0:0:
54,94,48002,5,0,3:2:0:0:
54,94,48165,1,0,0:2:0:0:
106,26,48327,2,0,L|198:39,1,71.6430021820068,8|0,0:2|0:2,0:0:0:0:
227,116,48651,1,0,3:2:0:0:
296,59,48813,2,0,L|388:46,1,71.6430021820068,0|8,0:2|0:2,0:0:0:0:
444,10,49138,1,2,0:2:0:0:
501,77,49300,6,0,P|492:150|490:239,1,143.286004364014,2|8,3:2|0:2,0:0:0:0:
511,311,49786,1,2,0:2:0:0:
423,276,49948,2,0,P|381:280|349:293,1,71.6430021820068,0|2,3:2|0:2,0:0:0:0:
305,362,50273,2,0,P|263:358|231:345,1,71.6430021820067,8|2,0:2|0:2,0:0:0:0:
165,286,50597,6,0,P|176:210|226:161,1,143.286004364014,0|8,3:2|0:2,0:0:0:0:
293,216,51084,2,0,L|378:221,1,71.6430021820067,0|0,0:2|3:2,0:0:0:0:
446,257,51408,1,2,0:2:0:0:
494,185,51570,2,0,P|504:143|489:103,1,71.6430021820068,8|2,0:2|0:2,0:0:0:0:
403,72,51894,6,0,L|413:156,1,71.6430021820068,4|0,3:2|0:2,0:0:0:0:
322,146,52219,2,0,L|332:230,1,71.6430021820067,8|0,0:2|0:2,0:0:0:0:
413,230,52543,2,0,P|368:232|285:271,2,107.46450327301,6|4|4,3:2|3:2|3:2,0:0:0:0:
475,307,53192,6,0,P|464:332|447:304,1,73.2712527894973,0|0,3:2|0:0,0:0:0:0:
490,299,53516,6,0,P|491:337|472:393,1,71.6430021820068,8|0,0:2|0:2,0:0:0:0:
395,384,53840,1,0,3:2:0:0:
359,305,54002,2,0,P|358:267|377:211,1,71.6430021820068,0|8,0:2|0:2,0:0:0:0:
409,166,54327,1,2,0:2:0:0:
476,227,54489,6,0,B|496:176|496:176|479:86,1,143.286004364014,2|8,3:2|0:2,0:0:0:0:
429,18,54975,1,2,0:2:0:0:
429,18,55138,2,0,L|479:2,2,35.8215010910034,0|0|2,3:2|0:0|0:2,0:0:0:0:
373,84,55462,1,8,0:2:0:0:
297,44,55624,1,2,3:2:0:0:
259,124,55786,6,0,L|238:275,1,143.286004364014,4|8,3:2|0:2,0:0:0:0:
168,191,56273,2,0,P|129:188|91:204,1,71.6430021820067,0|0,0:2|3:2,0:0:0:0:
41,265,56597,1,2,0:2:0:0:
3,185,56759,2,0,P|-2:147|15:109,1,71.6430021820068,8|2,0:2|0:2,0:0:0:0:
97,95,57084,5,2,3:2:0:0:
97,95,57246,1,2,3:2:0:0:
27,32,57408,1,10,0:2:0:0:
17,124,57570,1,2,0:2:0:0:
17,124,57651,1,0,0:2:0:0:
17,124,57732,2,0,L|26:174,3,35.8215010910033,2|0|2|0,3:2|0:2|0:2|0:2,0:0:0:0:
44,183,58057,2,0,L|35:233,3,35.8215010910034,14|0|2|0,0:2|0:2|0:2|0:2,0:0:0:0:
35,254,58381,6,0,P|76:248|117:296,1,107.46450327301,4|0,3:2|0:0,0:0:0:0:
113,322,58705,2,0,B|174:315|174:315|192:331|192:331|258:323,1,143.286004364014,8|0,0:2|3:2,0:0:0:0:
327,372,59192,2,0,P|340:321|320:282,1,71.6430021820067,0|8,0:2|0:2,0:0:0:0:
272,240,59516,1,2,0:2:0:0:
369,149,59678,6,0,L|354:238,1,71.6430021820068,2|0,3:2|3:2,0:0:0:0:
284,138,60002,2,0,P|312:80|392:68,1,143.286004364014,8|0,3:2|3:2,0:0:0:0:
457,117,60489,2,0,L|472:206,1,71.6430021820068,2|8,0:2|0:2,0:0:0:0:
419,256,60813,1,2,3:2:0:0:
504,355,60975,6,0,P|458:337|408:340,1,71.6430021820068,4|0,3:2|3:2,0:0:0:0:
365,384,61300,2,0,P|316:375|274:347,1,71.6430021820067,12|0,3:2|3:2,0:0:0:0:
226,319,61624,2,0,L|184:335,3,35.8215010910033,0|0|2|0,3:2|3:2|3:2|3:2,0:0:0:0:
165,360,61948,2,0,L|123:344,3,35.8215010910033,8|0|2|0,3:2|3:2|3:2|3:2,0:0:0:0:
98,336,62273,6,0,P|57:342|20:357,1,71.6430021820067,4|2,3:2|0:2,0:0:0:0:
7,262,62597,2,0,P|48:256|85:241,1,71.6430021820068,2|2,0:2|0:2,0:0:0:0:
105,155,62921,1,2,0:2:0:0:
180,212,63084,1,2,0:2:0:0:
255,157,63246,1,2,0:2:0:0:
228,68,63408,1,2,0:2:0:0:
323,92,63570,5,6,0:2:0:0:
388,235,63894,2,0,P|392:174|422:87,2,130.059583333334,2|2|2,0:2|0:2|0:2,0:0:0:0:
461,294,64705,1,2,0:2:0:0:
461,294,64867,6,0,P|476:332|478:363,1,65.1299999999999,2|2,0:2|0:2,0:0:0:0:
397,383,65192,2,0,P|382:345|380:314,1,65.1299999999998,2|2,0:2|0:2,0:0:0:0:
388,235,65516,2,0,P|401:205|405:173,1,65.1299999999999,2|2,0:2|0:2,0:0:0:0:
324,146,65840,2,0,P|309:184|307:215,1,65.1299999999999,2|2,0:2|0:2,0:0:0:0:
292,292,66165,6,0,B|251:304|251:304|160:279,1,130.26,2|2,0:2|0:2,0:0:0:0:
104,212,66651,2,0,P|158:170|126:115,1,130.26,2|0,0:2|0:0,0:0:0:0:
72,64,67138,2,0,L|9:81,1,65.1299999999998,2|0,0:2|0:0,0:0:0:0:
6,170,67462,6,0,L|0:234,1,65.1299999999999,2|0,0:2|0:0,0:0:0:0:
83,245,67786,2,0,L|77:309,1,65.1299999999999,2|0,0:2|0:0,0:0:0:0:
134,375,68111,2,0,P|179:363|249:369,2,97.6949999999998,2|2|2,0:2|0:2|0:2,0:0:0:0:
164,282,68759,6,0,P|222:278|300:303,1,130.26,2|2,0:2|0:2,0:0:0:0:
358,353,69246,1,2,0:2:0:0:
419,291,69408,2,0,B|406:237|406:237|417:215|417:215|408:165,1,130.26,2|2,0:2|0:2,0:0:0:0:
326,194,69894,1,2,0:2:0:0:
244,168,70057,6,0,P|231:132|243:90,1,65.1299999999998,2|2,0:2|0:2,0:0:0:0:
316,83,70381,2,0,L|390:95,1,65.1299999999999,2|2,0:2|0:2,0:0:0:0:
392,12,70705,2,0,L|318:0,1,65.1299999999999,2|2,0:2|0:2,0:0:0:0:
246,25,71030,1,2,0:2:0:0:
167,11,71192,1,2,0:2:0:0:
167,11,71273,1,2,0:2:0:0:
167,11,71354,6,0,P|152:48|170:94,1,65.1299999999999,2|0,0:2|0:0,0:0:0:0:
205,141,71678,1,2,0:2:0:0:
133,188,71840,2,0,B|154:227|154:227|133:329,1,130.26,2|0,0:2|0:0,0:0:0:0:
70,373,72327,2,0,P|50:341|49:303,1,65.1299999999999,2|0,0:2|0:0,0:0:0:0:
61,235,72651,6,0,L|22:160,1,65.1299999999999
103,130,72975,2,0,L|142:205,1,65.1299999999999,2|0,0:2|0:0,0:0:0:0:
198,254,73300,2,0,P|232:264|270:259,1,65.1299999999998,2|2,0:2|0:2,0:0:0:0:
281,174,73624,2,0,P|247:164|209:169,1,65.1299999999999,2|2,0:2|0:2,0:0:0:0:
132,187,73948,6,0,L|118:245,2,32.5649999999999,2|0|0,0:2|0:0|0:0,0:0:0:0:
46,170,74273,2,0,L|32:112,2,32.565,2|2|2,0:2|0:2|0:2,0:0:0:0:
120,96,74597,2,0,P|143:69|182:51,1,65.1299999999999,2|2,0:2|0:2,0:0:0:0:
237,105,74921,2,0,P|270:112|322:106,1,65.1299999999999,2|2,0:2|0:2,0:0:0:0:
365,53,75246,5,2,0:2:0:0:
365,53,75408,1,2,0:2:0:0:
438,97,75570,2,0,P|443:137|435:168,1,65.1299999999999,2|2,0:2|0:2,0:0:0:0:
461,242,75894,2,0,B|424:260|395:245|403:235|370:223|319:254,1,130.26,2|2,0:2|0:2,0:0:0:0:
313,335,76381,1,2,0:2:0:0:
230,301,76543,6,0,B|196:283|159:292|159:292|142:318|103:320,1,130.26,2|2,0:2|0:2,0:0:0:0:
91,232,77030,2,0,P|82:189|102:144,1,65.1299999999998,2|2,0:2|0:2,0:0:0:0:
147,108,77354,1,0,0:0:0:0:
147,108,77516,2,0,L|217:116,1,65.1299999999999,2|0,0:2|0:0,0:0:0:0:
279,178,77840,6,0,P|313:196|354:200,1,65.1299999999999,2|0,0:2|0:0,0:0:0:0:
363,124,78165,2,0,P|328:105|287:101,1,65.1299999999998,2|0,0:2|0:0,0:0:0:0:
210,115,78489,2,0,P|182:131|151:138,1,65.1299999999999,2|0,0:2|0:0,0:0:0:0:
127,61,78813,2,0,P|155:45|187:39,1,65.1299999999999,0|2,0:0|0:2,0:0:0:0:
291,70,79138,6,0,L|307:113,2,32.565,2|0|0,0:2|0:0|0:0,0:0:0:0:
380,42,79462,2,0,L|396:-1,2,32.5649999999999,2|2|2,0:2|0:2|0:2,0:0:0:0:
450,94,79786,2,0,P|446:135|457:178,1,65.1299999999999,2|2,0:2|0:2,0:0:0:0:
512,219,80111,2,0,P|516:260|505:303,1,65.1299999999998,2|2,0:2|0:2,0:0:0:0:
446,338,80435,5,2,0:2:0:0:
446,338,80597,2,0,B|403:317|403:317|310:344,1,130.26,2|2,0:2|0:2,0:0:0:0:
244,376,81084,2,0,P|237:341|253:293,1,65.1299999999998,2|2,0:2|0:2,0:0:0:0:
308,254,81408,2,0,L|380:234,1,65.1299999999999,2|2,0:2|0:2,0:0:0:0:
460,258,81732,6,0,B|473:212|445:182|445:182|444:150|467:133,1,130.26,2|0,0:2|0:2,0:0:0:0:
512,68,82219,2,0,P|484:55|431:58,1,65.1299999999998,2|0,0:2|0:2,0:0:0:0:
377,101,82543,1,0,0:2:0:0:
377,101,82705,2,0,P|349:114|296:111,1,65.1299999999999,2|0,0:2|0:2,0:0:0:0:
237,75,83030,6,0,L|205:63,3,32.565,4|2|0|0,0:2|0:2|0:2|0:2,0:0:0:0:
174,80,83354,2,0,L|142:92,3,32.565,2|0|0|2,0:2|0:2|0:2|0:2,0:0:0:0:
92,62,83678,2,0,L|106:154,1,65.1299999999999,2|2,0:2|0:2,0:0:0:0:
35,186,84002,2,0,L|49:278,1,65.1299999999999,2|2,0:2|0:2,0:0:0:0:
12,334,84327,5,14,0:2:0:0:
256,192,84408,12,2,87894,0:2:0:0:
219,314,88219,6,0,L|211:266,3,32.565,0|0|0|0,1:2|1:2|1:2|1:2,0:0:0:0:
234,253,88543,2,0,L|242:205,3,32.565,0|0|0|0,1:2|1:2|1:2|1:2,0:0:0:0:
222,193,88867,2,0,L|214:145,3,32.565,2|2|0|0,1:2|1:2|1:2|1:2,0:0:0:0:
239,133,89192,2,0,L|247:85,3,32.565,10|0|0|2,1:2|1:2|1:2|1:2,0:0:0:0:
224,61,89516,5,14,1:2:0:0:
382,122,99894,6,0,B|327:121|327:121|313:112|313:112|245:112,3,130.126388888889,8|8|8|8,0:2|0:2|0:2|0:2,0:0:0:0:
156,212,101192,2,0,B|211:211|211:211|225:202|225:202|293:202,3,130.126388888889,8|8|8|8,0:2|0:2|0:2|0:2,0:0:0:0:
442,217,102489,6,0,P|455:260|426:350,3,130.126388888889,8|8|8|8,0:2|0:2|0:2|0:2,0:0:0:0:
290,264,103786,2,0,P|277:221|306:131,3,130.126388888889,8|8|8|8,0:2|0:2|0:2|0:2,0:0:0:0:
426,52,105084,6,0,L|355:49,1,65.1299999999998,8|8,0:2|0:2,0:0:0:0:
273,63,105408,2,0,L|270:28,2,32.5649999999999,10|8|8,0:2|0:2|0:2,0:0:0:0:
322,145,105732,2,0,L|319:216,1,65.1299999999999,8|10,0:2|0:2,0:0:0:0:
305,292,106057,2,0,L|340:295,2,32.5649999999999,10|8|10,0:2|0:2|0:2,0:0:0:0:
224,311,106381,6,0,L|153:308,1,65.1299999999999,8|8,0:2|0:2,0:0:0:0:
77,294,106705,2,0,L|74:329,2,32.5649999999999,10|8|8,0:2|0:2|0:2,0:0:0:0:
127,227,107030,2,0,L|130:156,1,65.1299999999998,8|10,0:2|0:2,0:0:0:0:
144,80,107354,2,0,L|109:77,2,32.5649999999999,10|8|10,0:2|0:2|0:2,0:0:0:0:
263,49,107678,6,0,P|273:69|266:95,3,32.565,8|10|8|8,0:2|0:2|0:2|0:2,0:0:0:0:
256,99,108002,2,0,P|246:119|253:145,3,32.565,10|8|10|8,0:2|0:2|0:2|0:2,0:0:0:0:
266,150,108327,2,0,P|276:170|269:196,3,32.565,8|10|8|8,0:2|0:2|0:2|0:2,0:0:0:0:
259,200,108651,2,0,P|249:220|256:246,3,32.565,10|8|10|10,0:2|0:2|0:2|0:2,0:0:0:0:
278,267,108975,5,12,0:2:0:0:
192,310,109138,1,12,0:2:0:0:
192,310,109624,2,0,P|148:298|84:312,1,97.6949999999998,2|2,0:2|0:2,0:0:0:0:
78,323,109948,2,0,P|74:272|85:230,1,65.1299999999999,12|2,0:2|0:2,0:0:0:0:
130,185,110273,5,8,0:2:0:0:
256,192,110354,12,10,115138,0:2:0:0:
290,90,115462,6,0,P|329:116|343:143,1,65.1299999999999,8|8,0:2|0:2,0:0:0:0:
310,212,115786,2,0,P|309:238|318:255,2,32.5649999999999,10|8|8,0:2|0:2|0:2,0:0:0:0:
221,203,116111,2,0,L|142:220,1,65.1299999999998,8|8,0:2|0:2,0:0:0:0:
77,179,116435,2,0,L|21:174,2,32.5649999999999,10|8|8,0:2|0:2|0:2,0:0:0:0:
83,266,116759,6,0,P|76:308|89:345,1,65.1299999999999,8|8,0:2|0:2,0:0:0:0:
168,371,117084,1,10,0:2:0:0:
168,371,117165,1,8,0:2:0:0:
168,371,117246,1,8,0:2:0:0:
239,308,117408,2,0,L|311:319,1,65.1299999999999,8|8,0:2|0:2,0:0:0:0:
394,285,117732,1,10,0:2:0:0:
394,285,117813,1,8,0:2:0:0:
394,285,117894,1,8,0:2:0:0:
483,303,118057,6,0,L|487:263,3,32.565,8|8|8|8,0:2|0:2|0:2|0:2,0:0:0:0:
462,240,118381,2,0,L|458:200,3,32.565,8|8|8|8,0:2|0:2|0:2|0:2,0:0:0:0:
485,178,118705,2,0,L|489:138,3,32.565,8|8|8|8,0:2|0:2|0:2|0:2,0:0:0:0:
464,115,119030,2,0,L|460:75,3,32.565,8|8|8|8,0:2|0:2|0:2|0:2,0:0:0:0:
256,192,119354,12,10,120327,0:2:0:0:
234,98,120651,6,0,P|183:118|103:98,1,117.233996429443,4|0,3:2|0:0,0:0:0:0:
122,109,120975,2,0,P|127:162|114:211,1,78.1559976196288,10|0,0:2|0:0,0:0:0:0:
111,206,121219,1,2,0:2:0:0:
63,307,121462,2,0,P|103:297|155:303,1,78.1559976196288,2|10,0:2|0:2,0:0:0:0:
220,344,121786,1,2,0:2:0:0:
220,344,121867,1,2,0:2:0:0:
220,344,121948,6,0,L|364:353,1,117.233996429443,0|0,3:2|0:0,0:0:0:0:
336,351,122273,2,0,P|330:302|351:248,1,78.1559976196288,10|0,0:2|0:0,0:0:0:0:
349,260,122516,1,2,0:2:0:0:
450,309,122759,2,0,P|464:259|443:205,1,78.1559976196288,2|10,0:2|0:2,0:0:0:0:
444,147,123084,1,2,0:2:0:0:
444,147,123165,1,2,0:2:0:0:
444,147,123246,6,0,P|403:130|335:141,1,77.999997619629,2|0,3:2|0:0,0:0:0:0:
352,149,123489,1,2,0:2:0:0:
214,118,123732,2,0,P|232:54|215:-1,2,117.233996429443,2|2|10,0:2|0:2|0:2,0:0:0:0:
157,176,124381,1,2,0:2:0:0:
224,249,124543,6,0,P|191:250|139:284,1,77.999997619629,2|0,3:2|0:0,0:0:0:0:
140,287,124786,1,2,0:2:0:0:
26,222,125030,2,0,P|14:282|51:343,2,117.233996429443,2|2|10,0:2|0:2|0:2,0:0:0:0:
74,154,125678,1,2,0:2:0:0:
74,154,125759,1,2,0:2:0:0:
74,154,125840,6,0,P|104:98|70:63,1,117.233996429443,0|0,3:2|0:0,0:0:0:0:
73,64,126165,2,0,P|133:69|211:66,2,117.233996429443,10|2|2,0:2|0:2|0:2,0:0:0:0:
74,154,126813,1,10,0:2:0:0:
171,191,126975,1,2,0:2:0:0:
171,191,127057,1,2,0:2:0:0:
171,191,127138,6,0,P|145:241|194:272,1,117.233996429443,0|0,3:2|0:0,0:0:0:0:
185,272,127462,2,0,P|123:275|63:297,2,117.233996429443,10|2|2,0:2|0:2|0:2,0:0:0:0:
262,323,128111,1,10,0:2:0:0:
322,259,128273,1,2,0:2:0:0:
322,259,128354,1,2,0:2:0:0:
322,259,128435,6,0,P|334:214|329:137,1,117.233996429443,0|0,3:2|0:0,0:0:0:0:
330,144,128759,2,0,P|357:185|413:200,1,78.1559976196288,10|2,0:2|0:2,0:0:0:0:
466,153,129084,2,0,P|478:214|432:280,1,117.233996429443,0|0,3:2|0:0,0:0:0:0:
432,274,129408,1,10,0:2:0:0:
497,349,129570,1,2,0:2:0:0:
497,349,129651,1,2,0:2:0:0:
497,349,129732,6,0,P|442:331|374:352,1,117.233996429443,0|0,3:2|0:0,0:0:0:0:
361,364,130057,1,10,0:2:0:0:
287,273,130219,1,2,0:2:0:0:
287,273,130300,1,2,0:2:0:0:
287,273,130381,2,0,P|283:337|253:387,2,117.233996429443,2|2|2,3:2|0:2|0:2,0:0:0:0:
218,187,131030,6,0,L|94:193,1,117.233996429443,12|0,3:2|0:0,0:0:0:0:
101,192,131354,2,0,P|110:245|95:280,1,78.1559976196288,10|0,0:2|0:0,0:0:0:0:
89,284,131597,1,2,0:2:0:0:
4,186,131840,2,0,P|-4:133|10:98,1,78.1559976196288,2|10,0:2|0:2,0:0:0:0:
98,90,132165,1,2,0:2:0:0:
98,90,132246,1,2,0:2:0:0:
98,90,132327,6,0,P|174:82|216:108,1,117.233996429443,0|0,3:2|0:0,0:0:0:0:
207,100,132651,2,0,L|222:10,1,78.1559976196288,10|0,0:2|0:0,0:0:0:0:
241,11,132894,1,2,0:2:0:0:
344,108,133138,2,0,L|329:198,1,78.1559976196288,2|10,0:2|0:2,0:0:0:0:
403,241,133462,1,2,3:2:0:0:
403,241,133543,1,2,0:2:0:0:
403,241,133624,6,0,P|448:232|487:255,1,77.999997619629,6|0,3:2|0:0,0:0:0:0:
485,264,133867,1,2,0:2:0:0:
485,264,133948,1,0,0:2:0:0:
468,356,134111,2,0,P|423:365|384:342,1,77.999997619629,6|0,3:2|0:2,0:0:0:0:
386,333,134354,1,2,0:2:0:0:
386,333,134435,1,0,0:0:0:0:
311,275,134597,2,0,P|274:258|223:264,1,77.999997619629,14|2,0:2|0:2,0:0:0:0:
145,289,134921,6,0,B|113:225|113:225|140:164,2,116.999996429443,14|14|14,0:2|0:2|0:2,0:0:0:0:
224,173,135651,2,0,P|270:148|260:72,1,116.999996429443,14|10,0:2|0:2,0:0:0:0:
198,42,136057,1,10,0:2:0:0:
198,42,136138,1,2,0:2:0:0:
198,42,136219,5,4,3:2:0:0:
101,30,136381,1,0,3:2:0:0:
46,102,136543,2,0,P|33:148|53:224,2,117.233996429443,10|2|2,0:2|0:2|0:2,0:0:0:0:
129,156,137192,1,10,0:2:0:0:
141,256,137354,1,2,3:2:0:0:
141,256,137435,1,2,3:2:0:0:
141,256,137516,6,0,P|204:243|227:296,1,117.233996429443,4|0,3:2|0:0,0:0:0:0:
228,281,137840,2,0,P|231:220|266:140,2,117.233996429443,10|2|2,0:2|0:2|3:2,0:0:0:0:
309,335,138489,1,10,0:2:0:0:
399,311,138651,1,2,0:2:0:0:
399,311,138732,1,2,0:2:0:0:
399,311,138813,6,0,P|411:254|395:209,1,78.1559976196288,0|0,3:2|3:2,0:0:0:0:
323,241,139138,2,0,P|319:202|331:165,1,78.1559976196288,10|2,0:2|0:2,0:0:0:0:
420,149,139462,2,0,P|422:124|418:104,3,39.0779988098144,0|2|0|0,3:2|3:2|3:2|3:2,0:0:0:0:
385,103,139786,2,0,P|383:78|387:58,3,39.0779988098144,10|0|2|2,3:2|3:2|3:2|3:2,0:0:0:0:
412,35,140111,6,0,P|338:64|248:45,1,156.311995239258,4|10,3:2|1:2,0:0:0:0:
180,107,140597,1,2,1:2:0:0:
180,107,140678,1,2,1:2:0:0:
180,107,140759,2,0,L|59:92,2,117.233996429443,14|14|14,3:2|0:2|0:2,0:0:0:0:
262,155,141408,6,0,P|272:212|232:286,1,117.233996429443,8|0,3:2|0:0,0:0:0:0:
251,265,141732,2,0,L|161:251,1,78.1559976196288,10|0,0:2|0:0,0:0:0:0:
156,266,141975,1,2,0:2:0:0:
55,313,142219,2,0,P|44:265|54:221,1,78.1559976196288,2|10,0:2|0:2,0:0:0:0:
100,170,142543,1,2,0:2:0:0:
100,170,142624,1,2,0:2:0:0:
100,170,142705,6,0,P|101:120|47:62,1,117.233996429443,0|0,3:2|0:0,0:0:0:0:
61,68,143030,2,0,P|103:69|166:59,1,78.1559976196288,10|0,0:2|0:0,0:0:0:0:
159,51,143273,1,2,0:2:0:0:
229,150,143516,2,0,P|271:149|334:158,1,78.1559976196288,2|10,0:2|0:2,0:0:0:0:
388,219,143840,1,2,0:2:0:0:
388,219,143921,1,2,0:2:0:0:
388,219,144002,6,0,P|394:165|419:120,1,77.999997619629,2|0,3:2|0:0,0:0:0:0:
428,135,144246,1,2,0:2:0:0:
347,26,144489,2,0,P|292:6|212:9,2,117.233996429443,2|2|10,0:2|0:2|0:2,0:0:0:0:
322,107,145138,1,2,0:2:0:0:
403,143,145300,6,0,P|390:180|388:219,1,77.999997619629,2|0,3:2|0:0,0:0:0:0:
402,241,145543,1,2,0:2:0:0:
329,354,145786,2,0,B|279:351|279:351|267:356|267:356|208:352,2,117.233996429443,2|2|10,0:2|0:2|0:2,0:0:0:0:
298,271,146435,1,2,0:2:0:0:
298,271,146516,1,2,0:2:0:0:
298,271,146597,6,0,P|243:228|211:275,1,117.233996429443,0|0,3:2|0:0,0:0:0:0:
215,250,146921,2,0,P|202:176|223:131,2,117.233996429443,10|2|2,0:2|0:2|0:2,0:0:0:0:
267,338,147570,1,10,0:2:0:0:
172,338,147732,1,2,0:2:0:0:
172,338,147813,1,2,0:2:0:0:
172,338,147894,6,0,P|138:297|86:325,1,117.233996429443,0|0,3:2|0:0,0:0:0:0:
87,320,148219,2,0,P|98:256|83:201,2,117.233996429443,10|2|2,0:2|0:2|0:2,0:0:0:0:
3,262,148867,1,10,0:2:0:0:
0,171,149030,1,2,0:2:0:0:
0,171,149111,1,2,0:2:0:0:
0,171,149192,6,0,P|51:181|121:147,1,117.233996429443,0|0,3:2|0:0,0:0:0:0:
109,157,149516,2,0,P|94:109|102:82,1,78.1559976196288,10|2,0:2|0:2,0:0:0:0:
202,79,149840,2,0,P|220:129|190:204,1,117.233996429443,0|0,3:2|0:0,0:0:0:0:
186,207,150165,1,10,0:2:0:0:
242,291,150327,1,2,0:2:0:0:
242,291,150408,1,2,0:2:0:0:
242,291,150489,6,0,P|300:274|368:295,1,117.233996429443,0|0,3:2|0:0,0:0:0:0:
372,314,150813,1,10,0:2:0:0:
452,248,150975,1,2,0:2:0:0:
452,248,151057,1,2,0:2:0:0:
452,248,151138,2,0,P|478:312|453:375,2,117.233996429443,2|2|2,3:2|0:2|0:2,0:0:0:0:
360,201,151786,6,0,P|355:149|400:97,1,117.233996429443,12|0,3:2|0:0,0:0:0:0:
393,100,152111,2,0,L|296:108,1,78.1559976196288,10|0,0:2|0:0,0:0:0:0:
292,95,152354,1,2,0:2:0:0:
198,26,152597,2,0,P|177:68|191:125,1,78.1559976196288,2|10,0:2|0:2,0:0:0:0:
246,174,152921,1,2,0:2:0:0:
246,174,153002,1,2,0:2:0:0:
246,174,153084,6,0,L|229:312,1,117.233996429443,0|0,3:2|0:0,0:0:0:0:
231,290,153408,2,0,P|176:270|127:290,1,78.1559976196288,10|0,0:2|0:0,0:0:0:0:
141,290,153651,1,2,0:2:0:0:
68,199,153894,2,0,L|79:113,1,78.1559976196288,2|10,0:2|0:2,0:0:0:0:
117,45,154219,1,2,0:2:0:0:
117,45,154300,1,2,0:2:0:0:
117,45,154381,6,0,P|162:65|218:52,1,77.999997619629,14|0,3:2|0:0,0:0:0:0:
207,52,154624,1,2,0:2:0:0:
207,52,154705,1,0,0:2:0:0:
300,108,154867,2,0,P|260:136|243:191,1,77.999997619629,14|0,0:2|0:2,0:0:0:0:
248,182,155110,1,2,0:2:0:0:
248,182,155191,1,0,0:0:0:0:
157,230,155354,2,0,P|196:258|213:313,1,77.999997619629,14|2,0:2|0:2,0:0:0:0:
125,309,155678,6,0,B|87:312|87:312|16:365,2,117.233996429443,14|14|14,3:2|0:2|0:2,0:0:0:0:
138,324,156246,1,2,0:2:0:0:
212,378,156408,2,0,L|291:366,1,77.999997619629,14|0,0:2|0:0,0:0:0:0:
300,352,156651,1,14,0:2:0:0:
352,283,156813,1,14,0:2:0:0:
424,335,156975,6,0,P|438:299|428:245,1,78.1559976196288,0|0,3:2|3:2,0:0:0:0:
368,200,157300,2,0,P|364:161|378:125,1,78.1559976196288,10|0,3:2|3:2,0:0:0:0:
434,48,157624,2,0,L|351:31,1,78.1559976196288,0|2,3:2|3:2,0:0:0:0:
291,92,157948,1,10,3:2:0:0:
214,48,158111,1,2,3:2:0:0:
214,48,158192,1,2,0:2:0:0:
214,48,158273,6,0,P|200:84|210:138,1,78.1559976196288,4|0,3:2|3:2,0:0:0:0:
270,180,158597,2,0,P|273:218|259:254,1,78.1559976196288,10|0,3:2|3:2,0:0:0:0:
185,298,158921,2,0,L|91:282,1,78.1559976196288,0|2,3:2|3:2,0:0:0:0:
51,210,159246,1,10,3:2:0:0:
96,139,159408,1,2,3:2:0:0:
96,139,159489,1,2,3:2:0:0:
96,139,159570,6,0,L|148:150,3,39.0779988098144,0|2|0|0,3:2|3:2|3:2|3:2,0:0:0:0:
165,130,159894,2,0,L|217:119,3,39.0779988098144,10|0|0|2,3:2|3:2|3:2|3:2,0:0:0:0:
224,144,160219,2,0,L|276:155,3,39.0779988098145,0|0|2|0,3:2|3:2|3:2|3:2,0:0:0:0:
293,135,160543,2,0,L|345:124,3,39.0779988098145,10|0|2|0,3:2|3:2|3:2|3:2,0:0:0:0:
366,136,160867,6,0,B|392:180|373:218|367:202|344:242|369:287,1,156.311995239258,0|2,1:2|1:2,0:0:0:0:
443,337,161354,1,2,1:2:0:0:
443,337,161435,1,2,1:2:0:0:
443,337,161516,2,0,P|412:372|370:377,1,78.1559976196288,2|0,0:2|0:2,0:0:0:0:
346,375,161759,2,0,P|313:357|255:369,1,78.1559976196288,2|0,0:2|0:2,0:0:0:0:
248,381,162002,1,2,0:2:0:0:
227,276,162165,5,14,3:2:0:0:
