osu file format v14

[General]
AudioFilename: RAINBOW TO THE GALAXIES.mp3
AudioLeadIn: 0
PreviewTime: 139596
Countdown: 0
SampleSet: Normal
StackLeniency: 0.7
Mode: 1
LetterboxInBreaks: 0
WidescreenStoryboard: 0

[Editor]
DistanceSpacing: 0.5
BeatDivisor: 4
GridSize: 8
TimelineZoom: 2.7

[Metadata]
Title:RAINBOW TO THE GALAXIES
TitleUnicode:RAINBOW TO THE GALAXIES
Artist:BlackY
ArtistUnicode:BlackY
Creator:komasy
Version:RAINBOW
Source:
Tags:ΑΩ ALPHA OMEGA EXIT TUNES
BeatmapID:1408023
BeatmapSetID:665282

[Difficulty]
HPDrainRate:4
CircleSize:2
OverallDifficulty:6
ApproachRate:5
SliderMultiplier:1.4
SliderTickRate:1

[Events]
//Background and Video events
0,0,"bg.jpg",0,30
//Break Periods
//Storyboard Layer 0 (Background)
//Storyboard Layer 1 (Fail)
//Storyboard Layer 2 (Pass)
//Storyboard Layer 3 (Foreground)
//Storyboard Sound Samples

[TimingPoints]
783,300,4,1,0,80,1,0
10458,-100,4,1,0,85,0,0
19008,-100,4,1,0,70,0,0
19083,-116.279069767442,4,1,0,70,0,0
19308,-116.279069767442,4,1,0,65,0,0
19383,-136.986301369863,4,1,0,65,0,0
19608,-136.986301369863,4,1,0,60,0,0
19683,-166.666666666667,4,1,0,60,0,0
19983,-100,4,1,0,80,0,0
29583,-100,4,1,0,85,0,0
38208,-100,4,1,0,70,0,0
38283,-116.279069767442,4,1,0,70,0,0
38508,-116.279069767442,4,1,0,65,0,0
38583,-136.986301369863,4,1,0,65,0,0
38808,-136.986301369863,4,1,0,60,0,0
38883,-166.666666666667,4,1,0,60,0,0
39183,-100,4,1,0,90,0,0
58383,-100,4,1,0,100,0,1
77583,-100,4,1,0,100,0,0
79983,-117.647058823529,4,1,0,95,0,0
82383,-138.888888888889,4,1,0,90,0,0
84783,-166.666666666667,4,1,0,85,0,0
87183,-200,4,1,0,85,0,0
91983,-181.818181818182,4,1,0,85,0,0
93183,-166.666666666667,4,1,0,85,0,0
94383,-153.846153846154,4,1,0,85,0,0
94983,-142.857142857143,4,1,0,85,0,0
95583,-125,4,1,0,85,0,0
95883,-117.647058823529,4,1,0,85,0,0
96183,-111.111111111111,4,1,0,85,0,0
96333,-109.289617486339,4,1,0,85,0,0
96408,-106.382978723404,4,1,0,85,0,0
96483,-104.166666666667,4,1,0,85,0,0
96783,-100,4,1,0,85,0,0
96933,-100,4,1,0,50,0,0
99108,-100,4,1,0,85,0,0
100383,-111.111111111111,4,1,0,85,0,0
101583,-117.647058823529,4,1,0,85,0,0
102783,-125,4,1,0,85,0,0
103983,-133.333333333333,4,1,0,85,0,0
108783,-114.285714285714,4,1,0,90,0,0
118308,-100,4,1,0,95,0,0
139983,-100,4,1,0,100,0,1
157983,-100,4,1,0,100,0,0
159183,-100,4,1,0,100,0,1
178383,-100,4,1,0,90,0,0
187983,-100,4,1,0,95,0,0
197583,-100,4,1,0,100,0,1
216783,-100,4,1,0,90,0,0
220383,-125,4,1,0,85,0,0
222783,-142.857142857143,4,1,0,80,0,0
225183,-166.666666666667,4,1,0,75,0,0
226383,-133.333333333333,4,1,0,90,0,0
231183,-133.333333333333,4,1,0,95,0,0
235983,-100,4,1,0,95,0,0
259983,-100,4,1,0,100,0,1
277983,-100,4,1,0,100,0,0
279183,-100,4,1,0,100,0,1
298383,-100,4,1,0,95,0,0
317583,-100,4,1,0,90,0,0
327183,-100,4,1,0,85,0,0
336933,-100,4,1,0,50,0,0
339183,-100,4,1,0,40,0,0
340383,-100,4,1,0,30,0,0
341583,-100,4,1,0,20,0,0

[HitObjects]
256,128,783,5,0,0:0:0:0:
288,192,1083,1,0,0:0:0:0:
256,128,1383,1,0,0:0:0:0:
288,192,1683,1,0,0:0:0:0:
288,192,1758,1,8,0:0:0:0:
320,224,1908,1,8,0:0:0:0:
256,128,1983,1,0,0:0:0:0:
288,192,2283,1,0,0:0:0:0:
352,192,2583,1,8,0:0:0:0:
288,192,2808,1,0,0:0:0:0:
384,224,2883,1,8,0:0:0:0:
320,224,3183,1,0,0:0:0:0:
256,192,3483,1,0,0:0:0:0:
192,192,3783,1,0,0:0:0:0:
256,224,4083,1,8,0:0:0:0:
288,256,4308,1,0,0:0:0:0:
288,256,4383,1,8,0:0:0:0:
352,256,4683,1,8,0:0:0:0:
384,224,4908,1,8,0:0:0:0:
384,224,4983,1,0,0:0:0:0:
384,224,5058,1,0,0:0:0:0:
384,224,5133,1,8,0:0:0:0:
384,224,5208,1,8,0:0:0:0:
384,224,5283,1,0,0:0:0:0:
384,224,5358,1,0,0:0:0:0:
376,216,5433,1,8,0:0:0:0:
376,216,5508,1,0,0:0:0:0:
384,224,5583,1,0,0:0:0:0:
320,192,5883,1,0,0:0:0:0:
320,192,6183,1,0,0:0:0:0:
384,224,6483,1,0,0:0:0:0:
384,224,6558,1,8,0:0:0:0:
352,224,6708,1,8,0:0:0:0:
352,224,6783,1,0,0:0:0:0:
384,224,7083,1,0,0:0:0:0:
384,224,7383,1,8,0:0:0:0:
384,224,7608,1,0,0:0:0:0:
384,224,7683,1,8,0:0:0:0:
384,224,7983,1,0,0:0:0:0:
384,224,8283,1,8,0:0:0:0:
384,224,8508,1,0,0:0:0:0:
384,224,8583,1,8,0:0:0:0:
384,224,8883,1,8,0:0:0:0:
384,224,8958,1,8,0:0:0:0:
384,224,9033,1,0,0:0:0:0:
384,224,9183,1,12,0:0:0:0:
320,224,9483,1,0,0:0:0:0:
288,224,9633,1,0,0:0:0:0:
288,224,9783,1,0,0:0:0:0:
320,288,10083,1,8,0:0:0:0:
320,288,10233,1,8,0:0:0:0:
320,288,10383,1,4,0:0:0:0:
256,288,10683,1,0,0:0:0:0:
192,256,10983,1,0,0:0:0:0:
128,256,11283,1,0,0:0:0:0:
160,256,11358,1,8,0:0:0:0:
192,256,11433,1,0,0:0:0:0:
224,256,11508,1,8,0:0:0:0:
256,256,11583,1,0,0:0:0:0:
320,256,11883,1,0,0:0:0:0:
384,256,12183,1,8,0:0:0:0:
384,256,12408,1,0,0:0:0:0:
384,256,12483,1,8,0:0:0:0:
384,256,12783,1,0,0:0:0:0:
384,256,13083,1,0,0:0:0:0:
384,256,13383,1,0,0:0:0:0:
384,256,13683,1,8,0:0:0:0:
384,256,13908,1,0,0:0:0:0:
384,256,13983,1,8,0:0:0:0:
352,192,14283,1,8,0:0:0:0:
352,192,14508,1,8,0:0:0:0:
352,192,14583,1,0,0:0:0:0:
352,192,14658,1,0,0:0:0:0:
352,192,14733,1,8,0:0:0:0:
352,192,14808,1,8,0:0:0:0:
352,192,14883,1,0,0:0:0:0:
352,192,14958,1,0,0:0:0:0:
320,160,15033,1,8,0:0:0:0:
320,160,15108,1,0,0:0:0:0:
320,160,15183,1,0,0:0:0:0:
256,128,15483,1,0,0:0:0:0:
256,128,15783,1,8,0:0:0:0:
256,128,16083,1,0,0:0:0:0:
320,128,16308,1,0,0:0:0:0:
320,128,16383,1,8,0:0:0:0:
320,128,16683,1,0,0:0:0:0:
320,128,16758,1,8,0:0:0:0:
320,128,16833,1,0,0:0:0:0:
320,128,16908,1,8,0:0:0:0:
320,128,16983,1,0,0:0:0:0:
320,128,17133,1,0,0:0:0:0:
320,128,17208,1,0,0:0:0:0:
320,128,17283,1,8,0:0:0:0:
320,128,17433,1,0,0:0:0:0:
320,128,17508,1,8,0:0:0:0:
320,128,17583,1,0,0:0:0:0:
320,128,17658,1,8,0:0:0:0:
320,128,17733,1,0,0:0:0:0:
320,128,17808,1,0,0:0:0:0:
320,128,17883,1,8,0:0:0:0:
352,160,18033,1,0,0:0:0:0:
352,160,18108,1,8,0:0:0:0:
352,160,18183,1,0,0:0:0:0:
352,160,18258,1,0,0:0:0:0:
352,160,18333,1,8,0:0:0:0:
352,160,18408,1,8,0:0:0:0:
352,160,18483,1,0,0:0:0:0:
352,160,18558,1,0,0:0:0:0:
352,160,18633,1,0,0:0:0:0:
352,160,18783,1,12,0:0:0:0:
352,160,19083,1,8,0:0:0:0:
352,160,19383,1,8,0:0:0:0:
352,160,19683,1,8,0:0:0:0:
384,192,19983,1,4,0:0:0:0:
416,256,20283,1,0,0:0:0:0:
416,288,20433,1,8,0:0:0:0:
384,288,20583,1,0,0:0:0:0:
352,288,20658,1,0,0:0:0:0:
352,288,20733,1,8,0:0:0:0:
320,256,20883,1,0,0:0:0:0:
320,256,21033,1,8,0:0:0:0:
320,256,21183,1,0,0:0:0:0:
352,256,21333,1,8,0:0:0:0:
352,256,21408,1,8,0:0:0:0:
352,256,21483,1,0,0:0:0:0:
320,288,21633,1,8,0:0:0:0:
352,288,21783,1,0,0:0:0:0:
384,320,21858,1,8,0:0:0:0:
416,320,22008,1,8,0:0:0:0:
416,320,22083,1,0,0:0:0:0:
416,320,22233,1,8,0:0:0:0:
448,320,22383,1,0,0:0:0:0:
416,256,22683,1,0,0:0:0:0:
416,288,22833,1,8,0:0:0:0:
384,288,22983,1,0,0:0:0:0:
352,288,23058,1,0,0:0:0:0:
352,288,23133,1,8,0:0:0:0:
320,256,23283,1,0,0:0:0:0:
320,256,23433,1,8,0:0:0:0:
320,224,23508,1,8,0:0:0:0:
320,256,23583,1,0,0:0:0:0:
352,256,23658,1,8,0:0:0:0:
416,320,23733,1,8,0:0:0:0:
352,256,23808,1,8,0:0:0:0:
352,256,23883,1,0,0:0:0:0:
320,288,24033,1,8,0:0:0:0:
352,288,24183,1,0,0:0:0:0:
384,320,24258,1,8,0:0:0:0:
416,320,24408,1,8,0:0:0:0:
416,320,24483,1,0,0:0:0:0:
416,320,24633,1,8,0:0:0:0:
448,320,24783,1,0,0:0:0:0:
416,256,25083,1,0,0:0:0:0:
416,288,25233,1,8,0:0:0:0:
384,288,25383,1,0,0:0:0:0:
352,288,25458,1,0,0:0:0:0:
352,288,25533,1,8,0:0:0:0:
320,256,25683,1,0,0:0:0:0:
320,256,25833,1,8,0:0:0:0:
320,256,25983,1,0,0:0:0:0:
352,256,26133,1,8,0:0:0:0:
352,256,26208,1,8,0:0:0:0:
352,256,26283,1,0,0:0:0:0:
320,288,26433,1,8,0:0:0:0:
352,288,26583,1,0,0:0:0:0:
384,320,26658,1,8,0:0:0:0:
416,320,26808,1,8,0:0:0:0:
416,320,26883,1,0,0:0:0:0:
416,320,26958,1,8,0:0:0:0:
416,320,27033,1,0,0:0:0:0:
448,320,27183,1,0,0:0:0:0:
416,256,27483,1,0,0:0:0:0:
416,288,27633,1,8,0:0:0:0:
384,288,27783,1,0,0:0:0:0:
352,288,27858,1,0,0:0:0:0:
352,288,27933,1,8,0:0:0:0:
320,256,28083,1,0,0:0:0:0:
320,256,28233,1,8,0:0:0:0:
320,224,28308,1,8,0:0:0:0:
320,256,28383,1,0,0:0:0:0:
352,256,28458,1,8,0:0:0:0:
352,288,28533,1,8,0:0:0:0:
352,256,28608,1,8,0:0:0:0:
352,256,28683,1,0,0:0:0:0:
320,288,28833,1,8,0:0:0:0:
384,320,28983,1,0,0:0:0:0:
384,320,29133,1,8,0:0:0:0:
368,248,29433,1,8,0:0:0:0:
384,192,29583,1,4,0:0:0:0:
416,256,29883,1,0,0:0:0:0:
416,256,29958,1,8,0:0:0:0:
384,256,30108,1,8,0:0:0:0:
384,288,30183,1,0,0:0:0:0:
352,288,30333,1,8,0:0:0:0:
320,256,30483,1,0,0:0:0:0:
320,256,30558,1,0,0:0:0:0:
320,256,30633,1,8,0:0:0:0:
320,256,30783,1,0,0:0:0:0:
352,256,30933,1,8,0:0:0:0:
352,256,31008,1,8,0:0:0:0:
352,256,31083,1,0,0:0:0:0:
352,256,31158,1,8,0:0:0:0:
352,224,31308,1,8,0:0:0:0:
352,288,31383,1,0,0:0:0:0:
416,320,31533,1,8,0:0:0:0:
416,320,31683,1,0,0:0:0:0:
416,320,31758,1,8,0:0:0:0:
416,320,31833,1,0,0:0:0:0:
448,320,31983,1,0,0:0:0:0:
416,288,32133,1,8,0:0:0:0:
416,256,32283,1,0,0:0:0:0:
416,256,32358,1,8,0:0:0:0:
384,256,32508,1,8,0:0:0:0:
384,288,32583,1,0,0:0:0:0:
352,288,32658,1,8,0:0:0:0:
320,256,32733,1,8,0:0:0:0:
352,288,32808,1,8,0:0:0:0:
320,256,32883,1,0,0:0:0:0:
320,256,33033,1,8,0:0:0:0:
320,224,33108,1,8,0:0:0:0:
320,256,33183,1,0,0:0:0:0:
320,256,33258,1,8,0:0:0:0:
352,256,33408,1,8,0:0:0:0:
352,256,33483,1,0,0:0:0:0:
352,256,33558,1,8,0:0:0:0:
352,224,33708,1,8,0:0:0:0:
352,288,33783,1,0,0:0:0:0:
352,288,33858,1,0,0:0:0:0:
416,320,33933,1,8,0:0:0:0:
416,320,34008,1,8,0:0:0:0:
416,320,34083,1,0,0:0:0:0:
416,320,34158,1,0,0:0:0:0:
416,320,34233,1,8,0:0:0:0:
416,320,34308,1,0,0:0:0:0:
448,320,34383,1,0,0:0:0:0:
416,256,34683,1,0,0:0:0:0:
416,256,34758,1,8,0:0:0:0:
384,256,34908,1,8,0:0:0:0:
384,288,34983,1,0,0:0:0:0:
352,288,35133,1,8,0:0:0:0:
320,256,35283,1,0,0:0:0:0:
320,256,35358,1,0,0:0:0:0:
320,256,35433,1,8,0:0:0:0:
320,256,35583,1,0,0:0:0:0:
352,256,35733,1,8,0:0:0:0:
352,256,35808,1,8,0:0:0:0:
352,256,35883,1,0,0:0:0:0:
352,256,35958,1,8,0:0:0:0:
352,224,36108,1,8,0:0:0:0:
352,288,36183,1,0,0:0:0:0:
416,320,36333,1,8,0:0:0:0:
416,320,36483,1,0,0:0:0:0:
416,320,36558,1,8,0:0:0:0:
416,320,36633,1,0,0:0:0:0:
448,320,36783,1,0,0:0:0:0:
448,256,36933,1,8,0:0:0:0:
416,256,37083,1,0,0:0:0:0:
416,256,37158,1,8,0:0:0:0:
384,256,37308,1,8,0:0:0:0:
384,288,37383,1,0,0:0:0:0:
352,288,37533,1,8,0:0:0:0:
320,256,37683,1,0,0:0:0:0:
320,256,37758,1,8,0:0:0:0:
320,256,37833,1,0,0:0:0:0:
320,256,37908,1,0,0:0:0:0:
320,256,37983,1,8,0:0:0:0:
320,192,38283,1,8,0:0:0:0:
256,192,38583,1,8,0:0:0:0:
320,192,38883,1,8,0:0:0:0:
288,224,39183,1,4,0:0:0:0:
320,256,39483,1,0,0:0:0:0:
352,256,39633,1,8,0:0:0:0:
384,256,39783,1,0,0:0:0:0:
416,256,39933,1,8,0:0:0:0:
416,256,40008,1,8,0:0:0:0:
416,256,40083,1,0,0:0:0:0:
448,256,40233,1,8,0:0:0:0:
416,256,40383,1,0,0:0:0:0:
384,256,40533,1,8,0:0:0:0:
384,256,40608,1,8,0:0:0:0:
384,256,40683,1,0,0:0:0:0:
352,256,40833,1,0,0:0:0:0:
352,224,40908,1,0,0:0:0:0:
352,256,40983,1,8,0:0:0:0:
320,224,41133,1,8,0:0:0:0:
320,192,41208,1,0,0:0:0:0:
352,256,41283,1,8,0:0:0:0:
352,256,41358,1,8,0:0:0:0:
352,256,41433,1,0,0:0:0:0:
352,224,41583,1,0,0:0:0:0:
352,192,41733,1,8,0:0:0:0:
352,192,41808,1,8,0:0:0:0:
320,256,41883,1,0,0:0:0:0:
352,256,42033,1,8,0:0:0:0:
384,256,42183,1,0,0:0:0:0:
416,256,42333,1,8,0:0:0:0:
416,256,42408,1,8,0:0:0:0:
416,256,42483,1,0,0:0:0:0:
384,224,42633,1,0,0:0:0:0:
384,224,42708,1,0,0:0:0:0:
416,256,42783,1,8,0:0:0:0:
384,256,42933,1,0,0:0:0:0:
384,256,43008,1,0,0:0:0:0:
384,256,43083,1,8,0:0:0:0:
352,256,43233,1,0,0:0:0:0:
352,224,43308,1,0,0:0:0:0:
352,256,43383,1,8,0:0:0:0:
352,256,43458,1,0,0:0:0:0:
320,224,43533,1,8,0:0:0:0:
320,192,43608,1,8,0:0:0:0:
352,256,43683,1,0,0:0:0:0:
352,256,43833,1,8,0:0:0:0:
352,256,43908,1,8,0:0:0:0:
352,224,43983,1,0,0:0:0:0:
320,256,44283,1,0,0:0:0:0:
352,256,44433,1,8,0:0:0:0:
384,256,44583,1,0,0:0:0:0:
416,256,44733,1,8,0:0:0:0:
416,256,44808,1,8,0:0:0:0:
416,256,44883,1,0,0:0:0:0:
448,256,45033,1,8,0:0:0:0:
416,256,45183,1,0,0:0:0:0:
384,256,45333,1,8,0:0:0:0:
384,256,45408,1,8,0:0:0:0:
384,256,45483,1,0,0:0:0:0:
352,256,45633,1,8,0:0:0:0:
352,224,45708,1,8,0:0:0:0:
352,256,45783,1,0,0:0:0:0:
352,256,45858,1,8,0:0:0:0:
320,192,46008,1,8,0:0:0:0:
352,256,46083,1,0,0:0:0:0:
352,256,46233,1,8,0:0:0:0:
352,224,46383,1,0,0:0:0:0:
352,224,46458,1,8,0:0:0:0:
352,192,46533,1,8,0:0:0:0:
352,192,46608,1,8,0:0:0:0:
320,256,46683,1,0,0:0:0:0:
320,256,46758,1,0,0:0:0:0:
352,256,46833,1,8,0:0:0:0:
384,256,46983,1,0,0:0:0:0:
416,256,47133,1,8,0:0:0:0:
416,256,47208,1,8,0:0:0:0:
416,256,47283,1,0,0:0:0:0:
384,224,47433,1,0,0:0:0:0:
416,256,47583,1,8,0:0:0:0:
416,256,47658,1,0,0:0:0:0:
416,256,47733,1,8,0:0:0:0:
384,256,47808,1,0,0:0:0:0:
384,256,47883,1,8,0:0:0:0:
384,256,47958,1,8,0:0:0:0:
352,256,48033,1,0,0:0:0:0:
352,224,48108,1,0,0:0:0:0:
352,256,48183,1,8,0:0:0:0:
352,256,48258,1,0,0:0:0:0:
320,224,48333,1,8,0:0:0:0:
320,192,48408,1,8,0:0:0:0:
352,256,48483,1,0,0:0:0:0:
352,256,48558,1,8,0:0:0:0:
352,256,48633,1,8,0:0:0:0:
352,256,48783,1,4,0:0:0:0:
320,256,49083,1,0,0:0:0:0:
352,256,49233,1,8,0:0:0:0:
384,256,49383,1,0,0:0:0:0:
416,256,49533,1,8,0:0:0:0:
416,256,49608,1,8,0:0:0:0:
416,256,49683,1,0,0:0:0:0:
448,256,49833,1,8,0:0:0:0:
416,256,49983,1,0,0:0:0:0:
384,256,50133,1,8,0:0:0:0:
384,256,50208,1,8,0:0:0:0:
384,256,50283,1,0,0:0:0:0:
352,256,50433,1,0,0:0:0:0:
352,224,50508,1,0,0:0:0:0:
352,256,50583,1,8,0:0:0:0:
320,224,50733,1,8,0:0:0:0:
320,192,50808,1,0,0:0:0:0:
352,256,50883,1,8,0:0:0:0:
352,256,50958,1,8,0:0:0:0:
352,224,51033,1,0,0:0:0:0:
352,224,51183,1,0,0:0:0:0:
352,192,51333,1,8,0:0:0:0:
352,192,51408,1,8,0:0:0:0:
320,256,51483,1,0,0:0:0:0:
352,256,51633,1,8,0:0:0:0:
384,256,51783,1,0,0:0:0:0:
416,256,51933,1,8,0:0:0:0:
416,256,52008,1,8,0:0:0:0:
416,256,52083,1,0,0:0:0:0:
384,224,52233,1,0,0:0:0:0:
384,224,52308,1,0,0:0:0:0:
416,256,52383,1,8,0:0:0:0:
384,256,52533,1,0,0:0:0:0:
384,256,52608,1,0,0:0:0:0:
384,256,52683,1,8,0:0:0:0:
352,256,52833,1,0,0:0:0:0:
352,224,52908,1,0,0:0:0:0:
352,256,52983,1,8,0:0:0:0:
352,256,53058,1,0,0:0:0:0:
320,224,53133,1,8,0:0:0:0:
320,192,53208,1,8,0:0:0:0:
352,256,53283,1,0,0:0:0:0:
352,256,53433,1,0,0:0:0:0:
352,256,53508,1,8,0:0:0:0:
352,224,53583,1,0,0:0:0:0:
320,256,53883,1,0,0:0:0:0:
352,256,54033,1,8,0:0:0:0:
384,256,54183,1,0,0:0:0:0:
416,256,54333,1,8,0:0:0:0:
416,256,54408,1,8,0:0:0:0:
416,256,54483,1,0,0:0:0:0:
448,256,54633,1,8,0:0:0:0:
416,256,54783,1,0,0:0:0:0:
384,256,54858,1,0,0:0:0:0:
384,256,54933,1,8,0:0:0:0:
384,256,55083,1,0,0:0:0:0:
320,192,55158,1,0,0:0:0:0:
352,256,55233,1,8,0:0:0:0:
352,256,55383,1,0,0:0:0:0:
352,256,55458,1,8,0:0:0:0:
320,192,55608,1,8,0:0:0:0:
320,192,55683,1,0,0:0:0:0:
352,256,55833,1,8,0:0:0:0:
352,256,55908,1,8,0:0:0:0:
352,224,55983,1,0,0:0:0:0:
352,192,56133,1,8,0:0:0:0:
352,192,56208,1,8,0:0:0:0:
320,256,56283,1,0,0:0:0:0:
320,256,56358,1,0,0:0:0:0:
352,256,56433,1,8,0:0:0:0:
384,256,56583,1,0,0:0:0:0:
384,256,56658,1,0,0:0:0:0:
416,256,56733,1,8,0:0:0:0:
416,256,56808,1,0,0:0:0:0:
416,256,56883,1,8,0:0:0:0:
416,256,56958,1,8,0:0:0:0:
384,224,57033,1,0,0:0:0:0:
384,224,57108,1,0,0:0:0:0:
416,256,57183,1,8,0:0:0:0:
416,256,57258,5,0,0:0:0:0:
416,256,57333,1,8,0:0:0:0:
384,256,57408,1,0,0:0:0:0:
384,256,57483,1,8,0:0:0:0:
384,256,57558,1,8,0:0:0:0:
352,256,57633,1,0,0:0:0:0:
352,224,57708,1,0,0:0:0:0:
352,256,57783,1,8,0:0:0:0:
352,256,57858,1,0,0:0:0:0:
320,224,57933,1,8,0:0:0:0:
320,192,58008,1,0,0:0:0:0:
352,256,58083,1,8,0:0:0:0:
352,256,58158,1,8,0:0:0:0:
352,256,58233,1,8,0:0:0:0:
352,256,58383,1,4,0:0:0:0:
384,224,58683,1,0,0:0:0:0:
384,256,58833,1,8,0:0:0:0:
352,256,58983,1,0,0:0:0:0:
352,256,59058,1,0,0:0:0:0:
320,288,59208,1,8,0:0:0:0:
320,288,59283,1,0,0:0:0:0:
288,320,59433,1,8,0:0:0:0:
288,320,59583,1,0,0:0:0:0:
320,320,59733,1,8,0:0:0:0:
320,320,59808,1,8,0:0:0:0:
320,320,59883,1,0,0:0:0:0:
320,320,60033,1,8,0:0:0:0:
320,320,60183,1,0,0:0:0:0:
320,320,60258,1,0,0:0:0:0:
320,320,60408,1,0,0:0:0:0:
320,320,60483,1,8,0:0:0:0:
352,160,60783,5,0,0:0:0:0:
384,224,61083,1,0,0:0:0:0:
384,256,61233,1,8,0:0:0:0:
352,256,61383,1,0,0:0:0:0:
352,256,61458,1,0,0:0:0:0:
320,288,61608,1,8,0:0:0:0:
320,288,61683,1,0,0:0:0:0:
320,288,61758,1,0,0:0:0:0:
288,320,61833,1,8,0:0:0:0:
288,320,61983,1,0,0:0:0:0:
320,320,62133,1,0,0:0:0:0:
320,320,62208,1,8,0:0:0:0:
320,320,62283,1,0,0:0:0:0:
320,320,62433,1,8,0:0:0:0:
320,320,62508,1,8,0:0:0:0:
320,320,62583,1,0,0:0:0:0:
320,320,62658,1,0,0:0:0:0:
320,320,62808,1,0,0:0:0:0:
320,320,62883,1,8,0:0:0:0:
352,288,63033,1,8,0:0:0:0:
352,160,63183,5,0,0:0:0:0:
384,224,63483,1,0,0:0:0:0:
384,256,63633,1,8,0:0:0:0:
352,256,63783,1,0,0:0:0:0:
352,256,63858,1,0,0:0:0:0:
320,288,64008,1,8,0:0:0:0:
320,288,64083,1,0,0:0:0:0:
288,320,64233,1,8,0:0:0:0:
288,320,64383,1,0,0:0:0:0:
288,288,64533,1,8,0:0:0:0:
320,320,64608,1,8,0:0:0:0:
320,320,64683,1,0,0:0:0:0:
320,320,64833,1,8,0:0:0:0:
320,320,64983,1,0,0:0:0:0:
320,320,65058,1,0,0:0:0:0:
320,320,65208,1,0,0:0:0:0:
320,320,65283,1,8,0:0:0:0:
352,160,65583,5,0,0:0:0:0:
288,160,65808,1,8,0:0:0:0:
384,224,65883,1,0,0:0:0:0:
384,256,66033,1,8,0:0:0:0:
352,256,66183,1,0,0:0:0:0:
352,256,66258,1,0,0:0:0:0:
352,256,66333,1,8,0:0:0:0:
320,288,66408,1,0,0:0:0:0:
320,288,66483,1,8,0:0:0:0:
320,256,66558,1,8,0:0:0:0:
288,320,66633,1,0,0:0:0:0:
288,320,66783,1,8,0:0:0:0:
320,320,66933,1,0,0:0:0:0:
320,320,67008,1,0,0:0:0:0:
320,288,67083,1,8,0:0:0:0:
320,256,67158,1,8,0:0:0:0:
320,256,67233,1,0,0:0:0:0:
320,320,67383,1,8,0:0:0:0:
320,288,67533,1,0,0:0:0:0:
320,320,67608,1,0,0:0:0:0:
320,320,67683,1,8,0:0:0:0:
352,160,67983,5,12,0:0:0:0:
384,224,68283,1,8,0:0:0:0:
384,256,68433,1,0,0:0:0:0:
352,256,68583,1,8,0:0:0:0:
352,256,68658,1,8,0:0:0:0:
320,288,68808,1,0,0:0:0:0:
320,288,68883,1,8,0:0:0:0:
288,320,69033,1,0,0:0:0:0:
288,320,69183,1,8,0:0:0:0:
320,320,69333,1,0,0:0:0:0:
320,320,69408,1,0,0:0:0:0:
320,320,69483,1,8,0:0:0:0:
320,320,69633,1,0,0:0:0:0:
320,320,69783,1,8,0:0:0:0:
320,320,69858,1,0,0:0:0:0:
192,320,70008,1,0,0:0:0:0:
192,320,70083,1,8,0:0:0:0:
192,288,70233,1,0,0:0:0:0:
352,160,70383,5,8,0:0:0:0:
384,224,70683,1,8,0:0:0:0:
384,256,70833,1,0,0:0:0:0:
352,256,70983,1,8,0:0:0:0:
352,256,71058,1,8,0:0:0:0:
320,288,71208,1,0,0:0:0:0:
320,288,71283,1,8,0:0:0:0:
320,288,71358,1,8,0:0:0:0:
288,320,71433,1,0,0:0:0:0:
288,320,71583,1,8,0:0:0:0:
320,320,71733,1,8,0:0:0:0:
320,320,71808,1,0,0:0:0:0:
320,320,71883,1,8,0:0:0:0:
320,320,72033,1,0,0:0:0:0:
320,320,72108,1,0,0:0:0:0:
320,320,72183,1,8,0:0:0:0:
320,320,72258,1,0,0:0:0:0:
320,320,72408,1,0,0:0:0:0:
320,320,72483,1,8,0:0:0:0:
320,288,72633,1,0,0:0:0:0:
352,160,72783,5,8,0:0:0:0:
352,192,72933,1,0,0:0:0:0:
384,224,73083,1,8,0:0:0:0:
384,224,73158,1,8,0:0:0:0:
384,256,73233,1,0,0:0:0:0:
352,256,73383,1,8,0:0:0:0:
352,256,73458,1,8,0:0:0:0:
320,288,73608,1,0,0:0:0:0:
320,288,73683,1,8,0:0:0:0:
288,320,73833,1,0,0:0:0:0:
288,320,73983,1,8,0:0:0:0:
288,288,74133,1,0,0:0:0:0:
320,320,74208,1,0,0:0:0:0:
320,320,74283,1,8,0:0:0:0:
320,320,74433,1,0,0:0:0:0:
320,320,74583,1,8,0:0:0:0:
320,320,74658,1,8,0:0:0:0:
320,320,74733,1,0,0:0:0:0:
320,320,74808,1,0,0:0:0:0:
320,320,74883,1,8,0:0:0:0:
320,288,75033,1,0,0:0:0:0:
320,256,75183,1,8,0:0:0:0:
320,256,75258,1,8,0:0:0:0:
320,224,75333,1,0,0:0:0:0:
320,224,75408,1,0,0:0:0:0:
384,224,75483,1,8,0:0:0:0:
384,224,75558,1,0,0:0:0:0:
384,256,75633,1,0,0:0:0:0:
352,256,75708,1,0,0:0:0:0:
352,256,75783,1,8,0:0:0:0:
352,256,75858,1,8,0:0:0:0:
352,256,75933,1,0,0:0:0:0:
352,256,76008,1,8,0:0:0:0:
352,256,76083,1,0,0:0:0:0:
352,256,76158,1,0,0:0:0:0:
352,256,76233,1,8,0:0:0:0:
352,256,76308,1,0,0:0:0:0:
288,320,76383,1,8,0:0:0:0:
288,288,76458,1,8,0:0:0:0:
320,320,76533,1,0,0:0:0:0:
320,320,76608,1,0,0:0:0:0:
320,288,76683,1,8,0:0:0:0:
320,256,76758,1,0,0:0:0:0:
320,256,76833,1,0,0:0:0:0:
320,256,76908,1,0,0:0:0:0:
320,320,76983,1,8,0:0:0:0:
320,288,77058,1,8,0:0:0:0:
320,288,77133,1,0,0:0:0:0:
320,320,77208,1,0,0:0:0:0:
320,320,77283,1,8,0:0:0:0:
320,320,77358,1,8,0:0:0:0:
320,320,77433,1,8,0:0:0:0:
320,320,77508,1,8,0:0:0:0:
320,320,77583,1,0,0:0:0:0:
352,256,77883,1,8,0:0:0:0:
352,128,78483,1,8,0:0:0:0:
352,96,79083,1,8,0:0:0:0:
352,96,79683,1,8,0:0:0:0:
416,128,79983,1,0,0:0:0:0:
352,96,80283,1,8,0:0:0:0:
352,96,80883,1,8,0:0:0:0:
448,192,81483,1,8,0:0:0:0:
360,216,81933,1,8,0:0:0:0:
352,96,82083,1,8,0:0:0:0:
416,128,82383,1,0,0:0:0:0:
352,160,82683,1,8,0:0:0:0:
224,192,83283,1,8,0:0:0:0:
352,160,83883,1,8,0:0:0:0:
304,168,84183,1,8,0:0:0:0:
288,160,84333,1,8,0:0:0:0:
224,192,84483,1,8,0:0:0:0:
288,160,84783,1,0,0:0:0:0:
224,160,85083,1,8,0:0:0:0:
352,128,85683,1,8,0:0:0:0:
224,160,86283,1,8,0:0:0:0:
288,128,86583,1,8,0:0:0:0:
320,96,86733,1,8,0:0:0:0:
320,96,86808,1,8,0:0:0:0:
352,128,86883,1,8,0:0:0:0:
288,128,87183,1,4,0:0:0:0:
480,224,88383,1,8,0:0:0:0:
480,224,88683,1,8,0:0:0:0:
448,256,88983,1,8,0:0:0:0:
448,256,89283,1,8,0:0:0:0:
448,256,89583,1,0,0:0:0:0:
224,96,90783,1,8,0:0:0:0:
256,128,91083,1,8,0:0:0:0:
480,256,91383,1,8,0:0:0:0:
480,256,91683,1,8,0:0:0:0:
416,224,91983,1,4,0:0:0:0:
384,192,93183,1,4,0:0:0:0:
192,224,93483,1,8,0:0:0:0:
256,224,93783,1,8,0:0:0:0:
320,224,94083,1,8,0:0:0:0:
256,224,94383,1,4,0:0:0:0:
384,224,94983,1,4,0:0:0:0:
416,96,95583,1,4,0:0:0:0:
416,160,95883,1,4,0:0:0:0:
352,160,96183,1,12,0:0:0:0:
384,160,96333,1,8,0:0:0:0:
384,160,96408,1,8,0:0:0:0:
384,160,96483,1,8,0:0:0:0:
320,192,96783,5,4,0:0:0:0:
256,192,96933,12,0,98883,0:0:0:0:
384,320,99183,5,4,0:0:0:0:
352,288,103983,1,8,0:0:0:0:
352,288,104283,1,8,0:0:0:0:
384,256,104508,1,8,0:0:0:0:
416,256,104733,1,8,0:0:0:0:
416,256,105033,1,8,0:0:0:0:
416,256,105333,1,8,0:0:0:0:
416,256,105558,1,8,0:0:0:0:
416,256,105783,1,8,0:0:0:0:
416,256,106008,1,8,0:0:0:0:
416,256,106233,1,8,0:0:0:0:
416,256,106383,1,8,0:0:0:0:
416,256,106683,1,8,0:0:0:0:
416,256,106908,1,8,0:0:0:0:
416,256,107133,1,8,0:0:0:0:
416,256,107433,1,8,0:0:0:0:
416,256,107733,1,8,0:0:0:0:
416,256,107958,1,8,0:0:0:0:
416,256,108183,1,8,0:0:0:0:
416,256,108408,1,8,0:0:0:0:
416,256,108633,1,8,0:0:0:0:
416,256,108783,1,0,0:0:0:0:
352,224,109083,1,8,0:0:0:0:
352,224,109308,1,8,0:0:0:0:
288,192,109383,1,8,0:0:0:0:
320,192,109533,1,8,0:0:0:0:
288,192,109683,1,8,0:0:0:0:
288,192,109833,1,8,0:0:0:0:
256,160,110133,1,8,0:0:0:0:
288,192,110283,1,8,0:0:0:0:
288,192,110358,1,8,0:0:0:0:
288,192,110583,1,8,0:0:0:0:
256,160,110808,1,8,0:0:0:0:
288,192,110883,1,8,0:0:0:0:
256,192,111033,1,8,0:0:0:0:
288,192,111183,1,0,0:0:0:0:
288,192,111483,1,8,0:0:0:0:
256,160,111708,1,8,0:0:0:0:
288,192,111783,1,8,0:0:0:0:
256,192,111933,1,8,0:0:0:0:
288,192,112083,1,8,0:0:0:0:
288,160,112233,1,8,0:0:0:0:
256,160,112533,1,8,0:0:0:0:
288,192,112683,1,8,0:0:0:0:
288,192,112758,1,8,0:0:0:0:
288,192,112983,1,8,0:0:0:0:
256,160,113208,1,8,0:0:0:0:
288,192,113283,1,8,0:0:0:0:
320,224,113433,1,8,0:0:0:0:
320,256,113583,1,0,0:0:0:0:
288,192,113883,1,8,0:0:0:0:
256,160,114108,1,8,0:0:0:0:
288,192,114183,1,8,0:0:0:0:
320,224,114333,1,8,0:0:0:0:
288,192,114483,1,8,0:0:0:0:
288,224,114633,1,8,0:0:0:0:
256,192,114783,1,0,0:0:0:0:
288,224,114933,1,8,0:0:0:0:
288,192,115083,1,8,0:0:0:0:
256,192,115158,1,8,0:0:0:0:
256,160,115383,1,8,0:0:0:0:
256,224,115608,1,8,0:0:0:0:
288,192,115683,1,8,0:0:0:0:
288,224,115833,1,8,0:0:0:0:
288,256,115983,1,0,0:0:0:0:
288,192,116283,1,8,0:0:0:0:
320,224,116508,1,8,0:0:0:0:
288,192,116583,1,0,0:0:0:0:
320,224,116733,1,8,0:0:0:0:
320,192,117033,1,8,0:0:0:0:
288,192,117183,1,0,0:0:0:0:
320,192,117333,1,8,0:0:0:0:
320,160,117483,1,0,0:0:0:0:
288,224,117558,1,8,0:0:0:0:
320,224,117708,1,8,0:0:0:0:
320,224,117783,1,0,0:0:0:0:
288,192,117933,1,8,0:0:0:0:
256,192,118008,1,8,0:0:0:0:
288,192,118083,1,8,0:0:0:0:
288,192,118233,1,8,0:0:0:0:
288,224,118383,1,4,0:0:0:0:
288,192,118683,1,8,0:0:0:0:
288,192,118983,1,0,0:0:0:0:
288,192,119133,1,0,0:0:0:0:
288,192,119283,1,8,0:0:0:0:
288,192,119583,1,0,0:0:0:0:
288,192,119808,1,8,0:0:0:0:
288,192,120033,1,8,0:0:0:0:
320,192,120333,1,0,0:0:0:0:
320,192,120483,1,8,0:0:0:0:
320,192,120633,1,4,0:0:0:0:
320,160,120783,1,4,0:0:0:0:
320,256,121083,1,8,0:0:0:0:
320,256,121383,1,0,0:0:0:0:
344,240,121533,1,0,0:0:0:0:
320,256,121683,1,8,0:0:0:0:
320,256,121983,1,0,0:0:0:0:
320,256,122208,1,8,0:0:0:0:
320,256,122433,1,4,0:0:0:0:
288,224,122733,1,4,0:0:0:0:
256,192,122883,1,8,0:0:0:0:
224,160,123033,1,4,0:0:0:0:
224,160,123183,1,4,0:0:0:0:
288,128,123483,1,8,0:0:0:0:
320,192,123783,1,0,0:0:0:0:
288,160,123933,1,0,0:0:0:0:
320,192,124083,1,8,0:0:0:0:
256,128,124383,1,4,0:0:0:0:
288,160,124608,1,8,0:0:0:0:
320,192,124833,1,8,0:0:0:0:
288,160,124983,1,0,0:0:0:0:
352,192,125283,1,0,0:0:0:0:
320,192,125433,1,8,0:0:0:0:
320,192,125583,1,4,0:0:0:0:
320,128,125808,5,8,0:0:0:0:
320,128,125883,1,0,0:0:0:0:
320,160,126033,1,8,0:0:0:0:
320,160,126183,1,0,0:0:0:0:
320,160,126333,1,8,0:0:0:0:
320,160,126633,1,8,0:0:0:0:
320,224,126783,5,4,0:0:0:0:
320,224,127083,1,0,0:0:0:0:
320,224,127233,1,8,0:0:0:0:
320,224,127383,1,0,0:0:0:0:
352,192,127533,1,8,0:0:0:0:
352,192,127583,1,8,0:0:0:0:
352,192,127633,1,8,0:0:0:0:
352,192,127683,1,0,0:0:0:0:
352,192,127758,1,0,0:0:0:0:
352,192,127833,1,8,0:0:0:0:
352,192,127908,1,8,0:0:0:0:
352,160,127983,1,0,0:0:0:0:
288,192,128283,1,8,0:0:0:0:
288,192,128583,1,0,0:0:0:0:
288,192,128733,1,0,0:0:0:0:
288,192,128883,1,8,0:0:0:0:
288,192,129183,1,0,0:0:0:0:
288,192,129408,1,8,0:0:0:0:
288,192,129483,1,0,0:0:0:0:
288,192,129633,1,8,0:0:0:0:
320,192,129783,1,0,0:0:0:0:
320,192,129933,1,8,0:0:0:0:
320,160,130008,1,0,0:0:0:0:
352,160,130083,1,0,0:0:0:0:
384,160,130233,1,0,0:0:0:0:
320,192,130383,1,12,0:0:0:0:
320,256,130683,1,8,0:0:0:0:
320,256,130983,1,0,0:0:0:0:
320,256,131133,1,0,0:0:0:0:
320,256,131283,1,8,0:0:0:0:
320,256,131583,1,0,0:0:0:0:
320,192,131808,1,8,0:0:0:0:
320,192,131883,1,0,0:0:0:0:
320,256,132033,1,8,0:0:0:0:
320,224,132183,1,0,0:0:0:0:
320,224,132333,1,8,0:0:0:0:
320,224,132408,1,0,0:0:0:0:
256,192,132483,1,8,0:0:0:0:
288,160,132633,1,0,0:0:0:0:
256,128,132783,1,12,0:0:0:0:
320,160,133008,1,0,0:0:0:0:
224,160,133083,1,8,0:0:0:0:
256,192,133233,1,0,0:0:0:0:
288,160,133383,1,8,0:0:0:0:
288,160,133533,1,0,0:0:0:0:
320,192,133683,1,8,0:0:0:0:
320,192,133758,1,0,0:0:0:0:
288,224,133833,1,0,0:0:0:0:
288,128,133983,1,12,0:0:0:0:
320,160,134208,1,0,0:0:0:0:
288,160,134283,1,8,0:0:0:0:
320,192,134433,1,0,0:0:0:0:
288,160,134583,1,8,0:0:0:0:
288,160,134733,1,0,0:0:0:0:
320,160,134808,1,0,0:0:0:0:
352,192,134883,1,8,0:0:0:0:
288,160,134958,1,8,0:0:0:0:
320,192,135033,1,0,0:0:0:0:
320,192,135183,1,12,0:0:0:0:
320,128,135408,5,0,0:0:0:0:
320,128,135483,1,8,0:0:0:0:
320,160,135633,1,0,0:0:0:0:
288,128,135783,1,12,0:0:0:0:
320,160,135933,1,0,0:0:0:0:
352,160,136008,1,0,0:0:0:0:
384,160,136083,1,8,0:0:0:0:
320,128,136233,1,0,0:0:0:0:
288,128,136383,1,12,0:0:0:0:
288,160,136533,1,0,0:0:0:0:
288,160,136608,1,0,0:0:0:0:
320,224,136683,5,8,0:0:0:0:
288,224,136758,1,0,0:0:0:0:
288,224,136833,1,8,0:0:0:0:
288,224,136908,1,8,0:0:0:0:
320,224,136983,1,0,0:0:0:0:
320,224,137058,1,0,0:0:0:0:
320,224,137133,1,8,0:0:0:0:
320,224,137208,1,8,0:0:0:0:
320,224,137283,1,8,0:0:0:0:
256,160,137583,1,4,0:0:0:0:
224,256,137733,1,4,0:0:0:0:
224,256,137883,1,4,0:0:0:0:
224,256,138183,1,12,0:0:0:0:
224,256,138333,1,12,0:0:0:0:
224,256,138483,1,12,0:0:0:0:
224,256,138783,1,4,0:0:0:0:
224,256,138933,1,4,0:0:0:0:
224,256,139083,1,12,0:0:0:0:
224,256,139233,1,12,0:0:0:0:
224,256,139383,1,4,0:0:0:0:
224,256,139533,1,4,0:0:0:0:
320,192,139683,5,12,0:0:0:0:
320,192,139983,1,4,0:0:0:0:
352,256,140283,1,0,0:0:0:0:
352,256,140433,1,8,0:0:0:0:
352,256,140583,1,0,0:0:0:0:
352,256,140733,1,8,0:0:0:0:
352,256,140808,1,8,0:0:0:0:
352,256,140883,1,0,0:0:0:0:
352,256,141033,1,8,0:0:0:0:
384,256,141183,1,0,0:0:0:0:
416,224,141258,1,8,0:0:0:0:
416,224,141408,1,8,0:0:0:0:
416,224,141483,1,0,0:0:0:0:
416,224,141633,1,8,0:0:0:0:
416,224,141783,1,0,0:0:0:0:
416,224,141933,1,8,0:0:0:0:
416,224,142008,1,0,0:0:0:0:
416,224,142083,1,0,0:0:0:0:
416,224,142233,1,8,0:0:0:0:
416,224,142383,1,0,0:0:0:0:
400,200,142533,1,0,0:0:0:0:
384,192,142608,1,8,0:0:0:0:
384,192,142683,1,0,0:0:0:0:
352,160,142833,1,8,0:0:0:0:
352,128,142983,1,0,0:0:0:0:
320,96,143133,1,8,0:0:0:0:
320,96,143208,1,8,0:0:0:0:
320,96,143283,1,0,0:0:0:0:
320,128,143433,1,8,0:0:0:0:
320,160,143583,1,0,0:0:0:0:
352,192,143658,1,8,0:0:0:0:
352,192,143808,1,8,0:0:0:0:
352,224,143883,1,0,0:0:0:0:
352,256,144033,1,8,0:0:0:0:
320,224,144183,1,0,0:0:0:0:
320,224,144258,1,0,0:0:0:0:
320,224,144333,1,8,0:0:0:0:
320,224,144408,1,0,0:0:0:0:
320,224,144483,1,8,0:0:0:0:
320,224,144558,1,8,0:0:0:0:
320,224,144633,1,0,0:0:0:0:
320,192,144783,1,0,0:0:0:0:
352,224,145008,1,8,0:0:0:0:
352,256,145083,1,0,0:0:0:0:
352,256,145233,1,8,0:0:0:0:
352,256,145383,1,0,0:0:0:0:
352,256,145533,1,8,0:0:0:0:
352,256,145608,1,8,0:0:0:0:
352,256,145683,1,0,0:0:0:0:
352,256,145833,1,8,0:0:0:0:
384,256,145983,1,0,0:0:0:0:
416,224,146058,1,8,0:0:0:0:
416,224,146208,1,8,0:0:0:0:
416,224,146283,1,0,0:0:0:0:
416,224,146433,1,8,0:0:0:0:
416,224,146583,1,0,0:0:0:0:
384,224,146658,1,0,0:0:0:0:
416,224,146733,1,8,0:0:0:0:
416,224,146808,1,8,0:0:0:0:
416,224,146883,1,0,0:0:0:0:
416,224,147033,1,8,0:0:0:0:
416,224,147183,1,0,0:0:0:0:
352,96,147333,1,0,0:0:0:0:
384,192,147408,1,8,0:0:0:0:
384,192,147483,1,0,0:0:0:0:
352,160,147633,1,8,0:0:0:0:
352,128,147783,1,0,0:0:0:0:
352,96,147858,1,0,0:0:0:0:
320,96,147933,1,8,0:0:0:0:
320,96,148083,1,0,0:0:0:0:
352,96,148233,1,8,0:0:0:0:
352,96,148308,1,0,0:0:0:0:
352,192,148458,1,0,0:0:0:0:
352,192,148533,1,8,0:0:0:0:
352,192,148608,1,8,0:0:0:0:
352,192,148683,1,0,0:0:0:0:
320,160,148833,1,8,0:0:0:0:
320,224,148983,1,0,0:0:0:0:
320,224,149058,1,8,0:0:0:0:
320,224,149133,1,0,0:0:0:0:
320,224,149208,1,0,0:0:0:0:
320,224,149283,1,8,0:0:0:0:
320,224,149358,1,0,0:0:0:0:
320,224,149433,1,8,0:0:0:0:
320,192,149508,1,8,0:0:0:0:
320,192,149583,1,0,0:0:0:0:
352,224,149808,1,8,0:0:0:0:
352,256,149883,1,0,0:0:0:0:
352,256,150033,1,8,0:0:0:0:
352,256,150183,1,0,0:0:0:0:
352,256,150333,1,8,0:0:0:0:
352,256,150408,1,8,0:0:0:0:
352,256,150483,1,0,0:0:0:0:
352,256,150633,1,8,0:0:0:0:
384,256,150783,1,0,0:0:0:0:
416,224,150858,1,8,0:0:0:0:
416,224,151008,1,8,0:0:0:0:
416,224,151083,1,0,0:0:0:0:
416,224,151233,1,8,0:0:0:0:
416,224,151383,1,0,0:0:0:0:
416,224,151533,1,8,0:0:0:0:
416,224,151608,1,0,0:0:0:0:
416,224,151683,1,0,0:0:0:0:
416,224,151833,1,8,0:0:0:0:
416,224,151983,1,0,0:0:0:0:
320,96,152133,1,0,0:0:0:0:
384,192,152208,1,8,0:0:0:0:
384,192,152283,1,0,0:0:0:0:
352,160,152433,1,8,0:0:0:0:
352,128,152583,1,0,0:0:0:0:
320,96,152733,1,8,0:0:0:0:
320,96,152808,1,8,0:0:0:0:
320,96,152883,1,0,0:0:0:0:
320,128,153033,1,8,0:0:0:0:
352,192,153183,1,0,0:0:0:0:
320,160,153258,1,8,0:0:0:0:
352,192,153408,1,8,0:0:0:0:
352,224,153483,1,0,0:0:0:0:
352,256,153633,1,8,0:0:0:0:
352,224,153708,1,8,0:0:0:0:
320,224,153783,1,0,0:0:0:0:
320,224,153933,1,8,0:0:0:0:
320,224,154083,1,0,0:0:0:0:
320,224,154158,1,0,0:0:0:0:
320,224,154233,1,8,0:0:0:0:
320,224,154308,1,8,0:0:0:0:
320,192,154383,1,0,0:0:0:0:
352,224,154608,1,8,0:0:0:0:
352,256,154683,1,0,0:0:0:0:
352,256,154833,1,8,0:0:0:0:
352,256,154983,1,0,0:0:0:0:
352,256,155058,1,0,0:0:0:0:
352,256,155133,1,8,0:0:0:0:
352,256,155283,1,0,0:0:0:0:
352,256,155433,1,0,0:0:0:0:
352,256,155508,1,8,0:0:0:0:
384,256,155583,1,0,0:0:0:0:
416,224,155733,1,8,0:0:0:0:
416,224,155808,1,8,0:0:0:0:
416,224,155883,1,0,0:0:0:0:
416,224,156033,1,8,0:0:0:0:
416,224,156183,1,0,0:0:0:0:
416,224,156333,1,8,0:0:0:0:
416,224,156408,1,8,0:0:0:0:
416,224,156483,1,0,0:0:0:0:
416,224,156558,1,0,0:0:0:0:
416,224,156633,1,8,0:0:0:0:
416,224,156708,1,0,0:0:0:0:
416,224,156783,1,8,0:0:0:0:
384,192,157008,1,8,0:0:0:0:
384,192,157083,1,0,0:0:0:0:
352,160,157233,1,8,0:0:0:0:
352,128,157383,1,0,0:0:0:0:
352,96,157458,1,0,0:0:0:0:
320,96,157533,1,8,0:0:0:0:
320,96,157683,1,0,0:0:0:0:
352,96,157833,1,0,0:0:0:0:
352,96,157908,1,8,0:0:0:0:
352,192,158058,1,8,0:0:0:0:
352,192,158133,1,0,0:0:0:0:
352,192,158283,1,8,0:0:0:0:
320,160,158433,1,0,0:0:0:0:
320,224,158583,1,8,0:0:0:0:
320,224,158658,1,8,0:0:0:0:
320,224,158733,1,8,0:0:0:0:
320,224,158808,1,8,0:0:0:0:
320,224,158883,1,0,0:0:0:0:
320,224,158958,1,0,0:0:0:0:
320,224,159033,1,8,0:0:0:0:
320,192,159108,1,8,0:0:0:0:
320,192,159183,1,0,0:0:0:0:
352,224,159408,1,8,0:0:0:0:
352,256,159483,1,0,0:0:0:0:
352,256,159633,1,8,0:0:0:0:
352,256,159783,1,0,0:0:0:0:
352,256,159858,1,0,0:0:0:0:
352,256,160008,1,8,0:0:0:0:
352,256,160083,1,0,0:0:0:0:
352,256,160233,1,8,0:0:0:0:
384,256,160383,1,0,0:0:0:0:
416,224,160458,1,8,0:0:0:0:
416,224,160608,1,8,0:0:0:0:
416,224,160683,1,0,0:0:0:0:
416,224,160758,1,0,0:0:0:0:
416,224,160833,1,8,0:0:0:0:
416,224,160983,1,0,0:0:0:0:
416,224,161133,1,8,0:0:0:0:
416,224,161208,1,8,0:0:0:0:
416,224,161283,1,0,0:0:0:0:
416,224,161433,1,8,0:0:0:0:
416,224,161583,1,0,0:0:0:0:
384,224,161733,1,0,0:0:0:0:
384,192,161808,1,8,0:0:0:0:
384,192,161883,1,0,0:0:0:0:
352,160,162033,1,8,0:0:0:0:
352,128,162183,1,0,0:0:0:0:
320,96,162258,1,0,0:0:0:0:
320,96,162408,1,8,0:0:0:0:
320,96,162483,1,0,0:0:0:0:
320,128,162633,1,8,0:0:0:0:
320,160,162783,1,0,0:0:0:0:
352,192,162858,1,8,0:0:0:0:
352,192,163008,1,8,0:0:0:0:
352,224,163083,1,0,0:0:0:0:
352,224,163158,1,0,0:0:0:0:
352,256,163233,1,8,0:0:0:0:
320,224,163383,1,0,0:0:0:0:
320,224,163458,1,0,0:0:0:0:
320,224,163533,1,8,0:0:0:0:
320,224,163608,1,0,0:0:0:0:
320,224,163683,1,8,0:0:0:0:
320,224,163758,1,8,0:0:0:0:
320,224,163833,1,0,0:0:0:0:
320,192,163983,1,0,0:0:0:0:
352,224,164208,1,8,0:0:0:0:
352,256,164283,1,0,0:0:0:0:
352,256,164433,1,8,0:0:0:0:
352,256,164583,1,0,0:0:0:0:
352,256,164658,1,0,0:0:0:0:
352,256,164808,1,8,0:0:0:0:
352,256,164883,1,0,0:0:0:0:
352,256,165033,1,8,0:0:0:0:
384,256,165183,1,0,0:0:0:0:
416,224,165258,1,8,0:0:0:0:
416,224,165408,1,8,0:0:0:0:
416,224,165483,1,0,0:0:0:0:
416,224,165558,1,0,0:0:0:0:
416,224,165633,1,8,0:0:0:0:
416,224,165783,1,0,0:0:0:0:
416,224,165933,1,8,0:0:0:0:
416,224,166008,1,8,0:0:0:0:
416,224,166083,1,0,0:0:0:0:
416,224,166158,1,0,0:0:0:0:
416,224,166233,1,8,0:0:0:0:
416,224,166383,1,0,0:0:0:0:
440,192,166533,1,0,0:0:0:0:
384,192,166608,1,8,0:0:0:0:
384,192,166683,1,0,0:0:0:0:
352,160,166833,1,8,0:0:0:0:
352,128,166983,1,0,0:0:0:0:
352,96,167058,1,0,0:0:0:0:
320,96,167133,1,8,0:0:0:0:
352,192,167208,1,8,0:0:0:0:
320,96,167283,1,0,0:0:0:0:
352,96,167433,1,8,0:0:0:0:
352,96,167508,1,0,0:0:0:0:
352,192,167658,1,0,0:0:0:0:
352,192,167733,1,8,0:0:0:0:
352,192,167808,1,8,0:0:0:0:
352,192,167883,1,0,0:0:0:0:
320,160,168033,1,8,0:0:0:0:
320,224,168183,1,0,0:0:0:0:
320,224,168258,1,8,0:0:0:0:
320,224,168333,1,0,0:0:0:0:
320,224,168408,1,0,0:0:0:0:
320,224,168483,1,8,0:0:0:0:
320,224,168558,1,8,0:0:0:0:
320,224,168633,1,0,0:0:0:0:
320,192,168708,1,0,0:0:0:0:
320,192,168783,1,8,0:0:0:0:
352,224,169008,1,0,0:0:0:0:
352,256,169083,1,8,0:0:0:0:
352,256,169233,1,0,0:0:0:0:
352,256,169383,1,8,0:0:0:0:
352,256,169458,1,8,0:0:0:0:
352,256,169533,1,0,0:0:0:0:
352,256,169683,1,8,0:0:0:0:
352,256,169833,1,0,0:0:0:0:
384,256,169983,1,8,0:0:0:0:
416,224,170058,1,8,0:0:0:0:
416,224,170208,1,0,0:0:0:0:
416,224,170283,1,8,0:0:0:0:
416,224,170433,1,0,0:0:0:0:
416,224,170583,1,8,0:0:0:0:
416,224,170733,1,0,0:0:0:0:
416,224,170808,1,0,0:0:0:0:
416,224,170883,1,8,0:0:0:0:
416,224,171033,1,0,0:0:0:0:
416,224,171183,1,8,0:0:0:0:
384,192,171408,1,0,0:0:0:0:
384,192,171483,1,8,0:0:0:0:
352,160,171633,1,0,0:0:0:0:
352,128,171783,1,8,0:0:0:0:
320,96,171858,1,8,0:0:0:0:
320,96,171933,1,0,0:0:0:0:
320,96,172083,1,8,0:0:0:0:
320,128,172233,1,0,0:0:0:0:
320,128,172308,1,0,0:0:0:0:
320,160,172383,1,8,0:0:0:0:
352,192,172533,1,0,0:0:0:0:
352,192,172608,1,8,0:0:0:0:
352,224,172758,1,0,0:0:0:0:
352,256,172833,1,8,0:0:0:0:
320,224,173133,1,8,0:0:0:0:
320,224,173208,1,8,0:0:0:0:
320,224,173283,1,0,0:0:0:0:
320,224,173358,1,0,0:0:0:0:
320,224,173433,1,0,0:0:0:0:
320,192,173583,1,8,0:0:0:0:
320,192,173733,1,0,0:0:0:0:
352,224,173808,1,0,0:0:0:0:
352,256,173883,1,8,0:0:0:0:
352,256,174033,1,0,0:0:0:0:
352,256,174183,1,8,0:0:0:0:
352,256,174258,1,8,0:0:0:0:
352,256,174333,1,0,0:0:0:0:
352,256,174483,1,8,0:0:0:0:
352,256,174633,1,0,0:0:0:0:
352,256,174708,1,0,0:0:0:0:
384,256,174783,1,8,0:0:0:0:
384,256,174858,1,8,0:0:0:0:
416,224,174933,1,0,0:0:0:0:
416,224,175083,1,8,0:0:0:0:
416,224,175233,1,0,0:0:0:0:
384,224,175308,1,0,0:0:0:0:
416,224,175383,1,8,0:0:0:0:
384,224,175458,1,0,0:0:0:0:
416,224,175533,1,8,0:0:0:0:
320,192,175983,1,0,0:0:0:0:
384,192,176133,1,0,0:0:0:0:
384,192,176208,1,8,0:0:0:0:
384,192,176283,1,0,0:0:0:0:
352,160,176433,1,8,0:0:0:0:
320,128,176583,1,0,0:0:0:0:
352,96,176658,1,0,0:0:0:0:
320,96,176733,1,8,0:0:0:0:
320,96,176808,1,0,0:0:0:0:
320,96,176883,1,8,0:0:0:0:
320,96,176958,1,8,0:0:0:0:
320,96,177033,1,0,0:0:0:0:
352,96,177108,1,8,0:0:0:0:
352,96,177183,1,0,0:0:0:0:
352,96,177258,1,0,0:0:0:0:
320,96,177333,1,0,0:0:0:0:
320,96,177408,1,0,0:0:0:0:
352,192,177483,1,8,0:0:0:0:
352,192,177558,1,8,0:0:0:0:
352,192,177633,1,0,0:0:0:0:
352,192,177708,1,0,0:0:0:0:
352,192,177783,1,8,0:0:0:0:
352,192,177858,1,0,0:0:0:0:
320,224,177933,1,0,0:0:0:0:
320,224,178008,1,0,0:0:0:0:
320,224,178083,1,8,0:0:0:0:
320,224,178158,1,8,0:0:0:0:
320,224,178233,1,8,0:0:0:0:
256,128,178383,5,4,0:0:0:0:
288,192,178683,1,0,0:0:0:0:
256,192,178833,1,8,0:0:0:0:
256,128,178983,1,0,0:0:0:0:
288,160,179133,1,8,0:0:0:0:
320,224,179208,1,8,0:0:0:0:
288,192,179283,1,0,0:0:0:0:
288,160,179433,1,8,0:0:0:0:
256,128,179583,1,0,0:0:0:0:
224,128,179733,1,8,0:0:0:0:
288,192,179883,1,0,0:0:0:0:
256,192,180033,1,0,0:0:0:0:
256,192,180108,1,0,0:0:0:0:
352,192,180183,1,8,0:0:0:0:
288,192,180408,1,0,0:0:0:0:
384,224,180483,1,8,0:0:0:0:
320,224,180783,1,0,0:0:0:0:
352,256,180933,1,8,0:0:0:0:
256,192,181083,1,0,0:0:0:0:
256,192,181158,1,0,0:0:0:0:
288,224,181233,1,8,0:0:0:0:
192,192,181383,1,0,0:0:0:0:
224,224,181533,1,8,0:0:0:0:
256,224,181608,1,8,0:0:0:0:
256,224,181683,1,0,0:0:0:0:
224,256,181833,1,0,0:0:0:0:
288,256,181908,1,0,0:0:0:0:
288,256,181983,1,8,0:0:0:0:
352,256,182283,1,8,0:0:0:0:
384,224,182508,1,0,0:0:0:0:
384,224,182583,1,8,0:0:0:0:
384,224,182658,1,0,0:0:0:0:
384,224,182733,1,8,0:0:0:0:
384,224,182808,1,8,0:0:0:0:
384,224,182883,1,0,0:0:0:0:
384,224,182958,1,0,0:0:0:0:
384,224,183033,1,8,0:0:0:0:
384,224,183108,1,0,0:0:0:0:
384,224,183183,1,0,0:0:0:0:
320,192,183483,1,0,0:0:0:0:
288,192,183633,1,8,0:0:0:0:
320,192,183783,1,0,0:0:0:0:
352,160,183933,1,8,0:0:0:0:
352,160,184008,1,8,0:0:0:0:
384,224,184083,1,0,0:0:0:0:
352,224,184233,1,8,0:0:0:0:
352,224,184383,1,0,0:0:0:0:
384,192,184533,1,8,0:0:0:0:
384,224,184683,1,0,0:0:0:0:
416,192,184833,1,8,0:0:0:0:
416,192,184908,1,0,0:0:0:0:
384,224,184983,1,8,0:0:0:0:
416,256,185133,1,0,0:0:0:0:
384,224,185208,1,0,0:0:0:0:
384,224,185283,1,8,0:0:0:0:
384,224,185583,1,0,0:0:0:0:
384,224,185658,1,8,0:0:0:0:
384,224,185733,1,8,0:0:0:0:
384,224,185883,1,0,0:0:0:0:
352,224,186033,1,8,0:0:0:0:
384,224,186108,1,0,0:0:0:0:
384,224,186183,1,8,0:0:0:0:
288,224,186333,1,0,0:0:0:0:
384,224,186483,1,8,0:0:0:0:
384,224,186558,1,8,0:0:0:0:
384,224,186633,1,0,0:0:0:0:
384,224,186783,1,12,0:0:0:0:
320,224,187083,1,0,0:0:0:0:
288,224,187233,1,0,0:0:0:0:
288,224,187383,1,0,0:0:0:0:
320,288,187683,1,8,0:0:0:0:
344,264,187833,1,8,0:0:0:0:
320,288,187983,1,4,0:0:0:0:
256,288,188283,1,0,0:0:0:0:
288,288,188433,1,8,0:0:0:0:
192,256,188583,1,0,0:0:0:0:
192,256,188658,1,0,0:0:0:0:
192,256,188733,1,8,0:0:0:0:
128,256,188883,1,0,0:0:0:0:
192,256,189033,1,8,0:0:0:0:
256,256,189183,1,0,0:0:0:0:
288,256,189333,1,8,0:0:0:0:
288,224,189408,1,8,0:0:0:0:
288,224,189483,1,0,0:0:0:0:
352,256,189633,1,8,0:0:0:0:
320,256,189708,1,0,0:0:0:0:
384,256,189783,1,8,0:0:0:0:
384,256,190008,1,0,0:0:0:0:
384,256,190083,1,8,0:0:0:0:
384,256,190383,1,0,0:0:0:0:
352,224,190533,1,8,0:0:0:0:
384,256,190683,1,0,0:0:0:0:
384,256,190833,1,8,0:0:0:0:
384,256,190983,1,0,0:0:0:0:
384,256,191058,1,0,0:0:0:0:
384,256,191133,1,8,0:0:0:0:
384,256,191283,1,0,0:0:0:0:
352,256,191433,1,0,0:0:0:0:
384,256,191508,1,0,0:0:0:0:
384,256,191583,1,8,0:0:0:0:
352,192,191883,1,8,0:0:0:0:
352,192,192108,1,0,0:0:0:0:
352,192,192183,1,8,0:0:0:0:
352,192,192258,1,0,0:0:0:0:
352,192,192333,1,8,0:0:0:0:
352,192,192408,1,8,0:0:0:0:
352,192,192483,1,0,0:0:0:0:
352,192,192558,1,0,0:0:0:0:
320,160,192633,1,8,0:0:0:0:
320,160,192708,1,0,0:0:0:0:
320,160,192783,1,0,0:0:0:0:
256,128,193083,1,0,0:0:0:0:
256,160,193233,1,0,0:0:0:0:
256,128,193383,1,8,0:0:0:0:
256,160,193533,1,8,0:0:0:0:
256,160,193608,1,8,0:0:0:0:
256,128,193683,1,0,0:0:0:0:
320,128,193908,1,0,0:0:0:0:
320,128,193983,1,8,0:0:0:0:
320,192,194208,1,0,0:0:0:0:
320,128,194283,1,8,0:0:0:0:
320,128,194358,1,8,0:0:0:0:
320,128,194433,1,0,0:0:0:0:
320,128,194508,1,0,0:0:0:0:
320,128,194583,1,8,0:0:0:0:
320,128,194733,1,8,0:0:0:0:
320,128,194808,1,0,0:0:0:0:
320,128,194883,1,8,0:0:0:0:
320,128,195033,1,8,0:0:0:0:
320,128,195108,1,8,0:0:0:0:
320,128,195183,1,0,0:0:0:0:
320,128,195258,1,8,0:0:0:0:
320,128,195333,1,0,0:0:0:0:
320,128,195408,1,0,0:0:0:0:
320,128,195483,1,8,0:0:0:0:
352,160,195633,1,0,0:0:0:0:
352,160,195708,1,0,0:0:0:0:
352,160,195783,1,8,0:0:0:0:
352,160,195858,1,0,0:0:0:0:
352,160,195933,1,8,0:0:0:0:
352,160,196008,1,8,0:0:0:0:
352,160,196083,1,0,0:0:0:0:
352,160,196158,1,0,0:0:0:0:
352,160,196233,1,0,0:0:0:0:
352,160,196383,1,12,0:0:0:0:
320,192,196533,1,0,0:0:0:0:
320,192,196608,1,0,0:0:0:0:
320,192,196683,1,8,0:0:0:0:
352,160,196758,1,0,0:0:0:0:
352,160,196833,1,0,0:0:0:0:
352,160,196908,1,0,0:0:0:0:
352,160,196983,1,8,0:0:0:0:
352,160,197058,1,8,0:0:0:0:
352,160,197133,1,0,0:0:0:0:
352,160,197208,1,0,0:0:0:0:
352,160,197283,1,8,0:0:0:0:
320,160,197358,1,8,0:0:0:0:
288,192,197433,1,8,0:0:0:0:
352,256,197583,1,4,0:0:0:0:
384,224,197883,1,0,0:0:0:0:
384,256,198033,1,8,0:0:0:0:
352,256,198183,1,0,0:0:0:0:
352,256,198258,1,0,0:0:0:0:
320,288,198408,1,8,0:0:0:0:
320,288,198483,1,0,0:0:0:0:
288,320,198633,1,8,0:0:0:0:
288,320,198783,1,0,0:0:0:0:
320,320,198933,1,8,0:0:0:0:
320,320,199008,1,8,0:0:0:0:
320,320,199083,1,0,0:0:0:0:
320,320,199233,1,8,0:0:0:0:
320,320,199383,1,0,0:0:0:0:
320,320,199458,1,0,0:0:0:0:
384,224,199533,1,8,0:0:0:0:
320,320,199608,1,0,0:0:0:0:
320,320,199683,1,8,0:0:0:0:
352,160,199983,5,0,0:0:0:0:
384,224,200283,1,0,0:0:0:0:
384,256,200433,1,8,0:0:0:0:
352,256,200583,1,0,0:0:0:0:
352,256,200658,1,0,0:0:0:0:
320,288,200808,1,8,0:0:0:0:
320,288,200883,1,0,0:0:0:0:
320,288,200958,1,0,0:0:0:0:
288,320,201033,1,8,0:0:0:0:
288,320,201183,1,0,0:0:0:0:
320,320,201333,1,0,0:0:0:0:
320,320,201408,1,8,0:0:0:0:
320,320,201483,1,0,0:0:0:0:
320,320,201633,1,8,0:0:0:0:
320,320,201708,1,8,0:0:0:0:
320,320,201783,1,0,0:0:0:0:
320,320,201858,1,0,0:0:0:0:
320,320,201933,1,8,0:0:0:0:
320,320,202008,1,0,0:0:0:0:
320,320,202083,1,8,0:0:0:0:
288,288,202233,1,8,0:0:0:0:
352,160,202383,5,0,0:0:0:0:
384,224,202683,1,0,0:0:0:0:
384,256,202833,1,8,0:0:0:0:
352,256,202983,1,0,0:0:0:0:
352,256,203058,1,0,0:0:0:0:
320,288,203208,1,8,0:0:0:0:
320,288,203283,1,0,0:0:0:0:
288,320,203433,1,8,0:0:0:0:
288,320,203583,1,0,0:0:0:0:
288,288,203733,1,8,0:0:0:0:
320,320,203808,1,8,0:0:0:0:
320,320,203883,1,0,0:0:0:0:
320,320,204033,1,8,0:0:0:0:
320,320,204183,1,0,0:0:0:0:
320,320,204258,1,0,0:0:0:0:
320,320,204333,1,8,0:0:0:0:
320,320,204408,1,0,0:0:0:0:
320,320,204483,1,8,0:0:0:0:
352,160,204783,5,0,0:0:0:0:
288,160,205008,1,8,0:0:0:0:
384,224,205083,1,0,0:0:0:0:
384,256,205233,1,8,0:0:0:0:
352,256,205383,1,0,0:0:0:0:
352,256,205458,1,0,0:0:0:0:
352,256,205533,1,8,0:0:0:0:
320,288,205608,1,0,0:0:0:0:
320,288,205683,1,8,0:0:0:0:
352,160,205758,1,8,0:0:0:0:
288,320,205833,1,0,0:0:0:0:
288,320,205983,1,8,0:0:0:0:
320,320,206133,1,0,0:0:0:0:
320,288,206208,1,0,0:0:0:0:
320,288,206283,1,8,0:0:0:0:
320,256,206358,1,8,0:0:0:0:
320,256,206433,1,0,0:0:0:0:
320,320,206583,1,8,0:0:0:0:
320,288,206733,1,0,0:0:0:0:
320,320,206808,1,0,0:0:0:0:
320,320,206883,1,8,0:0:0:0:
352,160,207183,5,12,0:0:0:0:
384,224,207483,1,8,0:0:0:0:
384,256,207633,1,0,0:0:0:0:
352,256,207783,1,8,0:0:0:0:
352,256,207858,1,8,0:0:0:0:
320,288,208008,1,0,0:0:0:0:
320,288,208083,1,8,0:0:0:0:
288,320,208233,1,0,0:0:0:0:
288,320,208383,1,8,0:0:0:0:
288,288,208458,1,8,0:0:0:0:
320,320,208533,1,0,0:0:0:0:
320,320,208608,1,0,0:0:0:0:
320,320,208683,1,8,0:0:0:0:
320,320,208833,1,0,0:0:0:0:
320,320,208983,1,8,0:0:0:0:
320,320,209058,1,0,0:0:0:0:
192,320,209208,1,0,0:0:0:0:
192,320,209283,1,8,0:0:0:0:
352,160,209358,1,8,0:0:0:0:
192,288,209433,1,0,0:0:0:0:
192,288,209508,1,0,0:0:0:0:
352,160,209583,5,8,0:0:0:0:
384,224,209883,1,8,0:0:0:0:
384,256,210033,1,0,0:0:0:0:
352,256,210183,1,8,0:0:0:0:
352,256,210258,1,8,0:0:0:0:
320,288,210408,1,0,0:0:0:0:
320,288,210483,1,8,0:0:0:0:
320,288,210558,1,8,0:0:0:0:
288,320,210633,1,0,0:0:0:0:
288,320,210783,1,8,0:0:0:0:
288,288,210858,1,8,0:0:0:0:
288,320,210933,1,0,0:0:0:0:
288,320,211008,1,0,0:0:0:0:
320,320,211083,1,8,0:0:0:0:
320,320,211233,1,0,0:0:0:0:
320,320,211308,1,0,0:0:0:0:
320,320,211383,1,8,0:0:0:0:
320,320,211458,1,0,0:0:0:0:
320,320,211608,1,0,0:0:0:0:
320,320,211683,1,8,0:0:0:0:
320,320,211758,1,8,0:0:0:0:
320,288,211833,1,0,0:0:0:0:
320,288,211908,1,0,0:0:0:0:
352,160,211983,5,8,0:0:0:0:
352,192,212133,1,0,0:0:0:0:
384,224,212283,1,8,0:0:0:0:
384,224,212358,1,8,0:0:0:0:
384,256,212433,1,0,0:0:0:0:
352,256,212583,1,8,0:0:0:0:
352,256,212658,1,8,0:0:0:0:
320,288,212808,1,0,0:0:0:0:
320,288,212883,1,8,0:0:0:0:
288,320,213033,1,0,0:0:0:0:
288,320,213183,1,8,0:0:0:0:
288,288,213333,1,0,0:0:0:0:
320,320,213408,1,0,0:0:0:0:
320,320,213483,1,8,0:0:0:0:
320,320,213633,1,0,0:0:0:0:
320,320,213783,1,8,0:0:0:0:
320,320,213858,1,8,0:0:0:0:
320,320,213933,1,0,0:0:0:0:
320,304,214008,1,0,0:0:0:0:
320,320,214083,1,8,0:0:0:0:
320,288,214233,1,0,0:0:0:0:
320,256,214383,1,8,0:0:0:0:
320,256,214458,1,8,0:0:0:0:
320,224,214533,1,0,0:0:0:0:
320,224,214608,1,0,0:0:0:0:
384,224,214683,1,8,0:0:0:0:
384,224,214758,1,0,0:0:0:0:
384,256,214833,1,0,0:0:0:0:
352,256,214908,1,0,0:0:0:0:
352,256,214983,1,8,0:0:0:0:
352,256,215058,1,8,0:0:0:0:
352,256,215133,1,0,0:0:0:0:
352,256,215208,1,8,0:0:0:0:
352,256,215283,1,0,0:0:0:0:
352,256,215358,1,0,0:0:0:0:
352,256,215433,1,8,0:0:0:0:
352,256,215508,1,0,0:0:0:0:
288,320,215583,1,8,0:0:0:0:
288,288,215658,1,8,0:0:0:0:
320,320,215733,1,0,0:0:0:0:
320,320,215808,1,0,0:0:0:0:
320,288,215883,1,8,0:0:0:0:
320,256,215958,1,0,0:0:0:0:
320,256,216033,1,0,0:0:0:0:
320,256,216108,1,0,0:0:0:0:
320,320,216183,1,8,0:0:0:0:
320,288,216258,1,8,0:0:0:0:
320,288,216333,1,0,0:0:0:0:
320,320,216408,1,0,0:0:0:0:
320,320,216483,1,8,0:0:0:0:
320,320,216558,1,8,0:0:0:0:
320,320,216633,1,8,0:0:0:0:
320,320,216708,1,8,0:0:0:0:
320,320,216783,1,0,0:0:0:0:
480,96,217983,1,8,0:0:0:0:
448,160,218283,1,8,0:0:0:0:
416,224,218583,1,8,0:0:0:0:
352,256,218883,1,8,0:0:0:0:
352,320,219183,1,8,0:0:0:0:
384,256,220383,1,8,0:0:0:0:
384,256,220683,1,8,0:0:0:0:
384,256,220983,1,8,0:0:0:0:
384,256,221283,1,8,0:0:0:0:
384,256,221583,1,8,0:0:0:0:
352,288,222783,1,8,0:0:0:0:
352,288,223083,1,8,0:0:0:0:
352,288,223383,1,8,0:0:0:0:
352,288,223683,1,8,0:0:0:0:
352,288,223983,1,8,0:0:0:0:
352,288,225183,1,8,0:0:0:0:
352,288,225483,1,8,0:0:0:0:
352,288,225783,1,8,0:0:0:0:
352,288,226083,1,8,0:0:0:0:
416,256,226383,1,0,0:0:0:0:
352,224,226683,1,8,0:0:0:0:
288,192,226983,1,8,0:0:0:0:
288,192,227283,1,8,0:0:0:0:
288,192,227583,1,8,0:0:0:0:
288,192,227883,1,8,0:0:0:0:
288,192,228183,1,8,0:0:0:0:
288,192,228483,1,8,0:0:0:0:
256,192,228633,1,8,0:0:0:0:
288,192,228783,1,0,0:0:0:0:
288,192,229083,1,8,0:0:0:0:
288,192,229383,1,8,0:0:0:0:
288,192,229683,1,8,0:0:0:0:
288,192,229983,1,8,0:0:0:0:
288,192,230283,1,8,0:0:0:0:
288,192,230583,1,8,0:0:0:0:
320,224,230808,1,8,0:0:0:0:
288,192,230883,1,8,0:0:0:0:
320,224,231033,1,8,0:0:0:0:
320,256,231183,1,0,0:0:0:0:
288,192,231483,1,8,0:0:0:0:
288,192,231783,1,8,0:0:0:0:
288,192,232083,1,8,0:0:0:0:
288,224,232233,1,8,0:0:0:0:
288,192,232383,1,0,0:0:0:0:
288,224,232533,1,8,0:0:0:0:
288,192,232683,1,8,0:0:0:0:
288,256,232983,1,0,0:0:0:0:
288,192,233283,1,8,0:0:0:0:
288,224,233433,1,8,0:0:0:0:
288,256,233583,1,0,0:0:0:0:
288,192,233883,1,8,0:0:0:0:
288,192,234183,1,0,0:0:0:0:
320,224,234333,1,0,0:0:0:0:
288,192,234483,1,8,0:0:0:0:
288,192,234783,1,0,0:0:0:0:
320,192,234933,1,8,0:0:0:0:
224,192,235083,1,8,0:0:0:0:
320,224,235308,1,8,0:0:0:0:
320,224,235383,1,0,0:0:0:0:
288,192,235533,1,8,0:0:0:0:
288,192,235683,1,8,0:0:0:0:
288,224,235983,1,4,0:0:0:0:
288,192,236283,1,8,0:0:0:0:
288,192,236583,1,0,0:0:0:0:
288,192,236733,1,0,0:0:0:0:
288,192,236883,1,8,0:0:0:0:
288,192,237183,1,0,0:0:0:0:
288,192,237408,1,8,0:0:0:0:
288,192,237633,1,8,0:0:0:0:
320,192,237933,1,0,0:0:0:0:
320,192,238083,1,8,0:0:0:0:
320,192,238233,1,4,0:0:0:0:
320,192,238383,1,4,0:0:0:0:
320,256,238683,1,8,0:0:0:0:
320,256,238983,1,0,0:0:0:0:
320,256,239133,1,0,0:0:0:0:
320,256,239283,1,8,0:0:0:0:
320,256,239583,1,0,0:0:0:0:
320,256,239808,1,8,0:0:0:0:
320,256,240033,1,4,0:0:0:0:
288,224,240333,1,4,0:0:0:0:
256,192,240483,1,8,0:0:0:0:
224,160,240633,1,4,0:0:0:0:
224,160,240783,1,4,0:0:0:0:
288,128,241083,1,8,0:0:0:0:
320,192,241383,1,0,0:0:0:0:
288,160,241533,1,0,0:0:0:0:
320,192,241683,1,8,0:0:0:0:
256,128,241983,1,4,0:0:0:0:
288,160,242208,1,8,0:0:0:0:
320,192,242433,1,8,0:0:0:0:
288,160,242583,1,0,0:0:0:0:
352,192,242883,1,0,0:0:0:0:
320,192,243033,1,8,0:0:0:0:
320,192,243183,1,4,0:0:0:0:
320,128,243408,5,8,0:0:0:0:
320,128,243483,1,0,0:0:0:0:
320,160,243633,1,8,0:0:0:0:
320,160,243783,1,0,0:0:0:0:
320,160,243933,1,8,0:0:0:0:
320,160,244233,1,8,0:0:0:0:
320,224,244383,5,4,0:0:0:0:
320,224,244683,1,0,0:0:0:0:
320,224,244833,1,8,0:0:0:0:
320,224,244983,1,0,0:0:0:0:
352,192,245133,1,8,0:0:0:0:
352,192,245183,1,8,0:0:0:0:
352,192,245233,1,8,0:0:0:0:
352,192,245283,1,0,0:0:0:0:
352,192,245358,1,0,0:0:0:0:
352,192,245433,1,8,0:0:0:0:
352,192,245508,1,8,0:0:0:0:
352,192,245583,1,0,0:0:0:0:
288,192,245883,1,8,0:0:0:0:
288,192,246183,1,0,0:0:0:0:
288,192,246333,1,0,0:0:0:0:
288,192,246483,1,8,0:0:0:0:
288,192,246783,1,0,0:0:0:0:
288,192,247008,1,8,0:0:0:0:
288,192,247083,1,0,0:0:0:0:
288,192,247233,1,8,0:0:0:0:
320,192,247383,1,0,0:0:0:0:
320,192,247533,1,8,0:0:0:0:
320,160,247608,1,0,0:0:0:0:
352,160,247683,1,0,0:0:0:0:
384,160,247833,1,0,0:0:0:0:
320,192,247983,1,12,0:0:0:0:
320,256,248283,1,8,0:0:0:0:
320,256,248583,1,0,0:0:0:0:
320,256,248733,1,0,0:0:0:0:
320,256,248883,1,8,0:0:0:0:
320,256,249183,1,0,0:0:0:0:
320,192,249408,1,8,0:0:0:0:
320,192,249483,1,0,0:0:0:0:
320,256,249633,1,8,0:0:0:0:
320,224,249783,1,0,0:0:0:0:
320,224,249933,1,8,0:0:0:0:
320,224,250008,1,0,0:0:0:0:
256,192,250083,1,8,0:0:0:0:
224,160,250233,1,0,0:0:0:0:
256,128,250383,1,12,0:0:0:0:
288,96,250608,1,0,0:0:0:0:
288,96,250683,1,8,0:0:0:0:
320,96,250833,1,0,0:0:0:0:
288,160,250983,1,8,0:0:0:0:
288,160,251133,1,0,0:0:0:0:
320,192,251283,1,8,0:0:0:0:
320,192,251358,1,0,0:0:0:0:
288,224,251433,1,0,0:0:0:0:
288,128,251583,1,12,0:0:0:0:
320,96,251808,1,0,0:0:0:0:
288,160,251883,1,8,0:0:0:0:
320,192,252033,1,0,0:0:0:0:
288,160,252183,1,8,0:0:0:0:
288,160,252333,1,0,0:0:0:0:
288,160,252408,1,0,0:0:0:0:
352,192,252483,1,8,0:0:0:0:
288,160,252558,1,8,0:0:0:0:
320,192,252633,1,0,0:0:0:0:
320,192,252783,1,12,0:0:0:0:
320,128,253008,5,0,0:0:0:0:
320,128,253083,1,8,0:0:0:0:
320,160,253233,1,0,0:0:0:0:
288,128,253383,1,12,0:0:0:0:
320,160,253533,1,0,0:0:0:0:
320,128,253608,1,0,0:0:0:0:
320,128,253683,1,8,0:0:0:0:
320,128,253833,1,0,0:0:0:0:
288,128,253983,1,12,0:0:0:0:
288,160,254133,5,0,0:0:0:0:
288,160,254208,1,0,0:0:0:0:
320,224,254283,5,8,0:0:0:0:
288,224,254358,1,0,0:0:0:0:
288,224,254433,1,8,0:0:0:0:
288,224,254508,1,8,0:0:0:0:
320,224,254583,1,0,0:0:0:0:
320,224,254658,1,0,0:0:0:0:
320,224,254733,1,8,0:0:0:0:
320,224,254808,1,8,0:0:0:0:
320,224,254883,1,8,0:0:0:0:
256,160,255183,1,4,0:0:0:0:
288,224,255333,1,4,0:0:0:0:
288,224,255483,1,4,0:0:0:0:
224,224,255783,1,12,0:0:0:0:
224,224,255933,1,12,0:0:0:0:
224,224,256083,1,12,0:0:0:0:
224,224,256383,1,4,0:0:0:0:
224,224,256533,1,4,0:0:0:0:
256,224,256683,1,12,0:0:0:0:
288,224,256833,1,12,0:0:0:0:
320,224,256983,1,4,0:0:0:0:
352,224,257133,1,4,0:0:0:0:
320,192,257283,5,12,0:0:0:0:
352,224,257583,1,0,0:0:0:0:
352,224,257658,1,0,0:0:0:0:
352,224,257733,1,0,0:0:0:0:
352,224,257808,1,0,0:0:0:0:
352,224,257883,1,8,0:0:0:0:
352,224,257958,1,0,0:0:0:0:
352,224,258033,1,0,0:0:0:0:
352,224,258108,1,0,0:0:0:0:
352,224,258183,1,8,0:0:0:0:
352,224,258258,1,8,0:0:0:0:
352,224,258333,1,0,0:0:0:0:
352,224,258408,1,0,0:0:0:0:
352,224,258483,1,8,0:0:0:0:
352,224,258558,1,0,0:0:0:0:
352,224,258633,1,8,0:0:0:0:
352,224,258708,1,8,0:0:0:0:
352,224,258783,1,0,0:0:0:0:
384,256,259683,1,12,0:0:0:0:
320,192,259983,1,4,0:0:0:0:
352,256,260283,1,0,0:0:0:0:
352,256,260433,1,8,0:0:0:0:
352,256,260583,1,0,0:0:0:0:
352,256,260733,1,8,0:0:0:0:
352,256,260808,1,8,0:0:0:0:
352,256,260883,1,0,0:0:0:0:
352,256,261033,1,8,0:0:0:0:
384,256,261183,1,0,0:0:0:0:
416,224,261258,1,8,0:0:0:0:
416,224,261408,1,8,0:0:0:0:
416,224,261483,1,0,0:0:0:0:
416,224,261558,1,0,0:0:0:0:
416,224,261633,1,8,0:0:0:0:
416,224,261783,1,0,0:0:0:0:
416,224,261933,1,8,0:0:0:0:
416,224,262008,1,0,0:0:0:0:
416,224,262083,1,0,0:0:0:0:
416,224,262233,1,8,0:0:0:0:
416,224,262383,1,0,0:0:0:0:
424,232,262458,1,0,0:0:0:0:
384,192,262608,1,8,0:0:0:0:
384,192,262683,1,0,0:0:0:0:
352,160,262833,1,8,0:0:0:0:
352,128,262983,1,0,0:0:0:0:
320,96,263133,1,8,0:0:0:0:
320,96,263208,1,8,0:0:0:0:
320,96,263283,1,0,0:0:0:0:
320,128,263433,1,8,0:0:0:0:
320,160,263583,1,0,0:0:0:0:
352,192,263658,1,8,0:0:0:0:
352,192,263808,1,8,0:0:0:0:
352,224,263883,1,0,0:0:0:0:
352,224,263958,1,0,0:0:0:0:
352,224,264033,1,8,0:0:0:0:
320,224,264183,1,0,0:0:0:0:
320,224,264258,1,0,0:0:0:0:
320,224,264333,1,8,0:0:0:0:
320,224,264408,1,0,0:0:0:0:
320,224,264483,1,8,0:0:0:0:
320,224,264558,1,8,0:0:0:0:
320,224,264633,1,0,0:0:0:0:
320,192,264783,1,0,0:0:0:0:
352,224,265008,1,8,0:0:0:0:
352,256,265083,1,0,0:0:0:0:
352,256,265233,1,8,0:0:0:0:
352,256,265383,1,0,0:0:0:0:
352,256,265533,1,8,0:0:0:0:
352,256,265608,1,8,0:0:0:0:
352,256,265683,1,0,0:0:0:0:
352,256,265833,1,8,0:0:0:0:
384,256,265983,1,0,0:0:0:0:
416,224,266058,1,8,0:0:0:0:
416,224,266208,1,8,0:0:0:0:
416,224,266283,1,0,0:0:0:0:
416,224,266358,1,0,0:0:0:0:
416,224,266433,1,8,0:0:0:0:
416,224,266583,1,0,0:0:0:0:
384,224,266658,1,0,0:0:0:0:
416,224,266733,1,8,0:0:0:0:
416,224,266808,1,8,0:0:0:0:
416,224,266883,1,0,0:0:0:0:
416,224,267033,1,8,0:0:0:0:
416,224,267183,1,0,0:0:0:0:
416,208,267258,1,0,0:0:0:0:
384,192,267408,1,8,0:0:0:0:
384,192,267483,1,0,0:0:0:0:
352,160,267633,1,8,0:0:0:0:
352,128,267783,1,0,0:0:0:0:
352,96,267858,1,0,0:0:0:0:
320,96,267933,1,8,0:0:0:0:
320,96,268083,1,0,0:0:0:0:
352,96,268233,1,8,0:0:0:0:
320,192,268308,1,0,0:0:0:0:
352,192,268458,1,0,0:0:0:0:
352,192,268533,1,8,0:0:0:0:
352,192,268608,1,8,0:0:0:0:
352,192,268683,1,0,0:0:0:0:
320,160,268833,1,8,0:0:0:0:
320,224,268983,1,0,0:0:0:0:
320,224,269058,1,8,0:0:0:0:
320,224,269133,1,0,0:0:0:0:
320,224,269208,1,0,0:0:0:0:
320,224,269283,1,8,0:0:0:0:
320,224,269358,1,0,0:0:0:0:
320,224,269433,1,8,0:0:0:0:
320,192,269508,1,8,0:0:0:0:
320,192,269583,1,0,0:0:0:0:
352,224,269808,1,8,0:0:0:0:
352,256,269883,1,0,0:0:0:0:
352,256,270033,1,8,0:0:0:0:
352,256,270183,1,0,0:0:0:0:
352,256,270333,1,8,0:0:0:0:
352,256,270408,1,8,0:0:0:0:
352,256,270483,1,0,0:0:0:0:
352,256,270633,1,8,0:0:0:0:
384,256,270783,1,0,0:0:0:0:
416,224,270858,1,8,0:0:0:0:
416,224,271008,1,8,0:0:0:0:
416,224,271083,1,0,0:0:0:0:
384,224,271158,1,0,0:0:0:0:
416,224,271233,1,8,0:0:0:0:
416,224,271383,1,0,0:0:0:0:
416,224,271533,1,8,0:0:0:0:
416,224,271608,1,8,0:0:0:0:
416,224,271683,1,0,0:0:0:0:
384,224,271758,1,0,0:0:0:0:
416,224,271833,1,8,0:0:0:0:
416,224,271983,1,0,0:0:0:0:
416,208,272058,1,0,0:0:0:0:
384,192,272208,1,8,0:0:0:0:
384,192,272283,1,0,0:0:0:0:
352,160,272433,1,8,0:0:0:0:
352,128,272583,1,0,0:0:0:0:
320,96,272733,1,8,0:0:0:0:
320,96,272808,1,8,0:0:0:0:
320,96,272883,1,0,0:0:0:0:
320,128,273033,1,8,0:0:0:0:
352,192,273183,1,0,0:0:0:0:
320,160,273258,1,8,0:0:0:0:
352,192,273408,1,8,0:0:0:0:
352,224,273483,1,0,0:0:0:0:
320,128,273558,1,8,0:0:0:0:
352,256,273633,1,8,0:0:0:0:
320,224,273783,1,0,0:0:0:0:
352,224,273858,1,0,0:0:0:0:
320,224,273933,1,8,0:0:0:0:
320,224,274008,1,0,0:0:0:0:
320,224,274083,1,8,0:0:0:0:
320,224,274158,1,8,0:0:0:0:
320,224,274233,1,0,0:0:0:0:
320,224,274308,1,8,0:0:0:0:
320,192,274383,1,0,0:0:0:0:
352,224,274608,1,8,0:0:0:0:
352,256,274683,1,0,0:0:0:0:
352,256,274833,1,8,0:0:0:0:
352,256,274983,1,0,0:0:0:0:
352,256,275058,1,0,0:0:0:0:
352,256,275133,1,8,0:0:0:0:
352,256,275283,1,0,0:0:0:0:
352,256,275433,1,0,0:0:0:0:
352,256,275508,1,8,0:0:0:0:
384,256,275583,1,0,0:0:0:0:
352,224,275658,1,0,0:0:0:0:
416,224,275733,1,8,0:0:0:0:
416,224,275883,1,0,0:0:0:0:
416,224,276033,1,8,0:0:0:0:
416,224,276108,1,8,0:0:0:0:
416,224,276183,1,0,0:0:0:0:
416,224,276333,1,8,0:0:0:0:
416,224,276408,1,8,0:0:0:0:
416,224,276483,1,0,0:0:0:0:
416,224,276558,1,0,0:0:0:0:
416,224,276633,1,8,0:0:0:0:
416,224,276708,1,0,0:0:0:0:
416,224,276783,1,8,0:0:0:0:
384,192,277008,1,8,0:0:0:0:
384,192,277083,1,0,0:0:0:0:
352,160,277233,1,8,0:0:0:0:
352,128,277383,1,0,0:0:0:0:
352,96,277458,1,0,0:0:0:0:
320,96,277533,1,8,0:0:0:0:
320,96,277683,1,0,0:0:0:0:
352,96,277833,1,0,0:0:0:0:
352,96,277908,1,8,0:0:0:0:
352,96,277983,1,0,0:0:0:0:
352,192,278058,1,0,0:0:0:0:
352,192,278133,1,8,0:0:0:0:
352,192,278283,1,8,0:0:0:0:
320,160,278433,1,0,0:0:0:0:
320,224,278583,1,8,0:0:0:0:
304,216,278658,1,8,0:0:0:0:
320,224,278733,1,8,0:0:0:0:
320,224,278808,1,8,0:0:0:0:
320,224,278883,1,0,0:0:0:0:
320,224,278958,1,0,0:0:0:0:
320,224,279033,1,8,0:0:0:0:
320,192,279108,1,0,0:0:0:0:
320,192,279183,1,8,0:0:0:0:
352,224,279408,1,0,0:0:0:0:
352,256,279483,1,8,0:0:0:0:
352,256,279633,1,0,0:0:0:0:
352,256,279783,1,8,0:0:0:0:
352,256,279858,1,8,0:0:0:0:
352,256,280008,1,0,0:0:0:0:
352,256,280083,1,8,0:0:0:0:
352,256,280233,1,0,0:0:0:0:
384,256,280383,1,8,0:0:0:0:
416,224,280458,1,0,0:0:0:0:
416,224,280608,1,0,0:0:0:0:
416,224,280683,1,8,0:0:0:0:
416,224,280758,1,8,0:0:0:0:
416,224,280833,1,0,0:0:0:0:
416,224,280983,1,8,0:0:0:0:
416,224,281133,1,0,0:0:0:0:
416,224,281208,1,0,0:0:0:0:
416,224,281283,1,8,0:0:0:0:
416,224,281433,1,0,0:0:0:0:
416,224,281583,1,8,0:0:0:0:
384,192,281808,1,0,0:0:0:0:
384,192,281883,1,8,0:0:0:0:
352,160,282033,1,0,0:0:0:0:
352,128,282183,1,8,0:0:0:0:
320,96,282258,1,8,0:0:0:0:
320,96,282408,1,0,0:0:0:0:
320,96,282483,1,8,0:0:0:0:
320,128,282633,1,0,0:0:0:0:
320,128,282708,1,0,0:0:0:0:
320,160,282783,1,8,0:0:0:0:
352,192,282858,1,0,0:0:0:0:
352,192,283008,1,0,0:0:0:0:
352,224,283083,1,8,0:0:0:0:
352,224,283158,1,8,0:0:0:0:
352,256,283233,1,0,0:0:0:0:
320,224,283383,1,8,0:0:0:0:
320,224,283458,1,8,0:0:0:0:
320,224,283533,1,0,0:0:0:0:
320,224,283608,1,8,0:0:0:0:
320,224,283683,1,0,0:0:0:0:
320,224,283758,1,0,0:0:0:0:
320,224,283833,1,8,0:0:0:0:
320,192,283983,1,8,0:0:0:0:
352,224,284208,1,0,0:0:0:0:
352,256,284283,1,8,0:0:0:0:
352,256,284433,1,0,0:0:0:0:
352,256,284583,1,8,0:0:0:0:
352,256,284658,1,8,0:0:0:0:
352,256,284808,1,0,0:0:0:0:
352,256,284883,1,8,0:0:0:0:
352,256,285033,1,0,0:0:0:0:
384,256,285183,1,8,0:0:0:0:
416,224,285258,1,0,0:0:0:0:
416,224,285408,1,0,0:0:0:0:
416,224,285483,1,8,0:0:0:0:
416,224,285558,1,8,0:0:0:0:
416,224,285633,1,0,0:0:0:0:
416,224,285783,1,8,0:0:0:0:
416,224,285933,1,0,0:0:0:0:
416,224,286008,1,0,0:0:0:0:
416,224,286083,1,8,0:0:0:0:
416,224,286158,1,8,0:0:0:0:
416,224,286233,1,0,0:0:0:0:
416,224,286383,1,8,0:0:0:0:
384,192,286608,1,0,0:0:0:0:
384,192,286683,1,8,0:0:0:0:
352,160,286833,1,0,0:0:0:0:
352,128,286983,1,8,0:0:0:0:
352,96,287058,1,8,0:0:0:0:
320,96,287133,1,0,0:0:0:0:
352,192,287208,1,0,0:0:0:0:
320,96,287283,1,8,0:0:0:0:
352,96,287433,1,0,0:0:0:0:
320,96,287583,1,8,0:0:0:0:
320,96,287658,1,8,0:0:0:0:
352,192,287733,1,0,0:0:0:0:
352,192,287883,1,8,0:0:0:0:
320,160,288033,1,0,0:0:0:0:
288,160,288108,1,0,0:0:0:0:
320,224,288183,1,8,0:0:0:0:
320,224,288258,1,8,0:0:0:0:
320,224,288333,1,0,0:0:0:0:
320,224,288408,1,8,0:0:0:0:
320,224,288483,1,0,0:0:0:0:
320,224,288558,1,0,0:0:0:0:
320,224,288633,1,8,0:0:0:0:
320,192,288708,1,0,0:0:0:0:
320,192,288783,1,8,0:0:0:0:
320,160,288933,1,0,0:0:0:0:
352,256,289083,1,8,0:0:0:0:
352,256,289233,1,0,0:0:0:0:
352,256,289308,1,0,0:0:0:0:
352,224,289383,1,8,0:0:0:0:
352,256,289533,1,0,0:0:0:0:
352,256,289683,1,8,0:0:0:0:
352,256,289833,1,0,0:0:0:0:
352,256,289908,1,0,0:0:0:0:
384,256,289983,1,8,0:0:0:0:
384,256,290058,1,8,0:0:0:0:
416,224,290133,1,0,0:0:0:0:
416,224,290283,1,8,0:0:0:0:
416,224,290433,1,0,0:0:0:0:
416,224,290583,1,8,0:0:0:0:
416,224,290658,1,8,0:0:0:0:
416,224,290733,1,0,0:0:0:0:
416,224,290808,1,0,0:0:0:0:
416,224,290883,1,8,0:0:0:0:
416,224,291033,1,0,0:0:0:0:
416,224,291183,1,8,0:0:0:0:
384,192,291333,1,0,0:0:0:0:
384,192,291483,1,8,0:0:0:0:
384,192,291558,1,8,0:0:0:0:
352,160,291633,1,0,0:0:0:0:
352,128,291783,1,8,0:0:0:0:
320,96,291933,1,0,0:0:0:0:
320,96,292083,1,8,0:0:0:0:
320,96,292158,1,8,0:0:0:0:
320,128,292233,1,0,0:0:0:0:
320,128,292308,1,0,0:0:0:0:
320,160,292383,1,8,0:0:0:0:
352,192,292533,1,0,0:0:0:0:
352,192,292608,1,8,0:0:0:0:
352,224,292758,1,0,0:0:0:0:
352,256,292833,1,8,0:0:0:0:
320,224,293133,1,8,0:0:0:0:
320,224,293208,1,8,0:0:0:0:
320,224,293283,1,0,0:0:0:0:
320,224,293358,1,0,0:0:0:0:
320,224,293433,1,0,0:0:0:0:
288,224,293583,1,0,0:0:0:0:
192,192,293883,1,8,0:0:0:0:
256,192,294183,1,8,0:0:0:0:
192,192,294483,1,8,0:0:0:0:
224,192,294633,1,8,0:0:0:0:
224,192,294708,1,8,0:0:0:0:
320,192,294783,1,0,0:0:0:0:
288,224,294933,1,8,0:0:0:0:
256,160,295083,1,8,0:0:0:0:
288,224,295233,1,0,0:0:0:0:
256,192,295533,1,8,0:0:0:0:
224,192,295683,1,8,0:0:0:0:
224,192,295758,1,8,0:0:0:0:
256,160,295833,1,0,0:0:0:0:
256,160,295908,1,0,0:0:0:0:
320,192,295983,1,8,0:0:0:0:
384,192,296133,1,8,0:0:0:0:
384,192,296208,1,0,0:0:0:0:
352,192,296358,1,0,0:0:0:0:
352,160,296433,1,8,0:0:0:0:
320,128,296583,1,8,0:0:0:0:
352,96,296658,1,0,0:0:0:0:
320,96,296733,1,8,0:0:0:0:
320,96,296808,1,8,0:0:0:0:
320,96,296883,1,0,0:0:0:0:
320,96,296958,1,0,0:0:0:0:
320,96,297033,1,8,0:0:0:0:
352,96,297108,1,8,0:0:0:0:
352,96,297183,1,0,0:0:0:0:
352,96,297258,1,0,0:0:0:0:
320,96,297333,1,8,0:0:0:0:
320,96,297408,1,0,0:0:0:0:
352,192,297483,1,8,0:0:0:0:
352,192,297558,1,8,0:0:0:0:
352,192,297633,1,0,0:0:0:0:
352,192,297708,1,8,0:0:0:0:
352,192,297783,1,0,0:0:0:0:
352,192,297833,1,0,0:0:0:0:
352,192,297883,1,0,0:0:0:0:
320,224,297933,1,8,0:0:0:0:
320,224,298008,1,0,0:0:0:0:
320,224,298083,1,8,0:0:0:0:
320,224,298158,1,8,0:0:0:0:
320,224,298233,1,0,0:0:0:0:
320,192,298308,1,8,0:0:0:0:
256,128,298383,5,0,0:0:0:0:
288,192,298683,1,8,0:0:0:0:
352,224,298983,1,0,0:0:0:0:
384,256,299208,1,8,0:0:0:0:
384,256,299283,1,0,0:0:0:0:
384,256,299433,1,8,0:0:0:0:
384,256,299583,1,0,0:0:0:0:
384,256,299733,1,8,0:0:0:0:
384,256,299808,1,8,0:0:0:0:
352,224,299883,1,0,0:0:0:0:
352,224,299958,1,0,0:0:0:0:
352,224,300033,1,8,0:0:0:0:
320,192,300183,1,0,0:0:0:0:
320,192,300333,1,8,0:0:0:0:
320,192,300408,1,0,0:0:0:0:
320,192,300483,1,0,0:0:0:0:
320,192,300633,1,8,0:0:0:0:
256,128,300783,5,0,0:0:0:0:
288,192,301083,1,8,0:0:0:0:
352,224,301383,1,0,0:0:0:0:
312,184,301608,1,8,0:0:0:0:
384,256,301683,1,0,0:0:0:0:
384,256,301833,1,8,0:0:0:0:
384,256,301983,1,0,0:0:0:0:
384,256,302133,1,8,0:0:0:0:
384,256,302208,1,8,0:0:0:0:
352,224,302283,1,0,0:0:0:0:
352,224,302358,1,8,0:0:0:0:
352,224,302433,1,8,0:0:0:0:
320,192,302583,1,0,0:0:0:0:
320,192,302733,1,8,0:0:0:0:
320,192,302808,1,8,0:0:0:0:
320,192,302883,1,0,0:0:0:0:
320,192,303033,1,8,0:0:0:0:
320,192,303183,1,0,0:0:0:0:
320,128,303483,1,8,0:0:0:0:
320,128,303783,1,0,0:0:0:0:
288,160,304008,1,0,0:0:0:0:
320,192,304083,1,8,0:0:0:0:
288,160,304233,1,8,0:0:0:0:
288,160,304383,1,0,0:0:0:0:
288,160,304458,1,8,0:0:0:0:
256,160,304608,1,8,0:0:0:0:
224,160,304683,1,0,0:0:0:0:
224,160,304758,1,0,0:0:0:0:
224,160,304833,1,8,0:0:0:0:
224,160,304983,1,0,0:0:0:0:
224,160,305133,1,8,0:0:0:0:
224,160,305208,1,8,0:0:0:0:
224,160,305283,1,0,0:0:0:0:
224,160,305433,1,8,0:0:0:0:
224,160,305583,1,0,0:0:0:0:
256,192,305808,1,8,0:0:0:0:
288,192,305883,1,0,0:0:0:0:
320,192,306033,1,8,0:0:0:0:
352,192,306183,1,0,0:0:0:0:
352,192,306258,1,0,0:0:0:0:
352,192,306333,1,8,0:0:0:0:
352,192,306483,1,0,0:0:0:0:
352,192,306633,1,8,0:0:0:0:
352,192,306708,1,8,0:0:0:0:
352,192,306783,1,0,0:0:0:0:
352,192,306933,1,8,0:0:0:0:
384,224,307083,1,0,0:0:0:0:
384,224,307158,1,0,0:0:0:0:
384,256,307233,1,8,0:0:0:0:
416,256,307383,1,8,0:0:0:0:
448,288,307533,1,8,0:0:0:0:
448,288,307608,1,0,0:0:0:0:
448,288,307683,1,8,0:0:0:0:
256,128,307983,5,12,0:0:0:0:
288,192,308283,1,0,0:0:0:0:
352,224,308583,1,8,0:0:0:0:
384,256,308808,1,0,0:0:0:0:
384,256,308883,1,8,0:0:0:0:
384,256,309033,1,0,0:0:0:0:
384,256,309183,1,8,0:0:0:0:
384,256,309333,1,0,0:0:0:0:
384,256,309408,1,0,0:0:0:0:
352,224,309483,1,8,0:0:0:0:
352,224,309558,1,8,0:0:0:0:
352,224,309633,1,0,0:0:0:0:
320,192,309783,1,8,0:0:0:0:
320,192,309933,1,0,0:0:0:0:
320,192,310008,1,0,0:0:0:0:
320,192,310083,1,8,0:0:0:0:
320,192,310233,1,0,0:0:0:0:
256,128,310383,5,12,0:0:0:0:
288,192,310683,1,0,0:0:0:0:
352,224,310983,1,8,0:0:0:0:
384,256,311208,1,0,0:0:0:0:
384,256,311283,1,8,0:0:0:0:
384,256,311433,1,0,0:0:0:0:
384,256,311583,1,8,0:0:0:0:
384,256,311733,1,0,0:0:0:0:
384,256,311808,1,8,0:0:0:0:
352,224,311958,1,0,0:0:0:0:
352,224,312033,1,8,0:0:0:0:
320,192,312183,1,0,0:0:0:0:
320,192,312333,1,8,0:0:0:0:
320,192,312408,1,8,0:0:0:0:
320,192,312483,1,0,0:0:0:0:
320,192,312558,1,0,0:0:0:0:
320,192,312633,1,8,0:0:0:0:
320,192,312708,1,0,0:0:0:0:
320,192,312783,1,8,0:0:0:0:
288,192,312933,1,0,0:0:0:0:
320,128,313083,1,8,0:0:0:0:
288,128,313233,1,0,0:0:0:0:
256,128,313383,1,8,0:0:0:0:
256,128,313533,1,0,0:0:0:0:
320,192,313683,1,8,0:0:0:0:
320,160,313833,1,0,0:0:0:0:
320,128,313908,1,0,0:0:0:0:
288,160,313983,1,8,0:0:0:0:
256,160,314133,1,0,0:0:0:0:
224,128,314283,1,8,0:0:0:0:
224,128,314433,1,0,0:0:0:0:
224,128,314583,1,8,0:0:0:0:
224,160,314733,1,8,0:0:0:0:
224,160,314808,1,0,0:0:0:0:
224,160,314883,1,8,0:0:0:0:
224,128,314958,1,8,0:0:0:0:
224,160,315033,1,8,0:0:0:0:
224,160,315108,1,8,0:0:0:0:
224,160,315183,1,0,0:0:0:0:
256,160,315333,1,0,0:0:0:0:
256,192,315408,1,8,0:0:0:0:
288,192,315483,1,0,0:0:0:0:
320,192,315633,1,8,0:0:0:0:
352,192,315783,1,0,0:0:0:0:
352,192,315858,1,0,0:0:0:0:
352,192,315933,1,8,0:0:0:0:
352,160,316008,1,0,0:0:0:0:
352,192,316083,1,8,0:0:0:0:
224,160,316158,1,8,0:0:0:0:
352,192,316233,1,0,0:0:0:0:
352,192,316308,1,0,0:0:0:0:
352,192,316383,1,8,0:0:0:0:
352,160,316458,1,8,0:0:0:0:
352,192,316533,1,0,0:0:0:0:
352,160,316608,1,0,0:0:0:0:
384,224,316683,1,8,0:0:0:0:
384,224,316758,1,0,0:0:0:0:
384,256,316833,1,0,0:0:0:0:
352,160,316908,1,0,0:0:0:0:
352,160,316983,1,8,0:0:0:0:
352,160,317058,1,8,0:0:0:0:
352,160,317133,1,0,0:0:0:0:
448,288,317208,1,0,0:0:0:0:
352,160,317283,1,8,0:0:0:0:
352,160,317358,1,8,0:0:0:0:
352,160,317433,1,8,0:0:0:0:
288,224,317583,1,4,0:0:0:0:
320,256,317883,1,0,0:0:0:0:
352,256,318033,1,8,0:0:0:0:
384,256,318183,1,0,0:0:0:0:
416,256,318483,1,0,0:0:0:0:
448,256,318633,1,8,0:0:0:0:
416,256,318783,1,0,0:0:0:0:
384,256,318933,1,8,0:0:0:0:
384,256,319083,1,0,0:0:0:0:
352,256,319233,1,0,0:0:0:0:
352,224,319308,1,0,0:0:0:0:
352,256,319383,1,8,0:0:0:0:
320,192,319608,1,0,0:0:0:0:
352,256,319683,1,8,0:0:0:0:
352,224,319983,1,0,0:0:0:0:
320,256,320283,1,0,0:0:0:0:
352,256,320433,1,8,0:0:0:0:
384,256,320583,1,0,0:0:0:0:
416,256,320883,1,0,0:0:0:0:
384,224,321033,1,0,0:0:0:0:
416,256,321183,1,8,0:0:0:0:
384,256,321483,1,8,0:0:0:0:
352,224,321708,1,0,0:0:0:0:
352,256,321783,1,8,0:0:0:0:
352,256,321858,1,0,0:0:0:0:
320,224,321933,1,8,0:0:0:0:
320,192,322008,1,8,0:0:0:0:
352,256,322083,1,0,0:0:0:0:
352,256,322158,1,0,0:0:0:0:
352,256,322233,1,8,0:0:0:0:
352,240,322308,1,0,0:0:0:0:
352,224,322383,1,0,0:0:0:0:
320,256,322683,1,0,0:0:0:0:
352,256,322833,1,8,0:0:0:0:
384,256,322983,1,0,0:0:0:0:
416,256,323283,1,0,0:0:0:0:
448,256,323433,1,8,0:0:0:0:
416,256,323583,1,0,0:0:0:0:
384,256,323733,1,8,0:0:0:0:
384,256,323883,1,0,0:0:0:0:
352,256,324033,1,8,0:0:0:0:
352,224,324108,1,0,0:0:0:0:
352,256,324183,1,8,0:0:0:0:
320,224,324333,1,0,0:0:0:0:
160,256,324408,1,0,0:0:0:0:
192,192,324483,1,8,0:0:0:0:
352,224,324783,1,0,0:0:0:0:
352,224,324858,1,8,0:0:0:0:
352,192,324933,1,8,0:0:0:0:
320,256,325083,1,0,0:0:0:0:
352,256,325233,1,0,0:0:0:0:
384,256,325383,1,8,0:0:0:0:
416,256,325533,1,8,0:0:0:0:
416,256,325608,1,0,0:0:0:0:
416,256,325683,1,8,0:0:0:0:
416,256,325758,1,8,0:0:0:0:
384,224,325833,1,0,0:0:0:0:
416,256,325983,1,12,0:0:0:0:
384,192,326283,1,0,0:0:0:0:
352,160,326433,1,0,0:0:0:0:
352,160,326583,1,0,0:0:0:0:
352,160,326883,1,8,0:0:0:0:
328,136,327033,1,8,0:0:0:0:
448,256,327183,1,4,0:0:0:0:
320,256,327483,1,0,0:0:0:0:
384,256,327783,1,0,0:0:0:0:
416,256,327933,1,8,0:0:0:0:
416,256,328083,1,0,0:0:0:0:
448,256,328233,1,8,0:0:0:0:
416,256,328383,1,0,0:0:0:0:
384,256,328683,1,0,0:0:0:0:
352,256,328833,1,0,0:0:0:0:
352,224,328908,1,0,0:0:0:0:
352,256,328983,1,8,0:0:0:0:
320,192,329208,1,0,0:0:0:0:
352,256,329283,1,8,0:0:0:0:
352,224,329583,1,0,0:0:0:0:
288,192,329883,1,0,0:0:0:0:
384,256,330183,1,0,0:0:0:0:
416,256,330333,1,8,0:0:0:0:
416,256,330483,1,0,0:0:0:0:
384,224,330633,1,0,0:0:0:0:
384,224,330708,1,0,0:0:0:0:
416,256,330783,1,8,0:0:0:0:
384,256,331083,1,8,0:0:0:0:
352,224,331308,1,0,0:0:0:0:
352,256,331383,1,8,0:0:0:0:
352,256,331458,1,0,0:0:0:0:
320,224,331533,1,8,0:0:0:0:
320,192,331608,1,8,0:0:0:0:
352,256,331683,1,0,0:0:0:0:
352,256,331758,1,0,0:0:0:0:
344,248,331833,1,8,0:0:0:0:
336,232,331908,1,0,0:0:0:0:
352,224,331983,1,0,0:0:0:0:
320,256,332283,1,0,0:0:0:0:
384,224,332508,1,0,0:0:0:0:
384,256,332583,1,8,0:0:0:0:
416,256,332733,1,8,0:0:0:0:
416,256,332883,1,0,0:0:0:0:
448,256,333033,1,0,0:0:0:0:
416,256,333183,1,8,0:0:0:0:
384,256,333258,1,8,0:0:0:0:
384,256,333333,1,0,0:0:0:0:
384,256,333483,1,0,0:0:0:0:
320,192,333558,1,0,0:0:0:0:
352,256,333633,1,8,0:0:0:0:
352,256,333783,1,8,0:0:0:0:
352,256,333933,1,0,0:0:0:0:
320,192,334008,1,0,0:0:0:0:
320,192,334083,1,8,0:0:0:0:
352,256,334233,1,8,0:0:0:0:
352,256,334308,1,8,0:0:0:0:
352,224,334383,1,0,0:0:0:0:
352,192,334458,1,0,0:0:0:0:
352,192,334533,1,8,0:0:0:0:
320,256,334683,1,8,0:0:0:0:
352,192,334833,1,0,0:0:0:0:
384,256,334983,1,0,0:0:0:0:
384,256,335058,1,0,0:0:0:0:
416,256,335133,1,8,0:0:0:0:
416,256,335208,1,0,0:0:0:0:
416,256,335283,1,8,0:0:0:0:
416,256,335358,1,8,0:0:0:0:
384,224,335433,1,0,0:0:0:0:
416,256,335583,1,12,0:0:0:0:
416,256,335733,1,0,0:0:0:0:
384,256,335808,1,0,0:0:0:0:
384,256,335883,1,8,0:0:0:0:
384,256,335958,1,8,0:0:0:0:
352,256,336033,1,0,0:0:0:0:
352,224,336108,1,0,0:0:0:0:
352,256,336183,1,8,0:0:0:0:
352,256,336258,1,0,0:0:0:0:
320,224,336333,1,8,0:0:0:0:
320,192,336408,1,8,0:0:0:0:
352,256,336483,1,0,0:0:0:0:
352,256,336558,1,8,0:0:0:0:
352,256,336633,1,8,0:0:0:0:
352,256,336783,1,4,0:0:0:0:
256,192,336933,12,0,342783,0:0:0:0:
