osu file format v14

[General]
AudioFilename: Paradission.mp3
AudioLeadIn: 0
PreviewTime: 71675
Countdown: 0
SampleSet: Normal
StackLeniency: 0.7
Mode: 1
LetterboxInBreaks: 0
WidescreenStoryboard: 0

[Editor]
DistanceSpacing: 1.2
BeatDivisor: 2
GridSize: 32
TimelineZoom: 1.1

[Metadata]
Title:Paradission
TitleUnicode:Paradission
Artist:BlackY
ArtistUnicode:BlackY
Creator:kei821
Version:Futsuu
Source:MÚSECA
Tags:MUSECA SDVX butter0414 SOUND VOLTEX Ⅲ GRAVITY WARS セツコン Setsucom
BeatmapID:1198946
BeatmapSetID:565959

[Difficulty]
HPDrainRate:6
CircleSize:2
OverallDifficulty:4
ApproachRate:5
SliderMultiplier:1.4
SliderTickRate:1

[Events]
//Background and Video events
0,0,"BG.jpg",0,30
//Break Periods
//Storyboard Layer 0 (Background)
//Storyboard Layer 1 (Fail)
//Storyboard Layer 2 (Pass)
//Storyboard Layer 3 (Foreground)
//Storyboard Sound Samples

[TimingPoints]
1643,389.61038961039,4,1,0,80,1,0
14013,-100,4,1,0,95,0,0
14110,-100,4,1,0,95,0,1
26480,-100,4,1,0,80,0,1
26578,-100,4,1,0,80,0,0
71675,-100,4,1,0,95,0,0
71772,-100,4,1,0,95,0,1
96610,-100,4,1,0,80,0,1
96707,-100,4,1,0,80,0,0
99727,-100,4,1,0,95,0,0
99824,-100,4,1,0,95,0,1
112194,-100,4,1,0,80,0,1
112292,-100,4,1,0,80,0,0

[HitObjects]
256,192,1643,5,4,0:0:0:0:
256,192,2422,1,0,0:0:0:0:
256,192,3201,1,0,0:0:0:0:
256,192,3980,1,2,0:0:0:0:
256,192,4759,1,0,0:0:0:0:
256,192,5539,1,0,0:0:0:0:
256,192,6318,1,0,0:0:0:0:
256,192,7097,1,2,0:0:0:0:
256,192,7487,1,2,0:0:0:0:
256,192,7876,1,4,0:0:0:0:
256,192,8655,1,4,0:0:0:0:
256,192,9435,1,6,0:0:0:0:
256,192,10214,1,6,0:0:0:0:
256,192,10993,2,4,L|320:192,12,35
256,192,12552,1,0,0:0:0:0:
256,192,13331,1,0,0:0:0:0:
256,192,13526,1,0,0:0:0:0:
256,192,13720,1,2,0:0:0:0:
256,192,14110,1,4,0:0:0:0:
256,192,14500,1,0,0:0:0:0:
256,192,14694,1,2,0:0:0:0:
256,192,14889,1,0,0:0:0:0:
256,192,15279,1,0,0:0:0:0:
256,192,15668,1,2,0:0:0:0:
256,192,16058,1,2,0:0:0:0:
256,192,16253,1,0,0:0:0:0:
256,192,16448,1,0,0:0:0:0:
256,192,16837,1,2,0:0:0:0:
256,192,17227,1,0,0:0:0:0:
256,192,17617,1,0,0:0:0:0:
256,192,17811,1,2,0:0:0:0:
256,192,18006,1,2,0:0:0:0:
256,192,18396,1,2,0:0:0:0:
256,192,18785,1,0,0:0:0:0:
256,192,19175,1,2,0:0:0:0:
256,192,19370,1,0,0:0:0:0:
256,192,19565,1,2,0:0:0:0:
256,192,20344,1,0,0:0:0:0:
256,192,20733,1,0,0:0:0:0:
256,192,20928,1,2,0:0:0:0:
256,192,21123,1,0,0:0:0:0:
256,192,21513,1,0,0:0:0:0:
256,192,21902,1,2,0:0:0:0:
256,192,22292,1,2,0:0:0:0:
256,192,22487,1,2,0:0:0:0:
256,192,22681,1,0,0:0:0:0:
256,192,23461,1,0,0:0:0:0:
256,192,23850,1,0,0:0:0:0:
256,192,24045,1,2,0:0:0:0:
256,192,24240,1,0,0:0:0:0:
256,192,24630,1,0,0:0:0:0:
256,192,25019,1,2,0:0:0:0:
256,192,25604,1,2,0:0:0:0:
256,192,26188,1,2,0:0:0:0:
256,192,26578,1,4,0:0:0:0:
256,192,28136,1,2,0:0:0:0:
256,192,28915,1,2,0:0:0:0:
256,192,29694,1,2,0:0:0:0:
256,192,30084,1,0,0:0:0:0:
256,192,30474,1,2,0:0:0:0:
256,192,30863,1,2,0:0:0:0:
256,192,31253,1,4,0:0:0:0:
256,192,32032,1,2,0:0:0:0:
256,192,32811,1,4,0:0:0:0:
256,192,33591,1,0,0:0:0:0:
256,192,33980,1,2,0:0:0:0:
256,192,34370,1,0,0:0:0:0:
256,192,34759,1,0,0:0:0:0:
256,192,34954,1,0,0:0:0:0:
256,192,35149,1,0,0:0:0:0:
256,192,35539,1,2,0:0:0:0:
256,192,35928,1,0,0:0:0:0:
256,192,36707,1,0,0:0:0:0:
256,192,37097,5,2,0:0:0:0:
256,192,37292,1,2,0:0:0:0:
256,192,37487,1,0,0:0:0:0:
256,192,37876,1,2,0:0:0:0:
256,192,38266,1,0,0:0:0:0:
256,192,38461,1,0,0:0:0:0:
256,192,38655,1,2,0:0:0:0:
256,192,39045,1,0,0:0:0:0:
256,192,39824,1,0,0:0:0:0:
256,192,40214,1,2,0:0:0:0:
256,192,40604,1,0,0:0:0:0:
256,192,40993,1,0,0:0:0:0:
256,192,41188,1,0,0:0:0:0:
256,192,41383,1,0,0:0:0:0:
256,192,41772,1,2,0:0:0:0:
256,192,42162,1,0,0:0:0:0:
256,192,43720,1,0,0:0:0:0:
256,192,44110,1,0,0:0:0:0:
256,192,44305,1,0,0:0:0:0:
256,192,44500,1,0,0:0:0:0:
256,192,45279,5,0,0:0:0:0:
256,192,45668,1,0,0:0:0:0:
256,192,46058,1,2,0:0:0:0:
256,192,46643,1,2,0:0:0:0:
256,192,47227,1,0,0:0:0:0:
256,192,47617,1,2,0:0:0:0:
256,192,48006,1,0,0:0:0:0:
256,192,48201,1,0,0:0:0:0:
256,192,48396,1,0,0:0:0:0:
256,192,48785,1,0,0:0:0:0:
256,192,49175,1,2,0:0:0:0:
256,192,49759,1,0,0:0:0:0:
256,192,50149,1,0,0:0:0:0:
256,192,50539,1,0,0:0:0:0:
256,192,50733,1,2,0:0:0:0:
256,192,51123,1,2,0:0:0:0:
256,192,51513,1,4,0:0:0:0:
256,192,52097,1,4,0:0:0:0:
256,192,52681,1,4,0:0:0:0:
256,192,53266,1,6,0:0:0:0:
256,192,53850,1,6,0:0:0:0:
256,192,54435,1,4,0:0:0:0:
256,192,54630,12,0,56188,0:0:0:0:
256,192,56383,5,2,0:0:0:0:
256,192,56578,1,2,0:0:0:0:
256,192,56967,1,2,0:0:0:0:
256,192,57162,1,2,0:0:0:0:
256,192,57357,1,0,0:0:0:0:
256,192,57746,1,4,0:0:0:0:
256,192,59305,1,2,0:0:0:0:
256,192,60084,1,2,0:0:0:0:
256,192,60863,1,2,0:0:0:0:
256,192,62422,1,2,0:0:0:0:
256,192,63785,1,0,0:0:0:0:
256,192,63980,1,4,0:0:0:0:
256,192,64759,1,2,0:0:0:0:
256,192,65539,1,2,0:0:0:0:
256,192,65733,1,2,0:0:0:0:
256,192,65928,1,2,0:0:0:0:
256,192,66318,1,2,0:0:0:0:
256,192,67097,1,2,0:0:0:0:
256,192,67876,1,0,0:0:0:0:
256,192,68655,1,0,0:0:0:0:
256,192,69435,1,2,0:0:0:0:
256,192,70214,1,0,0:0:0:0:
256,192,70993,1,4,0:0:0:0:
256,192,71383,1,6,0:0:0:0:
256,192,71772,1,0,0:0:0:0:
256,192,72162,1,2,0:0:0:0:
256,192,72552,1,0,0:0:0:0:
256,192,72746,1,0,0:0:0:0:
256,192,72941,1,2,0:0:0:0:
256,192,73331,1,0,0:0:0:0:
256,192,73720,1,2,0:0:0:0:
256,192,74110,1,2,0:0:0:0:
256,192,74305,1,2,0:0:0:0:
256,192,74500,1,0,0:0:0:0:
256,192,74889,1,2,0:0:0:0:
256,192,75279,1,0,0:0:0:0:
256,192,75668,1,2,0:0:0:0:
256,192,75863,1,0,0:0:0:0:
256,192,76058,1,2,0:0:0:0:
256,192,76448,1,0,0:0:0:0:
256,192,76837,1,0,0:0:0:0:
256,192,77032,1,0,0:0:0:0:
256,192,77227,1,2,0:0:0:0:
256,192,78006,1,4,0:0:0:0:
256,192,78396,1,2,0:0:0:0:
256,192,78785,1,0,0:0:0:0:
256,192,78980,1,2,0:0:0:0:
256,192,79175,1,0,0:0:0:0:
256,192,79565,1,2,0:0:0:0:
256,192,79954,1,0,0:0:0:0:
256,192,80344,1,2,0:0:0:0:
256,192,80539,1,0,0:0:0:0:
256,192,80733,1,0,0:0:0:0:
256,192,81123,1,0,0:0:0:0:
256,192,81513,1,2,0:0:0:0:
256,192,81902,1,0,0:0:0:0:
256,192,82097,1,0,0:0:0:0:
256,192,82292,1,2,0:0:0:0:
256,192,82681,1,2,0:0:0:0:
256,192,83071,5,0,0:0:0:0:
256,192,83266,1,0,0:0:0:0:
256,192,83461,1,2,0:0:0:0:
256,192,84240,1,4,0:0:0:0:
256,192,84630,1,0,0:0:0:0:
256,192,84824,1,0,0:0:0:0:
256,192,85019,1,2,0:0:0:0:
256,192,85409,1,0,0:0:0:0:
256,192,85604,1,2,0:0:0:0:
256,192,85798,1,2,0:0:0:0:
256,192,86188,1,2,0:0:0:0:
256,192,86383,1,0,0:0:0:0:
256,192,86578,1,2,0:0:0:0:
256,192,87357,1,2,0:0:0:0:
256,192,87746,1,0,0:0:0:0:
256,192,87941,1,0,0:0:0:0:
256,192,88136,1,2,0:0:0:0:
256,192,88526,1,2,0:0:0:0:
256,192,88915,1,4,0:0:0:0:
256,192,89305,1,6,0:0:0:0:
256,192,89694,1,4,0:0:0:0:
256,192,90474,1,0,0:0:0:0:
256,192,91058,1,2,0:0:0:0:
256,192,91253,1,0,0:0:0:0:
256,192,91643,1,2,0:0:0:0:
256,192,92032,1,0,0:0:0:0:
256,192,92227,1,0,0:0:0:0:
256,192,92422,1,0,0:0:0:0:
256,192,92811,1,0,0:0:0:0:
256,192,93201,1,0,0:0:0:0:
256,192,93396,1,2,0:0:0:0:
256,192,93591,1,0,0:0:0:0:
256,192,94370,1,0,0:0:0:0:
256,192,94759,1,2,0:0:0:0:
256,192,94954,1,2,0:0:0:0:
256,192,95149,1,0,0:0:0:0:
256,192,95928,1,2,0:0:0:0:
256,192,96707,1,0,0:0:0:0:
256,192,97292,1,2,0:0:0:0:
256,192,97487,1,2,0:0:0:0:
256,192,98266,1,2,0:0:0:0:
256,192,99045,1,2,0:0:0:0:
256,192,99824,1,4,0:0:0:0:
256,192,100214,1,0,0:0:0:0:
256,192,100408,1,2,0:0:0:0:
256,192,100603,1,0,0:0:0:0:
256,192,100993,1,0,0:0:0:0:
256,192,101382,1,2,0:0:0:0:
256,192,101772,1,2,0:0:0:0:
256,192,101967,1,0,0:0:0:0:
256,192,102162,1,0,0:0:0:0:
256,192,102551,1,2,0:0:0:0:
256,192,102941,1,0,0:0:0:0:
256,192,103331,1,0,0:0:0:0:
256,192,103525,1,2,0:0:0:0:
256,192,103720,1,2,0:0:0:0:
256,192,104110,1,2,0:0:0:0:
256,192,104499,1,0,0:0:0:0:
256,192,104889,1,2,0:0:0:0:
256,192,105084,1,0,0:0:0:0:
256,192,105279,1,2,0:0:0:0:
256,192,106058,1,0,0:0:0:0:
256,192,106447,1,0,0:0:0:0:
256,192,106642,1,2,0:0:0:0:
256,192,106837,1,0,0:0:0:0:
256,192,107227,1,0,0:0:0:0:
256,192,107616,1,2,0:0:0:0:
256,192,108006,1,2,0:0:0:0:
256,192,108201,1,2,0:0:0:0:
256,192,108395,1,0,0:0:0:0:
256,192,109175,1,0,0:0:0:0:
256,192,109564,5,0,0:0:0:0:
256,192,109759,1,2,0:0:0:0:
256,192,109954,1,0,0:0:0:0:
256,192,110344,1,0,0:0:0:0:
256,192,110733,5,0,0:0:0:0:
256,192,111318,5,2,0:0:0:0:
256,192,111902,1,2,0:0:0:0:
256,192,112292,5,0,0:0:0:0:
256,192,112681,1,2,0:0:0:0:
256,192,113071,1,0,0:0:0:0:
256,192,113461,1,0,0:0:0:0:
256,192,113655,1,6,0:0:0:0:
