osu file format v14

[General]
AudioFilename: audio.mp3
AudioLeadIn: 0
PreviewTime: 55028
Countdown: 0
SampleSet: Soft
StackLeniency: 0.7
Mode: 3
LetterboxInBreaks: 0
SpecialStyle: 0
WidescreenStoryboard: 1

[Editor]
DistanceSpacing: 1.2
BeatDivisor: 4
GridSize: 4
TimelineZoom: 1.9

[Metadata]
Title:Mirrorwall
TitleUnicode:Mirrorwall
Artist:BlackY
ArtistUnicode:BlackY
Creator:-Ziel-
Version:NOVICE
Source:SOUND VOLTEX IV HEAVENLY HAVEN
Tags:lenpai lenfried- Ω omega dimension unlock konami bemani rhythm video game electronic
BeatmapID:2147314
BeatmapSetID:1026824

[Difficulty]
HPDrainRate:7.5
CircleSize:4
OverallDifficulty:7
ApproachRate:5
SliderMultiplier:1.4
SliderTickRate:1

[Events]
//Background and Video events
0,0,"novice.png",0,0
//Break Periods
//Storyboard Layer 0 (Background)
//Storyboard Layer 1 (Fail)
//Storyboard Layer 2 (Pass)
//Storyboard Layer 3 (Foreground)
//Storyboard Layer 4 (Overlay)
//Storyboard Sound Samples

[TimingPoints]
3362,416.666666666667,4,2,1,70,1,0
16799,-100,4,2,1,60,0,0
28466,-100,4,2,1,50,0,0
30028,-100,4,2,1,70,0,0
55028,-100,4,2,1,40,0,0
56695,-100,4,2,1,70,0,1
70028,-100,4,2,1,70,0,0
83466,-100,4,2,1,50,0,0
90028,-100,4,2,1,60,0,0
93362,-100,4,2,1,70,0,0
96799,-100,4,2,1,50,0,0
98362,-100,4,2,1,70,0,1
111695,-100,4,2,1,70,0,0
112112,-100,4,2,1,70,0,1
125028,-100,4,2,1,70,0,0

[HitObjects]
448,192,1903,5,0,0:0:0:0:
320,192,2111,1,0,0:0:0:0:
192,192,2320,1,0,0:0:0:0:
64,192,2528,1,0,0:0:0:0:
192,192,2737,1,0,0:0:0:0:
320,192,2945,1,2,0:0:0:0:
448,192,3153,1,2,0:0:0:0:
64,192,3362,1,4,0:0:0:0:
192,192,3362,1,2,0:0:0:0:
320,192,3570,128,0,3778:0:0:0:0:
64,192,3778,1,2,0:0:0:0:
448,192,3778,1,0,0:0:0:0:
192,192,3987,128,0,4195:0:0:0:0:
320,192,4195,1,2,0:0:0:0:
448,192,4195,1,0,0:0:0:0:
192,192,4403,128,0,4612:0:0:0:0:
64,192,4612,1,2,0:0:0:0:
448,192,4612,1,0,0:0:0:0:
320,192,4820,128,0,5028:0:0:0:0:
64,192,5028,1,2,0:0:0:0:
192,192,5028,1,0,0:0:0:0:
448,192,5237,128,0,5445:0:0:0:0:
192,192,5445,1,2,0:0:0:0:
320,192,5445,1,0,0:0:0:0:
64,192,5653,128,0,5862:0:0:0:0:
320,192,5862,1,2,0:0:0:0:
448,192,5862,1,0,0:0:0:0:
64,192,6070,128,0,6278:0:0:0:0:
192,192,6278,1,2,0:0:0:0:
320,192,6278,1,0,0:0:0:0:
448,192,6487,128,0,6695:0:0:0:0:
64,192,6695,1,2,0:0:0:0:
192,192,6695,1,0,0:0:0:0:
320,192,6903,1,0,0:0:0:0:
64,192,7112,1,2,0:0:0:0:
448,192,7112,1,0,0:0:0:0:
192,192,7320,1,0,0:0:0:0:
320,192,7528,1,2,0:0:0:0:
448,192,7528,1,0,0:0:0:0:
192,192,7737,1,0,0:0:0:0:
64,192,7945,1,2,0:0:0:0:
448,192,7945,1,0,0:0:0:0:
320,192,8153,1,0,0:0:0:0:
64,192,8362,1,2,0:0:0:0:
192,192,8362,1,0,0:0:0:0:
448,192,8570,1,0,0:0:0:0:
192,192,8778,1,2,0:0:0:0:
320,192,8778,1,0,0:0:0:0:
64,192,8987,1,0,0:0:0:0:
320,192,9195,1,2,0:0:0:0:
448,192,9195,1,0,0:0:0:0:
64,192,9403,1,0,0:0:0:0:
192,192,9612,1,2,0:0:0:0:
320,192,9612,1,0,0:0:0:0:
320,192,9820,1,2,0:0:0:0:
448,192,9820,1,0,0:0:0:0:
64,192,10028,1,2,0:0:0:0:
192,192,10028,1,4,0:0:0:0:
320,192,10237,128,0,10445:0:0:0:0:
64,192,10445,1,2,0:0:0:0:
448,192,10445,1,0,0:0:0:0:
192,192,10653,128,0,10862:0:0:0:0:
320,192,10862,1,2,0:0:0:0:
448,192,10862,1,0,0:0:0:0:
192,192,11070,128,0,11278:0:0:0:0:
64,192,11278,1,2,0:0:0:0:
448,192,11278,1,0,0:0:0:0:
320,192,11487,128,0,11695:0:0:0:0:
64,192,11695,1,4,0:0:0:0:
192,192,11695,1,2,0:0:0:0:
448,192,11903,128,0,12112:0:0:0:0:
192,192,12112,1,2,0:0:0:0:
320,192,12112,1,0,0:0:0:0:
64,192,12320,128,0,12528:0:0:0:0:
320,192,12528,1,2,0:0:0:0:
448,192,12528,1,0,0:0:0:0:
192,192,12841,1,2,0:0:0:0:
320,192,12841,1,0,0:0:0:0:
64,192,13153,1,2,0:0:0:0:
192,192,13153,1,0,0:0:0:0:
320,192,13362,1,2,0:0:0:0:
448,192,13362,1,4,0:0:0:0:
192,192,13570,1,2,0:0:0:0:
320,192,13570,1,0,0:0:0:0:
64,192,13778,1,2,0:0:0:0:
192,192,13778,1,0,0:0:0:0:
320,192,13987,1,0,0:0:0:0:
64,192,14195,1,2,0:0:0:0:
448,192,14195,1,4,0:0:0:0:
192,192,14507,1,2,0:0:0:0:
320,192,14507,1,0,0:0:0:0:
64,192,14820,1,2,0:0:0:0:
320,192,14820,1,0,0:0:0:0:
192,192,15028,1,2,0:0:0:0:
448,192,15028,128,4,16695:0:0:0:0:
64,192,15341,1,0,0:0:0:0:
320,192,15653,1,0,0:0:0:0:
192,192,15862,1,0,0:0:0:0:
64,192,16348,128,0,16695:0:0:0:0:
192,192,16695,1,8,0:0:0:0:
320,192,16695,1,4,0:0:0:0:
320,192,17007,1,0,0:0:0:0:
64,192,17112,1,8,0:0:0:0:
320,192,17320,1,0,0:0:0:0:
192,192,17528,1,8,0:0:0:0:
192,192,17841,1,0,0:0:0:0:
448,192,17945,1,8,0:0:0:0:
192,192,18153,1,0,0:0:0:0:
448,192,18362,1,8,0:0:0:0:
448,192,18674,1,0,0:0:0:0:
192,192,18778,1,8,0:0:0:0:
448,192,18987,1,0,0:0:0:0:
64,192,19195,1,8,0:0:0:0:
64,192,19507,1,0,0:0:0:0:
320,192,19612,1,8,0:0:0:0:
64,192,19820,1,0,0:0:0:0:
320,192,20028,1,8,0:0:0:0:
320,192,20341,1,0,0:0:0:0:
64,192,20445,1,8,0:0:0:0:
320,192,20653,1,0,0:0:0:0:
192,192,20862,1,8,0:0:0:0:
192,192,21174,1,0,0:0:0:0:
448,192,21278,1,8,0:0:0:0:
192,192,21487,1,0,0:0:0:0:
448,192,21695,1,12,0:0:0:0:
448,192,22007,1,0,0:0:0:0:
192,192,22112,1,8,0:0:0:0:
448,192,22320,1,0,0:0:0:0:
64,192,22528,1,12,0:0:0:0:
192,192,22528,1,2,0:0:0:0:
64,192,22841,1,4,0:0:0:0:
320,192,22841,1,2,0:0:0:0:
64,192,23153,1,4,0:0:0:0:
448,192,23153,1,2,0:0:0:0:
320,192,23362,1,12,0:0:0:0:
448,192,23362,1,2,0:0:0:0:
192,192,23570,1,0,0:0:0:0:
320,192,23674,1,0,0:0:0:0:
448,192,23778,1,10,0:0:0:0:
320,192,23987,1,0,0:0:0:0:
192,192,24091,1,0,0:0:0:0:
64,192,24195,1,10,0:0:0:0:
192,192,24403,1,0,0:0:0:0:
320,192,24507,1,0,0:0:0:0:
448,192,24612,1,10,0:0:0:0:
64,192,24820,1,0,0:0:0:0:
448,192,24924,1,0,0:0:0:0:
64,192,25028,1,14,0:0:0:0:
320,192,25237,1,0,0:0:0:0:
192,192,25341,1,0,0:0:0:0:
64,192,25445,1,10,0:0:0:0:
192,192,25653,1,0,0:0:0:0:
320,192,25757,1,0,0:0:0:0:
448,192,25862,1,10,0:0:0:0:
320,192,26070,1,0,0:0:0:0:
192,192,26174,1,0,0:0:0:0:
64,192,26278,1,10,0:0:0:0:
448,192,26487,1,0,0:0:0:0:
64,192,26591,1,0,0:0:0:0:
320,192,26695,1,12,0:0:0:0:
448,192,26695,1,2,0:0:0:0:
64,192,26903,1,2,0:0:0:0:
192,192,27112,1,12,0:0:0:0:
320,192,27112,1,2,0:0:0:0:
448,192,27320,1,2,0:0:0:0:
64,192,27528,1,12,0:0:0:0:
192,192,27528,1,2,0:0:0:0:
320,192,27841,1,2,0:0:0:0:
448,192,27841,1,0,0:0:0:0:
64,192,28153,1,2,0:0:0:0:
192,192,28153,1,0,0:0:0:0:
320,192,28362,1,4,0:0:0:0:
448,192,28362,128,2,29195:0:0:0:0:
64,192,29195,128,0,30028:0:0:0:0:
192,192,29612,128,0,30028:0:0:0:70:LR3_Snare DSW.wav
320,192,30028,1,4,0:0:0:0:
448,192,30028,128,2,30445:0:0:0:0:
64,192,30445,128,2,30757:0:0:0:0:
192,192,30757,128,2,31070:0:0:0:0:
320,192,31070,128,2,31278:0:0:0:0:
448,192,31278,128,2,31695:0:0:0:0:
64,192,31695,128,2,32112:0:0:0:0:
448,192,32112,128,2,32424:0:0:0:0:
320,192,32424,128,2,32737:0:0:0:0:
192,192,32737,128,2,32945:0:0:0:0:
64,192,32945,128,0,33153:0:0:0:0:
448,192,33153,128,0,33362:0:0:0:0:
320,192,33362,128,2,33778:0:0:0:0:
64,192,33778,128,2,34091:0:0:0:0:
192,192,34091,128,2,34403:0:0:0:0:
320,192,34403,128,2,34612:0:0:0:0:
448,192,34612,128,2,35028:0:0:0:0:
192,192,35028,128,2,35341:0:0:0:0:
320,192,35341,128,2,35653:0:0:0:0:
448,192,35653,128,2,35862:0:0:0:0:
64,192,35862,128,0,36278:0:0:0:70:LR4_SnareBPDT.wav
192,192,35862,1,0,0:0:0:0:
320,192,36070,1,0,0:0:0:0:
448,192,36278,128,0,36695:0:0:0:0:
320,192,36487,1,0,0:0:0:0:
64,192,36695,128,4,37112:0:0:0:0:
192,192,36695,1,2,0:0:0:0:
448,192,37112,128,2,37424:0:0:0:0:
320,192,37424,128,2,37737:0:0:0:0:
192,192,37737,128,2,37945:0:0:0:0:
64,192,37945,128,2,38362:0:0:0:0:
448,192,38362,128,2,38778:0:0:0:0:
64,192,38778,128,2,39091:0:0:0:0:
192,192,39091,128,2,39299:0:0:0:0:
320,192,39299,1,2,0:0:0:0:
448,192,39403,128,2,39612:0:0:0:0:
192,192,39612,128,2,39820:0:0:0:0:
320,192,39820,128,2,40028:0:0:0:0:
448,192,40028,128,2,40445:0:0:0:0:
320,192,40445,128,2,40757:0:0:0:0:
192,192,40757,128,2,41070:0:0:0:0:
64,192,41070,128,2,41278:0:0:0:0:
320,192,41278,128,0,41695:0:0:0:70:LR4_SnareBPDT.wav
192,192,41487,1,0,0:0:0:0:
64,192,41695,1,2,0:0:0:0:
448,192,41695,128,0,42528:0:0:0:0:
192,192,42112,1,0,0:0:0:0:
64,192,42528,128,0,43362:0:0:0:0:
320,192,42841,1,0,0:0:0:0:
192,192,43153,1,0,0:0:0:0:
320,192,43362,1,12,0:0:0:0:
448,192,43362,1,2,0:0:0:0:
64,192,43778,1,8,0:0:0:0:
448,192,43778,1,2,0:0:0:0:
448,192,44091,1,2,0:0:0:0:
192,192,44195,1,8,0:0:0:0:
448,192,44403,1,2,0:0:0:0:
64,192,44612,1,8,0:0:0:0:
192,192,44612,1,2,0:0:0:0:
320,192,45028,1,8,0:0:0:0:
448,192,45028,1,2,0:0:0:0:
64,192,45445,1,8,0:0:0:0:
448,192,45445,1,2,0:0:0:0:
64,192,45757,1,2,0:0:0:0:
320,192,45862,1,8,0:0:0:0:
64,192,46070,1,2,0:0:0:0:
192,192,46278,128,8,46487:0:0:0:0:
448,192,46278,1,0,0:0:0:0:
320,192,46487,128,0,46695:0:0:0:0:
64,192,46695,1,8,0:0:0:0:
192,192,46695,1,2,0:0:0:0:
64,192,47112,1,8,0:0:0:0:
448,192,47112,1,2,0:0:0:0:
448,192,47424,1,2,0:0:0:0:
192,192,47528,1,8,0:0:0:0:
448,192,47737,1,2,0:0:0:0:
64,192,47945,1,8,0:0:0:0:
192,192,47945,1,2,0:0:0:0:
64,192,48362,1,8,0:0:0:0:
448,192,48362,1,2,0:0:0:0:
64,192,48674,1,2,0:0:0:0:
320,192,48778,1,8,0:0:0:0:
64,192,48987,1,2,0:0:0:0:
320,192,49195,1,0,0:0:0:70:LR4_SnareBPDT.wav
448,192,49195,128,0,49612:0:0:0:0:
192,192,49403,1,0,0:0:0:0:
64,192,49612,128,0,50028:0:0:0:0:
192,192,49820,1,0,0:0:0:0:
320,192,50028,1,8,0:0:0:0:
448,192,50028,1,2,0:0:0:0:
448,192,50237,1,0,0:0:0:0:
64,192,50445,1,8,0:0:0:0:
192,192,50445,1,2,0:0:0:0:
64,192,50653,1,0,0:0:0:0:
320,192,50862,1,8,0:0:0:0:
448,192,50862,1,0,0:0:0:0:
448,192,51070,1,2,0:0:0:0:
64,192,51278,1,8,0:0:0:0:
192,192,51278,1,2,0:0:0:0:
64,192,51487,1,0,0:0:0:0:
320,192,51695,1,8,0:0:0:0:
448,192,51695,1,2,0:0:0:0:
320,192,51903,1,0,0:0:0:0:
64,192,52112,1,8,0:0:0:0:
192,192,52112,1,2,0:0:0:0:
192,192,52320,1,0,0:0:0:0:
320,192,52528,1,8,0:0:0:0:
448,192,52528,1,0,0:0:0:0:
320,192,52737,1,2,0:0:0:0:
64,192,52945,1,8,0:0:0:0:
192,192,52945,1,2,0:0:0:0:
192,192,53153,1,2,0:0:0:0:
320,192,53362,1,10,0:0:0:0:
448,192,53362,1,4,0:0:0:0:
448,192,53570,1,2,0:0:0:0:
64,192,53778,1,8,0:0:0:0:
192,192,53778,1,2,0:0:0:0:
64,192,53987,1,2,0:0:0:0:
320,192,54091,1,2,0:0:0:0:
192,192,54299,1,2,0:0:0:0:
448,192,54403,1,2,0:0:0:0:
64,192,54612,1,8,0:0:0:0:
192,192,54612,1,2,0:0:0:0:
64,192,54820,1,2,0:0:0:0:
320,192,55028,1,2,0:0:0:0:
448,192,55028,1,4,0:0:0:0:
192,192,55237,1,0,0:0:0:0:
64,192,55549,1,0,0:0:0:0:
448,192,55757,1,0,0:0:0:0:
320,192,55966,1,0,0:0:0:0:
192,192,56174,1,0,0:0:0:0:
64,192,56278,1,0,0:0:0:70:LR3_Snare DSW.wav
448,192,56278,128,0,56695:0:0:0:0:
64,192,56695,1,4,0:0:0:0:
192,192,56695,1,2,0:0:0:0:
320,192,56903,1,0,0:0:0:0:
192,192,57007,1,0,0:0:0:0:
64,192,57112,1,2,0:0:0:0:
192,192,57320,1,0,0:0:0:0:
320,192,57424,1,0,0:0:0:0:
448,192,57528,1,2,0:0:0:0:
64,192,57737,1,0,0:0:0:0:
192,192,57841,1,0,0:0:0:0:
320,192,57945,1,2,0:0:0:0:
448,192,58153,1,0,0:0:0:0:
320,192,58257,1,0,0:0:0:0:
192,192,58362,1,2,0:0:0:0:
320,192,58570,1,0,0:0:0:0:
192,192,58674,1,0,0:0:0:0:
64,192,58778,1,2,0:0:0:0:
192,192,58987,1,0,0:0:0:0:
320,192,59091,1,0,0:0:0:0:
448,192,59195,1,2,0:0:0:0:
64,192,59403,1,0,0:0:0:0:
192,192,59507,1,0,0:0:0:0:
320,192,59612,1,2,0:0:0:0:
448,192,59820,1,0,0:0:0:0:
320,192,59924,1,0,0:0:0:0:
192,192,60028,1,2,0:0:0:0:
64,192,60237,1,0,0:0:0:0:
320,192,60341,1,0,0:0:0:0:
192,192,60445,1,2,0:0:0:0:
448,192,60653,1,0,0:0:0:0:
192,192,60757,1,0,0:0:0:0:
320,192,60862,1,2,0:0:0:0:
192,192,61070,1,0,0:0:0:0:
320,192,61174,1,0,0:0:0:0:
64,192,61278,1,2,0:0:0:0:
320,192,61487,1,0,0:0:0:0:
192,192,61591,1,0,0:0:0:0:
448,192,61695,1,2,0:0:0:0:
64,192,61903,1,0,0:0:0:0:
320,192,62007,1,0,0:0:0:0:
192,192,62112,1,2,0:0:0:0:
448,192,62320,1,0,0:0:0:0:
192,192,62424,1,0,0:0:0:0:
320,192,62528,1,2,0:0:0:0:
192,192,62737,1,0,0:0:0:0:
320,192,62841,1,0,0:0:0:0:
64,192,62945,1,2,0:0:0:0:
320,192,63153,1,2,0:0:0:0:
192,192,63257,1,0,0:0:0:0:
448,192,63362,1,2,0:0:0:0:
64,192,63570,1,0,0:0:0:0:
192,192,63674,1,0,0:0:0:0:
320,192,63778,1,2,0:0:0:0:
64,192,63987,1,0,0:0:0:0:
192,192,64091,1,0,0:0:0:0:
320,192,64195,1,2,0:0:0:0:
448,192,64403,1,0,0:0:0:0:
320,192,64507,1,0,0:0:0:0:
192,192,64612,1,2,0:0:0:0:
448,192,64820,1,0,0:0:0:0:
320,192,64924,1,0,0:0:0:0:
192,192,65028,1,2,0:0:0:0:
64,192,65237,1,0,0:0:0:0:
192,192,65341,1,0,0:0:0:0:
320,192,65445,1,2,0:0:0:0:
64,192,65653,1,0,0:0:0:0:
192,192,65757,1,0,0:0:0:0:
320,192,65862,1,2,0:0:0:0:
448,192,66070,1,0,0:0:0:0:
320,192,66174,1,0,0:0:0:0:
192,192,66278,1,2,0:0:0:0:
448,192,66487,1,2,0:0:0:0:
320,192,66591,1,0,0:0:0:0:
192,192,66695,1,2,0:0:0:0:
64,192,66903,1,2,0:0:0:0:
192,192,67112,1,2,0:0:0:0:
320,192,67320,1,0,0:0:0:0:
448,192,67424,1,0,0:0:0:0:
64,192,67528,1,2,0:0:0:0:
320,192,67841,1,2,0:0:0:0:
192,192,68153,1,2,0:0:0:0:
64,192,68362,1,6,0:0:0:0:
192,192,68570,1,0,0:0:0:0:
320,192,68674,1,0,0:0:0:0:
448,192,68778,1,0,0:0:0:0:
320,192,68987,1,0,0:0:0:0:
192,192,69091,1,0,0:0:0:0:
64,192,69195,1,6,0:0:0:0:
448,192,69507,1,6,0:0:0:0:
320,192,69820,1,6,0:0:0:0:
192,192,69924,1,0,0:0:0:0:
64,192,70028,128,4,71695:0:0:0:0:
448,192,70028,1,2,0:0:0:0:
320,192,70237,1,0,0:0:0:0:
192,192,70445,1,2,0:0:0:0:
320,192,70653,1,0,0:0:0:0:
448,192,70862,1,2,0:0:0:0:
192,192,71070,1,0,0:0:0:0:
320,192,71278,1,2,0:0:0:0:
448,192,71487,1,0,0:0:0:0:
192,192,71695,128,2,72320:0:0:0:0:
320,192,71903,1,0,0:0:0:0:
64,192,72112,1,2,0:0:0:0:
448,192,72320,128,0,72945:0:0:0:0:
64,192,72528,1,2,0:0:0:0:
192,192,72737,1,0,0:0:0:0:
320,192,72945,128,2,73362:0:0:0:0:
64,192,73153,1,0,0:0:0:0:
192,192,73362,128,2,75028:0:0:0:0:
448,192,73570,1,0,0:0:0:0:
320,192,73778,1,2,0:0:0:0:
64,192,73987,1,0,0:0:0:0:
320,192,74195,1,2,0:0:0:0:
448,192,74403,1,0,0:0:0:0:
64,192,74612,1,2,0:0:0:0:
320,192,74820,1,0,0:0:0:0:
448,192,75028,128,2,75653:0:0:0:0:
64,192,75237,1,0,0:0:0:0:
192,192,75445,1,2,0:0:0:0:
320,192,75653,128,0,76278:0:0:0:0:
192,192,75862,1,2,0:0:0:0:
64,192,76070,1,0,0:0:0:0:
192,192,76278,128,2,76695:0:0:0:0:
448,192,76487,1,0,0:0:0:0:
64,192,76695,128,6,78987:0:0:0:0:
320,192,76903,1,0,0:0:0:0:
192,192,77112,1,2,0:0:0:0:
448,192,77320,1,0,0:0:0:0:
320,192,77528,1,2,0:0:0:0:
192,192,77737,1,0,0:0:0:0:
320,192,77945,1,2,0:0:0:0:
448,192,78153,1,0,0:0:0:0:
192,192,78362,1,6,0:0:0:0:
320,192,78570,1,0,0:0:0:0:
448,192,78778,1,2,0:0:0:0:
320,192,78987,128,0,79612:0:0:0:0:
192,192,79195,1,2,0:0:0:0:
64,192,79403,1,0,0:0:0:0:
448,192,79612,128,2,80028:0:0:0:0:
320,192,79820,1,0,0:0:0:0:
64,192,80028,1,4,0:0:0:0:
192,192,80028,1,2,0:0:0:0:
448,192,80237,1,2,0:0:0:0:
192,192,80445,1,2,0:0:0:0:
320,192,80445,1,0,0:0:0:0:
64,192,80653,1,2,0:0:0:0:
320,192,80862,1,2,0:0:0:0:
448,192,80862,1,4,0:0:0:0:
192,192,81174,1,2,0:0:0:0:
320,192,81174,1,0,0:0:0:0:
64,192,81487,1,2,0:0:0:0:
192,192,81487,1,0,0:0:0:0:
320,192,81695,1,4,0:0:0:0:
448,192,81695,128,2,82528:0:0:0:0:
64,192,82528,128,0,83362:0:0:0:0:
320,192,83362,1,6,0:0:0:0:
448,192,83362,1,8,0:0:0:0:
192,192,83778,1,8,0:0:0:0:
448,192,83778,1,0,0:0:0:0:
64,192,84195,1,8,0:0:0:0:
448,192,84195,1,0,0:0:0:0:
320,192,84612,1,8,0:0:0:0:
448,192,84612,1,0,0:0:0:0:
64,192,85028,1,8,0:0:0:0:
192,192,85028,1,0,0:0:0:0:
64,192,85445,1,8,0:0:0:0:
320,192,85445,1,0,0:0:0:0:
64,192,85862,1,8,0:0:0:0:
448,192,85862,1,0,0:0:0:0:
64,192,86278,1,8,0:0:0:0:
192,192,86278,1,0,0:0:0:0:
320,192,86695,1,8,0:0:0:0:
448,192,86695,1,0,0:0:0:0:
192,192,87112,1,8,0:0:0:0:
448,192,87112,1,0,0:0:0:0:
64,192,87528,1,8,0:0:0:0:
448,192,87528,1,0,0:0:0:0:
320,192,87945,1,8,0:0:0:0:
448,192,87945,1,0,0:0:0:0:
64,192,88362,1,8,0:0:0:0:
192,192,88362,1,0,0:0:0:0:
64,192,88778,1,8,0:0:0:0:
448,192,88778,1,0,0:0:0:0:
64,192,89195,1,8,0:0:0:0:
192,192,89195,1,2,0:0:0:0:
320,192,89403,1,0,0:0:0:0:
192,192,89507,1,2,0:0:0:0:
64,192,89612,1,8,0:0:0:0:
448,192,89612,1,0,0:0:0:0:
448,192,89820,1,2,0:0:0:0:
64,192,90028,1,2,0:0:0:0:
192,192,90028,1,8,0:0:0:0:
448,192,90237,1,0,0:0:0:0:
192,192,90445,1,8,0:0:0:0:
320,192,90445,1,0,0:0:0:0:
64,192,90653,1,0,0:0:0:0:
320,192,90862,1,8,0:0:0:0:
448,192,90862,1,0,0:0:0:0:
192,192,91070,1,0,0:0:0:0:
64,192,91278,1,8,0:0:0:0:
448,192,91278,1,0,0:0:0:0:
320,192,91487,1,0,0:0:0:0:
64,192,91695,1,8,0:0:0:0:
192,192,91695,1,4,0:0:0:0:
320,192,91903,1,0,0:0:0:0:
64,192,92112,1,8,0:0:0:0:
448,192,92112,1,0,0:0:0:0:
192,192,92320,1,0,0:0:0:0:
320,192,92528,1,8,0:0:0:0:
448,192,92528,1,0,0:0:0:0:
64,192,92737,1,0,0:0:0:0:
192,192,92945,1,8,0:0:0:0:
320,192,92945,1,0,0:0:0:0:
448,192,93153,1,0,0:0:0:0:
64,192,93362,1,10,0:0:0:0:
192,192,93362,1,4,0:0:0:0:
448,192,93570,1,2,0:0:0:0:
320,192,93674,1,0,0:0:0:0:
192,192,93778,1,10,0:0:0:0:
320,192,93987,1,2,0:0:0:0:
192,192,94091,1,0,0:0:0:0:
64,192,94195,1,10,0:0:0:0:
448,192,94195,1,4,0:0:0:0:
192,192,94403,1,2,0:0:0:0:
320,192,94507,1,0,0:0:0:0:
448,192,94612,1,10,0:0:0:0:
64,192,94820,1,2,0:0:0:0:
192,192,94924,1,0,0:0:0:0:
320,192,95028,1,10,0:0:0:0:
448,192,95028,128,4,95445:0:0:0:0:
64,192,95445,1,10,0:0:0:0:
320,192,95445,128,4,95862:0:0:0:0:
192,192,95862,128,10,96278:0:0:0:0:
448,192,95862,1,4,0:0:0:0:
64,192,96278,128,0,96695:0:0:0:70:LR4_SnareBPDT.wav
320,192,96695,1,2,0:0:0:0:
448,192,96695,128,4,97528:0:0:0:0:
64,192,97528,128,0,98362:0:0:0:0:
192,192,97945,128,0,98362:0:0:0:70:LR3_Snare DSW.wav
320,192,98362,1,4,0:0:0:0:
448,192,98362,1,2,0:0:0:0:
448,192,98570,128,0,98778:0:0:0:0:
64,192,98778,1,2,0:0:0:0:
192,192,98778,1,0,0:0:0:0:
448,192,98987,128,0,99195:0:0:0:0:
64,192,99195,1,2,0:0:0:0:
320,192,99195,1,0,0:0:0:0:
448,192,99403,128,0,99612:0:0:0:0:
64,192,99612,1,2,0:0:0:0:
192,192,99612,1,0,0:0:0:0:
448,192,99820,128,0,100028:0:0:0:0:
192,192,100028,1,2,0:0:0:0:
320,192,100028,1,0,0:0:0:0:
64,192,100237,128,0,100445:0:0:0:0:
320,192,100445,1,2,0:0:0:0:
448,192,100445,1,0,0:0:0:0:
64,192,100653,128,0,100862:0:0:0:0:
192,192,100862,1,2,0:0:0:0:
448,192,100862,1,0,0:0:0:0:
64,192,101070,128,0,101278:0:0:0:0:
320,192,101278,1,2,0:0:0:0:
448,192,101278,1,0,0:0:0:0:
64,192,101487,128,0,101695:0:0:0:0:
192,192,101695,1,2,0:0:0:0:
320,192,101695,1,0,0:0:0:0:
448,192,101903,1,0,0:0:0:0:
64,192,102112,1,2,0:0:0:0:
192,192,102112,1,0,0:0:0:0:
320,192,102320,1,0,0:0:0:0:
64,192,102528,1,2,0:0:0:0:
448,192,102528,1,0,0:0:0:0:
320,192,102632,1,0,0:0:0:0:
192,192,102841,1,0,0:0:0:0:
64,192,102945,1,2,0:0:0:0:
448,192,102945,1,0,0:0:0:0:
192,192,103153,1,0,0:0:0:0:
320,192,103257,1,0,0:0:0:0:
64,192,103362,1,2,0:0:0:0:
448,192,103362,1,0,0:0:0:0:
320,192,103570,1,0,0:0:0:0:
192,192,103674,1,0,0:0:0:0:
64,192,103778,1,2,0:0:0:0:
448,192,103778,1,0,0:0:0:0:
320,192,103987,1,0,0:0:0:0:
64,192,104195,1,2,0:0:0:0:
192,192,104195,1,0,0:0:0:0:
320,192,104403,1,0,0:0:0:0:
64,192,104612,1,2,0:0:0:0:
448,192,104612,1,0,0:0:0:0:
192,192,104820,1,2,0:0:0:0:
320,192,104820,1,0,0:0:0:0:
64,192,105028,1,2,0:0:0:0:
448,192,105028,1,4,0:0:0:0:
320,192,105237,128,0,105445:0:0:0:0:
64,192,105445,1,2,0:0:0:0:
192,192,105445,1,0,0:0:0:0:
320,192,105653,128,0,105862:0:0:0:0:
192,192,105862,1,2,0:0:0:0:
448,192,105862,1,0,0:0:0:0:
320,192,106070,128,0,106278:0:0:0:0:
64,192,106278,1,2,0:0:0:0:
192,192,106278,1,0,0:0:0:0:
320,192,106487,128,0,106695:0:0:0:0:
64,192,106695,1,2,0:0:0:0:
448,192,106695,1,4,0:0:0:0:
192,192,106903,128,0,107112:0:0:0:0:
320,192,107112,1,2,0:0:0:0:
448,192,107112,1,0,0:0:0:0:
192,192,107320,128,0,107528:0:0:0:0:
64,192,107528,1,2,0:0:0:0:
320,192,107528,1,0,0:0:0:0:
192,192,107737,128,0,107945:0:0:0:0:
320,192,107945,1,2,0:0:0:0:
448,192,107945,1,0,0:0:0:0:
192,192,108153,1,2,0:0:0:0:
320,192,108153,1,0,0:0:0:0:
64,192,108362,1,2,0:0:0:0:
192,192,108362,1,4,0:0:0:0:
320,192,108570,1,2,0:0:0:0:
448,192,108570,1,0,0:0:0:0:
64,192,108778,1,2,0:0:0:0:
192,192,108778,1,0,0:0:0:0:
320,192,108987,1,0,0:0:0:0:
64,192,109195,1,2,0:0:0:0:
448,192,109195,1,4,0:0:0:0:
192,192,109299,1,0,0:0:0:0:
320,192,109507,1,2,0:0:0:0:
448,192,109507,1,0,0:0:0:0:
192,192,109820,1,2,0:0:0:0:
320,192,109924,1,0,0:0:0:0:
64,192,110028,1,2,0:0:0:0:
448,192,110028,1,4,0:0:0:0:
192,192,110341,1,0,0:0:0:0:
320,192,110653,1,0,0:0:0:0:
64,192,110862,1,2,0:0:0:0:
448,192,110862,1,4,0:0:0:0:
192,192,111174,1,4,0:0:0:0:
320,192,111174,1,2,0:0:0:0:
64,192,111487,1,4,0:0:0:0:
448,192,111487,1,2,0:0:0:0:
192,192,111695,1,0,0:0:0:0:
320,192,111903,1,0,0:0:0:0:
64,192,112112,1,4,0:0:0:0:
448,192,112112,1,2,0:0:0:0:
448,192,112320,128,0,112528:0:0:0:0:
64,192,112528,1,2,0:0:0:0:
192,192,112528,1,0,0:0:0:0:
448,192,112737,128,0,112945:0:0:0:0:
64,192,112945,1,2,0:0:0:0:
320,192,112945,1,0,0:0:0:0:
448,192,113153,128,0,113362:0:0:0:0:
192,192,113362,1,2,0:0:0:0:
320,192,113362,1,0,0:0:0:0:
64,192,113570,128,0,113778:0:0:0:0:
320,192,113778,1,2,0:0:0:0:
448,192,113778,1,0,0:0:0:0:
64,192,113987,128,0,114195:0:0:0:0:
192,192,114195,1,2,0:0:0:0:
448,192,114195,1,0,0:0:0:0:
64,192,114403,128,0,114612:0:0:0:0:
320,192,114612,1,2,0:0:0:0:
448,192,114612,1,0,0:0:0:0:
64,192,114820,128,0,115028:0:0:0:0:
192,192,115028,1,2,0:0:0:0:
320,192,115028,1,0,0:0:0:0:
448,192,115237,1,0,0:0:0:0:
64,192,115445,1,2,0:0:0:0:
192,192,115445,1,0,0:0:0:0:
320,192,115653,1,0,0:0:0:0:
64,192,115862,1,2,0:0:0:0:
448,192,115862,1,0,0:0:0:0:
320,192,115966,1,0,0:0:0:0:
192,192,116174,1,0,0:0:0:0:
64,192,116278,1,2,0:0:0:0:
448,192,116278,1,0,0:0:0:0:
192,192,116487,1,0,0:0:0:0:
320,192,116591,1,0,0:0:0:0:
64,192,116695,1,2,0:0:0:0:
448,192,116695,1,0,0:0:0:0:
320,192,116903,1,0,0:0:0:0:
192,192,117007,1,0,0:0:0:0:
64,192,117112,1,2,0:0:0:0:
448,192,117112,1,0,0:0:0:0:
320,192,117320,1,0,0:0:0:0:
64,192,117528,1,2,0:0:0:0:
192,192,117528,1,0,0:0:0:0:
320,192,117737,1,0,0:0:0:0:
64,192,117945,1,2,0:0:0:0:
448,192,117945,1,0,0:0:0:0:
192,192,118153,1,2,0:0:0:0:
320,192,118153,1,0,0:0:0:0:
64,192,118362,1,2,0:0:0:0:
448,192,118362,1,4,0:0:0:0:
192,192,118570,1,0,0:0:0:0:
320,192,118778,1,0,0:0:0:0:
64,192,118987,1,0,0:0:0:0:
192,192,119195,1,2,0:0:0:0:
448,192,119195,1,4,0:0:0:0:
320,192,119403,1,0,0:0:0:0:
192,192,119612,1,0,0:0:0:0:
448,192,119820,1,0,0:0:0:0:
64,192,120028,1,2,0:0:0:0:
320,192,120028,1,4,0:0:0:0:
192,192,120237,1,0,0:0:0:0:
320,192,120445,1,0,0:0:0:0:
64,192,120653,1,0,0:0:0:0:
192,192,120862,1,2,0:0:0:0:
448,192,120862,1,4,0:0:0:0:
320,192,121174,1,2,0:0:0:0:
448,192,121174,1,4,0:0:0:0:
64,192,121487,1,2,0:0:0:0:
192,192,121487,1,4,0:0:0:0:
64,192,121695,1,2,0:0:0:0:
448,192,121695,1,4,0:0:0:0:
448,192,121903,1,2,0:0:0:0:
192,192,122112,1,2,0:0:0:0:
320,192,122112,1,4,0:0:0:0:
192,192,122320,1,2,0:0:0:0:
64,192,122528,1,2,0:0:0:0:
448,192,122528,1,4,0:0:0:0:
192,192,122841,1,2,0:0:0:0:
320,192,122841,1,4,0:0:0:0:
64,192,123153,1,2,0:0:0:0:
192,192,123257,1,0,0:0:0:0:
320,192,123362,1,2,0:0:0:0:
448,192,123362,1,4,0:0:0:0:
64,192,123674,1,0,0:0:0:0:
192,192,123987,1,0,0:0:0:0:
320,192,124195,1,0,0:0:0:0:
448,192,124681,128,0,125028:0:0:0:0:
64,192,125028,1,2,0:0:0:0:
192,192,125028,1,0,0:0:0:0:
320,192,125237,1,0,0:0:0:0:
448,192,125445,1,0,0:0:0:0:
64,192,125653,1,0,0:0:0:0:
320,192,125862,1,0,0:0:0:0:
448,192,125966,1,0,0:0:0:0:
64,192,126174,1,0,0:0:0:0:
320,192,126278,1,0,0:0:0:0:
448,192,126382,1,0,0:0:0:0:
64,192,126487,128,4,131695:0:0:0:0:
192,192,126487,1,2,0:0:0:0:
