osu file format v14

[General]
AudioFilename: audio.mp3
AudioLeadIn: 0
PreviewTime: 55028
Countdown: 0
SampleSet: Soft
StackLeniency: 0.7
Mode: 3
LetterboxInBreaks: 0
SpecialStyle: 0
WidescreenStoryboard: 0

[Editor]
DistanceSpacing: 1.2
BeatDivisor: 4
GridSize: 4
TimelineZoom: 1.9

[Metadata]
Title:Mirrorwall
TitleUnicode:Mirrorwall
Artist:BlackY
ArtistUnicode:BlackY
Creator:-Ziel-
Version:EXHAUST
Source:SOUND VOLTEX IV HEAVENLY HAVEN
Tags:lenpai lenfried- Ω omega dimension unlock konami bemani rhythm video game electronic
BeatmapID:2147313
BeatmapSetID:1026824

[Difficulty]
HPDrainRate:8.5
CircleSize:4
OverallDifficulty:7.8
ApproachRate:5
SliderMultiplier:1.4
SliderTickRate:1

[Events]
//Background and Video events
0,0,"exhaust.png",0,0
//Break Periods
//Storyboard Layer 0 (Background)
//Storyboard Layer 1 (Fail)
//Storyboard Layer 2 (Pass)
//Storyboard Layer 3 (Foreground)
//Storyboard Layer 4 (Overlay)
//Storyboard Sound Samples

[TimingPoints]
3362,416.666666666667,4,2,1,70,1,0
16799,-100,4,2,1,60,0,0
28466,-100,4,2,1,50,0,0
30028,-100,4,2,1,70,0,0
55028,-100,4,2,1,40,0,0
56695,-100,4,2,1,70,0,1
70028,-100,4,2,1,70,0,0
83466,-100,4,2,1,50,0,0
90028,-100,4,2,1,60,0,0
93362,-100,4,2,1,70,0,0
96799,-100,4,2,1,50,0,0
98362,-100,4,2,1,70,0,1
111695,-100,4,2,1,70,0,0
112112,-100,4,2,1,70,0,1
125028,-100,4,2,1,70,0,0

[HitObjects]
448,192,1903,5,0,0:0:0:0:
320,192,2007,1,0,0:0:0:0:
64,192,2111,1,0,0:0:0:0:
448,192,2216,1,0,0:0:0:0:
192,192,2320,1,0,0:0:0:0:
64,192,2424,1,0,0:0:0:0:
192,192,2528,1,0,0:0:0:0:
320,192,2632,1,0,0:0:0:0:
64,192,2737,1,0,0:0:0:0:
192,192,2841,1,2,0:0:0:0:
448,192,2841,1,0,0:0:0:0:
320,192,2945,1,2,0:0:0:0:
448,192,2945,1,0,0:0:0:0:
64,192,3049,1,0,0:0:0:0:
320,192,3153,1,2,0:0:0:0:
448,192,3153,1,0,0:0:0:0:
64,192,3257,1,2,0:0:0:0:
192,192,3257,1,0,0:0:0:0:
64,192,3362,1,4,0:0:0:0:
320,192,3362,1,2,0:0:0:0:
448,192,3362,128,0,3466:0:0:0:0:
192,192,3570,1,0,0:0:0:0:
320,192,3778,1,2,0:0:0:0:
448,192,3778,1,0,0:0:0:0:
64,192,3987,1,0,0:0:0:0:
192,192,4091,1,0,0:0:0:0:
320,192,4195,1,2,0:0:0:0:
448,192,4195,1,0,0:0:0:0:
448,192,4299,1,0,0:0:0:0:
64,192,4403,1,0,0:0:0:0:
192,192,4507,1,0,0:0:0:0:
320,192,4612,1,2,0:0:0:0:
448,192,4612,1,0,0:0:0:0:
64,192,4716,1,0,0:0:0:0:
320,192,4820,1,0,0:0:0:0:
448,192,4924,1,0,0:0:0:0:
64,192,5028,1,2,0:0:0:0:
192,192,5028,1,0,0:0:0:0:
320,192,5237,1,0,0:0:0:0:
448,192,5341,1,0,0:0:0:0:
64,192,5445,1,2,0:0:0:0:
192,192,5445,1,0,0:0:0:0:
448,192,5549,1,0,0:0:0:0:
320,192,5653,1,0,0:0:0:0:
64,192,5757,1,0,0:0:0:0:
64,192,5862,1,2,0:0:0:0:
192,192,5862,1,0,0:0:0:0:
320,192,5966,1,0,0:0:0:0:
448,192,6070,1,0,0:0:0:0:
320,192,6174,1,0,0:0:0:0:
64,192,6278,1,2,0:0:0:0:
192,192,6278,1,0,0:0:0:0:
448,192,6382,1,0,0:0:0:0:
320,192,6487,1,0,0:0:0:0:
64,192,6591,1,0,0:0:0:0:
192,192,6695,128,2,6799:0:0:0:0:
448,192,6695,1,0,0:0:0:0:
320,192,6903,128,0,7007:0:0:0:0:
64,192,7112,128,2,7216:0:0:0:0:
192,192,7112,1,0,0:0:0:0:
448,192,7320,128,0,7424:0:0:0:0:
64,192,7528,1,2,0:0:0:0:
320,192,7528,128,0,7632:0:0:0:0:
192,192,7632,128,0,7737:0:0:0:0:
448,192,7737,1,0,0:0:0:0:
64,192,7841,128,0,7945:0:0:0:0:
320,192,7945,1,2,0:0:0:0:
448,192,7945,1,0,0:0:0:0:
192,192,8049,128,0,8153:0:0:0:0:
448,192,8153,128,0,8257:0:0:0:0:
64,192,8257,128,0,8362:0:0:0:0:
192,192,8362,128,2,8466:0:0:0:0:
320,192,8362,1,0,0:0:0:0:
448,192,8570,128,0,8674:0:0:0:0:
64,192,8674,128,0,8778:0:0:0:0:
192,192,8778,1,2,0:0:0:0:
320,192,8778,1,0,0:0:0:0:
448,192,8882,128,0,8987:0:0:0:0:
192,192,8987,128,0,9091:0:0:0:0:
320,192,9195,128,2,9299:0:0:0:0:
448,192,9195,1,0,0:0:0:0:
64,192,9299,128,0,9403:0:0:0:0:
192,192,9403,1,0,0:0:0:0:
320,192,9507,128,0,9612:0:0:0:0:
64,192,9612,1,2,0:0:0:0:
192,192,9612,128,0,9716:0:0:0:0:
448,192,9716,128,0,9820:0:0:0:0:
64,192,9820,1,2,0:0:0:0:
320,192,9820,128,0,9924:0:0:0:0:
192,192,9924,128,0,10028:0:0:0:0:
64,192,10028,1,2,0:0:0:0:
320,192,10028,1,4,0:0:0:0:
448,192,10028,1,0,0:0:0:0:
192,192,10237,1,0,0:0:0:0:
320,192,10445,1,2,0:0:0:0:
448,192,10445,1,0,0:0:0:0:
64,192,10653,1,0,0:0:0:0:
192,192,10757,1,0,0:0:0:0:
320,192,10862,1,2,0:0:0:0:
448,192,10862,1,0,0:0:0:0:
448,192,10966,1,0,0:0:0:0:
192,192,11070,1,0,0:0:0:0:
64,192,11174,1,0,0:0:0:0:
320,192,11278,1,2,0:0:0:0:
448,192,11278,1,0,0:0:0:0:
64,192,11382,1,0,0:0:0:0:
192,192,11487,1,0,0:0:0:0:
448,192,11591,1,0,0:0:0:0:
64,192,11695,1,4,0:0:0:0:
192,192,11695,1,2,0:0:0:0:
320,192,11695,1,0,0:0:0:0:
320,192,11903,1,0,0:0:0:0:
448,192,12007,1,0,0:0:0:0:
64,192,12112,1,2,0:0:0:0:
192,192,12112,1,0,0:0:0:0:
320,192,12216,1,0,0:0:0:0:
192,192,12320,1,0,0:0:0:0:
448,192,12424,1,0,0:0:0:0:
64,192,12528,1,2,0:0:0:0:
192,192,12528,1,0,0:0:0:0:
320,192,12632,1,0,0:0:0:0:
64,192,12737,1,0,0:0:0:0:
320,192,12841,1,2,0:0:0:0:
448,192,12841,1,0,0:0:0:0:
192,192,12945,1,0,0:0:0:0:
320,192,13049,1,0,0:0:0:0:
64,192,13153,1,2,0:0:0:0:
448,192,13153,1,0,0:0:0:0:
192,192,13257,1,0,0:0:0:0:
64,192,13362,1,2,0:0:0:0:
320,192,13362,1,4,0:0:0:0:
448,192,13362,128,0,13466:0:0:0:0:
192,192,13466,1,0,0:0:0:0:
64,192,13570,1,2,0:0:0:0:
448,192,13570,1,0,0:0:0:0:
320,192,13674,128,0,13778:0:0:0:0:
192,192,13778,1,2,0:0:0:0:
448,192,13778,1,0,0:0:0:0:
64,192,13882,1,0,0:0:0:0:
192,192,13987,128,0,14091:0:0:0:0:
320,192,14091,1,0,0:0:0:0:
64,192,14195,1,2,0:0:0:0:
192,192,14195,1,4,0:0:0:0:
448,192,14195,128,0,14299:0:0:0:0:
320,192,14299,128,0,14403:0:0:0:0:
64,192,14403,1,0,0:0:0:0:
192,192,14507,128,2,14612:0:0:0:0:
448,192,14507,1,0,0:0:0:0:
320,192,14612,1,0,0:0:0:0:
64,192,14716,128,0,14820:0:0:0:0:
192,192,14820,128,2,14924:0:0:0:0:
448,192,14820,1,0,0:0:0:0:
320,192,14924,128,0,15028:0:0:0:0:
64,192,15028,1,2,0:0:0:0:
192,192,15028,1,4,0:0:0:0:
448,192,15028,128,0,15132:0:0:0:0:
320,192,15132,1,0,0:0:0:0:
192,192,15237,1,0,0:0:0:0:
64,192,15341,128,0,15445:0:0:0:0:
320,192,15445,1,0,0:0:0:0:
448,192,15549,1,0,0:0:0:0:
192,192,15653,128,0,15757:0:0:0:0:
64,192,15757,1,0,0:0:0:0:
320,192,15862,128,0,15966:0:0:0:0:
192,192,15966,1,0,0:0:0:0:
64,192,16070,1,0,0:0:0:0:
320,192,16174,1,0,0:0:0:0:
192,192,16278,1,0,0:0:0:0:
448,192,16348,1,0,0:0:0:0:
448,192,16487,1,0,0:0:0:0:
448,192,16625,1,0,0:0:0:0:
64,192,16695,1,8,0:0:0:0:
192,192,16695,1,4,0:0:0:0:
320,192,16695,1,0,0:0:0:0:
448,192,16903,1,0,0:0:0:0:
320,192,17007,1,0,0:0:0:0:
64,192,17112,1,8,0:0:0:0:
192,192,17112,1,0,0:0:0:0:
448,192,17216,1,0,0:0:0:0:
192,192,17320,1,0,0:0:0:0:
448,192,17424,1,0,0:0:0:0:
64,192,17528,1,8,0:0:0:0:
320,192,17528,1,0,0:0:0:0:
64,192,17737,1,0,0:0:0:0:
192,192,17841,1,0,0:0:0:0:
320,192,17945,1,8,0:0:0:0:
448,192,17945,1,0,0:0:0:0:
64,192,18049,1,0,0:0:0:0:
320,192,18153,1,0,0:0:0:0:
64,192,18257,1,0,0:0:0:0:
192,192,18362,1,8,0:0:0:0:
448,192,18362,1,0,0:0:0:0:
448,192,18570,1,0,0:0:0:0:
320,192,18674,1,0,0:0:0:0:
64,192,18778,1,8,0:0:0:0:
192,192,18778,1,0,0:0:0:0:
448,192,18882,1,0,0:0:0:0:
192,192,18987,1,0,0:0:0:0:
448,192,19091,1,0,0:0:0:0:
64,192,19195,1,8,0:0:0:0:
320,192,19195,1,0,0:0:0:0:
64,192,19403,1,0,0:0:0:0:
192,192,19507,1,0,0:0:0:0:
320,192,19612,1,8,0:0:0:0:
448,192,19612,1,0,0:0:0:0:
64,192,19681,1,0,0:0:0:0:
64,192,19820,1,0,0:0:0:0:
64,192,19959,1,0,0:0:0:0:
320,192,20028,1,8,0:0:0:0:
448,192,20028,1,0,0:0:0:0:
448,192,20237,1,0,0:0:0:0:
320,192,20341,1,0,0:0:0:0:
64,192,20445,1,8,0:0:0:0:
192,192,20445,1,0,0:0:0:0:
448,192,20549,1,0,0:0:0:0:
192,192,20653,1,0,0:0:0:0:
448,192,20757,1,0,0:0:0:0:
64,192,20862,1,8,0:0:0:0:
320,192,20862,1,0,0:0:0:0:
64,192,21070,1,0,0:0:0:0:
192,192,21174,1,0,0:0:0:0:
320,192,21278,1,8,0:0:0:0:
448,192,21278,1,0,0:0:0:0:
64,192,21382,1,0,0:0:0:0:
320,192,21487,1,0,0:0:0:0:
64,192,21591,1,0,0:0:0:0:
192,192,21695,1,8,0:0:0:0:
320,192,21695,1,4,0:0:0:0:
448,192,21695,1,0,0:0:0:0:
192,192,21903,1,0,0:0:0:0:
320,192,22007,1,0,0:0:0:0:
64,192,22112,1,8,0:0:0:0:
448,192,22112,1,0,0:0:0:0:
192,192,22216,1,0,0:0:0:0:
320,192,22320,1,0,0:0:0:0:
192,192,22424,1,0,0:0:0:0:
64,192,22528,1,8,0:0:0:0:
320,192,22528,1,4,0:0:0:0:
448,192,22528,1,2,0:0:0:0:
192,192,22737,1,0,0:0:0:0:
64,192,22841,1,4,0:0:0:0:
320,192,22841,1,2,0:0:0:0:
448,192,22841,1,0,0:0:0:0:
320,192,22945,1,8,0:0:0:0:
448,192,22945,1,0,0:0:0:0:
192,192,23049,1,0,0:0:0:0:
64,192,23153,1,4,0:0:0:0:
320,192,23153,1,2,0:0:0:0:
448,192,23153,1,0,0:0:0:0:
320,192,23257,1,0,0:0:0:0:
64,192,23362,1,8,0:0:0:0:
192,192,23362,1,4,0:0:0:0:
448,192,23362,1,2,0:0:0:0:
320,192,23466,1,0,0:0:0:0:
192,192,23570,1,0,0:0:0:0:
320,192,23674,1,0,0:0:0:0:
64,192,23778,1,8,0:0:0:0:
192,192,23778,1,2,0:0:0:0:
448,192,23778,1,0,0:0:0:0:
320,192,23882,1,0,0:0:0:0:
448,192,23987,1,0,0:0:0:0:
192,192,24091,1,0,0:0:0:0:
64,192,24195,1,8,0:0:0:0:
320,192,24195,1,2,0:0:0:0:
448,192,24195,1,0,0:0:0:0:
192,192,24299,1,0,0:0:0:0:
64,192,24403,1,0,0:0:0:0:
320,192,24507,1,0,0:0:0:0:
64,192,24612,1,8,0:0:0:0:
192,192,24612,1,2,0:0:0:0:
448,192,24612,1,0,0:0:0:0:
320,192,24716,1,0,0:0:0:0:
192,192,24820,1,0,0:0:0:0:
320,192,24924,1,0,0:0:0:0:
64,192,25028,1,8,0:0:0:0:
192,192,25028,1,4,0:0:0:0:
448,192,25028,1,2,0:0:0:0:
320,192,25132,1,0,0:0:0:0:
448,192,25237,1,0,0:0:0:0:
192,192,25341,1,0,0:0:0:0:
64,192,25445,1,8,0:0:0:0:
320,192,25445,1,2,0:0:0:0:
448,192,25445,1,0,0:0:0:0:
192,192,25549,1,0,0:0:0:0:
64,192,25653,1,0,0:0:0:0:
320,192,25757,1,0,0:0:0:0:
64,192,25862,1,8,0:0:0:0:
192,192,25862,1,2,0:0:0:0:
448,192,25862,1,0,0:0:0:0:
320,192,25966,1,0,0:0:0:0:
192,192,26070,1,0,0:0:0:0:
448,192,26174,1,0,0:0:0:0:
64,192,26278,1,8,0:0:0:0:
192,192,26278,1,2,0:0:0:0:
320,192,26278,1,0,0:0:0:0:
448,192,26348,1,0,0:0:0:0:
448,192,26487,1,0,0:0:0:0:
448,192,26625,1,0,0:0:0:0:
64,192,26695,128,8,27112:0:0:0:0:
192,192,26695,128,4,26799:0:0:0:0:
320,192,26695,128,2,26799:0:0:0:0:
192,192,26903,128,2,27007:0:0:0:0:
448,192,26903,128,0,27007:0:0:0:0:
192,192,27112,128,8,27216:0:0:0:0:
320,192,27112,128,4,27216:0:0:0:0:
448,192,27112,128,2,27528:0:0:0:0:
64,192,27320,128,2,27424:0:0:0:0:
320,192,27320,128,0,27424:0:0:0:0:
64,192,27528,1,8,0:0:0:0:
192,192,27528,1,4,0:0:0:0:
320,192,27528,1,2,0:0:0:0:
448,192,27632,1,0,0:0:0:0:
192,192,27737,1,0,0:0:0:0:
64,192,27841,1,2,0:0:0:0:
320,192,27841,1,0,0:0:0:0:
192,192,27945,1,8,0:0:0:0:
448,192,27945,1,4,0:0:0:0:
64,192,28049,1,0,0:0:0:0:
320,192,28153,1,2,0:0:0:0:
448,192,28153,1,0,0:0:0:0:
192,192,28257,1,0,0:0:0:0:
64,192,28362,128,4,28987:0:0:0:0:
320,192,28362,1,2,0:0:0:0:
448,192,28362,1,0,0:0:0:0:
192,192,28466,128,0,29195:0:0:0:0:
448,192,28987,128,0,29507:0:0:0:0:
320,192,29091,128,0,29507:0:0:0:0:
64,192,29195,128,0,29924:0:0:0:0:
192,192,29612,128,0,29924:0:0:0:70:LR3_Snare DSW.wav
320,192,29612,128,0,29924:0:0:0:0:
448,192,29612,128,0,29924:0:0:0:0:
64,192,30028,1,4,0:0:0:0:
192,192,30028,128,2,30132:0:0:0:0:
320,192,30028,128,0,30237:0:0:0:0:
448,192,30028,128,0,30445:0:0:0:0:
64,192,30445,128,2,30653:0:0:0:0:
192,192,30445,128,0,30653:0:0:0:0:
320,192,30497,128,0,30653:0:0:0:0:
64,192,30757,128,2,30966:0:0:0:0:
192,192,30757,128,0,30966:0:0:0:0:
320,192,30809,128,0,30966:0:0:0:0:
64,192,31070,128,2,31174:0:0:0:0:
192,192,31070,128,0,31278:0:0:0:0:
320,192,31122,128,0,31278:0:0:0:0:
64,192,31278,128,2,31487:0:0:0:0:
448,192,31278,128,0,31695:0:0:0:0:
192,192,31695,128,2,32112:0:0:0:0:
320,192,31695,128,0,31903:0:0:0:0:
320,192,32112,128,2,32320:0:0:0:0:
448,192,32112,128,0,32320:0:0:0:0:
64,192,32164,128,0,32320:0:0:0:0:
320,192,32424,128,2,32632:0:0:0:0:
448,192,32424,128,0,32632:0:0:0:0:
192,192,32476,128,0,32632:0:0:0:0:
320,192,32737,128,2,32945:0:0:0:0:
448,192,32737,128,0,32945:0:0:0:0:
192,192,32789,128,0,32945:0:0:0:0:
64,192,32945,128,0,32997:0:0:0:0:
192,192,33049,128,0,33101:0:0:0:0:
320,192,33153,128,0,33205:0:0:0:0:
448,192,33257,128,0,33309:0:0:0:0:
64,192,33362,128,2,33778:0:0:0:0:
192,192,33362,128,0,33570:0:0:0:0:
320,192,33778,128,2,33987:0:0:0:0:
448,192,33778,128,0,33987:0:0:0:0:
192,192,33830,128,0,33987:0:0:0:0:
320,192,34091,128,2,34299:0:0:0:0:
448,192,34091,128,0,34299:0:0:0:0:
64,192,34143,128,0,34299:0:0:0:0:
320,192,34403,128,2,34507:0:0:0:0:
448,192,34403,128,0,34612:0:0:0:0:
64,192,34455,128,0,34612:0:0:0:0:
192,192,34612,128,2,34820:0:0:0:0:
320,192,34612,128,0,35028:0:0:0:0:
64,192,35028,128,2,35237:0:0:0:0:
192,192,35028,128,0,35237:0:0:0:0:
448,192,35080,128,0,35237:0:0:0:0:
64,192,35341,128,2,35549:0:0:0:0:
192,192,35341,128,0,35549:0:0:0:0:
320,192,35393,128,0,35549:0:0:0:0:
64,192,35653,128,2,35757:0:0:0:0:
192,192,35653,128,0,35862:0:0:0:0:
320,192,35705,128,0,35862:0:0:0:0:
64,192,35862,1,0,0:0:0:70:LR4_SnareBPDT.wav
448,192,35862,1,0,0:0:0:0:
192,192,35931,1,0,0:0:0:0:
320,192,36000,1,0,0:0:0:0:
64,192,36070,1,0,0:0:0:0:
192,192,36139,1,0,0:0:0:0:
320,192,36209,1,0,0:0:0:0:
448,192,36278,1,0,0:0:0:0:
320,192,36348,1,0,0:0:0:0:
64,192,36417,1,0,0:0:0:0:
448,192,36487,1,0,0:0:0:0:
192,192,36556,1,0,0:0:0:0:
64,192,36625,1,0,0:0:0:0:
320,192,36695,128,4,36903:0:0:0:0:
448,192,36695,128,2,37112:0:0:0:0:
192,192,37112,128,2,37320:0:0:0:0:
320,192,37112,128,0,37320:0:0:0:0:
64,192,37164,128,0,37320:0:0:0:0:
192,192,37424,128,2,37632:0:0:0:0:
320,192,37424,128,0,37632:0:0:0:0:
64,192,37476,128,0,37632:0:0:0:0:
192,192,37737,128,2,37945:0:0:0:0:
320,192,37737,128,0,37841:0:0:0:0:
64,192,37789,128,0,37945:0:0:0:0:
320,192,37945,128,2,38362:0:0:0:0:
448,192,37945,128,0,38153:0:0:0:0:
64,192,38362,128,2,38570:0:0:0:0:
192,192,38362,128,0,38778:0:0:0:0:
64,192,38778,128,2,38987:0:0:0:0:
448,192,38778,128,0,38987:0:0:0:0:
320,192,38830,128,0,38987:0:0:0:0:
64,192,39091,128,2,39299:0:0:0:0:
448,192,39091,128,0,39299:0:0:0:0:
192,192,39299,128,2,39403:0:0:0:0:
320,192,39299,128,0,39403:0:0:0:0:
64,192,39403,128,2,39612:0:0:0:0:
448,192,39403,128,0,39507:0:0:0:0:
320,192,39612,128,2,39716:0:0:0:0:
448,192,39612,128,0,39716:0:0:0:0:
192,192,39664,128,0,39716:0:0:0:0:
320,192,39820,128,2,40028:0:0:0:0:
448,192,39820,128,0,39924:0:0:0:0:
192,192,39872,128,0,40028:0:0:0:0:
64,192,40028,128,2,40445:0:0:0:0:
448,192,40028,128,0,40237:0:0:0:0:
320,192,40445,128,2,40653:0:0:0:0:
448,192,40445,128,0,40653:0:0:0:0:
192,192,40497,128,0,40653:0:0:0:0:
320,192,40757,128,2,40966:0:0:0:0:
448,192,40757,128,0,40966:0:0:0:0:
192,192,40809,128,0,40966:0:0:0:0:
320,192,41070,128,2,41278:0:0:0:0:
448,192,41070,128,0,41174:0:0:0:0:
192,192,41122,128,0,41278:0:0:0:0:
64,192,41278,1,0,0:0:0:70:LR4_SnareBPDT.wav
448,192,41278,1,0,0:0:0:0:
320,192,41382,1,0,0:0:0:0:
64,192,41487,1,0,0:0:0:0:
448,192,41487,1,0,0:0:0:0:
192,192,41591,1,0,0:0:0:0:
64,192,41695,1,2,0:0:0:0:
320,192,41695,128,0,41799:0:0:0:0:
448,192,41799,1,0,0:0:0:0:
192,192,41903,1,0,0:0:0:0:
64,192,42007,1,0,0:0:0:0:
320,192,42112,1,0,0:0:0:0:
448,192,42112,1,0,0:0:0:0:
192,192,42216,1,0,0:0:0:0:
64,192,42320,1,0,0:0:0:0:
320,192,42424,1,0,0:0:0:0:
192,192,42528,128,0,42632:0:0:0:0:
448,192,42528,1,0,0:0:0:0:
320,192,42632,1,0,0:0:0:0:
192,192,42737,1,0,0:0:0:0:
64,192,42841,1,0,0:0:0:0:
320,192,42841,1,0,0:0:0:0:
192,192,42945,1,0,0:0:0:0:
448,192,43014,1,0,0:0:0:0:
320,192,43084,1,0,0:0:0:0:
192,192,43153,1,0,0:0:0:0:
448,192,43223,1,0,0:0:0:0:
64,192,43292,1,0,0:0:0:0:
192,192,43362,128,4,43466:0:0:0:0:
320,192,43362,128,8,43570:0:0:0:0:
448,192,43362,128,2,43778:0:0:0:0:
64,192,43570,1,0,0:0:0:0:
64,192,43778,128,8,43987:0:0:0:0:
192,192,43778,128,2,43987:0:0:0:0:
320,192,43778,1,0,0:0:0:0:
448,192,43882,1,0,0:0:0:0:
64,192,44091,128,2,44299:0:0:0:0:
192,192,44091,128,0,44299:0:0:0:0:
448,192,44091,1,0,0:0:0:0:
320,192,44195,1,8,0:0:0:0:
64,192,44403,128,2,44612:0:0:0:0:
192,192,44403,128,0,44612:0:0:0:0:
448,192,44403,1,0,0:0:0:0:
320,192,44612,128,8,45028:0:0:0:0:
448,192,44612,128,2,44820:0:0:0:0:
64,192,44716,1,0,0:0:0:0:
448,192,44924,1,0,0:0:0:0:
64,192,45028,128,8,45445:0:0:0:0:
192,192,45028,128,2,45237:0:0:0:0:
320,192,45237,1,0,0:0:0:0:
192,192,45445,1,8,0:0:0:0:
320,192,45445,128,2,45653:0:0:0:0:
448,192,45445,128,0,45653:0:0:0:0:
64,192,45549,1,0,0:0:0:0:
64,192,45757,1,2,0:0:0:0:
320,192,45757,128,0,45966:0:0:0:0:
448,192,45757,128,0,45966:0:0:0:0:
192,192,45862,1,8,0:0:0:0:
64,192,46070,1,2,0:0:0:0:
320,192,46070,128,0,46278:0:0:0:0:
448,192,46070,128,0,46278:0:0:0:0:
64,192,46278,128,8,46330:0:0:0:0:
192,192,46382,128,0,46434:0:0:0:0:
320,192,46487,128,0,46539:0:0:0:0:
448,192,46591,128,0,46643:0:0:0:0:
64,192,46695,128,8,47112:0:0:0:0:
192,192,46695,128,2,46903:0:0:0:0:
320,192,46695,1,0,0:0:0:0:
448,192,46903,1,0,0:0:0:0:
192,192,47112,128,8,47320:0:0:0:0:
320,192,47112,128,2,47320:0:0:0:0:
448,192,47112,1,0,0:0:0:0:
64,192,47216,1,0,0:0:0:0:
192,192,47424,128,2,47632:0:0:0:0:
320,192,47424,128,0,47632:0:0:0:0:
448,192,47424,1,0,0:0:0:0:
64,192,47528,1,8,0:0:0:0:
192,192,47737,128,2,47945:0:0:0:0:
320,192,47737,128,0,47841:0:0:0:0:
448,192,47737,1,0,0:0:0:0:
64,192,47945,1,8,0:0:0:0:
320,192,47945,128,2,48362:0:0:0:0:
448,192,47945,128,0,48153:0:0:0:0:
192,192,48049,1,0,0:0:0:0:
192,192,48257,1,0,0:0:0:0:
64,192,48362,128,8,48570:0:0:0:0:
448,192,48362,128,2,48570:0:0:0:0:
320,192,48570,1,0,0:0:0:0:
64,192,48674,128,2,48882:0:0:0:0:
448,192,48674,128,0,48882:0:0:0:0:
320,192,48778,1,8,0:0:0:0:
192,192,48882,1,0,0:0:0:0:
64,192,48987,128,2,49091:0:0:0:0:
448,192,48987,128,0,49195:0:0:0:0:
192,192,49091,1,0,0:0:0:0:
64,192,49195,1,0,0:0:0:70:LR4_SnareBPDT.wav
320,192,49195,1,0,0:0:0:0:
448,192,49264,1,0,0:0:0:0:
320,192,49334,1,0,0:0:0:0:
64,192,49403,1,0,0:0:0:0:
192,192,49473,1,0,0:0:0:0:
320,192,49542,1,0,0:0:0:0:
448,192,49612,1,0,0:0:0:0:
320,192,49681,1,0,0:0:0:0:
64,192,49750,1,0,0:0:0:0:
448,192,49820,1,0,0:0:0:0:
192,192,49889,1,0,0:0:0:0:
320,192,49959,1,0,0:0:0:0:
64,192,50028,128,8,50445:0:0:0:0:
192,192,50028,128,2,50237:0:0:0:0:
448,192,50028,1,0,0:0:0:0:
320,192,50237,1,0,0:0:0:0:
192,192,50445,1,8,0:0:0:0:
320,192,50445,128,2,50653:0:0:0:0:
448,192,50445,128,0,50653:0:0:0:0:
64,192,50653,1,0,0:0:0:0:
320,192,50757,128,2,50966:0:0:0:0:
448,192,50757,128,0,50966:0:0:0:0:
192,192,50862,1,8,0:0:0:0:
64,192,51070,1,2,0:0:0:0:
320,192,51070,128,0,51278:0:0:0:0:
448,192,51070,128,0,51278:0:0:0:0:
64,192,51278,128,8,51487:0:0:0:0:
192,192,51278,128,2,51695:0:0:0:0:
448,192,51487,1,0,0:0:0:0:
64,192,51695,1,8,0:0:0:0:
320,192,51695,128,2,51903:0:0:0:0:
448,192,51695,128,0,52112:0:0:0:0:
192,192,51903,1,0,0:0:0:0:
64,192,52112,128,8,52320:0:0:0:0:
192,192,52112,128,2,52320:0:0:0:0:
320,192,52112,1,0,0:0:0:0:
448,192,52320,1,0,0:0:0:0:
64,192,52424,128,2,52528:0:0:0:0:
320,192,52424,128,0,52528:0:0:0:0:
192,192,52528,1,8,0:0:0:0:
64,192,52632,128,2,52737:0:0:0:0:
320,192,52632,128,0,52737:0:0:0:0:
192,192,52737,128,2,52945:0:0:0:0:
448,192,52737,128,0,52841:0:0:0:0:
64,192,52945,1,8,0:0:0:0:
320,192,52945,128,2,53049:0:0:0:0:
448,192,52945,128,0,53049:0:0:0:0:
192,192,53153,1,2,0:0:0:0:
320,192,53153,128,0,53362:0:0:0:0:
448,192,53153,128,0,53362:0:0:0:0:
64,192,53362,1,10,0:0:0:0:
192,192,53362,1,4,0:0:0:0:
320,192,53466,1,0,0:0:0:0:
192,192,53570,1,2,0:0:0:0:
448,192,53570,1,0,0:0:0:0:
64,192,53674,1,0,0:0:0:0:
320,192,53778,1,8,0:0:0:0:
448,192,53778,1,2,0:0:0:0:
448,192,53882,1,0,0:0:0:0:
64,192,53987,1,2,0:0:0:0:
192,192,53987,1,0,0:0:0:0:
192,192,54091,1,2,0:0:0:0:
320,192,54091,1,0,0:0:0:0:
64,192,54195,1,8,0:0:0:0:
320,192,54195,1,4,0:0:0:0:
448,192,54195,1,0,0:0:0:0:
192,192,54299,1,2,0:0:0:0:
448,192,54299,1,0,0:0:0:0:
64,192,54403,1,2,0:0:0:0:
320,192,54403,1,0,0:0:0:0:
192,192,54507,1,0,0:0:0:0:
320,192,54612,1,8,0:0:0:0:
448,192,54612,1,2,0:0:0:0:
64,192,54716,1,2,0:0:0:0:
192,192,54716,1,0,0:0:0:0:
64,192,54820,1,2,0:0:0:0:
192,192,54820,1,0,0:0:0:0:
320,192,54924,1,2,0:0:0:0:
448,192,54924,1,0,0:0:0:0:
64,192,55028,128,2,56278:0:0:0:0:
192,192,55028,1,4,0:0:0:0:
320,192,55132,1,0,0:0:0:0:
448,192,55237,1,0,0:0:0:0:
192,192,55341,1,0,0:0:0:0:
320,192,55445,1,0,0:0:0:0:
448,192,55549,1,0,0:0:0:0:
192,192,55653,1,0,0:0:0:0:
448,192,55757,1,0,0:0:0:0:
320,192,55862,1,0,0:0:0:0:
192,192,55966,1,0,0:0:0:0:
448,192,56070,1,0,0:0:0:0:
192,192,56174,1,0,0:0:0:0:
320,192,56278,1,0,0:0:0:70:LR3_Snare DSW.wav
448,192,56278,128,0,56591:0:0:0:0:
64,192,56382,1,0,0:0:0:0:
192,192,56382,128,0,56591:0:0:0:0:
320,192,56487,128,0,56591:0:0:0:0:
64,192,56591,128,0,56695:0:0:0:0:
192,192,56695,1,4,0:0:0:0:
320,192,56695,128,2,56799:0:0:0:0:
448,192,56695,128,0,57007:0:0:0:0:
64,192,56799,128,0,56903:0:0:0:0:
192,192,56903,128,0,57112:0:0:0:0:
320,192,57007,128,0,57112:0:0:0:0:
448,192,57112,128,2,57528:0:0:0:0:
64,192,57216,128,0,57320:0:0:0:0:
320,192,57320,128,0,57528:0:0:0:0:
192,192,57424,128,0,57528:0:0:0:0:
64,192,57528,128,2,57841:0:0:0:0:
320,192,57632,128,0,57737:0:0:0:0:
192,192,57737,128,0,57945:0:0:0:0:
320,192,57841,128,0,57945:0:0:0:0:
64,192,57945,128,2,58362:0:0:0:0:
448,192,58049,128,0,58153:0:0:0:0:
192,192,58153,128,0,58362:0:0:0:0:
320,192,58257,128,0,58362:0:0:0:0:
448,192,58362,128,2,58778:0:0:0:0:
64,192,58466,128,0,58570:0:0:0:0:
320,192,58570,128,0,58778:0:0:0:0:
192,192,58674,128,0,58778:0:0:0:0:
64,192,58778,128,2,59195:0:0:0:0:
448,192,58882,128,0,58987:0:0:0:0:
192,192,58987,128,0,59195:0:0:0:0:
320,192,59091,128,0,59195:0:0:0:0:
448,192,59195,128,2,59612:0:0:0:0:
64,192,59299,128,0,59403:0:0:0:0:
320,192,59403,128,0,59612:0:0:0:0:
192,192,59507,128,0,59612:0:0:0:0:
64,192,59612,128,2,60028:0:0:0:0:
448,192,59716,128,0,59820:0:0:0:0:
320,192,59820,128,0,60028:0:0:0:0:
192,192,59924,128,0,60028:0:0:0:0:
448,192,60028,128,2,60341:0:0:0:0:
64,192,60132,128,0,60237:0:0:0:0:
192,192,60237,128,0,60445:0:0:0:0:
320,192,60341,128,0,60445:0:0:0:0:
448,192,60445,128,2,60862:0:0:0:0:
192,192,60549,128,0,60653:0:0:0:0:
320,192,60653,128,0,60862:0:0:0:0:
192,192,60757,128,0,60862:0:0:0:0:
64,192,60862,128,2,61174:0:0:0:0:
448,192,60966,128,0,61070:0:0:0:0:
320,192,61070,128,0,61278:0:0:0:0:
192,192,61174,128,0,61278:0:0:0:0:
64,192,61278,128,2,61695:0:0:0:0:
320,192,61382,128,0,61487:0:0:0:0:
192,192,61487,128,0,61695:0:0:0:0:
320,192,61591,128,0,61695:0:0:0:0:
448,192,61695,128,2,62112:0:0:0:0:
64,192,61799,128,0,61903:0:0:0:0:
320,192,61903,128,0,62112:0:0:0:0:
192,192,62007,128,0,62112:0:0:0:0:
64,192,62112,128,2,62528:0:0:0:0:
448,192,62216,128,0,62320:0:0:0:0:
192,192,62320,128,0,62528:0:0:0:0:
320,192,62424,128,0,62528:0:0:0:0:
448,192,62528,128,2,62945:0:0:0:0:
64,192,62632,128,0,62737:0:0:0:0:
320,192,62737,128,0,62945:0:0:0:0:
192,192,62841,128,0,62945:0:0:0:0:
64,192,62945,128,2,63153:0:0:0:0:
320,192,63049,128,0,63153:0:0:0:0:
448,192,63153,128,2,63362:0:0:0:0:
192,192,63257,128,0,63362:0:0:0:0:
64,192,63362,128,2,63674:0:0:0:0:
448,192,63466,128,0,63570:0:0:0:0:
320,192,63570,128,0,63778:0:0:0:0:
192,192,63674,128,0,63778:0:0:0:0:
64,192,63778,128,2,64195:0:0:0:0:
320,192,63882,128,0,63987:0:0:0:0:
192,192,63987,128,0,64195:0:0:0:0:
320,192,64091,128,0,64195:0:0:0:0:
448,192,64195,128,2,64507:0:0:0:0:
64,192,64299,128,0,64403:0:0:0:0:
192,192,64403,128,0,64612:0:0:0:0:
320,192,64507,128,0,64612:0:0:0:0:
448,192,64612,128,2,65028:0:0:0:0:
192,192,64716,128,0,64820:0:0:0:0:
320,192,64820,128,0,65028:0:0:0:0:
192,192,64924,128,0,65028:0:0:0:0:
64,192,65028,128,2,65445:0:0:0:0:
448,192,65132,128,0,65237:0:0:0:0:
320,192,65237,128,0,65445:0:0:0:0:
192,192,65341,128,0,65445:0:0:0:0:
448,192,65445,128,2,65862:0:0:0:0:
64,192,65549,128,0,65653:0:0:0:0:
192,192,65653,128,0,65862:0:0:0:0:
320,192,65757,128,0,65862:0:0:0:0:
64,192,65862,128,2,66278:0:0:0:0:
448,192,65966,128,0,66070:0:0:0:0:
320,192,66070,128,0,66278:0:0:0:0:
192,192,66174,128,0,66278:0:0:0:0:
448,192,66278,128,2,66487:0:0:0:0:
320,192,66382,128,0,66487:0:0:0:0:
64,192,66487,128,2,66695:0:0:0:0:
192,192,66591,128,0,66695:0:0:0:0:
448,192,66695,128,2,66903:0:0:0:0:
192,192,66799,128,0,66903:0:0:0:0:
64,192,66903,128,2,67112:0:0:0:0:
320,192,67007,128,0,67112:0:0:0:0:
448,192,67112,128,2,67528:0:0:0:0:
64,192,67216,128,0,67320:0:0:0:0:
192,192,67320,128,0,67528:0:0:0:0:
320,192,67424,128,0,67528:0:0:0:0:
64,192,67528,128,2,67841:0:0:0:0:
192,192,67737,128,0,67945:0:0:0:0:
448,192,67841,128,2,68153:0:0:0:0:
320,192,67945,128,0,68049:0:0:0:0:
192,192,68049,128,0,68153:0:0:0:0:
64,192,68153,128,2,68362:0:0:0:0:
320,192,68257,128,0,68362:0:0:0:0:
192,192,68362,1,2,0:0:0:0:
448,192,68362,128,4,68987:0:0:0:0:
64,192,68466,128,0,68570:0:0:0:0:
192,192,68570,128,0,68778:0:0:0:0:
320,192,68674,128,0,68778:0:0:0:0:
64,192,68778,128,0,68882:0:0:0:0:
192,192,68882,128,0,68987:0:0:0:0:
320,192,68987,128,0,69195:0:0:0:0:
192,192,69091,128,0,69195:0:0:0:0:
64,192,69195,128,4,69507:0:0:0:0:
448,192,69195,1,2,0:0:0:0:
320,192,69299,128,0,69403:0:0:0:0:
192,192,69403,128,0,69507:0:0:0:0:
320,192,69507,1,4,0:0:0:0:
448,192,69507,128,2,69820:0:0:0:0:
64,192,69612,128,0,69716:0:0:0:0:
192,192,69716,128,0,69820:0:0:0:0:
64,192,69820,1,2,0:0:0:0:
320,192,69820,128,4,70028:0:0:0:0:
448,192,69924,128,0,70028:0:0:0:0:
64,192,70028,128,4,70132:0:0:0:0:
192,192,70028,128,2,71591:0:0:0:0:
320,192,70132,1,0,0:0:0:0:
448,192,70237,1,0,0:0:0:0:
64,192,70341,1,0,0:0:0:0:
320,192,70445,1,2,0:0:0:0:
448,192,70445,1,0,0:0:0:0:
64,192,70549,1,0,0:0:0:0:
320,192,70653,1,0,0:0:0:0:
448,192,70757,1,0,0:0:0:0:
64,192,70862,1,2,0:0:0:0:
320,192,70862,1,0,0:0:0:0:
448,192,70966,1,0,0:0:0:0:
320,192,71070,1,0,0:0:0:0:
64,192,71174,1,0,0:0:0:0:
320,192,71278,1,2,0:0:0:0:
448,192,71278,1,0,0:0:0:0:
64,192,71382,1,0,0:0:0:0:
448,192,71487,1,0,0:0:0:0:
320,192,71591,1,0,0:0:0:0:
64,192,71695,1,2,0:0:0:0:
192,192,71695,128,0,72320:0:0:0:0:
448,192,71799,1,0,0:0:0:0:
320,192,71903,1,0,0:0:0:0:
64,192,72007,1,0,0:0:0:0:
320,192,72112,1,2,0:0:0:0:
448,192,72112,1,0,0:0:0:0:
64,192,72216,1,0,0:0:0:0:
448,192,72320,128,0,72945:0:0:0:0:
320,192,72424,1,0,0:0:0:0:
64,192,72528,1,2,0:0:0:0:
192,192,72528,1,0,0:0:0:0:
320,192,72632,1,0,0:0:0:0:
64,192,72737,1,0,0:0:0:0:
192,192,72841,1,0,0:0:0:0:
64,192,72945,1,2,0:0:0:0:
320,192,72945,128,0,73362:0:0:0:0:
448,192,73049,1,0,0:0:0:0:
192,192,73153,1,0,0:0:0:0:
64,192,73257,1,0,0:0:0:0:
192,192,73362,128,2,75028:0:0:0:0:
448,192,73362,1,0,0:0:0:0:
320,192,73466,1,0,0:0:0:0:
64,192,73570,1,0,0:0:0:0:
448,192,73674,1,0,0:0:0:0:
64,192,73778,1,2,0:0:0:0:
320,192,73778,1,0,0:0:0:0:
448,192,73882,1,0,0:0:0:0:
64,192,73987,1,0,0:0:0:0:
320,192,74091,1,0,0:0:0:0:
64,192,74195,1,2,0:0:0:0:
448,192,74195,1,0,0:0:0:0:
320,192,74299,1,0,0:0:0:0:
448,192,74403,1,0,0:0:0:0:
64,192,74507,1,0,0:0:0:0:
320,192,74612,1,2,0:0:0:0:
448,192,74612,1,0,0:0:0:0:
64,192,74716,1,0,0:0:0:0:
448,192,74820,1,0,0:0:0:0:
320,192,74924,1,0,0:0:0:0:
64,192,75028,1,2,0:0:0:0:
448,192,75028,128,0,75653:0:0:0:0:
320,192,75132,1,0,0:0:0:0:
192,192,75237,1,0,0:0:0:0:
64,192,75341,1,0,0:0:0:0:
192,192,75445,1,2,0:0:0:0:
320,192,75445,1,0,0:0:0:0:
64,192,75549,1,0,0:0:0:0:
320,192,75653,128,0,76278:0:0:0:0:
192,192,75757,1,0,0:0:0:0:
64,192,75862,1,2,0:0:0:0:
448,192,75862,1,0,0:0:0:0:
192,192,75966,1,0,0:0:0:0:
448,192,76070,1,0,0:0:0:0:
192,192,76174,1,0,0:0:0:0:
64,192,76278,128,2,76591:0:0:0:0:
448,192,76278,1,0,0:0:0:0:
320,192,76382,1,0,0:0:0:0:
192,192,76487,1,0,0:0:0:0:
320,192,76591,1,0,0:0:0:0:
64,192,76695,128,2,78362:0:0:0:0:
192,192,76695,1,4,0:0:0:0:
448,192,76695,1,0,0:0:0:0:
320,192,76799,1,0,0:0:0:0:
448,192,76903,1,0,0:0:0:0:
192,192,77007,1,0,0:0:0:0:
320,192,77112,1,2,0:0:0:0:
448,192,77112,1,0,0:0:0:0:
192,192,77216,1,0,0:0:0:0:
320,192,77320,1,0,0:0:0:0:
448,192,77424,1,0,0:0:0:0:
192,192,77528,1,2,0:0:0:0:
320,192,77528,1,0,0:0:0:0:
448,192,77632,1,0,0:0:0:0:
320,192,77737,1,0,0:0:0:0:
192,192,77841,1,0,0:0:0:0:
320,192,77945,1,2,0:0:0:0:
448,192,77945,1,0,0:0:0:0:
192,192,78049,1,0,0:0:0:0:
448,192,78153,1,0,0:0:0:0:
320,192,78257,1,0,0:0:0:0:
192,192,78362,128,2,78987:0:0:0:0:
448,192,78362,1,4,0:0:0:0:
64,192,78466,1,0,0:0:0:0:
320,192,78570,1,0,0:0:0:0:
448,192,78674,1,0,0:0:0:0:
64,192,78778,1,2,0:0:0:0:
320,192,78778,1,0,0:0:0:0:
448,192,78882,1,0,0:0:0:0:
320,192,78987,128,0,79612:0:0:0:0:
64,192,79091,1,0,0:0:0:0:
192,192,79195,1,2,0:0:0:0:
448,192,79195,1,0,0:0:0:0:
64,192,79299,1,0,0:0:0:0:
448,192,79403,1,0,0:0:0:0:
64,192,79507,1,0,0:0:0:0:
192,192,79612,1,2,0:0:0:0:
448,192,79612,128,0,80028:0:0:0:0:
320,192,79716,1,0,0:0:0:0:
64,192,79820,1,0,0:0:0:0:
192,192,79924,1,0,0:0:0:0:
64,192,80028,1,4,0:0:0:0:
320,192,80028,1,2,0:0:0:0:
448,192,80132,1,0,0:0:0:0:
64,192,80237,1,2,0:0:0:0:
320,192,80237,1,0,0:0:0:0:
448,192,80341,1,0,0:0:0:0:
64,192,80445,1,2,0:0:0:0:
192,192,80445,1,0,0:0:0:0:
320,192,80549,1,0,0:0:0:0:
192,192,80653,1,2,0:0:0:0:
448,192,80653,1,0,0:0:0:0:
64,192,80757,1,0,0:0:0:0:
192,192,80862,1,2,0:0:0:0:
320,192,80862,1,4,0:0:0:0:
448,192,80862,1,0,0:0:0:0:
64,192,80966,1,0,0:0:0:0:
320,192,81070,1,0,0:0:0:0:
64,192,81174,1,2,0:0:0:0:
448,192,81174,1,0,0:0:0:0:
192,192,81278,1,0,0:0:0:0:
320,192,81382,1,0,0:0:0:0:
64,192,81487,1,2,0:0:0:0:
448,192,81487,1,0,0:0:0:0:
320,192,81591,1,0,0:0:0:0:
64,192,81695,1,4,0:0:0:0:
192,192,81695,1,2,0:0:0:0:
448,192,81695,1,0,0:0:0:0:
320,192,81764,1,0,0:0:0:0:
192,192,81834,1,0,0:0:0:0:
448,192,81903,1,0,0:0:0:0:
64,192,81973,1,0,0:0:0:0:
320,192,82042,1,0,0:0:0:0:
192,192,82112,1,0,0:0:0:0:
64,192,82181,1,0,0:0:0:0:
448,192,82250,1,0,0:0:0:0:
320,192,82320,1,0,0:0:0:0:
192,192,82389,1,0,0:0:0:0:
64,192,82459,1,0,0:0:0:0:
320,192,82528,1,0,0:0:0:0:
448,192,82528,1,0,0:0:0:0:
192,192,82598,1,0,0:0:0:0:
64,192,82667,1,0,0:0:0:0:
448,192,82737,1,0,0:0:0:0:
320,192,82806,1,0,0:0:0:0:
192,192,82875,1,0,0:0:0:0:
64,192,82945,1,0,0:0:0:0:
320,192,83014,1,0,0:0:0:0:
448,192,83084,1,0,0:0:0:0:
192,192,83153,1,0,0:0:0:0:
320,192,83223,1,0,0:0:0:0:
448,192,83292,1,0,0:0:0:0:
64,192,83362,128,6,83466:0:0:0:0:
192,192,83362,1,8,0:0:0:0:
320,192,83466,1,0,0:0:0:0:
64,192,83570,128,0,83674:0:0:0:0:
192,192,83674,1,0,0:0:0:0:
64,192,83778,1,8,0:0:0:0:
320,192,83778,1,0,0:0:0:0:
448,192,83882,128,0,83987:0:0:0:0:
192,192,83987,1,0,0:0:0:0:
64,192,84091,128,0,84195:0:0:0:0:
192,192,84195,1,8,0:0:0:0:
320,192,84195,1,0,0:0:0:0:
448,192,84299,1,0,0:0:0:0:
192,192,84403,128,0,84507:0:0:0:0:
64,192,84507,1,0,0:0:0:0:
192,192,84612,1,8,0:0:0:0:
448,192,84612,1,0,0:0:0:0:
320,192,84716,128,0,84820:0:0:0:0:
64,192,84820,1,0,0:0:0:0:
320,192,84924,128,0,85028:0:0:0:0:
64,192,85028,1,8,0:0:0:0:
192,192,85028,1,0,0:0:0:0:
448,192,85132,1,0,0:0:0:0:
64,192,85237,128,0,85341:0:0:0:0:
320,192,85341,1,0,0:0:0:0:
64,192,85445,1,8,0:0:0:0:
192,192,85445,1,0,0:0:0:0:
448,192,85549,128,0,85653:0:0:0:0:
320,192,85653,1,0,0:0:0:0:
64,192,85757,128,0,85862:0:0:0:0:
192,192,85862,1,8,0:0:0:0:
448,192,85862,1,0,0:0:0:0:
320,192,85966,1,0,0:0:0:0:
192,192,86070,128,0,86174:0:0:0:0:
448,192,86174,1,0,0:0:0:0:
64,192,86278,1,8,0:0:0:0:
192,192,86278,1,0,0:0:0:0:
320,192,86382,128,0,86487:0:0:0:0:
64,192,86487,1,0,0:0:0:0:
320,192,86591,128,0,86695:0:0:0:0:
192,192,86695,1,8,0:0:0:0:
448,192,86695,1,0,0:0:0:0:
320,192,86799,1,0,0:0:0:0:
64,192,86903,128,0,87007:0:0:0:0:
192,192,87007,1,0,0:0:0:0:
64,192,87112,1,8,0:0:0:0:
320,192,87112,1,0,0:0:0:0:
448,192,87216,128,0,87320:0:0:0:0:
192,192,87320,1,0,0:0:0:0:
64,192,87424,128,0,87528:0:0:0:0:
320,192,87528,1,8,0:0:0:0:
448,192,87528,1,0,0:0:0:0:
64,192,87632,1,0,0:0:0:0:
192,192,87737,128,0,87841:0:0:0:0:
320,192,87841,1,0,0:0:0:0:
64,192,87945,1,8,0:0:0:0:
448,192,87945,1,0,0:0:0:0:
320,192,88049,128,0,88153:0:0:0:0:
192,192,88153,1,0,0:0:0:0:
320,192,88257,128,0,88362:0:0:0:0:
64,192,88362,1,8,0:0:0:0:
192,192,88362,1,0,0:0:0:0:
320,192,88466,1,0,0:0:0:0:
448,192,88570,128,0,88674:0:0:0:0:
64,192,88674,1,0,0:0:0:0:
320,192,88778,1,8,0:0:0:0:
448,192,88778,1,0,0:0:0:0:
192,192,88882,128,0,88987:0:0:0:0:
320,192,88987,1,0,0:0:0:0:
64,192,89091,128,0,89195:0:0:0:0:
320,192,89195,1,8,0:0:0:0:
448,192,89195,1,2,0:0:0:0:
192,192,89299,128,0,89403:0:0:0:0:
320,192,89351,1,0,0:0:0:0:
448,192,89403,1,0,0:0:0:0:
64,192,89507,1,2,0:0:0:0:
192,192,89507,1,0,0:0:0:0:
448,192,89612,128,8,89716:0:0:0:0:
320,192,89716,128,0,89820:0:0:0:0:
192,192,89820,128,2,89924:0:0:0:0:
448,192,89820,1,0,0:0:0:0:
64,192,89924,128,0,90028:0:0:0:0:
320,192,90028,1,2,0:0:0:0:
448,192,90028,128,8,91695:0:0:0:0:
192,192,90132,1,0,0:0:0:0:
64,192,90237,128,0,90341:0:0:0:0:
192,192,90341,1,0,0:0:0:0:
320,192,90445,128,8,90549:0:0:0:0:
64,192,90549,1,0,0:0:0:0:
192,192,90653,128,0,90757:0:0:0:0:
320,192,90757,1,0,0:0:0:0:
64,192,90862,128,8,90966:0:0:0:0:
320,192,90966,128,0,91070:0:0:0:0:
192,192,91070,1,0,0:0:0:0:
64,192,91174,128,0,91278:0:0:0:0:
320,192,91278,1,8,0:0:0:0:
192,192,91382,128,0,91487:0:0:0:0:
64,192,91487,128,0,91591:0:0:0:0:
320,192,91591,128,0,91695:0:0:0:0:
64,192,91695,128,8,93362:0:0:0:0:
192,192,91695,128,4,91799:0:0:0:0:
448,192,91799,1,0,0:0:0:0:
320,192,91903,128,0,92007:0:0:0:0:
448,192,92007,128,0,92112:0:0:0:0:
192,192,92112,1,8,0:0:0:0:
448,192,92216,128,0,92320:0:0:0:0:
320,192,92320,1,0,0:0:0:0:
192,192,92424,128,0,92528:0:0:0:0:
448,192,92528,128,8,92632:0:0:0:0:
320,192,92632,128,0,92737:0:0:0:0:
448,192,92737,1,0,0:0:0:0:
192,192,92841,128,0,92945:0:0:0:0:
320,192,92945,128,8,93049:0:0:0:0:
448,192,93049,128,0,93153:0:0:0:0:
192,192,93153,128,0,93257:0:0:0:0:
320,192,93257,128,0,93362:0:0:0:0:
192,192,93362,1,10,0:0:0:0:
448,192,93362,1,4,0:0:0:0:
320,192,93466,1,0,0:0:0:0:
64,192,93570,1,2,0:0:0:0:
192,192,93570,1,0,0:0:0:0:
64,192,93674,1,0,0:0:0:0:
448,192,93674,1,0,0:0:0:0:
320,192,93778,1,8,0:0:0:0:
448,192,93778,1,2,0:0:0:0:
192,192,93882,1,0,0:0:0:0:
64,192,93987,1,2,0:0:0:0:
448,192,93987,1,0,0:0:0:0:
192,192,94091,1,0,0:0:0:0:
320,192,94091,1,0,0:0:0:0:
64,192,94195,1,8,0:0:0:0:
320,192,94195,1,2,0:0:0:0:
448,192,94195,1,4,0:0:0:0:
192,192,94299,1,0,0:0:0:0:
320,192,94403,1,2,0:0:0:0:
448,192,94403,1,0,0:0:0:0:
192,192,94507,1,0,0:0:0:0:
448,192,94507,1,0,0:0:0:0:
64,192,94612,1,8,0:0:0:0:
192,192,94612,1,2,0:0:0:0:
448,192,94716,1,0,0:0:0:0:
192,192,94820,1,2,0:0:0:0:
320,192,94820,1,0,0:0:0:0:
64,192,94924,1,0,0:0:0:0:
320,192,94924,1,0,0:0:0:0:
64,192,95028,1,8,0:0:0:0:
192,192,95028,1,2,0:0:0:0:
448,192,95028,1,4,0:0:0:0:
320,192,95132,1,2,0:0:0:0:
192,192,95237,1,2,0:0:0:0:
448,192,95237,1,0,0:0:0:0:
192,192,95341,1,2,0:0:0:0:
320,192,95341,1,0,0:0:0:0:
64,192,95445,1,8,0:0:0:0:
320,192,95445,1,2,0:0:0:0:
448,192,95445,1,4,0:0:0:0:
192,192,95549,1,2,0:0:0:0:
320,192,95653,1,2,0:0:0:0:
448,192,95653,1,0,0:0:0:0:
64,192,95757,1,2,0:0:0:0:
320,192,95757,1,0,0:0:0:0:
64,192,95862,1,8,0:0:0:0:
192,192,95862,1,2,0:0:0:0:
448,192,95862,1,4,0:0:0:0:
320,192,95966,1,2,0:0:0:0:
192,192,96070,1,2,0:0:0:0:
448,192,96070,1,0,0:0:0:0:
192,192,96174,1,2,0:0:0:0:
320,192,96174,1,0,0:0:0:0:
64,192,96278,1,0,0:0:0:70:LR4_SnareBPDT.wav
448,192,96348,1,0,0:0:0:0:
192,192,96382,1,0,0:0:0:0:
320,192,96487,1,0,0:0:0:0:
448,192,96487,1,0,0:0:0:0:
192,192,96591,1,0,0:0:0:0:
448,192,96625,1,0,0:0:0:0:
64,192,96695,128,6,97320:0:0:0:0:
192,192,96799,128,0,97528:0:0:0:0:
448,192,97320,128,0,97841:0:0:0:0:
320,192,97424,128,0,97841:0:0:0:0:
64,192,97528,128,0,98257:0:0:0:0:
192,192,97945,128,0,98257:0:0:0:70:LR3_Snare DSW.wav
320,192,97945,128,0,98257:0:0:0:0:
448,192,97945,128,0,98257:0:0:0:0:
64,192,98362,128,4,98674:0:0:0:0:
192,192,98362,128,2,98466:0:0:0:0:
320,192,98362,128,0,98466:0:0:0:0:
448,192,98362,1,0,0:0:0:0:
320,192,98570,128,0,98674:0:0:0:0:
192,192,98778,128,2,98882:0:0:0:0:
448,192,98778,128,0,99091:0:0:0:0:
64,192,98987,128,0,99091:0:0:0:0:
192,192,99091,128,0,99195:0:0:0:0:
64,192,99195,128,2,99403:0:0:0:0:
320,192,99195,128,0,99299:0:0:0:0:
448,192,99299,128,0,99403:0:0:0:0:
320,192,99403,1,0,0:0:0:0:
192,192,99507,128,0,99612:0:0:0:0:
320,192,99612,1,2,0:0:0:0:
448,192,99612,128,0,99820:0:0:0:0:
64,192,99716,128,0,99820:0:0:0:0:
320,192,99820,128,0,99924:0:0:0:0:
448,192,99924,128,0,100028:0:0:0:0:
64,192,100028,128,2,100341:0:0:0:0:
320,192,100028,128,0,100132:0:0:0:0:
192,192,100237,128,0,100341:0:0:0:0:
320,192,100341,128,0,100445:0:0:0:0:
64,192,100445,128,2,100653:0:0:0:0:
192,192,100445,1,0,0:0:0:0:
448,192,100549,128,0,100653:0:0:0:0:
320,192,100653,1,0,0:0:0:0:
192,192,100757,128,0,100862:0:0:0:0:
64,192,100862,128,2,100966:0:0:0:0:
448,192,100862,128,0,101070:0:0:0:0:
320,192,100966,128,0,101070:0:0:0:0:
192,192,101070,1,0,0:0:0:0:
64,192,101174,128,0,101278:0:0:0:0:
192,192,101278,1,2,0:0:0:0:
448,192,101278,128,0,101487:0:0:0:0:
320,192,101382,128,0,101487:0:0:0:0:
192,192,101487,128,0,101591:0:0:0:0:
320,192,101591,128,0,101695:0:0:0:0:
64,192,101695,128,2,102112:0:0:0:0:
192,192,101695,128,0,101799:0:0:0:0:
320,192,101903,128,0,102007:0:0:0:0:
192,192,102112,128,2,102216:0:0:0:0:
448,192,102112,128,0,102528:0:0:0:0:
320,192,102320,128,0,102424:0:0:0:0:
64,192,102528,128,2,102945:0:0:0:0:
192,192,102528,128,0,102632:0:0:0:0:
320,192,102632,128,0,102737:0:0:0:0:
448,192,102737,1,0,0:0:0:0:
192,192,102841,128,0,102945:0:0:0:0:
320,192,102945,1,2,0:0:0:0:
448,192,102945,128,0,103362:0:0:0:0:
64,192,103049,128,0,103153:0:0:0:0:
320,192,103153,128,0,103257:0:0:0:0:
192,192,103257,128,0,103362:0:0:0:0:
64,192,103362,128,2,103674:0:0:0:0:
320,192,103362,128,0,103466:0:0:0:0:
448,192,103570,128,0,103674:0:0:0:0:
192,192,103674,128,0,103778:0:0:0:0:
64,192,103778,128,2,104195:0:0:0:0:
320,192,103778,1,0,0:0:0:0:
448,192,103882,128,0,103987:0:0:0:0:
320,192,103987,128,0,104091:0:0:0:0:
192,192,104195,128,2,104299:0:0:0:0:
448,192,104195,128,0,104507:0:0:0:0:
64,192,104299,128,0,104403:0:0:0:0:
320,192,104403,1,0,0:0:0:0:
192,192,104507,128,0,104612:0:0:0:0:
64,192,104612,128,2,104716:0:0:0:0:
448,192,104612,128,0,104820:0:0:0:0:
320,192,104716,128,0,104820:0:0:0:0:
64,192,104820,128,2,105028:0:0:0:0:
192,192,104820,128,0,104924:0:0:0:0:
320,192,104924,128,0,105028:0:0:0:0:
192,192,105028,128,2,105132:0:0:0:0:
448,192,105028,128,4,105341:0:0:0:0:
320,192,105237,128,0,105341:0:0:0:0:
64,192,105445,128,2,105757:0:0:0:0:
448,192,105445,128,0,105549:0:0:0:0:
192,192,105653,128,0,105757:0:0:0:0:
320,192,105757,128,0,105862:0:0:0:0:
64,192,105862,128,2,105966:0:0:0:0:
448,192,105862,128,0,106070:0:0:0:0:
192,192,105966,128,0,106070:0:0:0:0:
320,192,106070,1,0,0:0:0:0:
192,192,106174,128,0,106278:0:0:0:0:
64,192,106278,128,2,106591:0:0:0:0:
448,192,106278,1,0,0:0:0:0:
320,192,106382,128,0,106487:0:0:0:0:
192,192,106487,128,0,106591:0:0:0:0:
320,192,106591,128,0,106695:0:0:0:0:
64,192,106695,128,2,106799:0:0:0:0:
192,192,106695,1,4,0:0:0:0:
448,192,106695,128,0,107007:0:0:0:0:
192,192,106903,128,0,107007:0:0:0:0:
320,192,107007,128,0,107112:0:0:0:0:
64,192,107112,1,2,0:0:0:0:
448,192,107112,128,0,107320:0:0:0:0:
320,192,107216,128,0,107320:0:0:0:0:
192,192,107320,1,0,0:0:0:0:
448,192,107424,128,0,107528:0:0:0:0:
64,192,107528,128,2,107737:0:0:0:0:
320,192,107528,128,0,107632:0:0:0:0:
192,192,107632,128,0,107737:0:0:0:0:
320,192,107737,1,0,0:0:0:0:
448,192,107841,128,0,107945:0:0:0:0:
64,192,107945,128,2,108153:0:0:0:0:
192,192,107945,128,0,108049:0:0:0:0:
320,192,108049,128,0,108153:0:0:0:0:
192,192,108153,128,2,108257:0:0:0:0:
448,192,108153,128,0,108362:0:0:0:0:
320,192,108257,128,0,108362:0:0:0:0:
64,192,108362,128,2,108570:0:0:0:0:
192,192,108362,128,4,108466:0:0:0:0:
320,192,108570,1,2,0:0:0:0:
448,192,108570,128,0,108778:0:0:0:0:
192,192,108674,128,0,108778:0:0:0:0:
64,192,108778,128,2,109195:0:0:0:0:
320,192,108778,1,0,0:0:0:0:
320,192,108987,128,0,109091:0:0:0:0:
192,192,109195,1,2,0:0:0:0:
320,192,109195,1,4,0:0:0:0:
448,192,109195,128,0,109507:0:0:0:0:
64,192,109299,128,0,109403:0:0:0:0:
64,192,109507,128,2,109820:0:0:0:0:
192,192,109507,128,0,109612:0:0:0:0:
320,192,109507,1,0,0:0:0:0:
320,192,109716,128,0,109820:0:0:0:0:
192,192,109820,128,2,109924:0:0:0:0:
448,192,109820,128,0,110028:0:0:0:0:
320,192,109924,128,0,110028:0:0:0:0:
64,192,110028,128,2,110862:0:0:0:0:
192,192,110028,128,4,110132:0:0:0:0:
448,192,110237,1,0,0:0:0:0:
192,192,110341,128,0,110445:0:0:0:0:
320,192,110653,128,0,110757:0:0:0:0:
192,192,110862,1,2,0:0:0:0:
320,192,110862,1,4,0:0:0:0:
448,192,110862,128,0,110966:0:0:0:0:
64,192,110966,1,0,0:0:0:0:
64,192,111174,1,4,0:0:0:0:
192,192,111174,1,2,0:0:0:0:
320,192,111174,1,0,0:0:0:0:
448,192,111348,1,0,0:0:0:0:
64,192,111487,1,4,0:0:0:0:
192,192,111487,1,2,0:0:0:0:
448,192,111487,1,0,0:0:0:0:
448,192,111625,1,0,0:0:0:0:
64,192,111695,128,0,112007:0:0:0:0:
448,192,111799,128,0,112007:0:0:0:0:
320,192,111903,128,0,112007:0:0:0:0:
192,192,112007,128,0,112112:0:0:0:0:
64,192,112112,128,4,112216:0:0:0:0:
320,192,112112,128,2,112216:0:0:0:0:
448,192,112112,128,0,112424:0:0:0:0:
64,192,112320,128,0,112424:0:0:0:0:
192,192,112424,128,0,112528:0:0:0:0:
64,192,112528,1,2,0:0:0:0:
320,192,112528,128,0,112632:0:0:0:0:
448,192,112528,128,0,112737:0:0:0:0:
192,192,112632,128,0,112737:0:0:0:0:
320,192,112737,1,0,0:0:0:0:
64,192,112841,128,0,112945:0:0:0:0:
192,192,112945,1,2,0:0:0:0:
320,192,112945,1,0,0:0:0:0:
448,192,112945,128,0,113153:0:0:0:0:
64,192,113049,128,0,113153:0:0:0:0:
192,192,113153,128,0,113257:0:0:0:0:
320,192,113257,128,0,113362:0:0:0:0:
64,192,113362,128,2,113674:0:0:0:0:
192,192,113362,128,0,113466:0:0:0:0:
448,192,113362,1,0,0:0:0:0:
320,192,113570,128,0,113674:0:0:0:0:
448,192,113674,128,0,113778:0:0:0:0:
64,192,113778,128,2,113987:0:0:0:0:
192,192,113778,1,0,0:0:0:0:
320,192,113778,1,0,0:0:0:0:
448,192,113882,128,0,113987:0:0:0:0:
192,192,113987,1,0,0:0:0:0:
320,192,114091,128,0,114195:0:0:0:0:
64,192,114195,128,2,114403:0:0:0:0:
192,192,114195,128,0,114299:0:0:0:0:
448,192,114195,1,0,0:0:0:0:
320,192,114299,128,0,114403:0:0:0:0:
448,192,114403,1,0,0:0:0:0:
192,192,114507,128,0,114612:0:0:0:0:
64,192,114612,128,2,114716:0:0:0:0:
448,192,114612,1,0,0:0:0:0:
320,192,114716,128,0,114820:0:0:0:0:
64,192,114820,128,0,115028:0:0:0:0:
192,192,114820,1,0,0:0:0:0:
320,192,114924,128,0,115028:0:0:0:0:
192,192,115028,128,2,115132:0:0:0:0:
448,192,115028,128,0,115341:0:0:0:0:
64,192,115237,128,0,115341:0:0:0:0:
64,192,115445,1,2,0:0:0:0:
192,192,115445,128,0,115549:0:0:0:0:
448,192,115445,128,0,115757:0:0:0:0:
320,192,115653,128,0,115757:0:0:0:0:
192,192,115862,128,2,115966:0:0:0:0:
320,192,115862,1,0,0:0:0:0:
448,192,115862,128,0,116174:0:0:0:0:
64,192,115966,128,0,116070:0:0:0:0:
320,192,116070,1,0,0:0:0:0:
192,192,116174,128,0,116278:0:0:0:0:
64,192,116278,1,2,0:0:0:0:
320,192,116278,1,0,0:0:0:0:
448,192,116278,128,0,116591:0:0:0:0:
192,192,116382,128,0,116487:0:0:0:0:
64,192,116487,128,0,116591:0:0:0:0:
320,192,116591,128,0,116695:0:0:0:0:
64,192,116695,128,2,117007:0:0:0:0:
192,192,116695,128,0,116799:0:0:0:0:
448,192,116695,1,0,0:0:0:0:
448,192,116903,128,0,117007:0:0:0:0:
192,192,117007,128,0,117112:0:0:0:0:
64,192,117112,128,2,117424:0:0:0:0:
320,192,117112,1,0,0:0:0:0:
448,192,117112,1,0,0:0:0:0:
192,192,117216,128,0,117320:0:0:0:0:
320,192,117320,128,0,117424:0:0:0:0:
64,192,117528,128,2,117841:0:0:0:0:
320,192,117528,1,0,0:0:0:0:
448,192,117528,128,0,117632:0:0:0:0:
192,192,117632,128,0,117737:0:0:0:0:
320,192,117737,1,0,0:0:0:0:
448,192,117841,128,0,117945:0:0:0:0:
64,192,117945,128,2,118049:0:0:0:0:
192,192,117945,128,0,118049:0:0:0:0:
320,192,118049,128,0,118153:0:0:0:0:
64,192,118153,128,2,118362:0:0:0:0:
192,192,118153,1,0,0:0:0:0:
448,192,118153,128,0,118257:0:0:0:0:
320,192,118257,128,0,118362:0:0:0:0:
192,192,118362,128,2,118466:0:0:0:0:
448,192,118362,1,4,0:0:0:0:
320,192,118570,128,0,118674:0:0:0:0:
448,192,118778,128,0,118882:0:0:0:0:
64,192,118987,128,0,119091:0:0:0:0:
192,192,119091,128,0,119195:0:0:0:0:
64,192,119195,1,2,0:0:0:0:
320,192,119195,128,4,119299:0:0:0:0:
448,192,119195,1,0,0:0:0:0:
448,192,119299,128,0,119403:0:0:0:0:
64,192,119507,128,0,119612:0:0:0:0:
192,192,119716,128,0,119820:0:0:0:0:
320,192,119820,128,0,119924:0:0:0:0:
448,192,119924,128,0,120028:0:0:0:0:
64,192,120028,1,2,0:0:0:0:
192,192,120028,1,4,0:0:0:0:
320,192,120028,128,0,120132:0:0:0:0:
64,192,120237,128,0,120341:0:0:0:0:
192,192,120341,128,0,120445:0:0:0:0:
320,192,120549,128,0,120653:0:0:0:0:
448,192,120757,128,0,120862:0:0:0:0:
64,192,120862,1,2,0:0:0:0:
192,192,120862,1,4,0:0:0:0:
320,192,120862,128,0,120966:0:0:0:0:
64,192,120966,128,0,121070:0:0:0:0:
192,192,121174,128,2,121278:0:0:0:0:
320,192,121174,1,4,0:0:0:0:
448,192,121174,1,0,0:0:0:0:
64,192,121278,128,0,121382:0:0:0:0:
320,192,121382,128,0,121487:0:0:0:0:
64,192,121487,1,2,0:0:0:0:
192,192,121487,128,4,121591:0:0:0:0:
448,192,121487,1,0,0:0:0:0:
320,192,121591,128,0,121695:0:0:0:0:
64,192,121695,1,2,0:0:0:0:
192,192,121695,1,4,0:0:0:0:
448,192,121695,128,0,121799:0:0:0:0:
64,192,121903,1,2,0:0:0:0:
448,192,121903,1,0,0:0:0:0:
320,192,122007,128,0,122112:0:0:0:0:
64,192,122112,1,2,0:0:0:0:
192,192,122112,1,4,0:0:0:0:
448,192,122112,1,0,0:0:0:0:
192,192,122320,128,2,122424:0:0:0:0:
320,192,122320,1,0,0:0:0:0:
64,192,122528,1,2,0:0:0:0:
192,192,122528,1,4,0:0:0:0:
448,192,122528,128,0,122632:0:0:0:0:
320,192,122632,128,0,122737:0:0:0:0:
192,192,122841,128,2,122945:0:0:0:0:
320,192,122841,1,4,0:0:0:0:
448,192,122841,1,0,0:0:0:0:
64,192,123049,128,0,123153:0:0:0:0:
192,192,123153,128,2,123257:0:0:0:0:
448,192,123153,1,0,0:0:0:0:
320,192,123257,128,0,123362:0:0:0:0:
64,192,123362,1,2,0:0:0:0:
192,192,123362,1,4,0:0:0:0:
448,192,123362,128,0,123466:0:0:0:0:
320,192,123466,1,0,0:0:0:0:
192,192,123570,1,0,0:0:0:0:
64,192,123674,128,0,123778:0:0:0:0:
448,192,123778,1,0,0:0:0:0:
320,192,123882,1,0,0:0:0:0:
192,192,123987,128,0,124091:0:0:0:0:
448,192,124091,1,0,0:0:0:0:
320,192,124195,128,0,124299:0:0:0:0:
192,192,124299,1,0,0:0:0:0:
64,192,124403,1,0,0:0:0:0:
320,192,124507,1,0,0:0:0:0:
192,192,124612,1,0,0:0:0:0:
448,192,124681,1,0,0:0:0:0:
448,192,124820,1,0,0:0:0:0:
448,192,124959,1,0,0:0:0:0:
64,192,125028,128,2,126382:0:0:0:0:
192,192,125028,128,0,125132:0:0:0:0:
320,192,125237,128,0,125341:0:0:0:0:
448,192,125445,128,0,125549:0:0:0:0:
192,192,125653,128,0,125757:0:0:0:0:
320,192,125862,128,0,125966:0:0:0:0:
448,192,125966,128,0,126070:0:0:0:0:
192,192,126174,128,0,126278:0:0:0:0:
320,192,126278,128,0,126382:0:0:0:0:
448,192,126382,128,0,126487:0:0:0:0:
64,192,126487,128,4,131695:0:0:0:0:
192,192,126487,128,2,126591:0:0:0:0:
320,192,126487,1,0,0:0:0:0:
