osu file format v14

[General]
AudioFilename: audio.mp3
AudioLeadIn: 0
PreviewTime: 26862
Countdown: 1
SampleSet: Soft
StackLeniency: 0.7
Mode: 1
LetterboxInBreaks: 0
WidescreenStoryboard: 1

[Editor]
Bookmarks: 8689,54842,103304
DistanceSpacing: 0.5
BeatDivisor: 4
GridSize: 32
TimelineZoom: 2.2

[Metadata]
Title:LastOmegA
TitleUnicode:LastĪ©megA
Artist:BlackY
ArtistUnicode:BlackY
Creator:L y s
Version:Oni
Source:SOUND VOLTEX IV HEAVENLY HAVEN
Tags:The 7th KAC Original Song Contest
BeatmapID:1819133
BeatmapSetID:870512

[Difficulty]
HPDrainRate:5.5
CircleSize:5.5
OverallDifficulty:5.5
ApproachRate:5.5
SliderMultiplier:1.4
SliderTickRate:1

[Events]
//Background and Video events
0,0,"LastĪ©megA_MXM.png",0,0
//Break Periods
//Storyboard Layer 0 (Background)
//Storyboard Layer 1 (Fail)
//Storyboard Layer 2 (Pass)
//Storyboard Layer 3 (Foreground)
//Storyboard Sound Samples

[TimingPoints]
1766,288.461538461538,4,2,0,100,1,0
27150,-100,4,2,0,100,0,1
45612,-100,4,2,0,100,0,0
64073,-100,4,2,0,100,0,0
64362,-133.333333333333,4,2,0,100,0,0
73304,-100,4,2,0,100,0,0
85996,-100,4,2,0,100,0,1
112535,-100,4,2,0,100,0,0

[HitObjects]
256,192,1766,5,4,0:0:0:0:
256,192,2919,1,8,0:0:0:0:
256,192,2991,1,8,0:0:0:0:
256,192,3064,1,8,0:0:0:0:
256,192,3208,1,8,0:0:0:0:
256,192,3352,1,8,0:0:0:0:
256,192,3424,1,8,0:0:0:0:
256,192,3496,1,8,0:0:0:0:
256,192,3640,1,8,0:0:0:0:
256,192,3785,1,8,0:0:0:0:
256,192,3857,1,8,0:0:0:0:
256,192,3929,1,0,0:0:0:0:
256,192,4073,1,0,0:0:0:0:
256,192,4145,1,0,0:0:0:0:
256,192,4217,1,0,0:0:0:0:
256,192,4362,1,0,0:0:0:0:
256,192,4506,1,0,0:0:0:0:
256,192,4578,1,0,0:0:0:0:
256,192,4650,1,0,0:0:0:0:
256,192,4794,1,0,0:0:0:0:
256,192,4939,1,0,0:0:0:0:
256,192,5011,1,0,0:0:0:0:
256,192,5083,1,8,0:0:0:0:
256,192,5227,1,8,0:0:0:0:
256,192,5299,1,8,0:0:0:0:
256,192,5371,1,0,0:0:0:0:
256,192,5443,1,0,0:0:0:0:
256,192,5515,1,0,0:0:0:0:
256,192,5660,1,8,0:0:0:0:
256,192,5732,1,8,0:0:0:0:
256,192,5804,1,0,0:0:0:0:
256,192,5876,1,0,0:0:0:0:
256,192,5948,1,0,0:0:0:0:
256,192,6092,1,8,0:0:0:0:
256,192,6381,1,0,0:0:0:0:
256,192,6453,1,0,0:0:0:0:
256,192,6525,1,0,0:0:0:0:
256,192,6597,1,0,0:0:0:0:
256,192,6669,1,0,0:0:0:0:
256,192,6741,1,0,0:0:0:0:
256,192,6814,1,0,0:0:0:0:
256,192,6886,1,0,0:0:0:0:
256,192,6958,1,0,0:0:0:0:
256,192,7030,1,0,0:0:0:0:
256,192,7102,1,0,0:0:0:0:
256,192,7174,1,0,0:0:0:0:
256,192,7246,1,0,0:0:0:0:
256,192,7318,1,0,0:0:0:0:
256,192,7390,1,0,0:0:0:0:
256,192,7463,1,0,0:0:0:0:
256,192,7535,1,0,0:0:0:0:
256,192,7607,1,0,0:0:0:0:
256,192,7679,1,0,0:0:0:0:
256,192,7751,1,0,0:0:0:0:
256,192,7823,1,0,0:0:0:0:
256,192,7895,1,0,0:0:0:0:
256,192,7967,1,0,0:0:0:0:
256,192,8040,1,0,0:0:0:0:
256,192,8112,1,0,0:0:0:0:
256,192,8400,1,12,0:0:0:0:
256,192,8689,1,4,0:0:0:0:
256,192,8977,1,8,0:0:0:0:
256,192,9121,1,8,0:0:0:0:
256,192,9265,1,0,0:0:0:0:
256,192,9338,1,0,0:0:0:0:
256,192,9482,1,0,0:0:0:0:
256,192,9554,1,0,0:0:0:0:
256,192,9698,1,0,0:0:0:0:
256,192,9842,1,0,0:0:0:0:
256,192,9987,1,8,0:0:0:0:
256,192,10131,1,0,0:0:0:0:
256,192,10203,1,0,0:0:0:0:
256,192,10347,1,0,0:0:0:0:
256,192,10419,1,0,0:0:0:0:
256,192,10564,1,0,0:0:0:0:
256,192,10708,1,8,0:0:0:0:
256,192,10852,1,8,0:0:0:0:
256,192,10996,1,0,0:0:0:0:
256,192,11285,1,8,0:0:0:0:
256,192,11429,1,8,0:0:0:0:
256,192,11573,1,0,0:0:0:0:
256,192,11645,1,0,0:0:0:0:
256,192,11790,1,0,0:0:0:0:
256,192,11862,1,0,0:0:0:0:
256,192,12006,1,8,0:0:0:0:
256,192,12150,1,0,0:0:0:0:
256,192,12294,1,0,0:0:0:0:
256,192,12439,1,0,0:0:0:0:
256,192,12511,1,0,0:0:0:0:
256,192,12727,1,8,0:0:0:0:
256,192,12871,1,8,0:0:0:0:
256,192,13015,1,8,0:0:0:0:
256,192,13160,1,8,0:0:0:0:
256,192,13304,1,4,0:0:0:0:
256,192,13592,1,8,0:0:0:0:
256,192,13737,1,8,0:0:0:0:
256,192,13881,1,0,0:0:0:0:
256,192,13953,1,0,0:0:0:0:
256,192,14097,1,0,0:0:0:0:
256,192,14169,1,0,0:0:0:0:
256,192,14314,1,8,0:0:0:0:
256,192,14458,1,0,0:0:0:0:
256,192,14602,1,8,0:0:0:0:
256,192,14746,1,0,0:0:0:0:
256,192,14818,1,0,0:0:0:0:
256,192,14963,1,0,0:0:0:0:
256,192,15035,1,0,0:0:0:0:
256,192,15179,1,0,0:0:0:0:
256,192,15323,1,8,0:0:0:0:
256,192,15467,1,8,0:0:0:0:
256,192,15612,1,0,0:0:0:0:
256,192,15900,1,8,0:0:0:0:
256,192,16044,1,8,0:0:0:0:
256,192,16189,1,0,0:0:0:0:
256,192,16261,1,0,0:0:0:0:
256,192,16405,1,0,0:0:0:0:
256,192,16477,1,0,0:0:0:0:
256,192,16621,1,8,0:0:0:0:
256,192,16765,1,0,0:0:0:0:
256,192,16838,1,0,0:0:0:0:
256,192,16910,1,8,0:0:0:0:
256,192,17054,1,0,0:0:0:0:
256,192,17126,1,0,0:0:0:0:
256,192,17342,1,8,0:0:0:0:
256,192,17415,1,8,0:0:0:0:
256,192,17487,1,8,0:0:0:0:
256,192,17559,1,8,0:0:0:0:
256,192,17631,1,0,0:0:0:0:
256,192,17919,1,0,0:0:0:0:
256,192,18208,1,12,0:0:0:0:
256,192,18496,1,8,0:0:0:0:
256,192,18640,1,8,0:0:0:0:
256,192,18785,1,0,0:0:0:0:
256,192,19073,1,0,0:0:0:0:
256,192,19145,1,0,0:0:0:0:
256,192,19217,1,8,0:0:0:0:
256,192,19362,1,8,0:0:0:0:
256,192,19506,1,0,0:0:0:0:
256,192,19650,1,8,0:0:0:0:
256,192,19722,1,8,0:0:0:0:
256,192,19794,1,8,0:0:0:0:
256,192,19939,1,0,0:0:0:0:
256,192,20227,1,0,0:0:0:0:
256,192,20515,1,8,0:0:0:0:
256,192,20660,1,8,0:0:0:0:
256,192,20804,1,0,0:0:0:0:
256,192,20876,1,0,0:0:0:0:
256,192,20948,1,8,0:0:0:0:
256,192,21092,1,8,0:0:0:0:
256,192,21237,1,8,0:0:0:0:
256,192,21381,1,0,0:0:0:0:
256,192,21525,1,8,0:0:0:0:
256,192,21597,1,8,0:0:0:0:
256,192,21669,1,0,0:0:0:0:
256,192,21814,1,0,0:0:0:0:
256,192,21958,1,8,0:0:0:0:
256,192,22174,1,8,0:0:0:0:
256,192,22390,1,8,0:0:0:0:
256,192,22535,1,4,0:0:0:0:
256,192,22823,1,8,0:0:0:0:
256,192,22967,1,8,0:0:0:0:
256,192,23112,1,0,0:0:0:0:
256,192,23256,1,0,0:0:0:0:
256,192,23400,1,8,0:0:0:0:
256,192,23472,1,8,0:0:0:0:
256,192,23544,1,8,0:0:0:0:
256,192,23616,1,8,0:0:0:0:
256,192,23689,1,0,0:0:0:0:
256,192,23833,1,8,0:0:0:0:
256,192,24049,1,8,0:0:0:0:
256,192,24265,1,0,0:0:0:0:
256,192,24410,1,0,0:0:0:0:
256,192,24482,1,0,0:0:0:0:
256,192,24554,1,0,0:0:0:0:
256,192,24698,1,0,0:0:0:0:
256,192,24842,1,0,0:0:0:0:
256,192,24939,1,0,0:0:0:0:
256,192,25035,1,8,0:0:0:0:
256,192,25131,1,0,0:0:0:0:
256,192,25203,1,0,0:0:0:0:
256,192,25275,1,8,0:0:0:0:
256,192,25419,1,0,0:0:0:0:
256,192,25491,1,0,0:0:0:0:
256,192,25564,1,8,0:0:0:0:
256,192,25636,1,8,0:0:0:0:
256,192,25708,1,0,0:0:0:0:
256,192,25780,1,0,0:0:0:0:
256,192,25852,1,8,0:0:0:0:
256,192,25996,1,0,0:0:0:0:
256,192,26140,1,8,0:0:0:0:
256,192,26285,1,0,0:0:0:0:
256,192,26357,1,8,0:0:0:0:
256,192,26573,1,0,0:0:0:0:
256,192,26645,1,0,0:0:0:0:
256,192,26717,1,0,0:0:0:0:
256,192,26790,1,8,0:0:0:0:
256,192,26862,1,0,0:0:0:0:
256,192,26934,1,0,0:0:0:0:
256,192,27006,1,8,0:0:0:0:
256,192,27150,1,4,0:0:0:0:
256,192,27439,1,8,0:0:0:0:
256,192,27727,1,0,0:0:0:0:
256,192,27871,1,8,0:0:0:0:
256,192,28015,1,0,0:0:0:0:
256,192,28088,1,0,0:0:0:0:
256,192,28160,1,8,0:0:0:0:
256,192,28448,1,8,0:0:0:0:
256,192,28592,1,0,0:0:0:0:
256,192,28737,1,8,0:0:0:0:
256,192,28881,1,0,0:0:0:0:
256,192,28953,1,0,0:0:0:0:
256,192,29025,1,8,0:0:0:0:
256,192,29169,1,0,0:0:0:0:
256,192,29314,1,8,0:0:0:0:
256,192,29458,1,0,0:0:0:0:
256,192,29746,1,0,0:0:0:0:
256,192,29890,1,0,0:0:0:0:
256,192,30179,1,8,0:0:0:0:
256,192,30323,1,0,0:0:0:0:
256,192,30467,1,8,0:0:0:0:
256,192,30756,1,0,0:0:0:0:
256,192,30972,1,0,0:0:0:0:
256,192,31189,1,8,0:0:0:0:
256,192,31405,1,8,0:0:0:0:
256,192,31621,1,0,0:0:0:0:
256,192,31765,1,8,0:0:0:0:
256,192,31910,1,0,0:0:0:0:
256,192,32054,1,4,0:0:0:0:
256,192,32342,1,0,0:0:0:0:
256,192,32487,1,8,0:0:0:0:
256,192,32631,1,0,0:0:0:0:
256,192,32703,1,0,0:0:0:0:
256,192,32775,1,8,0:0:0:0:
256,192,33064,1,8,0:0:0:0:
256,192,33208,1,0,0:0:0:0:
256,192,33352,1,8,0:0:0:0:
256,192,33640,1,0,0:0:0:0:
256,192,33785,1,0,0:0:0:0:
256,192,33929,1,8,0:0:0:0:
256,192,34073,1,8,0:0:0:0:
256,192,34217,1,0,0:0:0:0:
256,192,34362,1,0,0:0:0:0:
256,192,34506,1,0,0:0:0:0:
256,192,34578,1,0,0:0:0:0:
256,192,34650,1,0,0:0:0:0:
256,192,34794,1,8,0:0:0:0:
256,192,34939,1,0,0:0:0:0:
256,192,35083,1,8,0:0:0:0:
256,192,35371,1,0,0:0:0:0:
256,192,35515,1,0,0:0:0:0:
256,192,35660,1,8,0:0:0:0:
256,192,35804,1,8,0:0:0:0:
256,192,35876,1,8,0:0:0:0:
256,192,35948,1,8,0:0:0:0:
256,192,36020,1,8,0:0:0:0:
256,192,36092,1,0,0:0:0:0:
256,192,36165,1,0,0:0:0:0:
256,192,36237,1,0,0:0:0:0:
256,192,36381,1,8,0:0:0:0:
256,192,36597,1,8,0:0:0:0:
256,192,36814,1,0,0:0:0:0:
256,192,36958,1,0,0:0:0:0:
256,192,37030,1,0,0:0:0:0:
256,192,37102,1,8,0:0:0:0:
256,192,37246,1,0,0:0:0:0:
256,192,37390,1,8,0:0:0:0:
256,192,37535,1,8,0:0:0:0:
256,192,37751,1,8,0:0:0:0:
256,192,37967,1,0,0:0:0:0:
256,192,38112,1,8,0:0:0:0:
256,192,38184,1,8,0:0:0:0:
256,192,38256,1,0,0:0:0:0:
256,192,38400,1,0,0:0:0:0:
256,192,38544,1,8,0:0:0:0:
256,192,38689,1,0,0:0:0:0:
256,192,38833,1,0,0:0:0:0:
256,192,38977,1,8,0:0:0:0:
256,192,39265,1,0,0:0:0:0:
256,192,39410,1,8,0:0:0:0:
256,192,39554,1,0,0:0:0:0:
256,192,39626,1,0,0:0:0:0:
256,192,39698,1,0,0:0:0:0:
256,192,39842,1,0,0:0:0:0:
256,192,39987,1,0,0:0:0:0:
256,192,40203,1,0,0:0:0:0:
256,192,40419,1,8,0:0:0:0:
256,192,40636,1,8,0:0:0:0:
256,192,40852,1,0,0:0:0:0:
256,192,40996,1,8,0:0:0:0:
256,192,41140,1,0,0:0:0:0:
256,192,41285,1,8,0:0:0:0:
256,192,41429,1,0,0:0:0:0:
256,192,41573,1,8,0:0:0:0:
256,192,41717,1,8,0:0:0:0:
256,192,41790,1,8,0:0:0:0:
256,192,41862,1,0,0:0:0:0:
256,192,42006,1,8,0:0:0:0:
256,192,42150,1,0,0:0:0:0:
256,192,42294,1,0,0:0:0:0:
256,192,42439,1,8,0:0:0:0:
256,192,42583,1,8,0:0:0:0:
256,192,42727,1,0,0:0:0:0:
256,192,42799,1,0,0:0:0:0:
256,192,42871,1,8,0:0:0:0:
256,192,42943,1,8,0:0:0:0:
256,192,43015,1,0,0:0:0:0:
256,192,43160,1,8,0:0:0:0:
256,192,43304,1,0,0:0:0:0:
256,192,43376,1,0,0:0:0:0:
256,192,43448,1,0,0:0:0:0:
256,192,43520,1,0,0:0:0:0:
256,192,43592,1,0,0:0:0:0:
256,192,43665,1,0,0:0:0:0:
256,192,43737,1,0,0:0:0:0:
256,192,43809,1,0,0:0:0:0:
256,192,43881,1,0,0:0:0:0:
256,192,43953,1,0,0:0:0:0:
256,192,44025,1,0,0:0:0:0:
256,192,44097,1,0,0:0:0:0:
256,192,44169,1,0,0:0:0:0:
256,192,44241,1,0,0:0:0:0:
256,192,44314,1,0,0:0:0:0:
256,192,44386,1,0,0:0:0:0:
256,192,44458,12,0,45323,0:0:0:0:
256,192,45612,5,4,0:0:0:0:
256,192,45900,1,8,0:0:0:0:
256,192,46044,1,0,0:0:0:0:
256,192,46189,1,0,0:0:0:0:
256,192,46333,1,8,0:0:0:0:
256,192,46477,1,0,0:0:0:0:
256,192,46765,1,4,0:0:0:0:
256,192,46982,1,4,0:0:0:0:
256,192,47198,1,4,0:0:0:0:
256,192,47487,1,8,0:0:0:0:
256,192,47631,1,0,0:0:0:0:
256,192,47775,1,8,0:0:0:0:
256,192,47919,1,0,0:0:0:0:
256,192,48208,1,8,0:0:0:0:
256,192,48352,1,0,0:0:0:0:
256,192,48496,1,0,0:0:0:0:
256,192,48640,1,8,0:0:0:0:
256,192,48785,1,0,0:0:0:0:
256,192,49073,1,4,0:0:0:0:
256,192,49290,1,4,0:0:0:0:
256,192,49506,1,4,0:0:0:0:
256,192,49722,1,4,0:0:0:0:
256,192,49939,1,8,0:0:0:0:
256,192,50083,1,8,0:0:0:0:
256,192,50515,1,4,0:0:0:0:
256,192,50660,1,0,0:0:0:0:
256,192,50804,1,8,0:0:0:0:
256,192,50948,1,0,0:0:0:0:
256,192,51020,1,0,0:0:0:0:
256,192,51092,1,0,0:0:0:0:
256,192,51237,1,0,0:0:0:0:
256,192,51381,1,4,0:0:0:0:
256,192,51597,1,4,0:0:0:0:
256,192,51814,1,4,0:0:0:0:
256,192,51958,1,0,0:0:0:0:
256,192,52102,1,0,0:0:0:0:
256,192,52246,1,8,0:0:0:0:
256,192,52390,1,8,0:0:0:0:
256,192,52535,1,4,0:0:0:0:
256,192,52823,1,8,0:0:0:0:
256,192,52967,1,0,0:0:0:0:
256,192,53040,1,0,0:0:0:0:
256,192,53112,1,0,0:0:0:0:
256,192,53256,1,0,0:0:0:0:
256,192,53400,1,8,0:0:0:0:
256,192,53544,1,8,0:0:0:0:
256,192,53689,1,4,0:0:0:0:
256,192,54842,1,8,0:0:0:0:
256,192,54915,1,8,0:0:0:0:
256,192,54987,1,8,0:0:0:0:
256,192,55059,1,8,0:0:0:0:
256,192,55131,1,0,0:0:0:0:
256,192,55275,1,0,0:0:0:0:
256,192,55419,1,8,0:0:0:0:
256,192,55636,1,8,0:0:0:0:
256,192,55852,1,8,0:0:0:0:
256,192,56068,1,8,0:0:0:0:
256,192,56285,1,4,0:0:0:0:
256,192,56573,1,0,0:0:0:0:
256,192,56717,1,0,0:0:0:0:
256,192,56862,1,8,0:0:0:0:
256,192,57006,1,8,0:0:0:0:
256,192,57150,1,0,0:0:0:0:
256,192,57366,1,8,0:0:0:0:
256,192,57583,1,8,0:0:0:0:
256,192,57727,1,0,0:0:0:0:
256,192,57943,1,8,0:0:0:0:
256,192,58160,1,8,0:0:0:0:
256,192,58376,1,0,0:0:0:0:
256,192,58592,1,8,0:0:0:0:
256,192,58737,1,8,0:0:0:0:
256,192,58881,1,0,0:0:0:0:
256,192,59097,1,0,0:0:0:0:
256,192,59314,1,0,0:0:0:0:
256,192,59386,1,0,0:0:0:0:
256,192,59458,1,8,0:0:0:0:
256,192,59674,1,8,0:0:0:0:
256,192,59890,1,0,0:0:0:0:
256,192,60035,1,8,0:0:0:0:
256,192,60251,1,8,0:0:0:0:
256,192,60467,1,0,0:0:0:0:
256,192,60684,1,0,0:0:0:0:
256,192,60900,1,0,0:0:0:0:
256,192,61189,1,4,0:0:0:0:
256,192,61405,1,4,0:0:0:0:
256,192,61621,1,12,0:0:0:0:
256,192,61765,1,0,0:0:0:0:
256,192,61982,1,0,0:0:0:0:
256,192,62198,1,8,0:0:0:0:
256,192,62342,1,0,0:0:0:0:
256,192,62559,1,0,0:0:0:0:
256,192,62775,1,8,0:0:0:0:
256,192,62919,1,0,0:0:0:0:
256,192,63064,1,0,0:0:0:0:
256,192,63136,1,0,0:0:0:0:
256,192,63208,1,8,0:0:0:0:
256,192,63280,1,8,0:0:0:0:
256,192,63352,1,8,0:0:0:0:
256,192,63496,1,0,0:0:0:0:
256,192,63640,1,0,0:0:0:0:
256,192,63785,1,8,0:0:0:0:
256,192,63929,1,8,0:0:0:0:
256,192,64073,1,8,0:0:0:0:
256,192,64362,1,0,0:0:0:0:
256,192,64650,1,0,0:0:0:0:
256,192,64794,1,8,0:0:0:0:
256,192,65083,1,0,0:0:0:0:
256,192,65371,1,8,0:0:0:0:
256,192,65660,1,0,0:0:0:0:
256,192,65948,1,8,0:0:0:0:
256,192,66092,1,0,0:0:0:0:
256,192,66237,1,0,0:0:0:0:
256,192,66381,1,8,0:0:0:0:
256,192,66669,1,0,0:0:0:0:
256,192,66958,1,0,0:0:0:0:
256,192,67102,1,8,0:0:0:0:
256,192,67390,1,0,0:0:0:0:
256,192,67679,1,8,0:0:0:0:
256,192,67967,1,0,0:0:0:0:
256,192,68256,1,8,0:0:0:0:
256,192,68544,1,0,0:0:0:0:
256,192,68689,1,8,0:0:0:0:
256,192,68977,1,0,0:0:0:0:
256,192,69121,1,0,0:0:0:0:
256,192,69410,1,0,0:0:0:0:
256,192,69626,1,0,0:0:0:0:
256,192,69842,1,8,0:0:0:0:
256,192,70059,1,0,0:0:0:0:
256,192,70275,1,8,0:0:0:0:
256,192,70564,1,8,0:0:0:0:
256,192,70708,1,0,0:0:0:0:
256,192,70852,1,8,0:0:0:0:
256,192,70996,1,8,0:0:0:0:
256,192,71429,1,0,0:0:0:0:
256,192,71862,1,8,0:0:0:0:
256,192,72150,1,8,0:0:0:0:
256,192,73304,1,8,0:0:0:0:
256,192,73592,1,0,0:0:0:0:
256,192,73881,1,0,0:0:0:0:
256,192,74025,1,8,0:0:0:0:
256,192,74314,1,0,0:0:0:0:
256,192,74602,1,8,0:0:0:0:
256,192,74890,1,0,0:0:0:0:
256,192,75179,1,8,0:0:0:0:
256,192,75323,1,0,0:0:0:0:
256,192,75467,1,0,0:0:0:0:
256,192,75612,1,8,0:0:0:0:
256,192,75756,1,0,0:0:0:0:
256,192,75900,1,0,0:0:0:0:
256,192,76189,1,0,0:0:0:0:
256,192,76333,1,8,0:0:0:0:
256,192,76621,1,0,0:0:0:0:
256,192,76693,1,0,0:0:0:0:
256,192,76765,1,0,0:0:0:0:
256,192,76910,1,8,0:0:0:0:
256,192,77198,1,0,0:0:0:0:
256,192,77342,1,0,0:0:0:0:
256,192,77559,1,8,0:0:0:0:
256,192,77775,1,0,0:0:0:0:
256,192,77919,1,8,0:0:0:0:
256,192,78064,1,0,0:0:0:0:
256,192,78208,1,0,0:0:0:0:
256,192,78352,1,8,0:0:0:0:
256,192,78496,1,8,0:0:0:0:
256,192,78640,1,0,0:0:0:0:
256,192,78785,1,0,0:0:0:0:
256,192,78929,1,8,0:0:0:0:
256,192,79073,1,8,0:0:0:0:
256,192,79217,1,0,0:0:0:0:
256,192,79362,1,8,0:0:0:0:
256,192,79506,1,0,0:0:0:0:
256,192,79578,1,0,0:0:0:0:
256,192,79650,1,8,0:0:0:0:
256,192,79794,1,0,0:0:0:0:
256,192,79939,1,12,0:0:0:0:
256,192,80227,1,4,0:0:0:0:
256,192,80515,1,8,0:0:0:0:
256,192,80660,1,4,0:0:0:0:
256,192,80948,1,8,0:0:0:0:
256,192,81092,1,4,0:0:0:0:
256,192,81381,1,8,0:0:0:0:
256,192,81525,1,4,0:0:0:0:
256,192,81814,1,8,0:0:0:0:
256,192,81958,1,4,0:0:0:0:
256,192,82246,1,4,0:0:0:0:
256,192,82535,1,0,0:0:0:0:
256,192,82751,1,0,0:0:0:0:
256,192,82967,1,8,0:0:0:0:
256,192,83184,1,8,0:0:0:0:
256,192,83400,1,0,0:0:0:0:
256,192,83544,1,8,0:0:0:0:
256,192,83689,1,4,0:0:0:0:
256,192,83905,1,4,0:0:0:0:
256,192,84121,1,4,0:0:0:0:
256,192,84265,1,0,0:0:0:0:
256,192,84338,1,0,0:0:0:0:
256,192,84410,1,8,0:0:0:0:
256,192,84482,1,8,0:0:0:0:
256,192,84554,1,0,0:0:0:0:
256,192,84842,1,8,0:0:0:0:
256,192,85131,1,0,0:0:0:0:
256,192,85419,1,0,0:0:0:0:
256,192,85564,1,8,0:0:0:0:
256,192,85852,1,8,0:0:0:0:
256,192,85996,1,4,0:0:0:0:
256,192,86140,1,4,0:0:0:0:
256,192,86285,1,4,0:0:0:0:
256,192,86573,1,0,0:0:0:0:
256,192,86717,1,8,0:0:0:0:
256,192,86862,1,0,0:0:0:0:
256,192,87006,1,8,0:0:0:0:
256,192,87078,1,8,0:0:0:0:
256,192,87150,1,0,0:0:0:0:
256,192,87439,1,0,0:0:0:0:
256,192,87583,1,8,0:0:0:0:
256,192,87727,1,0,0:0:0:0:
256,192,87799,1,0,0:0:0:0:
256,192,87871,1,8,0:0:0:0:
256,192,88015,1,0,0:0:0:0:
256,192,88160,1,8,0:0:0:0:
256,192,88448,1,0,0:0:0:0:
256,192,88665,1,0,0:0:0:0:
256,192,88881,1,8,0:0:0:0:
256,192,89097,1,8,0:0:0:0:
256,192,89314,1,0,0:0:0:0:
256,192,89458,1,8,0:0:0:0:
256,192,89602,1,0,0:0:0:0:
256,192,89746,1,4,0:0:0:0:
256,192,90035,1,0,0:0:0:0:
256,192,90179,1,8,0:0:0:0:
256,192,90323,1,0,0:0:0:0:
256,192,90395,1,0,0:0:0:0:
256,192,90467,1,8,0:0:0:0:
256,192,90756,1,8,0:0:0:0:
256,192,90900,1,0,0:0:0:0:
256,192,91044,1,8,0:0:0:0:
256,192,91189,1,0,0:0:0:0:
256,192,91333,1,0,0:0:0:0:
256,192,91477,1,8,0:0:0:0:
256,192,91621,1,0,0:0:0:0:
256,192,91693,1,0,0:0:0:0:
256,192,91765,1,8,0:0:0:0:
256,192,92054,1,0,0:0:0:0:
256,192,92198,1,0,0:0:0:0:
256,192,92270,1,0,0:0:0:0:
256,192,92342,1,0,0:0:0:0:
256,192,92487,1,8,0:0:0:0:
256,192,92631,1,0,0:0:0:0:
256,192,92775,1,8,0:0:0:0:
256,192,93064,1,0,0:0:0:0:
256,192,93136,1,0,0:0:0:0:
256,192,93208,1,0,0:0:0:0:
256,192,93352,1,8,0:0:0:0:
256,192,93496,1,8,0:0:0:0:
256,192,93568,1,8,0:0:0:0:
256,192,93640,1,8,0:0:0:0:
256,192,93713,1,8,0:0:0:0:
256,192,93785,1,0,0:0:0:0:
256,192,94073,1,0,0:0:0:0:
256,192,94217,1,0,0:0:0:0:
256,192,94362,1,8,0:0:0:0:
256,192,94506,1,0,0:0:0:0:
256,192,94650,1,0,0:0:0:0:
256,192,94794,1,8,0:0:0:0:
256,192,94939,1,0,0:0:0:0:
256,192,95011,1,0,0:0:0:0:
256,192,95083,1,8,0:0:0:0:
256,192,95227,1,0,0:0:0:0:
256,192,95371,1,8,0:0:0:0:
256,192,95515,1,0,0:0:0:0:
256,192,95660,1,8,0:0:0:0:
256,192,95804,1,8,0:0:0:0:
256,192,95876,1,8,0:0:0:0:
256,192,95948,1,8,0:0:0:0:
256,192,96092,1,0,0:0:0:0:
256,192,96237,1,8,0:0:0:0:
256,192,96381,1,0,0:0:0:0:
256,192,96525,1,0,0:0:0:0:
256,192,96669,1,8,0:0:0:0:
256,192,96814,1,0,0:0:0:0:
256,192,97102,1,0,0:0:0:0:
256,192,97246,1,8,0:0:0:0:
256,192,97390,1,8,0:0:0:0:
256,192,97679,1,8,0:0:0:0:
256,192,97895,1,0,0:0:0:0:
256,192,98112,1,8,0:0:0:0:
256,192,98184,1,8,0:0:0:0:
256,192,98256,1,8,0:0:0:0:
256,192,98328,1,8,0:0:0:0:
256,192,98400,1,8,0:0:0:0:
256,192,98689,1,12,0:0:0:0:
256,192,98905,1,4,0:0:0:0:
256,192,99121,1,12,0:0:0:0:
256,192,99338,1,12,0:0:0:0:
256,192,99554,1,4,0:0:0:0:
256,192,99842,1,4,0:0:0:0:
256,192,100059,1,4,0:0:0:0:
256,192,100275,1,12,0:0:0:0:
256,192,100491,1,12,0:0:0:0:
256,192,100708,1,4,0:0:0:0:
256,192,100996,1,4,0:0:0:0:
256,192,101213,1,4,0:0:0:0:
256,192,101429,1,12,0:0:0:0:
256,192,101573,12,4,103015,0:0:0:0:
256,192,103304,5,8,0:0:0:0:
256,192,103520,1,8,0:0:0:0:
256,192,103737,1,0,0:0:0:0:
256,192,103881,1,0,0:0:0:0:
256,192,103953,1,0,0:0:0:0:
256,192,104025,1,8,0:0:0:0:
256,192,104097,1,8,0:0:0:0:
256,192,104169,1,0,0:0:0:0:
256,192,104241,1,0,0:0:0:0:
256,192,104314,1,0,0:0:0:0:
256,192,104386,1,0,0:0:0:0:
256,192,104458,1,8,0:0:0:0:
256,192,104674,1,8,0:0:0:0:
256,192,104890,1,0,0:0:0:0:
256,192,105035,1,8,0:0:0:0:
256,192,105107,1,8,0:0:0:0:
256,192,105179,1,8,0:0:0:0:
256,192,105251,1,8,0:0:0:0:
256,192,105323,1,0,0:0:0:0:
256,192,105395,1,0,0:0:0:0:
256,192,105467,1,0,0:0:0:0:
256,192,105612,1,0,0:0:0:0:
256,192,105756,1,0,0:0:0:0:
256,192,105900,1,8,0:0:0:0:
256,192,106189,1,0,0:0:0:0:
256,192,106333,1,8,0:0:0:0:
256,192,106477,1,0,0:0:0:0:
256,192,106549,1,0,0:0:0:0:
256,192,106621,1,0,0:0:0:0:
256,192,106910,1,0,0:0:0:0:
256,192,107054,1,0,0:0:0:0:
256,192,107198,1,8,0:0:0:0:
256,192,107342,1,0,0:0:0:0:
256,192,107415,1,0,0:0:0:0:
256,192,107487,1,0,0:0:0:0:
256,192,107559,1,0,0:0:0:0:
256,192,107631,1,0,0:0:0:0:
256,192,107919,1,8,0:0:0:0:
256,192,108064,1,0,0:0:0:0:
256,192,108136,1,0,0:0:0:0:
256,192,108208,1,8,0:0:0:0:
256,192,108352,1,0,0:0:0:0:
256,192,108424,1,0,0:0:0:0:
256,192,108496,1,8,0:0:0:0:
256,192,108640,1,8,0:0:0:0:
256,192,108785,1,0,0:0:0:0:
256,192,108929,1,8,0:0:0:0:
256,192,109073,1,0,0:0:0:0:
256,192,109145,1,0,0:0:0:0:
256,192,109217,1,0,0:0:0:0:
256,192,109362,1,0,0:0:0:0:
256,192,109506,1,8,0:0:0:0:
256,192,109650,1,0,0:0:0:0:
256,192,109722,1,0,0:0:0:0:
256,192,109794,1,8,0:0:0:0:
256,192,109866,1,8,0:0:0:0:
256,192,109939,1,0,0:0:0:0:
256,192,110083,1,8,0:0:0:0:
256,192,110227,1,0,0:0:0:0:
256,192,110299,1,0,0:0:0:0:
256,192,110371,1,0,0:0:0:0:
256,192,110443,1,0,0:0:0:0:
256,192,110515,1,0,0:0:0:0:
256,192,110588,1,0,0:0:0:0:
256,192,110660,1,0,0:0:0:0:
256,192,110732,1,0,0:0:0:0:
256,192,110804,1,0,0:0:0:0:
256,192,110876,1,0,0:0:0:0:
256,192,110948,1,0,0:0:0:0:
256,192,111020,1,0,0:0:0:0:
256,192,111092,1,0,0:0:0:0:
256,192,111165,1,0,0:0:0:0:
256,192,111237,1,0,0:0:0:0:
256,192,111309,1,0,0:0:0:0:
256,192,111381,12,0,112246,0:0:0:0:
256,192,112535,5,4,0:0:0:0:
256,192,114842,1,0,0:0:0:0:
256,192,114939,1,0,0:0:0:0:
256,192,115035,1,0,0:0:0:0:
256,192,115131,1,8,0:0:0:0:
256,192,115323,1,8,0:0:0:0:
256,192,115419,1,0,0:0:0:0:
256,192,115515,1,0,0:0:0:0:
256,192,115612,1,0,0:0:0:0:
256,192,115708,1,8,0:0:0:0:
256,192,115900,1,0,0:0:0:0:
256,192,115996,1,0,0:0:0:0:
256,192,116092,1,0,0:0:0:0:
256,192,116189,1,0,0:0:0:0:
256,192,116285,1,8,0:0:0:0:
256,192,116477,1,8,0:0:0:0:
256,192,116573,1,0,0:0:0:0:
256,192,116669,1,0,0:0:0:0:
256,192,116765,1,8,0:0:0:0:
256,192,116862,1,8,0:0:0:0:
