osu file format v14

[General]
AudioFilename: audio.mp3
AudioLeadIn: 0
PreviewTime: 50653
Countdown: 0
SampleSet: Normal
StackLeniency: 0.7
Mode: 3
LetterboxInBreaks: 0
SpecialStyle: 0
WidescreenStoryboard: 1

[Editor]
DistanceSpacing: 0.8
BeatDivisor: 4
GridSize: 32
TimelineZoom: 1.4

[Metadata]
Title:LAMIA
TitleUnicode:LAMIA
Artist:BlackY
ArtistUnicode:BlackY
Creator:Rexa_Axer
Version:Expert
Source:
Tags:LAMIA,lamia,ongeki,Setsuna
BeatmapID:4165796
BeatmapSetID:2002526

[Difficulty]
HPDrainRate:7
CircleSize:4
OverallDifficulty:7
ApproachRate:5
SliderMultiplier:1.5
SliderTickRate:1

[Events]
//Background and Video events
0,0,"360_F_560613951_B4EhRooYgv0jES6ERVtHNx3EKjtVwO9R.jpg",0,0
//Break Periods
//Storyboard Layer 0 (Background)
//Storyboard Layer 1 (Fail)
//Storyboard Layer 2 (Pass)
//Storyboard Layer 3 (Foreground)
//Storyboard Layer 4 (Overlay)
//Storyboard Sound Samples

[TimingPoints]
16,301.507537688442,4,1,0,100,1,0
53065,-100,4,1,0,100,0,1
63015,-100,4,1,0,100,0,0
120603,-100,4,1,0,100,0,1
132814,-100,4,1,0,100,0,0

[HitObjects]
64,192,4840,128,0,6649:0:0:0:0:
448,192,5141,1,0,0:0:0:0:
192,192,5141,1,0,0:0:0:0:
320,192,5292,128,0,5744:0:0:0:0:
192,192,5593,1,0,0:0:0:0:
448,192,5593,1,0,0:0:0:0:
192,192,5744,128,0,6196:0:0:0:0:
448,192,5744,128,0,6196:0:0:0:0:
320,192,6046,1,0,0:0:0:0:
320,192,6196,128,0,6649:0:0:0:0:
192,192,6498,1,0,0:0:0:0:
448,192,6498,1,0,0:0:0:0:
192,192,6649,1,0,0:0:0:0:
448,192,6649,1,0,0:0:0:0:
192,192,6950,1,0,0:0:0:0:
320,192,7101,1,0,0:0:0:0:
448,192,7252,128,0,8307:0:0:0:0:
320,192,7402,128,0,8156:0:0:0:0:
192,192,7553,128,0,8005:0:0:0:0:
64,192,7704,1,0,0:0:0:0:
64,192,8005,1,0,0:0:0:0:
192,192,8156,1,0,0:0:0:0:
320,192,8307,1,0,0:0:0:0:
64,192,8307,1,0,0:0:0:0:
192,192,8458,128,0,8759:0:0:0:0:
448,192,8458,128,0,8759:0:0:0:0:
64,192,8759,128,0,9362:0:0:0:0:
320,192,8759,128,0,9362:0:0:0:0:
192,192,9061,128,0,9362:0:0:0:0:
448,192,9061,128,0,9362:0:0:0:0:
448,192,9664,128,0,11473:0:0:0:0:
64,192,9965,1,0,0:0:0:0:
320,192,9965,1,0,0:0:0:0:
192,192,10116,128,0,10568:0:0:0:0:
320,192,10418,1,0,0:0:0:0:
64,192,10418,1,0,0:0:0:0:
320,192,10568,128,0,11021:0:0:0:0:
64,192,10568,128,0,11021:0:0:0:0:
192,192,10870,1,0,0:0:0:0:
192,192,11021,128,0,11473:0:0:0:0:
320,192,11322,1,0,0:0:0:0:
64,192,11322,1,0,0:0:0:0:
320,192,11473,1,0,0:0:0:0:
64,192,11473,1,0,0:0:0:0:
320,192,11774,1,0,0:0:0:0:
192,192,11925,1,0,0:0:0:0:
64,192,12076,128,0,13131:0:0:0:0:
192,192,12227,128,0,12980:0:0:0:0:
320,192,12377,128,0,12830:0:0:0:0:
448,192,12528,1,0,0:0:0:0:
448,192,12830,1,0,0:0:0:0:
320,192,12980,1,0,0:0:0:0:
192,192,13131,1,0,0:0:0:0:
448,192,13131,1,0,0:0:0:0:
64,192,13282,128,0,13583:0:0:0:0:
320,192,13282,128,0,13583:0:0:0:0:
192,192,13583,128,0,14186:0:0:0:0:
448,192,13583,128,0,14186:0:0:0:0:
64,192,13885,128,0,14186:0:0:0:0:
320,192,13885,128,0,14186:0:0:0:0:
64,192,14488,128,0,14639:0:0:0:0:
192,192,14488,1,0,0:0:0:0:
192,192,14639,1,0,0:0:0:0:
192,192,14789,1,0,0:0:0:0:
320,192,14789,128,0,14940:0:0:0:0:
192,192,14940,1,0,0:0:0:0:
320,192,15091,1,0,0:0:0:0:
192,192,15091,128,0,15242:0:0:0:0:
320,192,15242,1,0,0:0:0:0:
320,192,15392,1,0,0:0:0:0:
448,192,15392,128,0,15543:0:0:0:0:
320,192,15543,1,0,0:0:0:0:
320,192,15694,128,0,15845:0:0:0:0:
192,192,15694,1,0,0:0:0:0:
192,192,15845,1,0,0:0:0:0:
192,192,15995,1,0,0:0:0:0:
64,192,15995,128,0,16146:0:0:0:0:
192,192,16146,1,0,0:0:0:0:
320,192,16297,1,0,0:0:0:0:
192,192,16297,128,0,16448:0:0:0:0:
320,192,16448,1,0,0:0:0:0:
320,192,16598,1,0,0:0:0:0:
448,192,16598,128,0,16749:0:0:0:0:
320,192,16749,1,0,0:0:0:0:
64,192,16900,1,0,0:0:0:0:
192,192,16900,1,0,0:0:0:0:
192,192,17051,1,0,0:0:0:0:
64,192,17051,1,0,0:0:0:0:
192,192,17201,1,0,0:0:0:0:
320,192,17201,1,0,0:0:0:0:
320,192,17352,1,0,0:0:0:0:
192,192,17352,1,0,0:0:0:0:
320,192,17503,1,0,0:0:0:0:
448,192,17503,1,0,0:0:0:0:
448,192,17654,1,0,0:0:0:0:
320,192,17654,1,0,0:0:0:0:
320,192,17804,1,0,0:0:0:0:
192,192,17804,1,0,0:0:0:0:
192,192,17955,1,0,0:0:0:0:
320,192,17955,1,0,0:0:0:0:
64,192,18106,1,0,0:0:0:0:
192,192,18106,1,0,0:0:0:0:
448,192,18106,128,0,18257:0:0:0:0:
192,192,18257,1,0,0:0:0:0:
64,192,18257,1,0,0:0:0:0:
192,192,18407,1,0,0:0:0:0:
320,192,18407,1,0,0:0:0:0:
320,192,18558,1,0,0:0:0:0:
192,192,18558,1,0,0:0:0:0:
320,192,18709,1,0,0:0:0:0:
448,192,18709,1,0,0:0:0:0:
64,192,18709,128,0,18860:0:0:0:0:
448,192,18860,1,0,0:0:0:0:
320,192,18860,1,0,0:0:0:0:
320,192,19010,1,0,0:0:0:0:
192,192,19010,1,0,0:0:0:0:
192,192,19161,1,0,0:0:0:0:
320,192,19161,1,0,0:0:0:0:
448,192,19312,1,0,0:0:0:0:
320,192,19312,1,0,0:0:0:0:
64,192,19312,1,0,0:0:0:0:
64,192,19463,1,0,0:0:0:0:
192,192,19463,1,0,0:0:0:0:
64,192,19613,1,0,0:0:0:0:
320,192,19613,1,0,0:0:0:0:
192,192,19764,1,0,0:0:0:0:
320,192,19764,1,0,0:0:0:0:
192,192,19915,1,0,0:0:0:0:
448,192,19915,1,0,0:0:0:0:
64,192,19915,1,0,0:0:0:0:
320,192,20066,1,0,0:0:0:0:
448,192,20066,1,0,0:0:0:0:
64,192,20217,1,0,0:0:0:0:
320,192,20217,1,0,0:0:0:0:
192,192,20367,1,0,0:0:0:0:
64,192,20367,1,0,0:0:0:0:
192,192,20518,1,0,0:0:0:0:
320,192,20518,1,0,0:0:0:0:
448,192,20518,1,0,0:0:0:0:
64,192,20669,1,0,0:0:0:0:
320,192,20669,1,0,0:0:0:0:
448,192,20820,1,0,0:0:0:0:
192,192,20820,1,0,0:0:0:0:
448,192,20970,1,0,0:0:0:0:
320,192,20970,1,0,0:0:0:0:
64,192,21121,1,0,0:0:0:0:
192,192,21121,1,0,0:0:0:0:
448,192,21121,1,0,0:0:0:0:
192,192,21272,1,0,0:0:0:0:
320,192,21272,1,0,0:0:0:0:
448,192,21423,1,0,0:0:0:0:
192,192,21423,1,0,0:0:0:0:
64,192,21573,1,0,0:0:0:0:
320,192,21573,1,0,0:0:0:0:
448,192,21724,1,0,0:0:0:0:
192,192,21724,1,0,0:0:0:0:
320,192,21799,1,0,0:0:0:0:
64,192,21875,1,0,0:0:0:0:
192,192,21950,1,0,0:0:0:0:
64,192,22026,1,0,0:0:0:0:
320,192,22026,1,0,0:0:0:0:
448,192,22101,1,0,0:0:0:0:
320,192,22176,1,0,0:0:0:0:
64,192,22252,1,0,0:0:0:0:
192,192,22327,1,0,0:0:0:0:
448,192,22327,1,0,0:0:0:0:
320,192,22402,1,0,0:0:0:0:
192,192,22478,1,0,0:0:0:0:
64,192,22553,1,0,0:0:0:0:
448,192,22629,1,0,0:0:0:0:
320,192,22629,1,0,0:0:0:0:
192,192,22704,1,0,0:0:0:0:
320,192,22779,1,0,0:0:0:0:
64,192,22855,1,0,0:0:0:0:
448,192,22930,1,0,0:0:0:0:
320,192,22980,1,0,0:0:0:0:
192,192,23031,1,0,0:0:0:0:
448,192,23081,1,0,0:0:0:0:
320,192,23131,1,0,0:0:0:0:
192,192,23181,1,0,0:0:0:0:
320,192,23232,1,0,0:0:0:0:
192,192,23282,1,0,0:0:0:0:
64,192,23332,1,0,0:0:0:0:
320,192,23382,1,0,0:0:0:0:
192,192,23433,1,0,0:0:0:0:
64,192,23483,1,0,0:0:0:0:
192,192,23533,1,0,0:0:0:0:
320,192,23583,1,0,0:0:0:0:
448,192,23634,1,0,0:0:0:0:
192,192,23684,1,0,0:0:0:0:
320,192,23734,1,0,0:0:0:0:
448,192,23784,1,0,0:0:0:0:
64,192,23835,1,0,0:0:0:0:
192,192,23885,1,0,0:0:0:0:
320,192,23935,1,0,0:0:0:0:
64,192,23985,1,0,0:0:0:0:
192,192,24036,1,0,0:0:0:0:
320,192,24086,1,0,0:0:0:0:
64,192,24136,1,0,0:0:0:0:
448,192,24136,1,0,0:0:0:0:
192,192,24287,1,0,0:0:0:0:
320,192,24438,1,0,0:0:0:0:
448,192,24438,1,0,0:0:0:0:
320,192,24588,1,0,0:0:0:0:
192,192,24588,1,0,0:0:0:0:
64,192,24739,1,0,0:0:0:0:
192,192,24890,1,0,0:0:0:0:
448,192,24890,1,0,0:0:0:0:
64,192,25041,1,0,0:0:0:0:
320,192,25041,1,0,0:0:0:0:
192,192,25191,1,0,0:0:0:0:
64,192,25342,1,0,0:0:0:0:
448,192,25342,1,0,0:0:0:0:
192,192,25493,1,0,0:0:0:0:
320,192,25493,1,0,0:0:0:0:
448,192,25644,1,0,0:0:0:0:
320,192,25719,1,0,0:0:0:0:
192,192,25794,1,0,0:0:0:0:
192,192,25945,1,0,0:0:0:0:
320,192,25945,1,0,0:0:0:0:
448,192,25945,1,0,0:0:0:0:
320,192,26096,1,0,0:0:0:0:
192,192,26096,1,0,0:0:0:0:
64,192,26096,1,0,0:0:0:0:
64,192,26548,1,0,0:0:0:0:
448,192,26548,1,0,0:0:0:0:
320,192,26699,1,0,0:0:0:0:
64,192,26850,1,0,0:0:0:0:
192,192,26850,1,0,0:0:0:0:
192,192,27000,1,0,0:0:0:0:
320,192,27000,1,0,0:0:0:0:
448,192,27151,1,0,0:0:0:0:
64,192,27302,1,0,0:0:0:0:
320,192,27302,1,0,0:0:0:0:
192,192,27453,1,0,0:0:0:0:
448,192,27453,1,0,0:0:0:0:
320,192,27603,1,0,0:0:0:0:
64,192,27754,1,0,0:0:0:0:
448,192,27754,1,0,0:0:0:0:
192,192,27905,1,0,0:0:0:0:
320,192,27905,1,0,0:0:0:0:
64,192,28056,1,0,0:0:0:0:
448,192,28056,1,0,0:0:0:0:
192,192,28106,1,0,0:0:0:0:
320,192,28156,1,0,0:0:0:0:
64,192,28206,1,0,0:0:0:0:
448,192,28206,1,0,0:0:0:0:
320,192,28257,1,0,0:0:0:0:
192,192,28307,1,0,0:0:0:0:
64,192,28357,1,0,0:0:0:0:
448,192,28357,1,0,0:0:0:0:
192,192,28583,1,0,0:0:0:0:
320,192,28583,1,0,0:0:0:0:
64,192,28809,1,0,0:0:0:0:
448,192,28809,1,0,0:0:0:0:
64,192,29262,1,0,0:0:0:0:
192,192,29262,1,0,0:0:0:0:
320,192,29262,1,0,0:0:0:0:
320,192,29412,1,0,0:0:0:0:
448,192,29412,1,0,0:0:0:0:
192,192,29412,1,0,0:0:0:0:
64,192,29563,1,0,0:0:0:0:
192,192,29714,1,0,0:0:0:0:
320,192,29714,1,0,0:0:0:0:
448,192,29714,1,0,0:0:0:0:
64,192,29865,1,0,0:0:0:0:
192,192,29865,1,0,0:0:0:0:
320,192,29865,1,0,0:0:0:0:
448,192,30015,1,0,0:0:0:0:
64,192,30166,1,0,0:0:0:0:
320,192,30166,1,0,0:0:0:0:
64,192,30317,1,0,0:0:0:0:
320,192,30317,1,0,0:0:0:0:
192,192,30468,1,0,0:0:0:0:
448,192,30468,1,0,0:0:0:0:
192,192,30619,1,0,0:0:0:0:
448,192,30619,1,0,0:0:0:0:
64,192,30769,1,0,0:0:0:0:
320,192,30769,1,0,0:0:0:0:
64,192,30920,1,0,0:0:0:0:
320,192,30920,1,0,0:0:0:0:
192,192,31071,1,0,0:0:0:0:
448,192,31071,1,0,0:0:0:0:
192,192,31222,1,0,0:0:0:0:
448,192,31222,1,0,0:0:0:0:
64,192,31372,1,0,0:0:0:0:
448,192,31372,1,0,0:0:0:0:
192,192,31448,1,0,0:0:0:0:
320,192,31523,1,0,0:0:0:0:
192,192,31598,1,0,0:0:0:0:
64,192,31674,1,0,0:0:0:0:
448,192,31674,1,0,0:0:0:0:
320,192,31749,1,0,0:0:0:0:
192,192,31825,1,0,0:0:0:0:
320,192,31900,1,0,0:0:0:0:
448,192,31975,1,0,0:0:0:0:
64,192,31975,1,0,0:0:0:0:
192,192,32051,1,0,0:0:0:0:
320,192,32126,1,0,0:0:0:0:
192,192,32201,1,0,0:0:0:0:
64,192,32277,1,0,0:0:0:0:
448,192,32277,1,0,0:0:0:0:
320,192,32277,1,0,0:0:0:0:
192,192,32352,1,0,0:0:0:0:
64,192,32428,1,0,0:0:0:0:
448,192,32428,1,0,0:0:0:0:
320,192,32428,1,0,0:0:0:0:
192,192,32503,1,0,0:0:0:0:
64,192,32578,128,0,33031:0:0:0:0:
320,192,32578,128,0,33031:0:0:0:0:
192,192,32729,1,0,0:0:0:0:
448,192,32804,1,0,0:0:0:0:
192,192,32880,1,0,0:0:0:0:
192,192,33031,128,0,33483:0:0:0:0:
448,192,33031,128,0,33483:0:0:0:0:
320,192,33181,1,0,0:0:0:0:
64,192,33257,1,0,0:0:0:0:
320,192,33332,1,0,0:0:0:0:
64,192,33483,1,0,0:0:0:0:
320,192,33483,1,0,0:0:0:0:
64,192,33784,1,0,0:0:0:0:
192,192,33784,1,0,0:0:0:0:
320,192,33784,1,0,0:0:0:0:
448,192,33935,1,0,0:0:0:0:
64,192,34086,1,0,0:0:0:0:
320,192,34086,1,0,0:0:0:0:
192,192,34237,1,0,0:0:0:0:
448,192,34237,1,0,0:0:0:0:
320,192,34387,1,0,0:0:0:0:
448,192,34538,1,0,0:0:0:0:
192,192,34538,1,0,0:0:0:0:
320,192,34689,1,0,0:0:0:0:
64,192,34689,1,0,0:0:0:0:
192,192,34840,1,0,0:0:0:0:
64,192,34990,1,0,0:0:0:0:
320,192,34990,1,0,0:0:0:0:
192,192,35141,1,0,0:0:0:0:
448,192,35141,1,0,0:0:0:0:
320,192,35292,1,0,0:0:0:0:
192,192,35443,1,0,0:0:0:0:
448,192,35443,1,0,0:0:0:0:
64,192,35593,1,0,0:0:0:0:
320,192,35593,1,0,0:0:0:0:
448,192,35744,1,0,0:0:0:0:
320,192,35820,1,0,0:0:0:0:
192,192,35895,1,0,0:0:0:0:
320,192,36046,1,0,0:0:0:0:
448,192,36046,1,0,0:0:0:0:
192,192,36046,1,0,0:0:0:0:
64,192,36196,1,0,0:0:0:0:
192,192,36196,1,0,0:0:0:0:
320,192,36196,1,0,0:0:0:0:
448,192,36347,1,0,0:0:0:0:
320,192,36423,1,0,0:0:0:0:
192,192,36498,1,0,0:0:0:0:
320,192,36649,1,0,0:0:0:0:
448,192,36649,1,0,0:0:0:0:
64,192,36799,1,0,0:0:0:0:
192,192,36875,1,0,0:0:0:0:
320,192,36950,1,0,0:0:0:0:
448,192,37026,1,0,0:0:0:0:
64,192,37101,1,0,0:0:0:0:
192,192,37101,1,0,0:0:0:0:
320,192,37101,1,0,0:0:0:0:
320,192,37252,1,0,0:0:0:0:
192,192,37252,1,0,0:0:0:0:
448,192,37252,1,0,0:0:0:0:
64,192,37402,1,0,0:0:0:0:
192,192,37478,1,0,0:0:0:0:
64,192,37553,1,0,0:0:0:0:
192,192,37629,1,0,0:0:0:0:
320,192,37704,1,0,0:0:0:0:
448,192,37779,1,0,0:0:0:0:
320,192,37855,1,0,0:0:0:0:
448,192,37930,1,0,0:0:0:0:
320,192,38005,128,0,38608:0:0:0:0:
192,192,38005,128,0,38608:0:0:0:0:
64,192,38156,1,0,0:0:0:0:
448,192,38232,1,0,0:0:0:0:
64,192,38307,1,0,0:0:0:0:
448,192,38382,1,0,0:0:0:0:
64,192,38458,1,0,0:0:0:0:
448,192,38533,1,0,0:0:0:0:
64,192,38608,128,0,38910:0:0:0:0:
192,192,38910,1,0,0:0:0:0:
320,192,38910,1,0,0:0:0:0:
448,192,38910,1,0,0:0:0:0:
320,192,39061,1,0,0:0:0:0:
64,192,39061,1,0,0:0:0:0:
192,192,39211,1,0,0:0:0:0:
320,192,39211,1,0,0:0:0:0:
192,192,39362,1,0,0:0:0:0:
448,192,39362,1,0,0:0:0:0:
320,192,39513,1,0,0:0:0:0:
192,192,39513,1,0,0:0:0:0:
192,192,39664,1,0,0:0:0:0:
64,192,39664,128,0,40066:0:0:0:0:
320,192,39664,128,0,40066:0:0:0:0:
192,192,39965,1,0,0:0:0:0:
448,192,40015,1,0,0:0:0:0:
192,192,40066,1,0,0:0:0:0:
448,192,40267,1,0,0:0:0:0:
192,192,40267,1,0,0:0:0:0:
320,192,40267,1,0,0:0:0:0:
64,192,40418,128,0,40870:0:0:0:0:
320,192,40418,128,0,40870:0:0:0:0:
192,192,40568,1,0,0:0:0:0:
448,192,40644,1,0,0:0:0:0:
448,192,40794,1,0,0:0:0:0:
192,192,40870,1,0,0:0:0:0:
320,192,41021,1,0,0:0:0:0:
448,192,41021,1,0,0:0:0:0:
192,192,41021,1,0,0:0:0:0:
64,192,41171,1,0,0:0:0:0:
192,192,41247,1,0,0:0:0:0:
320,192,41322,1,0,0:0:0:0:
448,192,41397,1,0,0:0:0:0:
192,192,41473,1,0,0:0:0:0:
64,192,41473,1,0,0:0:0:0:
320,192,41473,1,0,0:0:0:0:
448,192,41624,1,0,0:0:0:0:
320,192,41699,1,0,0:0:0:0:
192,192,41774,1,0,0:0:0:0:
64,192,41850,1,0,0:0:0:0:
192,192,41925,1,0,0:0:0:0:
320,192,41925,1,0,0:0:0:0:
448,192,41925,1,0,0:0:0:0:
64,192,42076,1,0,0:0:0:0:
192,192,42151,1,0,0:0:0:0:
320,192,42227,128,0,42453:0:0:0:0:
448,192,42453,1,0,0:0:0:0:
192,192,42453,128,0,42679:0:0:0:0:
64,192,42453,1,0,0:0:0:0:
320,192,42679,128,0,42905:0:0:0:0:
448,192,42679,1,0,0:0:0:0:
64,192,42679,1,0,0:0:0:0:
192,192,42905,128,0,43131:0:0:0:0:
64,192,42905,1,0,0:0:0:0:
448,192,42905,1,0,0:0:0:0:
448,192,43131,1,0,0:0:0:0:
320,192,43131,1,0,0:0:0:0:
64,192,43206,1,0,0:0:0:0:
192,192,43282,1,0,0:0:0:0:
320,192,43282,1,0,0:0:0:0:
448,192,43282,1,0,0:0:0:0:
64,192,43357,1,0,0:0:0:0:
192,192,43433,1,0,0:0:0:0:
320,192,43433,1,0,0:0:0:0:
448,192,43433,128,0,44488:0:0:0:0:
64,192,43583,1,0,0:0:0:0:
192,192,43659,1,0,0:0:0:0:
320,192,43659,1,0,0:0:0:0:
64,192,43734,1,0,0:0:0:0:
192,192,43809,1,0,0:0:0:0:
320,192,43809,1,0,0:0:0:0:
64,192,43885,1,0,0:0:0:0:
192,192,43960,1,0,0:0:0:0:
320,192,44036,1,0,0:0:0:0:
192,192,44111,1,0,0:0:0:0:
64,192,44111,1,0,0:0:0:0:
320,192,44186,1,0,0:0:0:0:
192,192,44262,1,0,0:0:0:0:
64,192,44262,1,0,0:0:0:0:
320,192,44337,1,0,0:0:0:0:
64,192,44488,1,0,0:0:0:0:
192,192,44488,1,0,0:0:0:0:
320,192,44488,1,0,0:0:0:0:
64,192,44789,1,0,0:0:0:0:
448,192,44789,1,0,0:0:0:0:
320,192,44865,1,0,0:0:0:0:
192,192,44865,1,0,0:0:0:0:
64,192,44940,1,0,0:0:0:0:
448,192,44940,1,0,0:0:0:0:
64,192,45091,1,0,0:0:0:0:
192,192,45091,1,0,0:0:0:0:
192,192,45242,1,0,0:0:0:0:
320,192,45242,1,0,0:0:0:0:
320,192,45392,1,0,0:0:0:0:
448,192,45392,1,0,0:0:0:0:
64,192,45543,1,0,0:0:0:0:
448,192,45543,1,0,0:0:0:0:
192,192,45593,1,0,0:0:0:0:
320,192,45644,1,0,0:0:0:0:
448,192,45694,1,0,0:0:0:0:
64,192,45694,1,0,0:0:0:0:
192,192,45845,1,0,0:0:0:0:
320,192,45845,1,0,0:0:0:0:
64,192,45845,128,0,45995:0:0:0:0:
448,192,45995,1,0,0:0:0:0:
320,192,46071,1,0,0:0:0:0:
192,192,46146,1,0,0:0:0:0:
64,192,46222,1,0,0:0:0:0:
192,192,46297,1,0,0:0:0:0:
320,192,46297,1,0,0:0:0:0:
448,192,46297,128,0,46448:0:0:0:0:
64,192,46448,1,0,0:0:0:0:
192,192,46523,1,0,0:0:0:0:
320,192,46598,1,0,0:0:0:0:
448,192,46674,1,0,0:0:0:0:
320,192,46749,1,0,0:0:0:0:
192,192,46749,1,0,0:0:0:0:
64,192,46749,128,0,46900:0:0:0:0:
448,192,46900,1,0,0:0:0:0:
320,192,46975,1,0,0:0:0:0:
192,192,47051,1,0,0:0:0:0:
64,192,47126,1,0,0:0:0:0:
192,192,47201,1,0,0:0:0:0:
320,192,47201,1,0,0:0:0:0:
448,192,47201,128,0,47352:0:0:0:0:
64,192,47352,1,0,0:0:0:0:
192,192,47428,1,0,0:0:0:0:
320,192,47503,1,0,0:0:0:0:
448,192,47578,1,0,0:0:0:0:
64,192,47654,1,0,0:0:0:0:
192,192,47654,1,0,0:0:0:0:
320,192,47654,1,0,0:0:0:0:
448,192,47729,1,0,0:0:0:0:
64,192,47804,1,0,0:0:0:0:
320,192,47804,1,0,0:0:0:0:
448,192,47880,1,0,0:0:0:0:
64,192,47955,1,0,0:0:0:0:
192,192,47955,1,0,0:0:0:0:
320,192,47955,1,0,0:0:0:0:
448,192,48257,1,0,0:0:0:0:
192,192,48257,1,0,0:0:0:0:
192,192,48407,1,0,0:0:0:0:
448,192,48407,1,0,0:0:0:0:
64,192,48558,1,0,0:0:0:0:
320,192,48558,1,0,0:0:0:0:
320,192,48709,1,0,0:0:0:0:
64,192,48709,1,0,0:0:0:0:
192,192,48860,1,0,0:0:0:0:
448,192,48860,1,0,0:0:0:0:
448,192,49010,1,0,0:0:0:0:
192,192,49010,1,0,0:0:0:0:
320,192,49161,1,0,0:0:0:0:
64,192,49161,1,0,0:0:0:0:
64,192,49312,1,0,0:0:0:0:
320,192,49312,1,0,0:0:0:0:
192,192,49463,1,0,0:0:0:0:
320,192,49463,1,0,0:0:0:0:
448,192,49463,1,0,0:0:0:0:
448,192,49613,1,0,0:0:0:0:
64,192,49613,1,0,0:0:0:0:
320,192,49613,1,0,0:0:0:0:
64,192,49764,1,0,0:0:0:0:
192,192,49764,1,0,0:0:0:0:
448,192,49764,1,0,0:0:0:0:
320,192,49915,1,0,0:0:0:0:
192,192,49915,1,0,0:0:0:0:
64,192,49915,1,0,0:0:0:0:
192,192,50066,1,0,0:0:0:0:
320,192,50066,1,0,0:0:0:0:
448,192,50066,1,0,0:0:0:0:
64,192,50217,1,0,0:0:0:0:
320,192,50217,1,0,0:0:0:0:
448,192,50217,1,0,0:0:0:0:
64,192,50367,1,0,0:0:0:0:
192,192,50367,1,0,0:0:0:0:
448,192,50367,1,0,0:0:0:0:
64,192,50518,1,0,0:0:0:0:
192,192,50518,1,0,0:0:0:0:
320,192,50518,1,0,0:0:0:0:
448,192,50669,1,0,0:0:0:0:
64,192,50669,128,0,50970:0:0:0:0:
320,192,50744,1,0,0:0:0:0:
192,192,50820,1,0,0:0:0:0:
448,192,50820,1,0,0:0:0:0:
320,192,50895,1,0,0:0:0:0:
448,192,50970,1,0,0:0:0:0:
448,192,51121,128,0,51423:0:0:0:0:
64,192,51121,1,0,0:0:0:0:
192,192,51196,1,0,0:0:0:0:
320,192,51272,1,0,0:0:0:0:
64,192,51272,1,0,0:0:0:0:
192,192,51347,1,0,0:0:0:0:
64,192,51423,1,0,0:0:0:0:
64,192,51573,1,0,0:0:0:0:
448,192,51573,1,0,0:0:0:0:
192,192,51649,1,0,0:0:0:0:
320,192,51649,1,0,0:0:0:0:
64,192,51724,1,0,0:0:0:0:
448,192,51724,1,0,0:0:0:0:
192,192,51799,1,0,0:0:0:0:
320,192,51799,1,0,0:0:0:0:
64,192,51875,128,0,52176:0:0:0:0:
448,192,52026,1,0,0:0:0:0:
192,192,52026,1,0,0:0:0:0:
320,192,52101,1,0,0:0:0:0:
192,192,52176,128,0,52478:0:0:0:0:
448,192,52176,1,0,0:0:0:0:
320,192,52327,1,0,0:0:0:0:
64,192,52327,1,0,0:0:0:0:
448,192,52402,1,0,0:0:0:0:
320,192,52478,128,0,52779:0:0:0:0:
64,192,52478,1,0,0:0:0:0:
448,192,52629,1,0,0:0:0:0:
192,192,52629,1,0,0:0:0:0:
64,192,52704,1,0,0:0:0:0:
448,192,52779,128,0,53081:0:0:0:0:
192,192,52779,1,0,0:0:0:0:
64,192,52930,1,0,0:0:0:0:
320,192,52930,1,0,0:0:0:0:
192,192,53005,1,0,0:0:0:0:
64,192,53081,1,0,0:0:0:0:
320,192,53081,1,0,0:0:0:0:
