osu file format v14

[General]
AudioFilename: audio.mp3
AudioLeadIn: 0
PreviewTime: 141336
Countdown: 0
SampleSet: Normal
StackLeniency: 0.7
Mode: 1
LetterboxInBreaks: 0
WidescreenStoryboard: 0

[Editor]
DistanceSpacing: 0.1
BeatDivisor: 4
GridSize: 16
TimelineZoom: 4.399999

[Metadata]
Title:KITTY FOILED
TitleUnicode:KITTY FOILED
Artist:BlackY
ArtistUnicode:BlackY
Creator:TKS
Version:Oni
Source:
Tags:
BeatmapID:1966361
BeatmapSetID:903288

[Difficulty]
HPDrainRate:6
CircleSize:5
OverallDifficulty:6
ApproachRate:5
SliderMultiplier:1.4
SliderTickRate:1

[Events]
//Background and Video events
0,0,"bg.jpg",0,0
//Break Periods
//Storyboard Layer 0 (Background)
//Storyboard Layer 1 (Fail)
//Storyboard Layer 2 (Pass)
//Storyboard Layer 3 (Foreground)
//Storyboard Layer 4 (Overlay)
//Storyboard Sound Samples

[TimingPoints]
2580,324.324324324324,4,1,0,90,1,0
2580,-83.3333333333333,4,1,0,90,0,0
3877,-100,4,1,0,70,0,0
5174,-83.3333333333333,4,1,0,90,0,0
7444,-86.2068965517241,4,1,0,90,0,0
7525,-89.2857142857143,4,1,0,90,0,0
7607,-92.5925925925926,4,1,0,90,0,0
7688,-96.1538461538461,4,1,0,90,0,0
7769,-100,4,1,0,90,0,0
54309,-95.2380952380952,4,1,0,90,0,0
54471,-90.9090909090909,4,1,0,90,0,1
74498,-91.743119266055,4,1,0,90,0,1
74579,-92.5925925925926,4,1,0,90,0,1
74661,-93.4579439252336,4,1,0,90,0,1
74742,-94.3396226415094,4,1,0,90,0,1
74823,-95.2380952380952,4,1,0,90,0,1
74904,-96.1538461538461,4,1,0,90,0,1
74985,-97.0873786407767,4,1,0,90,0,1
75066,-98.0392156862745,4,1,0,90,0,1
75147,-99.009900990099,4,1,0,90,0,1
75228,-100,4,1,0,90,0,0
80066,-76.9230769230769,4,1,0,90,0,0
80174,-100,4,1,0,90,0,0
114120,-111.111111111111,4,1,0,90,0,0
116715,-100,4,1,0,90,0,0
121985,-125,4,1,0,55,0,0
132282,-111.111111111111,4,1,0,80,0,0
137498,-100,4,1,0,90,0,0
141363,-97.0873786407767,4,1,0,90,0,0
141525,-94.3396226415094,4,1,0,90,0,0
141850,-91.743119266055,4,1,0,90,0,0
142174,-89.2857142857143,4,1,0,90,0,0
142336,-76.9230769230769,4,1,0,90,0,0
142688,-90.9090909090909,4,1,0,90,0,1
163120,-90.0900900900901,4,1,0,90,0,0
163201,-89.2857142857143,4,1,0,90,0,0
163282,-88.4955752212389,4,1,0,90,0,0
163363,-87.719298245614,4,1,0,90,0,0
163444,-86.9565217391304,4,1,0,90,0,1
184444,-100,4,1,0,90,0,1
186796,-83.3333333333333,4,1,0,90,0,0
188093,-100,4,1,0,70,0,0
189390,-83.3333333333333,4,1,0,90,0,0
191661,-86.2068965517241,4,1,0,90,0,0
191742,-89.2857142857143,4,1,0,90,0,0
191823,-92.5925925925926,4,1,0,90,0,0
191904,-96.1538461538461,4,1,0,90,0,0
191985,-100,4,1,0,90,0,0
192958,-76.9230769230769,4,1,0,90,0,0
193363,-62.5,4,1,0,90,0,0

[HitObjects]
256,192,2580,5,4,0:0:0:0:
256,192,2742,1,4,0:0:0:0:
256,192,3066,1,4,0:0:0:0:
256,192,3390,1,12,0:0:0:0:
256,192,3715,1,12,0:0:0:0:
256,192,4039,1,8,0:0:0:0:
256,192,4201,1,8,0:0:0:0:
256,192,4363,1,0,0:0:0:0:
256,192,4525,1,8,0:0:0:0:
256,192,4688,1,8,0:0:0:0:
256,192,4850,1,0,0:0:0:0:
256,192,5012,1,0,0:0:0:0:
256,192,5174,1,12,0:0:0:0:
256,192,5336,1,12,0:0:0:0:
256,192,5661,1,4,0:0:0:0:
256,192,5985,1,4,0:0:0:0:
256,192,6147,1,4,0:0:0:0:
256,192,6309,1,12,0:0:0:0:
256,192,6471,1,4,0:0:0:0:
256,192,6796,1,8,0:0:0:0:
256,192,7120,1,4,0:0:0:0:
256,192,7444,1,8,0:0:0:0:
256,192,7525,1,8,0:0:0:0:
256,192,7607,1,8,0:0:0:0:
256,192,7688,1,8,0:0:0:0:
256,192,7769,1,0,0:0:0:0:
256,192,7931,1,8,0:0:0:0:
256,192,8093,1,0,0:0:0:0:
256,192,8255,1,8,0:0:0:0:
256,192,8417,1,0,0:0:0:0:
256,192,8579,1,8,0:0:0:0:
256,192,8742,1,0,0:0:0:0:
256,192,9066,1,0,0:0:0:0:
256,192,9228,1,8,0:0:0:0:
256,192,9390,1,0,0:0:0:0:
256,192,9552,1,8,0:0:0:0:
256,192,9715,1,0,0:0:0:0:
256,192,9877,1,8,0:0:0:0:
256,192,10039,1,0,0:0:0:0:
256,192,10363,1,0,0:0:0:0:
256,192,10525,1,8,0:0:0:0:
256,192,10688,1,0,0:0:0:0:
256,192,10850,1,8,0:0:0:0:
256,192,11012,1,0,0:0:0:0:
256,192,11174,1,8,0:0:0:0:
256,192,11336,1,0,0:0:0:0:
256,192,11498,1,8,0:0:0:0:
256,192,11661,1,0,0:0:0:0:
256,192,11823,1,8,0:0:0:0:
256,192,11985,1,0,0:0:0:0:
256,192,12066,1,0,0:0:0:0:
256,192,12147,1,8,0:0:0:0:
256,192,12309,1,0,0:0:0:0:
256,192,12471,1,0,0:0:0:0:
256,192,12634,1,8,0:0:0:0:
256,192,12958,1,4,0:0:0:0:
256,192,13120,1,0,0:0:0:0:
256,192,13201,1,0,0:0:0:0:
256,192,13282,1,8,0:0:0:0:
256,192,13444,1,0,0:0:0:0:
256,192,13607,1,8,0:0:0:0:
256,192,13769,1,8,0:0:0:0:
256,192,13931,1,8,0:0:0:0:
256,192,14255,1,0,0:0:0:0:
256,192,14417,1,0,0:0:0:0:
256,192,14579,1,8,0:0:0:0:
256,192,14661,1,0,0:0:0:0:
256,192,14742,1,8,0:0:0:0:
256,192,14904,1,0,0:0:0:0:
256,192,15066,1,0,0:0:0:0:
256,192,15228,1,8,0:0:0:0:
256,192,15552,1,0,0:0:0:0:
272,192,15715,1,0,0:0:0:0:
272,192,15796,1,0,0:0:0:0:
256,192,15877,1,8,0:0:0:0:
256,192,16039,1,0,0:0:0:0:
256,192,16201,1,8,0:0:0:0:
256,192,16363,1,8,0:0:0:0:
256,192,16525,1,8,0:0:0:0:
256,192,16850,1,0,0:0:0:0:
256,192,17012,1,0,0:0:0:0:
256,192,17093,1,8,0:0:0:0:
256,192,17174,1,8,0:0:0:0:
256,192,17336,1,8,0:0:0:0:
256,192,17498,1,8,0:0:0:0:
256,192,17661,1,0,0:0:0:0:
256,192,17823,1,8,0:0:0:0:
256,192,17904,1,8,0:0:0:0:
256,192,17985,1,8,0:0:0:0:
256,192,18147,1,0,0:0:0:0:
256,192,18309,1,0,0:0:0:0:
256,192,18390,1,0,0:0:0:0:
256,192,18471,1,8,0:0:0:0:
256,192,18633,1,0,0:0:0:0:
256,192,18796,1,8,0:0:0:0:
256,192,18958,1,8,0:0:0:0:
256,192,19120,1,8,0:0:0:0:
256,192,19444,1,0,0:0:0:0:
256,192,19606,1,0,0:0:0:0:
256,192,19768,1,8,0:0:0:0:
256,192,19850,1,0,0:0:0:0:
256,192,19931,1,8,0:0:0:0:
256,192,20093,1,0,0:0:0:0:
256,192,20255,1,0,0:0:0:0:
256,192,20417,1,8,0:0:0:0:
256,192,20742,1,0,0:0:0:0:
256,192,20904,1,0,0:0:0:0:
256,192,20985,1,8,0:0:0:0:
256,192,21066,1,8,0:0:0:0:
256,192,21228,1,8,0:0:0:0:
256,192,21390,1,8,0:0:0:0:
256,192,21552,1,8,0:0:0:0:
256,192,21715,1,0,0:0:0:0:
256,192,21796,1,8,0:0:0:0:
256,192,21877,1,8,0:0:0:0:
256,192,22039,1,0,0:0:0:0:
256,192,22201,1,0,0:0:0:0:
256,192,22363,1,8,0:0:0:0:
256,192,22688,1,8,0:0:0:0:
256,192,22850,1,0,0:0:0:0:
256,192,22931,1,0,0:0:0:0:
256,192,23012,1,8,0:0:0:0:
256,192,23336,1,4,0:0:0:0:
256,192,23498,1,0,0:0:0:0:
256,192,23579,1,0,0:0:0:0:
256,192,23660,1,8,0:0:0:0:
256,192,23822,1,0,0:0:0:0:
256,192,23985,1,8,0:0:0:0:
256,192,24066,1,8,0:0:0:0:
256,208,24147,1,0,0:0:0:0:
256,192,24309,1,8,0:0:0:0:
256,192,24471,1,8,0:0:0:0:
256,192,24633,1,0,0:0:0:0:
256,192,24957,1,8,0:0:0:0:
256,192,25039,1,0,0:0:0:0:
256,192,25120,1,8,0:0:0:0:
256,192,25282,1,0,0:0:0:0:
256,192,25444,1,0,0:0:0:0:
256,192,25525,1,0,0:0:0:0:
256,192,25606,1,8,0:0:0:0:
256,192,25930,1,0,0:0:0:0:
272,192,26093,1,0,0:0:0:0:
272,192,26174,1,0,0:0:0:0:
256,192,26255,1,8,0:0:0:0:
256,192,26417,1,0,0:0:0:0:
256,192,26579,1,8,0:0:0:0:
256,192,26661,1,8,0:0:0:0:
256,192,26741,1,0,0:0:0:0:
256,192,26903,1,8,0:0:0:0:
256,192,27066,1,8,0:0:0:0:
256,192,27228,1,0,0:0:0:0:
256,192,27552,1,8,0:0:0:0:
256,192,27714,1,8,0:0:0:0:
256,192,27795,1,8,0:0:0:0:
256,192,27876,1,8,0:0:0:0:
256,192,28039,1,0,0:0:0:0:
256,192,28201,1,8,0:0:0:0:
256,192,28282,1,8,0:0:0:0:
256,192,28363,1,8,0:0:0:0:
256,192,28525,1,0,0:0:0:0:
256,192,28687,1,0,0:0:0:0:
256,192,28768,1,0,0:0:0:0:
256,192,28849,1,8,0:0:0:0:
256,192,29011,1,0,0:0:0:0:
256,192,29174,1,8,0:0:0:0:
272,208,29255,1,8,0:0:0:0:
256,192,29336,1,0,0:0:0:0:
256,192,29498,1,8,0:0:0:0:
256,192,29660,1,8,0:0:0:0:
256,192,29822,1,0,0:0:0:0:
256,192,30146,1,8,0:0:0:0:
256,192,30228,1,0,0:0:0:0:
256,192,30309,1,8,0:0:0:0:
256,192,30471,1,0,0:0:0:0:
256,192,30633,1,0,0:0:0:0:
256,192,30714,1,0,0:0:0:0:
256,192,30795,1,8,0:0:0:0:
256,192,31120,1,8,0:0:0:0:
256,192,31201,1,8,0:0:0:0:
256,192,31282,1,0,0:0:0:0:
256,192,31444,1,0,0:0:0:0:
256,192,31607,1,8,0:0:0:0:
256,192,31769,1,8,0:0:0:0:
256,192,31850,1,8,0:0:0:0:
256,192,31931,1,0,0:0:0:0:
256,192,32093,1,0,0:0:0:0:
256,192,32255,1,8,0:0:0:0:
256,192,32417,1,0,0:0:0:0:
256,192,32579,1,0,0:0:0:0:
256,192,32742,1,0,0:0:0:0:
256,192,32904,1,0,0:0:0:0:
256,192,33066,1,8,0:0:0:0:
256,192,33174,1,0,0:0:0:0:
256,192,33282,1,0,0:0:0:0:
256,192,33390,1,8,0:0:0:0:
256,192,33715,1,4,0:0:0:0:
256,192,33877,1,8,0:0:0:0:
256,192,34039,1,0,0:0:0:0:
256,192,34120,1,0,0:0:0:0:
256,192,34201,1,8,0:0:0:0:
240,192,34525,1,0,0:0:0:0:
256,192,34688,1,8,0:0:0:0:
256,192,34769,1,8,0:0:0:0:
256,192,34931,1,8,0:0:0:0:
256,192,35012,1,0,0:0:0:0:
256,192,35174,1,8,0:0:0:0:
256,192,35255,1,8,0:0:0:0:
256,192,35336,1,0,0:0:0:0:
256,192,35498,1,8,0:0:0:0:
256,192,35661,1,0,0:0:0:0:
256,192,35823,1,0,0:0:0:0:
256,192,35985,1,8,0:0:0:0:
256,192,36309,1,0,0:0:0:0:
256,192,36390,1,0,0:0:0:0:
256,192,36471,1,8,0:0:0:0:
256,192,36634,1,0,0:0:0:0:
256,192,36796,1,8,0:0:0:0:
256,192,36877,1,8,0:0:0:0:
256,192,36958,1,0,0:0:0:0:
256,192,37120,1,8,0:0:0:0:
256,192,37282,1,0,0:0:0:0:
256,192,37363,1,0,0:0:0:0:
256,192,37444,1,8,0:0:0:0:
256,192,37607,1,0,0:0:0:0:
256,192,37931,1,8,0:0:0:0:
256,192,38255,1,0,0:0:0:0:
256,192,38417,1,8,0:0:0:0:
256,192,38498,1,8,0:0:0:0:
256,192,38579,1,8,0:0:0:0:
256,192,38904,1,0,0:0:0:0:
256,192,38985,1,0,0:0:0:0:
256,192,39066,1,8,0:0:0:0:
256,192,39228,1,8,0:0:0:0:
256,192,39309,1,8,0:0:0:0:
256,192,39471,1,8,0:0:0:0:
256,192,39552,1,8,0:0:0:0:
256,192,39715,1,8,0:0:0:0:
256,192,39877,1,0,0:0:0:0:
256,192,40201,1,8,0:0:0:0:
256,192,40282,1,8,0:0:0:0:
256,192,40363,1,0,0:0:0:0:
256,192,40525,1,8,0:0:0:0:
256,192,40688,1,0,0:0:0:0:
256,192,40769,1,8,0:0:0:0:
256,192,40850,1,0,0:0:0:0:
256,192,41012,1,0,0:0:0:0:
256,192,41174,1,8,0:0:0:0:
256,192,41498,1,0,0:0:0:0:
256,192,41661,1,8,0:0:0:0:
256,192,41742,1,0,0:0:0:0:
256,192,41823,1,8,0:0:0:0:
256,192,41985,1,8,0:0:0:0:
256,192,42147,1,0,0:0:0:0:
256,192,42228,1,8,0:0:0:0:
256,192,42309,1,0,0:0:0:0:
256,192,42471,1,8,0:0:0:0:
256,192,42634,1,8,0:0:0:0:
256,192,42796,1,0,0:0:0:0:
256,192,42958,1,0,0:0:0:0:
256,192,43039,1,0,0:0:0:0:
256,192,43120,1,8,0:0:0:0:
256,192,43282,1,0,0:0:0:0:
256,192,43444,1,8,0:0:0:0:
256,192,43769,1,0,0:0:0:0:
256,192,44093,1,8,0:0:0:0:
256,192,44255,1,8,0:0:0:0:
256,192,44336,1,8,0:0:0:0:
256,192,44417,1,0,0:0:0:0:
256,192,44579,1,8,0:0:0:0:
256,192,44742,1,8,0:0:0:0:
256,192,44904,1,0,0:0:0:0:
256,192,44985,1,0,0:0:0:0:
256,192,45066,1,8,0:0:0:0:
256,192,45390,1,0,0:0:0:0:
256,192,45471,1,0,0:0:0:0:
256,192,45552,1,8,0:0:0:0:
256,192,45715,1,8,0:0:0:0:
256,192,45877,1,0,0:0:0:0:
256,192,45958,1,8,0:0:0:0:
256,192,46039,1,0,0:0:0:0:
256,192,46201,1,0,0:0:0:0:
256,192,46363,1,8,0:0:0:0:
256,192,46688,1,0,0:0:0:0:
256,192,46850,1,0,0:0:0:0:
256,192,47012,1,8,0:0:0:0:
256,192,47174,1,8,0:0:0:0:
256,192,47255,1,8,0:0:0:0:
256,192,47336,1,0,0:0:0:0:
256,192,47498,1,8,0:0:0:0:
256,192,47661,1,0,0:0:0:0:
256,192,47985,1,0,0:0:0:0:
256,192,48147,1,8,0:0:0:0:
256,192,48309,1,0,0:0:0:0:
256,192,48390,1,0,0:0:0:0:
256,192,48471,1,8,0:0:0:0:
256,192,48634,1,8,0:0:0:0:
256,192,48796,1,8,0:0:0:0:
256,192,48877,1,8,0:0:0:0:
256,192,48958,1,8,0:0:0:0:
256,192,49282,1,0,0:0:0:0:
256,192,49363,1,0,0:0:0:0:
256,192,49444,1,8,0:0:0:0:
256,192,49607,1,0,0:0:0:0:
256,192,49769,1,0,0:0:0:0:
256,192,49931,1,8,0:0:0:0:
256,192,50093,1,0,0:0:0:0:
256,192,50174,1,8,0:0:0:0:
256,192,50255,1,0,0:0:0:0:
256,192,50417,1,8,0:0:0:0:
256,192,50579,1,8,0:0:0:0:
256,192,50661,1,8,0:0:0:0:
256,192,50742,1,8,0:0:0:0:
256,192,50904,1,0,0:0:0:0:
256,192,51066,1,8,0:0:0:0:
256,192,51228,1,0,0:0:0:0:
256,192,51309,1,0,0:0:0:0:
256,192,51390,1,0,0:0:0:0:
256,192,51552,1,8,0:0:0:0:
256,192,51877,1,0,0:0:0:0:
256,192,51958,1,0,0:0:0:0:
256,192,52120,1,8,0:0:0:0:
256,192,52201,1,0,0:0:0:0:
256,192,52363,1,8,0:0:0:0:
256,192,52525,1,8,0:0:0:0:
256,192,52607,1,8,0:0:0:0:
256,192,52688,1,8,0:0:0:0:
256,192,52769,1,8,0:0:0:0:
256,192,52850,1,8,0:0:0:0:
256,192,52931,1,8,0:0:0:0:
256,192,53012,1,8,0:0:0:0:
256,192,53093,1,8,0:0:0:0:
256,192,53174,1,0,0:0:0:0:
256,192,53498,1,0,0:0:0:0:
256,192,53823,1,8,0:0:0:0:
256,192,53985,1,0,0:0:0:0:
256,192,54066,1,0,0:0:0:0:
256,192,54147,1,8,0:0:0:0:
256,192,54309,1,8,0:0:0:0:
256,192,54471,1,4,0:0:0:0:
256,192,54796,1,8,0:0:0:0:
256,192,54958,1,0,0:0:0:0:
256,192,55120,1,0,0:0:0:0:
256,192,55201,1,8,0:0:0:0:
256,192,55363,1,8,0:0:0:0:
256,192,55444,1,0,0:0:0:0:
256,192,55607,1,8,0:0:0:0:
256,192,55769,1,0,0:0:0:0:
256,192,55931,1,0,0:0:0:0:
256,192,56012,1,0,0:0:0:0:
256,192,56093,1,8,0:0:0:0:
256,192,56255,1,0,0:0:0:0:
256,192,56417,1,8,0:0:0:0:
256,192,56579,1,8,0:0:0:0:
256,192,56661,1,8,0:0:0:0:
256,192,56742,1,0,0:0:0:0:
256,192,56904,1,8,0:0:0:0:
256,192,57066,1,0,0:0:0:0:
256,192,57390,1,8,0:0:0:0:
256,192,57552,1,0,0:0:0:0:
256,192,57634,1,0,0:0:0:0:
256,192,57715,1,8,0:0:0:0:
256,192,57877,1,0,0:0:0:0:
256,192,57958,1,8,0:0:0:0:
256,192,58039,1,0,0:0:0:0:
256,192,58201,1,8,0:0:0:0:
256,192,58363,1,0,0:0:0:0:
256,192,58525,1,8,0:0:0:0:
256,192,58607,1,0,0:0:0:0:
256,192,58769,1,0,0:0:0:0:
256,192,58850,1,8,0:0:0:0:
256,192,59012,1,8,0:0:0:0:
256,192,59093,1,8,0:0:0:0:
256,192,59174,1,8,0:0:0:0:
256,192,59255,1,8,0:0:0:0:
256,192,59336,1,8,0:0:0:0:
256,192,59417,1,8,0:0:0:0:
256,192,59498,1,8,0:0:0:0:
256,192,59579,1,8,0:0:0:0:
256,192,59661,1,0,0:0:0:0:
256,192,59904,1,8,0:0:0:0:
256,192,60147,1,8,0:0:0:0:
256,192,60309,1,0,0:0:0:0:
256,192,60390,1,8,0:0:0:0:
256,192,60634,1,0,0:0:0:0:
256,192,60796,1,8,0:0:0:0:
256,192,60958,1,8,0:0:0:0:
256,192,61039,1,0,0:0:0:0:
256,192,61120,1,0,0:0:0:0:
256,192,61282,1,8,0:0:0:0:
256,192,61363,1,0,0:0:0:0:
256,192,61444,1,0,0:0:0:0:
256,192,61525,1,0,0:0:0:0:
256,192,61607,1,8,0:0:0:0:
256,192,61931,1,8,0:0:0:0:
256,192,62093,1,8,0:0:0:0:
256,192,62255,1,4,0:0:0:0:
256,192,62417,1,0,0:0:0:0:
256,192,62498,1,0,0:0:0:0:
256,192,62579,1,8,0:0:0:0:
256,192,62904,1,12,0:0:0:0:
256,192,63066,1,0,0:0:0:0:
256,192,63147,1,0,0:0:0:0:
256,192,63228,1,8,0:0:0:0:
256,192,63552,1,8,0:0:0:0:
256,192,63715,1,0,0:0:0:0:
256,192,63877,1,8,0:0:0:0:
256,192,63958,1,8,0:0:0:0:
256,192,64039,1,8,0:0:0:0:
256,192,64120,1,8,0:0:0:0:
256,192,64201,1,0,0:0:0:0:
256,192,64282,1,0,0:0:0:0:
256,192,64363,1,0,0:0:0:0:
256,192,64444,1,0,0:0:0:0:
256,192,64525,1,8,0:0:0:0:
256,192,64850,1,0,0:0:0:0:
256,192,65174,1,12,0:0:0:0:
256,192,65498,1,0,0:0:0:0:
256,192,65579,1,8,0:0:0:0:
256,192,65742,1,8,0:0:0:0:
256,192,65823,1,0,0:0:0:0:
256,192,65985,1,8,0:0:0:0:
256,192,66147,1,0,0:0:0:0:
256,192,66309,1,0,0:0:0:0:
256,192,66390,1,0,0:0:0:0:
256,192,66471,1,8,0:0:0:0:
256,192,66634,1,0,0:0:0:0:
256,192,66715,1,0,0:0:0:0:
256,192,66796,1,8,0:0:0:0:
256,192,66958,1,8,0:0:0:0:
256,192,67039,1,8,0:0:0:0:
256,192,67120,1,0,0:0:0:0:
256,192,67282,1,8,0:0:0:0:
256,192,67444,1,0,0:0:0:0:
256,192,67769,1,8,0:0:0:0:
256,192,67931,1,0,0:0:0:0:
256,192,68012,1,0,0:0:0:0:
256,192,68093,1,8,0:0:0:0:
256,192,68255,1,0,0:0:0:0:
256,192,68336,1,8,0:0:0:0:
256,192,68417,1,0,0:0:0:0:
256,192,68579,1,8,0:0:0:0:
256,192,68742,1,0,0:0:0:0:
256,192,68904,1,8,0:0:0:0:
256,192,68985,1,0,0:0:0:0:
256,192,69147,1,0,0:0:0:0:
256,192,69228,1,8,0:0:0:0:
256,192,69390,1,8,0:0:0:0:
256,192,69471,1,8,0:0:0:0:
256,192,69552,1,8,0:0:0:0:
256,192,69634,1,8,0:0:0:0:
256,192,69715,1,8,0:0:0:0:
256,192,69796,1,8,0:0:0:0:
256,192,69877,1,8,0:0:0:0:
256,192,69958,1,8,0:0:0:0:
256,192,70039,1,0,0:0:0:0:
256,192,70282,1,8,0:0:0:0:
256,192,70525,1,8,0:0:0:0:
256,192,70688,1,0,0:0:0:0:
256,192,70769,1,8,0:0:0:0:
256,192,70931,1,8,0:0:0:0:
256,192,71012,1,0,0:0:0:0:
256,192,71174,1,8,0:0:0:0:
256,192,71336,1,8,0:0:0:0:
256,192,71417,1,0,0:0:0:0:
256,192,71498,1,0,0:0:0:0:
256,192,71661,1,8,0:0:0:0:
256,192,71742,1,0,0:0:0:0:
256,192,71823,1,0,0:0:0:0:
256,192,71904,1,0,0:0:0:0:
256,192,71985,1,8,0:0:0:0:
256,192,72309,1,8,0:0:0:0:
256,192,72471,1,8,0:0:0:0:
256,192,72634,1,4,0:0:0:0:
256,192,72796,1,0,0:0:0:0:
256,192,72877,1,0,0:0:0:0:
256,192,72958,1,8,0:0:0:0:
256,192,73282,1,12,0:0:0:0:
256,192,73444,1,0,0:0:0:0:
256,192,73525,1,0,0:0:0:0:
256,192,73607,1,8,0:0:0:0:
256,192,73931,1,0,0:0:0:0:
256,192,74012,1,0,0:0:0:0:
256,192,74093,1,8,0:0:0:0:
256,192,74255,1,0,0:0:0:0:
256,192,74336,1,0,0:0:0:0:
256,192,74417,1,8,0:0:0:0:
256,192,74579,1,0,0:0:0:0:
256,192,74661,1,0,0:0:0:0:
256,192,74742,1,0,0:0:0:0:
256,192,74823,1,0,0:0:0:0:
256,192,74904,1,8,0:0:0:0:
256,192,75228,1,0,0:0:0:0:
256,192,75471,1,0,0:0:0:0:
256,192,75715,1,8,0:0:0:0:
256,192,75877,1,0,0:0:0:0:
256,192,76120,1,8,0:0:0:0:
256,192,76363,1,8,0:0:0:0:
256,192,76525,1,0,0:0:0:0:
256,192,76769,1,0,0:0:0:0:
256,192,77012,1,8,0:0:0:0:
256,192,77174,1,0,0:0:0:0:
256,192,77255,1,0,0:0:0:0:
256,192,77417,1,8,0:0:0:0:
256,192,77498,1,8,0:0:0:0:
256,192,77661,1,0,0:0:0:0:
256,192,77904,1,8,0:0:0:0:
240,192,78147,1,0,0:0:0:0:
256,192,78390,1,8,0:0:0:0:
256,192,78634,1,0,0:0:0:0:
240,192,78796,1,8,0:0:0:0:
256,192,78958,1,8,0:0:0:0:
256,192,79120,1,0,0:0:0:0:
256,192,79363,1,0,0:0:0:0:
256,192,79607,1,0,0:0:0:0:
256,192,79850,1,0,0:0:0:0:
256,192,80093,1,12,0:0:0:0:
256,192,80417,1,4,0:0:0:0:
256,192,80579,1,8,0:0:0:0:
256,192,80661,1,8,0:0:0:0:
256,192,80742,1,0,0:0:0:0:
256,192,80904,1,8,0:0:0:0:
256,192,81066,1,0,0:0:0:0:
256,192,81309,1,0,0:0:0:0:
256,192,81552,1,8,0:0:0:0:
256,192,81715,1,0,0:0:0:0:
256,192,81877,1,8,0:0:0:0:
256,192,81958,1,8,0:0:0:0:
256,192,82039,1,0,0:0:0:0:
256,192,82201,1,8,0:0:0:0:
256,192,82363,1,0,0:0:0:0:
256,192,82688,1,8,0:0:0:0:
256,192,83012,1,0,0:0:0:0:
256,192,83174,1,8,0:0:0:0:
256,192,83255,1,8,0:0:0:0:
256,192,83336,1,0,0:0:0:0:
256,192,83498,1,8,0:0:0:0:
256,192,83661,1,0,0:0:0:0:
256,192,83904,1,0,0:0:0:0:
256,192,84147,1,8,0:0:0:0:
256,192,84309,1,0,0:0:0:0:
256,192,84471,1,8,0:0:0:0:
256,192,84552,1,8,0:0:0:0:
256,192,84634,1,8,0:0:0:0:
256,192,84958,1,0,0:0:0:0:
256,192,85120,1,0,0:0:0:0:
256,192,85201,1,0,0:0:0:0:
256,192,85282,1,8,0:0:0:0:
256,192,85607,1,0,0:0:0:0:
256,192,85769,1,8,0:0:0:0:
256,192,85850,1,8,0:0:0:0:
256,192,85931,1,0,0:0:0:0:
256,192,86093,1,8,0:0:0:0:
256,192,86255,1,0,0:0:0:0:
256,192,86498,1,0,0:0:0:0:
256,192,86742,1,8,0:0:0:0:
256,192,86904,1,0,0:0:0:0:
256,192,87066,1,8,0:0:0:0:
256,192,87147,1,8,0:0:0:0:
256,192,87228,1,0,0:0:0:0:
256,192,87390,1,8,0:0:0:0:
256,192,87552,1,0,0:0:0:0:
256,192,87877,1,8,0:0:0:0:
256,192,88201,1,8,0:0:0:0:
256,192,88282,1,8,0:0:0:0:
256,192,88363,1,0,0:0:0:0:
256,192,88525,1,8,0:0:0:0:
256,192,88607,1,8,0:0:0:0:
256,192,88688,1,8,0:0:0:0:
256,192,88850,1,0,0:0:0:0:
256,192,88931,1,0,0:0:0:0:
256,192,89012,1,8,0:0:0:0:
256,192,89174,1,8,0:0:0:0:
256,192,89336,1,8,0:0:0:0:
256,192,89498,1,4,0:0:0:0:
256,192,90147,1,4,0:0:0:0:
256,192,90471,1,8,0:0:0:0:
256,192,90552,1,8,0:0:0:0:
256,192,90634,1,8,0:0:0:0:
256,192,90715,1,8,0:0:0:0:
256,192,90796,1,0,0:0:0:0:
256,192,90958,1,8,0:0:0:0:
256,192,91039,1,8,0:0:0:0:
256,192,91120,1,0,0:0:0:0:
256,192,91282,1,8,0:0:0:0:
256,192,91444,1,0,0:0:0:0:
256,192,91688,1,0,0:0:0:0:
256,192,91931,1,8,0:0:0:0:
256,192,92093,1,0,0:0:0:0:
256,192,92255,1,8,0:0:0:0:
256,192,92336,1,8,0:0:0:0:
256,192,92417,1,0,0:0:0:0:
256,192,92579,1,8,0:0:0:0:
256,192,92742,1,0,0:0:0:0:
256,192,93066,1,8,0:0:0:0:
256,192,93390,1,0,0:0:0:0:
256,192,93552,1,8,0:0:0:0:
256,192,93634,1,8,0:0:0:0:
256,192,93715,1,0,0:0:0:0:
256,192,93877,1,8,0:0:0:0:
256,192,94039,1,0,0:0:0:0:
256,192,94282,1,0,0:0:0:0:
256,192,94525,1,8,0:0:0:0:
256,192,94688,1,0,0:0:0:0:
256,192,94850,1,8,0:0:0:0:
256,192,94931,1,8,0:0:0:0:
256,192,95012,1,8,0:0:0:0:
256,192,95336,1,0,0:0:0:0:
256,192,95498,1,0,0:0:0:0:
256,192,95579,1,0,0:0:0:0:
256,192,95661,1,8,0:0:0:0:
256,192,95985,1,0,0:0:0:0:
256,192,96147,1,8,0:0:0:0:
256,192,96228,1,8,0:0:0:0:
256,192,96309,1,0,0:0:0:0:
256,192,96471,1,8,0:0:0:0:
256,192,96634,1,0,0:0:0:0:
256,192,96877,1,0,0:0:0:0:
256,192,97120,1,8,0:0:0:0:
256,192,97282,1,0,0:0:0:0:
256,192,97444,1,8,0:0:0:0:
256,192,97525,1,8,0:0:0:0:
256,192,97607,1,0,0:0:0:0:
256,192,97769,1,8,0:0:0:0:
256,192,97931,1,0,0:0:0:0:
256,192,98255,1,8,0:0:0:0:
256,192,98579,1,0,0:0:0:0:
256,192,98742,1,8,0:0:0:0:
256,192,98823,1,8,0:0:0:0:
256,192,98904,1,0,0:0:0:0:
256,192,99066,1,8,0:0:0:0:
256,192,99228,1,4,0:0:0:0:
256,192,99471,1,4,0:0:0:0:
256,192,99715,1,12,0:0:0:0:
256,192,99958,1,12,0:0:0:0:
256,192,100201,1,4,0:0:0:0:
256,192,100444,1,4,0:0:0:0:
240,192,100688,1,12,0:0:0:0:
272,192,100850,1,0,0:0:0:0:
272,192,101174,1,4,0:0:0:0:
256,192,101336,1,8,0:0:0:0:
256,192,101417,1,8,0:0:0:0:
256,192,101498,1,0,0:0:0:0:
256,192,101661,1,8,0:0:0:0:
256,192,101823,1,0,0:0:0:0:
256,192,102066,1,8,0:0:0:0:
256,192,102471,1,0,0:0:0:0:
256,192,102634,1,8,0:0:0:0:
256,192,102715,1,8,0:0:0:0:
256,192,102796,1,0,0:0:0:0:
256,192,102958,1,8,0:0:0:0:
256,192,103120,1,0,0:0:0:0:
256,192,103444,1,8,0:0:0:0:
256,192,103769,1,0,0:0:0:0:
256,192,103931,1,8,0:0:0:0:
256,192,104012,1,8,0:0:0:0:
256,192,104093,1,0,0:0:0:0:
256,192,104255,1,8,0:0:0:0:
256,192,104417,1,0,0:0:0:0:
256,192,104661,1,0,0:0:0:0:
256,192,104904,1,8,0:0:0:0:
256,192,105066,1,0,0:0:0:0:
256,192,105228,1,8,0:0:0:0:
256,192,105309,1,8,0:0:0:0:
256,192,105390,1,8,0:0:0:0:
256,192,105715,1,0,0:0:0:0:
256,192,105877,1,0,0:0:0:0:
256,192,105958,1,0,0:0:0:0:
256,192,106039,1,8,0:0:0:0:
256,192,106363,1,0,0:0:0:0:
256,192,106525,1,8,0:0:0:0:
256,192,106607,1,8,0:0:0:0:
256,192,106688,1,0,0:0:0:0:
256,192,106850,1,8,0:0:0:0:
256,192,107012,1,0,0:0:0:0:
256,192,107255,1,0,0:0:0:0:
256,192,107498,1,8,0:0:0:0:
256,192,107661,1,0,0:0:0:0:
256,192,107823,1,8,0:0:0:0:
256,192,107904,1,8,0:0:0:0:
256,192,107985,1,0,0:0:0:0:
256,192,108147,1,8,0:0:0:0:
256,192,108309,1,0,0:0:0:0:
256,192,108634,1,8,0:0:0:0:
256,192,108958,1,8,0:0:0:0:
256,192,109039,1,8,0:0:0:0:
256,192,109120,1,8,0:0:0:0:
256,192,109282,1,0,0:0:0:0:
256,192,109363,1,8,0:0:0:0:
256,192,109444,1,8,0:0:0:0:
256,192,109607,1,0,0:0:0:0:
256,192,109769,1,0,0:0:0:0:
256,192,109931,1,8,0:0:0:0:
256,192,110093,1,8,0:0:0:0:
256,192,110255,1,4,0:0:0:0:
256,192,110904,1,4,0:0:0:0:
256,192,111228,1,8,0:0:0:0:
256,192,111309,1,8,0:0:0:0:
256,192,111390,1,8,0:0:0:0:
256,192,111471,1,8,0:0:0:0:
256,192,111552,1,0,0:0:0:0:
256,192,111715,1,8,0:0:0:0:
256,192,111796,1,8,0:0:0:0:
256,192,111877,1,0,0:0:0:0:
256,192,112039,1,8,0:0:0:0:
256,192,112201,1,0,0:0:0:0:
256,192,112444,1,0,0:0:0:0:
256,192,112688,1,8,0:0:0:0:
256,192,112850,1,0,0:0:0:0:
256,192,113012,1,8,0:0:0:0:
256,192,113093,1,8,0:0:0:0:
256,192,113174,1,0,0:0:0:0:
256,192,113336,1,8,0:0:0:0:
256,192,113498,1,0,0:0:0:0:
256,192,113823,1,8,0:0:0:0:
256,192,114147,1,4,0:0:0:0:
256,192,114471,1,0,0:0:0:0:
256,192,114579,1,0,0:0:0:0:
256,192,114688,1,0,0:0:0:0:
256,192,114796,1,0,0:0:0:0:
256,192,115012,1,0,0:0:0:0:
256,192,115120,1,8,0:0:0:0:
256,192,115336,1,8,0:0:0:0:
256,192,115444,1,0,0:0:0:0:
256,192,115769,1,0,0:0:0:0:
272,192,115877,1,0,0:0:0:0:
256,192,115985,1,0,0:0:0:0:
256,192,116093,1,12,0:0:0:0:
256,192,116417,1,12,0:0:0:0:
256,192,116742,1,0,0:0:0:0:
256,192,116904,1,8,0:0:0:0:
256,192,116985,1,8,0:0:0:0:
256,192,117066,1,0,0:0:0:0:
256,192,117228,1,8,0:0:0:0:
256,192,117390,1,0,0:0:0:0:
256,192,117552,1,0,0:0:0:0:
256,192,117715,1,8,0:0:0:0:
256,192,118039,1,0,0:0:0:0:
256,192,118201,1,8,0:0:0:0:
256,192,118282,1,8,0:0:0:0:
256,192,118363,1,0,0:0:0:0:
256,192,118525,1,8,0:0:0:0:
256,192,118688,1,0,0:0:0:0:
256,192,118769,1,0,0:0:0:0:
256,192,118850,1,0,0:0:0:0:
256,192,119012,1,8,0:0:0:0:
256,192,119336,1,0,0:0:0:0:
256,192,119579,1,8,0:0:0:0:
256,192,119823,1,8,0:0:0:0:
256,192,119985,1,0,0:0:0:0:
256,192,120066,1,8,0:0:0:0:
256,192,120147,1,8,0:0:0:0:
256,192,120309,1,8,0:0:0:0:
256,192,120471,1,8,0:0:0:0:
256,192,120552,1,8,0:0:0:0:
256,192,120634,1,0,0:0:0:0:
256,192,120877,1,8,0:0:0:0:
256,192,121120,1,8,0:0:0:0:
256,192,121282,1,0,0:0:0:0:
256,192,121444,1,8,0:0:0:0:
256,192,121525,1,0,0:0:0:0:
256,192,121688,1,0,0:0:0:0:
256,192,121769,1,8,0:0:0:0:
256,192,121931,1,0,0:0:0:0:
256,192,123228,1,8,0:0:0:0:
256,192,123715,1,8,0:0:0:0:
256,192,124201,1,8,0:0:0:0:
256,192,124525,1,0,0:0:0:0:
240,208,125498,1,8,0:0:0:0:
240,192,125661,1,8,0:0:0:0:
240,208,126471,1,8,0:0:0:0:
240,208,126796,1,8,0:0:0:0:
240,208,126958,1,8,0:0:0:0:
240,208,127120,1,0,0:0:0:0:
240,208,128417,1,8,0:0:0:0:
256,208,128904,1,8,0:0:0:0:
256,208,129390,1,8,0:0:0:0:
256,208,129715,1,0,0:0:0:0:
256,208,130201,1,8,0:0:0:0:
256,208,130688,1,8,0:0:0:0:
256,208,130850,1,8,0:0:0:0:
256,208,131661,1,8,0:0:0:0:
256,208,131823,1,8,0:0:0:0:
256,208,131985,1,8,0:0:0:0:
256,208,132147,1,8,0:0:0:0:
256,208,132309,1,4,0:0:0:0:
256,208,132634,1,8,0:0:0:0:
256,208,132796,1,0,0:0:0:0:
256,208,133120,1,0,0:0:0:0:
256,208,133282,1,8,0:0:0:0:
256,208,133607,1,0,0:0:0:0:
256,208,133931,1,8,0:0:0:0:
256,208,134093,1,0,0:0:0:0:
256,208,134255,1,0,0:0:0:0:
240,208,134579,1,8,0:0:0:0:
256,224,134904,1,0,0:0:0:0:
288,144,135228,1,8,0:0:0:0:
288,144,135390,1,0,0:0:0:0:
288,144,135715,1,0,0:0:0:0:
288,144,135877,1,8,0:0:0:0:
288,144,136201,1,0,0:0:0:0:
288,144,136363,1,0,0:0:0:0:
288,144,136525,1,8,0:0:0:0:
288,144,136688,1,0,0:0:0:0:
288,144,136850,1,0,0:0:0:0:
288,144,136931,1,0,0:0:0:0:
288,144,137012,1,0,0:0:0:0:
288,144,137174,1,8,0:0:0:0:
288,144,137498,1,4,0:0:0:0:
288,144,137823,1,8,0:0:0:0:
288,144,138147,1,8,0:0:0:0:
288,144,138471,1,8,0:0:0:0:
288,144,138634,1,8,0:0:0:0:
112,160,138796,2,0,L|112:208,14,35
256,192,140093,1,4,0:0:0:0:
256,192,140417,1,8,0:0:0:0:
256,192,140742,1,4,0:0:0:0:
256,192,141066,1,8,0:0:0:0:
256,192,141390,1,4,0:0:0:0:
256,192,141715,1,0,0:0:0:0:
256,192,141877,1,0,0:0:0:0:
256,192,141958,1,0,0:0:0:0:
256,192,142039,1,8,0:0:0:0:
256,192,142201,1,0,0:0:0:0:
256,192,142363,1,12,0:0:0:0:
256,192,142688,1,4,0:0:0:0:
256,192,143013,1,8,0:0:0:0:
256,192,143175,1,0,0:0:0:0:
256,192,143337,1,0,0:0:0:0:
256,192,143418,1,8,0:0:0:0:
256,192,143580,1,8,0:0:0:0:
256,192,143661,1,0,0:0:0:0:
256,192,143824,1,8,0:0:0:0:
256,192,143986,1,0,0:0:0:0:
256,192,144148,1,0,0:0:0:0:
256,192,144229,1,0,0:0:0:0:
256,192,144310,1,8,0:0:0:0:
256,192,144472,1,0,0:0:0:0:
256,192,144634,1,8,0:0:0:0:
256,192,144796,1,8,0:0:0:0:
256,192,144878,1,8,0:0:0:0:
256,192,144959,1,0,0:0:0:0:
256,192,145121,1,8,0:0:0:0:
256,192,145283,1,0,0:0:0:0:
256,192,145607,1,8,0:0:0:0:
256,192,145769,1,0,0:0:0:0:
256,192,145851,1,0,0:0:0:0:
256,192,145932,1,8,0:0:0:0:
256,192,146094,1,0,0:0:0:0:
256,192,146175,1,8,0:0:0:0:
256,192,146256,1,0,0:0:0:0:
256,192,146418,1,8,0:0:0:0:
256,192,146580,1,0,0:0:0:0:
256,192,146742,1,8,0:0:0:0:
256,192,146824,1,0,0:0:0:0:
256,192,146986,1,0,0:0:0:0:
256,192,147067,1,8,0:0:0:0:
256,192,147229,1,8,0:0:0:0:
256,192,147310,1,8,0:0:0:0:
256,192,147391,1,8,0:0:0:0:
256,192,147472,1,8,0:0:0:0:
256,192,147553,1,8,0:0:0:0:
256,192,147634,1,8,0:0:0:0:
256,192,147715,1,8,0:0:0:0:
256,192,147796,1,8,0:0:0:0:
256,192,147878,1,0,0:0:0:0:
256,192,148121,1,8,0:0:0:0:
256,192,148364,1,8,0:0:0:0:
256,192,148526,1,0,0:0:0:0:
256,192,148607,1,8,0:0:0:0:
256,192,148769,1,8,0:0:0:0:
256,192,148851,1,0,0:0:0:0:
256,192,149013,1,8,0:0:0:0:
256,192,149175,1,8,0:0:0:0:
256,192,149256,1,0,0:0:0:0:
256,192,149337,1,0,0:0:0:0:
256,192,149499,1,8,0:0:0:0:
256,192,149580,1,0,0:0:0:0:
256,192,149661,1,0,0:0:0:0:
256,192,149742,1,0,0:0:0:0:
256,192,149824,1,8,0:0:0:0:
256,192,150148,1,8,0:0:0:0:
256,192,150310,1,8,0:0:0:0:
256,192,150472,1,4,0:0:0:0:
256,192,150634,1,0,0:0:0:0:
256,192,150715,1,0,0:0:0:0:
256,192,150796,1,8,0:0:0:0:
256,192,151121,1,12,0:0:0:0:
256,192,151283,1,0,0:0:0:0:
256,192,151364,1,0,0:0:0:0:
256,192,151445,1,8,0:0:0:0:
256,192,151769,1,8,0:0:0:0:
256,192,151932,1,0,0:0:0:0:
256,192,152094,1,8,0:0:0:0:
256,192,152175,1,8,0:0:0:0:
256,192,152256,1,8,0:0:0:0:
256,192,152337,1,8,0:0:0:0:
256,192,152418,1,0,0:0:0:0:
256,192,152499,1,0,0:0:0:0:
256,192,152580,1,0,0:0:0:0:
256,192,152661,1,0,0:0:0:0:
256,192,152742,1,8,0:0:0:0:
256,192,153067,1,0,0:0:0:0:
256,192,153391,1,12,0:0:0:0:
256,192,153715,1,0,0:0:0:0:
256,192,153796,1,8,0:0:0:0:
256,192,153959,1,8,0:0:0:0:
256,192,154040,1,0,0:0:0:0:
256,192,154202,1,8,0:0:0:0:
256,192,154364,1,0,0:0:0:0:
256,192,154526,1,0,0:0:0:0:
256,192,154607,1,0,0:0:0:0:
256,192,154688,1,8,0:0:0:0:
256,192,154851,1,0,0:0:0:0:
256,192,154932,1,0,0:0:0:0:
256,192,155013,1,8,0:0:0:0:
256,192,155175,1,8,0:0:0:0:
256,192,155256,1,8,0:0:0:0:
256,192,155337,1,0,0:0:0:0:
256,192,155499,1,8,0:0:0:0:
256,192,155661,1,0,0:0:0:0:
256,192,155986,1,8,0:0:0:0:
256,192,156148,1,0,0:0:0:0:
256,192,156229,1,0,0:0:0:0:
256,192,156310,1,8,0:0:0:0:
256,192,156472,1,0,0:0:0:0:
256,192,156553,1,8,0:0:0:0:
256,192,156634,1,0,0:0:0:0:
256,192,156715,1,0,0:0:0:0:
256,192,156796,1,8,0:0:0:0:
256,192,156959,1,0,0:0:0:0:
256,192,157121,1,8,0:0:0:0:
256,192,157202,1,0,0:0:0:0:
256,192,157364,1,0,0:0:0:0:
256,192,157445,1,8,0:0:0:0:
256,192,157607,1,8,0:0:0:0:
256,192,157688,1,8,0:0:0:0:
256,192,157769,1,8,0:0:0:0:
256,192,157851,1,8,0:0:0:0:
256,192,157932,1,8,0:0:0:0:
256,192,158013,1,8,0:0:0:0:
256,192,158094,1,8,0:0:0:0:
256,192,158175,1,8,0:0:0:0:
256,192,158256,1,0,0:0:0:0:
256,192,158499,1,8,0:0:0:0:
256,192,158742,1,8,0:0:0:0:
256,192,158905,1,0,0:0:0:0:
256,192,158986,1,8,0:0:0:0:
256,192,159148,1,8,0:0:0:0:
256,192,159229,1,0,0:0:0:0:
256,192,159391,1,8,0:0:0:0:
256,192,159553,1,8,0:0:0:0:
256,192,159634,1,0,0:0:0:0:
256,192,159715,1,0,0:0:0:0:
256,192,159878,1,8,0:0:0:0:
256,192,159959,1,0,0:0:0:0:
256,192,160040,1,0,0:0:0:0:
256,192,160121,1,0,0:0:0:0:
256,192,160202,1,8,0:0:0:0:
256,192,160526,1,8,0:0:0:0:
256,192,160688,1,8,0:0:0:0:
256,192,160851,1,4,0:0:0:0:
256,192,161013,1,0,0:0:0:0:
256,192,161094,1,0,0:0:0:0:
256,192,161175,1,8,0:0:0:0:
256,192,161499,1,12,0:0:0:0:
256,192,161661,1,0,0:0:0:0:
256,192,161742,1,0,0:0:0:0:
256,192,161824,1,8,0:0:0:0:
256,192,162148,1,0,0:0:0:0:
256,192,162310,1,8,0:0:0:0:
256,192,162472,1,0,0:0:0:0:
256,192,162553,1,0,0:0:0:0:
256,192,162634,1,8,0:0:0:0:
256,192,162715,1,8,0:0:0:0:
256,192,162796,1,0,0:0:0:0:
256,192,162878,1,0,0:0:0:0:
256,192,162959,1,0,0:0:0:0:
256,192,163040,1,0,0:0:0:0:
256,192,163121,1,8,0:0:0:0:
256,192,163444,1,4,0:0:0:0:
256,192,163769,1,8,0:0:0:0:
256,192,163931,1,0,0:0:0:0:
256,192,164093,1,8,0:0:0:0:
256,192,164174,1,8,0:0:0:0:
256,192,164336,1,8,0:0:0:0:
256,192,164417,1,0,0:0:0:0:
256,192,164580,1,8,0:0:0:0:
256,192,164742,1,0,0:0:0:0:
256,192,164904,1,0,0:0:0:0:
256,192,164985,1,0,0:0:0:0:
256,192,165066,1,8,0:0:0:0:
256,192,165228,1,0,0:0:0:0:
256,192,165390,1,8,0:0:0:0:
256,192,165552,1,8,0:0:0:0:
256,192,165634,1,8,0:0:0:0:
256,192,165715,1,0,0:0:0:0:
256,192,165877,1,8,0:0:0:0:
256,192,166039,1,0,0:0:0:0:
256,192,166363,1,8,0:0:0:0:
256,192,166525,1,0,0:0:0:0:
256,192,166607,1,0,0:0:0:0:
256,192,166688,1,8,0:0:0:0:
256,192,166850,1,0,0:0:0:0:
256,192,166931,1,8,0:0:0:0:
256,192,167012,1,0,0:0:0:0:
256,192,167093,1,0,0:0:0:0:
256,192,167174,1,8,0:0:0:0:
256,192,167336,1,0,0:0:0:0:
256,192,167498,1,8,0:0:0:0:
256,192,167580,1,0,0:0:0:0:
256,192,167742,1,0,0:0:0:0:
256,192,167823,1,8,0:0:0:0:
256,192,167985,1,8,0:0:0:0:
256,192,168066,1,8,0:0:0:0:
256,192,168147,1,8,0:0:0:0:
256,192,168228,1,8,0:0:0:0:
256,192,168309,1,8,0:0:0:0:
256,192,168390,1,8,0:0:0:0:
256,192,168471,1,8,0:0:0:0:
256,192,168552,1,8,0:0:0:0:
256,192,168634,1,0,0:0:0:0:
256,192,168877,1,8,0:0:0:0:
256,192,169120,1,8,0:0:0:0:
256,192,169282,1,0,0:0:0:0:
256,192,169363,1,8,0:0:0:0:
256,192,169525,1,8,0:0:0:0:
256,192,169607,1,0,0:0:0:0:
256,192,169769,1,8,0:0:0:0:
256,192,169931,1,8,0:0:0:0:
256,192,170012,1,8,0:0:0:0:
256,192,170093,1,0,0:0:0:0:
256,192,170255,1,8,0:0:0:0:
256,192,170336,1,0,0:0:0:0:
256,192,170417,1,0,0:0:0:0:
256,192,170498,1,0,0:0:0:0:
256,192,170580,1,8,0:0:0:0:
256,192,170742,1,0,0:0:0:0:
256,192,170904,1,8,0:0:0:0:
256,192,171228,1,4,0:0:0:0:
256,192,171390,1,0,0:0:0:0:
256,192,171471,1,0,0:0:0:0:
256,192,171552,1,8,0:0:0:0:
256,192,171877,1,12,0:0:0:0:
256,192,172039,1,0,0:0:0:0:
256,192,172120,1,0,0:0:0:0:
256,192,172201,1,8,0:0:0:0:
256,192,172525,1,8,0:0:0:0:
256,192,172607,1,8,0:0:0:0:
256,192,172688,1,0,0:0:0:0:
256,192,172850,1,8,0:0:0:0:
256,192,172931,1,8,0:0:0:0:
256,192,173012,1,8,0:0:0:0:
256,192,173093,1,8,0:0:0:0:
256,192,173174,1,0,0:0:0:0:
256,192,173255,1,0,0:0:0:0:
256,192,173336,1,0,0:0:0:0:
256,192,173417,1,0,0:0:0:0:
256,192,173498,1,8,0:0:0:0:
256,192,173823,1,0,0:0:0:0:
256,192,174147,1,12,0:0:0:0:
256,192,174471,1,0,0:0:0:0:
256,192,174552,1,8,0:0:0:0:
256,192,174715,1,8,0:0:0:0:
256,192,174796,1,0,0:0:0:0:
256,192,174958,1,8,0:0:0:0:
256,192,175039,1,8,0:0:0:0:
256,192,175120,1,0,0:0:0:0:
256,192,175282,1,12,0:0:0:0:
256,192,175607,1,12,0:0:0:0:
256,192,175769,1,0,0:0:0:0:
256,192,175931,1,8,0:0:0:0:
256,192,176012,1,8,0:0:0:0:
256,192,176093,1,0,0:0:0:0:
256,192,176255,1,8,0:0:0:0:
256,192,176417,1,0,0:0:0:0:
256,192,176742,1,8,0:0:0:0:
256,192,176904,1,0,0:0:0:0:
256,192,176985,1,0,0:0:0:0:
256,192,177066,1,8,0:0:0:0:
256,192,177228,1,8,0:0:0:0:
256,192,177309,1,8,0:0:0:0:
256,192,177390,1,0,0:0:0:0:
256,192,177471,1,8,0:0:0:0:
256,192,177552,1,8,0:0:0:0:
256,192,177715,1,0,0:0:0:0:
256,192,177877,1,8,0:0:0:0:
256,192,177958,1,0,0:0:0:0:
256,192,178120,1,8,0:0:0:0:
256,192,178201,1,8,0:0:0:0:
256,192,178363,1,8,0:0:0:0:
256,192,178444,1,8,0:0:0:0:
256,192,178525,1,0,0:0:0:0:
256,192,178688,1,8,0:0:0:0:
256,192,178769,1,8,0:0:0:0:
256,192,178850,1,8,0:0:0:0:
256,192,178931,1,8,0:0:0:0:
256,192,179012,1,0,0:0:0:0:
256,192,179336,1,8,0:0:0:0:
256,192,179661,1,0,0:0:0:0:
256,192,179742,1,8,0:0:0:0:
256,192,179823,1,0,0:0:0:0:
256,192,179904,1,8,0:0:0:0:
256,192,179985,1,0,0:0:0:0:
256,192,180147,1,8,0:0:0:0:
256,192,180309,1,0,0:0:0:0:
256,192,180390,1,8,0:0:0:0:
256,192,180471,1,8,0:0:0:0:
256,192,180634,1,0,0:0:0:0:
256,192,180715,1,8,0:0:0:0:
256,192,180796,1,8,0:0:0:0:
256,192,180877,1,8,0:0:0:0:
256,192,180958,1,0,0:0:0:0:
256,192,181120,1,0,0:0:0:0:
256,192,181201,1,0,0:0:0:0:
256,192,181282,1,8,0:0:0:0:
256,192,181607,1,0,0:0:0:0:
256,192,181769,1,0,0:0:0:0:
256,192,181850,1,0,0:0:0:0:
256,192,181931,1,8,0:0:0:0:
256,192,182012,1,8,0:0:0:0:
256,192,182093,1,8,0:0:0:0:
256,192,182255,1,0,0:0:0:0:
256,192,182417,1,0,0:0:0:0:
256,192,182498,1,0,0:0:0:0:
256,192,182580,1,8,0:0:0:0:
256,192,182661,1,8,0:0:0:0:
256,192,182742,1,8,0:0:0:0:
256,192,182904,1,0,0:0:0:0:
256,192,182985,1,0,0:0:0:0:
256,192,183066,1,8,0:0:0:0:
256,192,183147,1,8,0:0:0:0:
256,192,183228,1,0,0:0:0:0:
256,192,183309,1,0,0:0:0:0:
256,192,183390,1,8,0:0:0:0:
256,192,183552,1,0,0:0:0:0:
256,192,183634,1,0,0:0:0:0:
256,192,183715,1,0,0:0:0:0:
256,192,183796,1,0,0:0:0:0:
256,192,183877,1,8,0:0:0:0:
256,192,183958,1,8,0:0:0:0:
256,208,184039,1,8,0:0:0:0:
256,192,184120,1,8,0:0:0:0:
256,192,184201,1,0,0:0:0:0:
240,192,184525,5,8,0:0:0:0:
240,192,184850,1,0,0:0:0:0:
256,192,185174,1,8,0:0:0:0:
160,144,185498,2,0,L|160:192,8,35
256,192,186471,1,8,0:0:0:0:
256,192,186796,1,4,0:0:0:0:
256,192,186958,1,4,0:0:0:0:
256,192,187282,1,4,0:0:0:0:
256,192,187607,1,12,0:0:0:0:
256,192,187931,1,12,0:0:0:0:
256,192,188255,1,8,0:0:0:0:
256,192,188417,1,8,0:0:0:0:
256,192,188579,1,0,0:0:0:0:
256,192,188742,1,8,0:0:0:0:
256,192,188904,1,8,0:0:0:0:
256,192,189066,1,0,0:0:0:0:
256,192,189228,1,0,0:0:0:0:
256,192,189390,1,12,0:0:0:0:
256,192,189552,1,12,0:0:0:0:
256,192,189877,1,4,0:0:0:0:
256,192,190201,1,4,0:0:0:0:
256,192,190363,1,4,0:0:0:0:
256,192,190525,1,12,0:0:0:0:
256,192,190688,1,4,0:0:0:0:
256,192,191012,1,8,0:0:0:0:
256,192,191336,1,4,0:0:0:0:
256,192,191661,1,8,0:0:0:0:
256,192,191742,1,8,0:0:0:0:
256,192,191823,1,8,0:0:0:0:
256,192,191904,1,8,0:0:0:0:
256,192,191985,1,0,0:0:0:0:
256,192,192147,1,0,0:0:0:0:
256,192,192471,1,0,0:0:0:0:
256,192,192634,1,0,0:0:0:0:
256,192,192958,1,12,0:0:0:0:
256,192,193120,1,12,0:0:0:0:
256,192,193444,1,12,0:0:0:0:
256,192,193607,1,12,0:0:0:0:
