osu file format v14

[General]
AudioFilename: audio.mp3
AudioLeadIn: 0
PreviewTime: 141336
Countdown: 0
SampleSet: Normal
StackLeniency: 0.7
Mode: 1
LetterboxInBreaks: 0
WidescreenStoryboard: 1

[Editor]
DistanceSpacing: 0.1
BeatDivisor: 12
GridSize: 16
TimelineZoom: 4.399999

[Metadata]
Title:KITTY FOILED
TitleUnicode:KITTY FOILED
Artist:BlackY
ArtistUnicode:BlackY
Creator:TKS
Version:Muzukashii
Source:
Tags:
BeatmapID:1970540
BeatmapSetID:903288

[Difficulty]
HPDrainRate:5
CircleSize:5
OverallDifficulty:5
ApproachRate:5
SliderMultiplier:1.4
SliderTickRate:1

[Events]
//Background and Video events
0,0,"bg.jpg",0,0
//Break Periods
//Storyboard Layer 0 (Background)
//Storyboard Layer 1 (Fail)
//Storyboard Layer 2 (Pass)
//Storyboard Layer 3 (Foreground)
//Storyboard Layer 4 (Overlay)
//Storyboard Sound Samples

[TimingPoints]
2580,324.324324324324,4,1,0,90,1,0
2580,-83.3333333333333,4,1,0,90,0,0
3877,-100,4,1,0,70,0,0
5174,-83.3333333333333,4,1,0,90,0,0
7444,-86.2068965517241,4,1,0,90,0,0
7525,-89.2857142857143,4,1,0,90,0,0
7607,-92.5925925925926,4,1,0,90,0,0
7688,-96.1538461538461,4,1,0,90,0,0
7769,-100,4,1,0,90,0,0
54309,-95.2380952380952,4,1,0,90,0,0
54471,-90.9090909090909,4,1,0,90,0,1
74498,-91.743119266055,4,1,0,90,0,1
74579,-92.5925925925926,4,1,0,90,0,1
74661,-93.4579439252336,4,1,0,90,0,1
74742,-94.3396226415094,4,1,0,90,0,1
74823,-95.2380952380952,4,1,0,90,0,1
74904,-96.1538461538461,4,1,0,90,0,1
74985,-97.0873786407767,4,1,0,90,0,1
75066,-98.0392156862745,4,1,0,90,0,1
75147,-99.009900990099,4,1,0,90,0,1
75228,-100,4,1,0,90,0,0
80066,-76.9230769230769,4,1,0,90,0,0
80120,-100,4,1,0,90,0,0
113958,-105.263157894737,4,1,0,90,0,0
114120,-111.111111111111,4,1,0,90,0,0
116715,-100,4,1,0,90,0,0
121985,-125,4,1,0,55,0,0
132282,-111.111111111111,4,1,0,80,0,0
137498,-100,4,1,0,90,0,0
141363,-97.0873786407767,4,1,0,90,0,0
141525,-94.3396226415094,4,1,0,90,0,0
141850,-91.743119266055,4,1,0,90,0,0
142174,-89.2857142857143,4,1,0,90,0,0
142336,-76.9230769230769,4,1,0,90,0,0
142688,-90.9090909090909,4,1,0,90,0,1
163120,-90.9090909090909,4,1,0,90,0,0
163444,-90.9090909090909,4,1,0,90,0,1
184444,-100,4,1,0,90,0,1
186796,-83.3333333333333,4,1,0,90,0,0
188093,-100,4,1,0,70,0,0
189390,-83.3333333333333,4,1,0,90,0,0
191661,-86.2068965517241,4,1,0,90,0,0
191742,-89.2857142857143,4,1,0,90,0,0
191823,-92.5925925925926,4,1,0,90,0,0
191904,-96.1538461538461,4,1,0,90,0,0
191985,-100,4,1,0,90,0,0
192958,-76.9230769230769,4,1,0,90,0,0
193363,-62.5,4,1,0,90,0,0

[HitObjects]
256,192,2580,5,4,0:0:0:0:
256,192,2742,1,4,0:0:0:0:
256,192,3066,1,4,0:0:0:0:
256,192,3390,1,12,0:0:0:0:
256,192,3715,1,12,0:0:0:0:
256,192,4039,1,8,0:0:0:0:
256,192,4201,1,8,0:0:0:0:
256,192,4525,1,8,0:0:0:0:
256,192,4850,1,0,0:0:0:0:
256,192,5012,1,0,0:0:0:0:
256,192,5174,1,12,0:0:0:0:
256,192,5336,1,12,0:0:0:0:
256,192,5661,1,4,0:0:0:0:
256,192,5985,1,4,0:0:0:0:
256,192,6147,1,4,0:0:0:0:
256,192,6309,1,12,0:0:0:0:
256,192,6471,1,4,0:0:0:0:
256,192,7120,1,4,0:0:0:0:
256,192,7769,1,0,0:0:0:0:
256,192,7931,1,8,0:0:0:0:
256,192,8255,1,8,0:0:0:0:
256,192,8417,1,0,0:0:0:0:
256,192,8579,1,8,0:0:0:0:
256,192,8742,1,0,0:0:0:0:
256,192,9066,1,0,0:0:0:0:
256,192,9228,1,8,0:0:0:0:
256,192,9552,1,8,0:0:0:0:
256,192,9715,1,0,0:0:0:0:
256,192,9877,1,8,0:0:0:0:
256,192,10039,1,0,0:0:0:0:
256,192,10363,1,0,0:0:0:0:
256,192,10525,1,8,0:0:0:0:
256,192,10850,1,8,0:0:0:0:
256,192,11012,1,0,0:0:0:0:
256,192,11174,1,8,0:0:0:0:
256,192,11498,1,8,0:0:0:0:
256,192,11661,1,0,0:0:0:0:
256,192,11823,1,8,0:0:0:0:
256,192,11985,1,0,0:0:0:0:
256,192,12147,1,0,0:0:0:0:
256,192,12309,1,8,0:0:0:0:
256,192,12471,1,0,0:0:0:0:
256,192,12634,1,8,0:0:0:0:
256,192,12958,1,4,0:0:0:0:
256,192,13282,1,0,0:0:0:0:
256,192,13607,1,8,0:0:0:0:
256,192,13769,1,8,0:0:0:0:
256,192,13931,1,8,0:0:0:0:
256,192,14255,1,0,0:0:0:0:
256,192,14417,1,0,0:0:0:0:
256,192,14579,1,8,0:0:0:0:
256,192,14661,1,8,0:0:0:0:
256,192,14742,1,8,0:0:0:0:
256,192,14904,1,0,0:0:0:0:
256,192,15228,1,8,0:0:0:0:
256,192,15552,1,0,0:0:0:0:
256,192,15877,1,0,0:0:0:0:
256,192,16201,1,8,0:0:0:0:
256,192,16363,1,8,0:0:0:0:
256,192,16525,1,8,0:0:0:0:
256,192,16850,1,0,0:0:0:0:
256,192,17012,1,0,0:0:0:0:
256,192,17174,1,8,0:0:0:0:
256,192,17336,1,8,0:0:0:0:
256,192,17417,1,8,0:0:0:0:
256,192,17498,1,8,0:0:0:0:
256,192,17823,1,8,0:0:0:0:
256,192,18147,1,0,0:0:0:0:
256,192,18471,1,0,0:0:0:0:
256,192,18796,1,8,0:0:0:0:
256,192,18958,1,8,0:0:0:0:
256,192,19120,1,8,0:0:0:0:
256,192,19444,1,0,0:0:0:0:
256,192,19607,1,0,0:0:0:0:
256,192,19769,1,8,0:0:0:0:
256,192,19850,1,8,0:0:0:0:
256,192,19931,1,8,0:0:0:0:
256,192,20093,1,0,0:0:0:0:
256,192,20417,1,8,0:0:0:0:
256,192,20742,1,0,0:0:0:0:
256,192,21066,1,8,0:0:0:0:
256,192,21390,1,8,0:0:0:0:
256,192,21471,1,8,0:0:0:0:
256,192,21552,1,8,0:0:0:0:
256,192,21715,1,0,0:0:0:0:
256,192,21877,1,8,0:0:0:0:
256,192,22039,1,0,0:0:0:0:
256,192,22201,1,0,0:0:0:0:
256,192,22363,1,8,0:0:0:0:
256,192,22688,1,8,0:0:0:0:
256,192,22850,1,8,0:0:0:0:
256,192,22931,1,8,0:0:0:0:
256,192,23012,1,8,0:0:0:0:
256,192,23336,1,4,0:0:0:0:
256,192,23661,1,0,0:0:0:0:
256,192,23985,1,8,0:0:0:0:
256,192,24147,1,8,0:0:0:0:
256,192,24309,1,8,0:0:0:0:
256,192,24634,1,0,0:0:0:0:
256,192,24796,1,0,0:0:0:0:
256,192,24958,1,8,0:0:0:0:
256,192,25039,1,8,0:0:0:0:
256,192,25120,1,8,0:0:0:0:
256,192,25282,1,0,0:0:0:0:
256,192,25607,1,8,0:0:0:0:
256,192,25931,1,0,0:0:0:0:
256,192,26255,1,0,0:0:0:0:
256,192,26579,1,8,0:0:0:0:
256,192,26742,1,8,0:0:0:0:
256,192,26904,1,8,0:0:0:0:
256,192,27228,1,0,0:0:0:0:
256,192,27390,1,0,0:0:0:0:
256,192,27552,1,8,0:0:0:0:
256,192,27715,1,8,0:0:0:0:
256,192,27796,1,8,0:0:0:0:
256,192,27877,1,8,0:0:0:0:
256,192,28201,1,8,0:0:0:0:
256,192,28525,1,0,0:0:0:0:
256,192,28850,1,0,0:0:0:0:
256,192,29174,1,8,0:0:0:0:
256,192,29336,1,8,0:0:0:0:
256,192,29498,1,8,0:0:0:0:
256,192,29823,1,0,0:0:0:0:
256,192,29985,1,0,0:0:0:0:
256,192,30147,1,8,0:0:0:0:
256,192,30228,1,8,0:0:0:0:
256,192,30309,1,8,0:0:0:0:
256,192,30471,1,0,0:0:0:0:
256,192,30796,1,8,0:0:0:0:
256,192,31120,1,0,0:0:0:0:
256,192,31201,1,0,0:0:0:0:
256,192,31282,1,0,0:0:0:0:
256,192,31444,1,8,0:0:0:0:
256,192,31769,1,0,0:0:0:0:
256,192,31850,1,0,0:0:0:0:
256,192,31931,1,0,0:0:0:0:
256,192,32093,1,8,0:0:0:0:
256,192,32417,12,0,33390,0:0:0:0:
256,192,33715,5,4,0:0:0:0:
256,192,34039,1,8,0:0:0:0:
256,192,34363,1,0,0:0:0:0:
240,192,34525,1,0,0:0:0:0:
256,192,34688,1,8,0:0:0:0:
256,192,35012,1,0,0:0:0:0:
256,192,35336,1,8,0:0:0:0:
272,192,35498,1,8,0:0:0:0:
256,192,35661,1,0,0:0:0:0:
256,192,35823,1,0,0:0:0:0:
256,192,35985,1,8,0:0:0:0:
256,192,36309,1,0,0:0:0:0:
256,192,36471,1,8,0:0:0:0:
256,192,36634,1,8,0:0:0:0:
256,192,36958,1,0,0:0:0:0:
256,192,37120,1,8,0:0:0:0:
256,192,37282,1,0,0:0:0:0:
256,192,37444,1,8,0:0:0:0:
256,192,37607,1,0,0:0:0:0:
256,192,37931,1,8,0:0:0:0:
256,192,38093,1,8,0:0:0:0:
256,192,38255,1,0,0:0:0:0:
256,192,38417,1,0,0:0:0:0:
256,192,38579,1,8,0:0:0:0:
256,192,38904,1,0,0:0:0:0:
256,192,39066,1,0,0:0:0:0:
256,192,39228,1,8,0:0:0:0:
256,192,39309,1,8,0:0:0:0:
256,192,39471,1,8,0:0:0:0:
256,192,39552,1,8,0:0:0:0:
256,192,39877,1,0,0:0:0:0:
256,192,40039,1,0,0:0:0:0:
256,192,40201,1,8,0:0:0:0:
256,192,40525,1,8,0:0:0:0:
256,192,40688,1,8,0:0:0:0:
256,192,40850,1,0,0:0:0:0:
256,192,41012,1,0,0:0:0:0:
256,192,41174,1,8,0:0:0:0:
256,192,41498,1,0,0:0:0:0:
256,192,41661,1,8,0:0:0:0:
256,192,41985,1,8,0:0:0:0:
256,192,42147,1,0,0:0:0:0:
256,192,42309,1,0,0:0:0:0:
256,192,42471,1,8,0:0:0:0:
256,192,42796,1,0,0:0:0:0:
256,192,42958,1,0,0:0:0:0:
256,192,43120,1,12,0:0:0:0:
256,192,43444,1,12,0:0:0:0:
256,192,43769,1,12,0:0:0:0:
256,192,44093,1,0,0:0:0:0:
256,192,44417,1,8,0:0:0:0:
256,192,44579,1,8,0:0:0:0:
256,192,44742,1,0,0:0:0:0:
256,192,45066,1,8,0:0:0:0:
256,192,45390,1,0,0:0:0:0:
256,192,45552,1,8,0:0:0:0:
256,192,45715,1,8,0:0:0:0:
256,192,46039,1,0,0:0:0:0:
256,192,46201,1,0,0:0:0:0:
256,192,46363,1,8,0:0:0:0:
256,192,46688,1,0,0:0:0:0:
256,192,46850,1,0,0:0:0:0:
256,192,47012,1,8,0:0:0:0:
256,192,47174,1,8,0:0:0:0:
256,192,47336,1,0,0:0:0:0:
256,192,47661,1,8,0:0:0:0:
256,192,47985,1,0,0:0:0:0:
256,192,48147,1,8,0:0:0:0:
256,192,48309,1,0,0:0:0:0:
256,192,48471,1,8,0:0:0:0:
256,192,48634,1,0,0:0:0:0:
256,192,48796,1,8,0:0:0:0:
256,192,48877,1,8,0:0:0:0:
256,192,48958,1,8,0:0:0:0:
256,192,49282,1,0,0:0:0:0:
256,192,49444,1,8,0:0:0:0:
256,208,49607,1,8,0:0:0:0:
256,192,49688,1,8,0:0:0:0:
256,208,49850,1,8,0:0:0:0:
256,192,49931,1,8,0:0:0:0:
256,192,50255,1,0,0:0:0:0:
256,192,50579,1,8,0:0:0:0:
256,192,50661,1,8,0:0:0:0:
256,192,50742,1,8,0:0:0:0:
256,192,50904,1,0,0:0:0:0:
256,192,51066,1,8,0:0:0:0:
256,192,51228,1,0,0:0:0:0:
256,192,51390,1,0,0:0:0:0:
256,192,51552,1,8,0:0:0:0:
256,192,51877,1,0,0:0:0:0:
256,192,52039,1,0,0:0:0:0:
256,192,52120,1,0,0:0:0:0:
256,192,52201,1,0,0:0:0:0:
256,192,52525,1,8,0:0:0:0:
256,192,52688,1,8,0:0:0:0:
256,192,52769,1,8,0:0:0:0:
256,192,52850,1,8,0:0:0:0:
256,192,53012,1,8,0:0:0:0:
256,192,53174,1,0,0:0:0:0:
256,192,53498,1,0,0:0:0:0:
256,192,53823,1,8,0:0:0:0:
256,192,54471,1,4,0:0:0:0:
256,192,54796,1,8,0:0:0:0:
256,192,55120,1,0,0:0:0:0:
256,192,55282,1,0,0:0:0:0:
256,192,55363,1,0,0:0:0:0:
256,192,55444,1,0,0:0:0:0:
256,192,55607,1,8,0:0:0:0:
256,192,55769,1,0,0:0:0:0:
256,192,56093,1,8,0:0:0:0:
256,192,56417,1,0,0:0:0:0:
256,192,56579,1,8,0:0:0:0:
256,192,56661,1,8,0:0:0:0:
256,192,56742,1,8,0:0:0:0:
256,192,56904,1,8,0:0:0:0:
256,192,57066,1,0,0:0:0:0:
256,192,57390,1,8,0:0:0:0:
256,192,57715,1,0,0:0:0:0:
256,192,57958,1,8,0:0:0:0:
256,192,58201,1,8,0:0:0:0:
256,192,58363,1,0,0:0:0:0:
256,192,58525,1,0,0:0:0:0:
256,192,58607,1,0,0:0:0:0:
256,192,58850,1,8,0:0:0:0:
64,128,59012,2,0,L|64:176,6,38.5000011749268
256,192,59661,1,0,0:0:0:0:
256,192,59904,1,8,0:0:0:0:
256,192,60147,1,8,0:0:0:0:
256,192,60309,1,0,0:0:0:0:
256,192,60390,1,0,0:0:0:0:
256,192,60634,1,0,0:0:0:0:
256,192,60796,1,0,0:0:0:0:
256,192,60958,1,8,0:0:0:0:
256,192,61039,1,8,0:0:0:0:
256,192,61120,1,8,0:0:0:0:
256,192,61282,1,0,0:0:0:0:
256,192,61363,1,0,0:0:0:0:
256,192,61444,1,0,0:0:0:0:
256,192,61607,1,8,0:0:0:0:
256,192,62255,1,0,0:0:0:0:
256,192,62417,1,0,0:0:0:0:
256,192,62579,1,8,0:0:0:0:
256,192,62904,1,8,0:0:0:0:
256,192,63066,1,0,0:0:0:0:
256,192,63228,1,8,0:0:0:0:
96,96,63552,2,0,L|96:144,12,38.5000011749268
256,192,64850,1,0,0:0:0:0:
256,192,65174,1,12,0:0:0:0:
256,192,65498,1,0,0:0:0:0:
256,192,65661,1,8,0:0:0:0:
256,192,65742,1,8,0:0:0:0:
256,192,65823,1,8,0:0:0:0:
256,192,65985,1,8,0:0:0:0:
256,192,66147,1,0,0:0:0:0:
256,192,66471,1,8,0:0:0:0:
256,192,66796,1,0,0:0:0:0:
256,192,66958,1,0,0:0:0:0:
256,192,67039,1,0,0:0:0:0:
256,192,67120,1,0,0:0:0:0:
256,192,67282,1,8,0:0:0:0:
256,192,67444,1,0,0:0:0:0:
256,192,67769,1,8,0:0:0:0:
256,192,68093,1,0,0:0:0:0:
256,192,68336,1,8,0:0:0:0:
256,192,68579,1,8,0:0:0:0:
256,192,68742,1,0,0:0:0:0:
256,192,68904,1,8,0:0:0:0:
256,192,68985,1,8,0:0:0:0:
256,192,69228,1,0,0:0:0:0:
64,128,69390,2,0,L|64:176,6,38.5000011749268
256,192,70039,1,0,0:0:0:0:
256,192,70282,1,8,0:0:0:0:
256,192,70525,1,8,0:0:0:0:
256,192,70688,1,0,0:0:0:0:
256,192,70769,1,0,0:0:0:0:
256,192,71012,1,0,0:0:0:0:
256,192,71174,1,0,0:0:0:0:
256,192,71336,1,8,0:0:0:0:
256,192,71417,1,8,0:0:0:0:
256,192,71498,1,8,0:0:0:0:
256,192,71661,1,0,0:0:0:0:
256,192,71742,1,0,0:0:0:0:
256,192,71823,1,0,0:0:0:0:
256,192,71985,1,8,0:0:0:0:
256,192,72634,1,0,0:0:0:0:
256,192,72796,1,0,0:0:0:0:
256,192,72958,1,8,0:0:0:0:
256,192,73282,1,8,0:0:0:0:
256,192,73444,1,0,0:0:0:0:
256,192,73607,1,8,0:0:0:0:
96,96,73931,2,4,L|96:144,12,38.5000011749268
256,192,75228,5,0,0:0:0:0:
256,192,75471,1,0,0:0:0:0:
256,192,75715,1,0,0:0:0:0:
256,192,75877,1,8,0:0:0:0:
256,192,76120,1,8,0:0:0:0:
256,192,76363,1,8,0:0:0:0:
256,192,76525,1,0,0:0:0:0:
256,192,76769,1,0,0:0:0:0:
256,192,77012,1,0,0:0:0:0:
256,192,77174,1,8,0:0:0:0:
256,192,77417,1,8,0:0:0:0:
256,192,77661,1,8,0:0:0:0:
256,192,77904,1,0,0:0:0:0:
240,192,78147,1,0,0:0:0:0:
256,192,78390,1,0,0:0:0:0:
256,192,78634,1,8,0:0:0:0:
240,192,78796,1,8,0:0:0:0:
256,192,79120,1,0,0:0:0:0:
256,192,79363,1,0,0:0:0:0:
256,192,79607,1,0,0:0:0:0:
256,192,79850,1,0,0:0:0:0:
256,192,80093,1,12,0:0:0:0:
256,192,80417,1,4,0:0:0:0:
256,192,80742,1,8,0:0:0:0:
256,192,81066,1,0,0:0:0:0:
256,192,81309,1,0,0:0:0:0:
256,192,81552,1,8,0:0:0:0:
256,192,81715,1,0,0:0:0:0:
256,192,82039,1,8,0:0:0:0:
256,192,82363,1,0,0:0:0:0:
256,192,82607,1,8,0:0:0:0:
256,192,82850,1,8,0:0:0:0:
256,192,83012,1,0,0:0:0:0:
256,192,83336,1,8,0:0:0:0:
256,192,83661,1,0,0:0:0:0:
256,192,83904,1,0,0:0:0:0:
256,192,84147,1,8,0:0:0:0:
256,192,84309,1,0,0:0:0:0:
256,192,84471,1,8,0:0:0:0:
256,192,84552,1,8,0:0:0:0:
256,192,84634,1,8,0:0:0:0:
256,192,84958,1,0,0:0:0:0:
256,192,85120,1,0,0:0:0:0:
256,192,85201,1,0,0:0:0:0:
256,192,85282,1,0,0:0:0:0:
256,192,85607,1,0,0:0:0:0:
256,192,85931,1,8,0:0:0:0:
256,192,86255,1,0,0:0:0:0:
256,192,86498,1,0,0:0:0:0:
256,192,86742,1,8,0:0:0:0:
256,192,86904,1,0,0:0:0:0:
256,192,87228,1,8,0:0:0:0:
256,192,87552,1,0,0:0:0:0:
256,192,87796,1,8,0:0:0:0:
256,192,88039,1,8,0:0:0:0:
256,192,88201,1,0,0:0:0:0:
256,192,88282,1,0,0:0:0:0:
256,192,88363,1,0,0:0:0:0:
256,192,88525,1,8,0:0:0:0:
256,192,88850,1,0,0:0:0:0:
256,192,89012,1,8,0:0:0:0:
256,192,89174,1,8,0:0:0:0:
256,192,89336,1,8,0:0:0:0:
256,192,89498,1,4,0:0:0:0:
256,192,90147,1,4,0:0:0:0:
256,192,90471,1,8,0:0:0:0:
256,192,90796,1,0,0:0:0:0:
256,192,91120,1,8,0:0:0:0:
256,192,91444,1,0,0:0:0:0:
256,192,91688,1,0,0:0:0:0:
256,192,91931,1,8,0:0:0:0:
256,192,92093,1,0,0:0:0:0:
256,192,92417,1,8,0:0:0:0:
256,192,92742,1,0,0:0:0:0:
256,192,92985,1,8,0:0:0:0:
256,192,93228,1,8,0:0:0:0:
256,192,93390,1,0,0:0:0:0:
256,192,93715,1,8,0:0:0:0:
256,192,94039,1,0,0:0:0:0:
256,192,94282,1,0,0:0:0:0:
256,192,94525,1,8,0:0:0:0:
256,192,94688,1,0,0:0:0:0:
256,192,94850,1,8,0:0:0:0:
256,192,94931,1,8,0:0:0:0:
256,192,95012,1,8,0:0:0:0:
256,192,95336,1,0,0:0:0:0:
256,192,95498,1,0,0:0:0:0:
256,192,95579,1,0,0:0:0:0:
256,192,95661,1,0,0:0:0:0:
256,192,95985,1,0,0:0:0:0:
256,192,96309,1,8,0:0:0:0:
256,192,96634,1,0,0:0:0:0:
256,192,96877,1,0,0:0:0:0:
256,192,97120,1,8,0:0:0:0:
256,192,97282,1,0,0:0:0:0:
256,192,97607,1,8,0:0:0:0:
256,192,97931,1,0,0:0:0:0:
256,192,98174,1,8,0:0:0:0:
256,192,98417,1,8,0:0:0:0:
256,192,98579,1,0,0:0:0:0:
256,192,98823,1,0,0:0:0:0:
256,192,99066,1,8,0:0:0:0:
256,192,99228,1,4,0:0:0:0:
256,192,99471,1,4,0:0:0:0:
256,192,99715,1,12,0:0:0:0:
256,192,99958,1,12,0:0:0:0:
256,192,100201,1,4,0:0:0:0:
256,192,100444,1,4,0:0:0:0:
240,192,100688,1,12,0:0:0:0:
272,192,101174,1,4,0:0:0:0:
256,192,101498,1,8,0:0:0:0:
256,192,101823,1,0,0:0:0:0:
256,192,102066,1,8,0:0:0:0:
256,192,102471,1,0,0:0:0:0:
256,192,102796,1,8,0:0:0:0:
256,192,103120,1,0,0:0:0:0:
256,192,103363,1,8,0:0:0:0:
256,192,103607,1,8,0:0:0:0:
256,192,103769,1,0,0:0:0:0:
256,192,104093,1,8,0:0:0:0:
256,192,104417,1,0,0:0:0:0:
256,192,104661,1,0,0:0:0:0:
256,192,104904,1,8,0:0:0:0:
256,192,105066,1,0,0:0:0:0:
256,192,105228,1,8,0:0:0:0:
256,192,105309,1,8,0:0:0:0:
256,192,105390,1,8,0:0:0:0:
256,192,105715,1,0,0:0:0:0:
256,192,105877,1,0,0:0:0:0:
256,192,105958,1,0,0:0:0:0:
256,192,106039,1,0,0:0:0:0:
256,192,106363,1,0,0:0:0:0:
256,192,106688,1,8,0:0:0:0:
256,192,107012,1,0,0:0:0:0:
256,192,107255,1,0,0:0:0:0:
256,192,107498,1,8,0:0:0:0:
256,192,107661,1,0,0:0:0:0:
256,192,107985,1,8,0:0:0:0:
256,192,108309,1,0,0:0:0:0:
256,192,108552,1,8,0:0:0:0:
256,192,108796,1,8,0:0:0:0:
256,192,108958,1,8,0:0:0:0:
256,192,109039,1,8,0:0:0:0:
256,192,109120,1,8,0:0:0:0:
256,192,109282,1,0,0:0:0:0:
256,192,109607,1,8,0:0:0:0:
256,192,109769,1,0,0:0:0:0:
256,192,109931,1,8,0:0:0:0:
256,192,110093,1,8,0:0:0:0:
256,192,110255,1,4,0:0:0:0:
256,192,110904,1,4,0:0:0:0:
256,192,111228,1,8,0:0:0:0:
256,192,111552,1,0,0:0:0:0:
256,192,111877,1,8,0:0:0:0:
256,192,112201,1,0,0:0:0:0:
256,192,112444,1,0,0:0:0:0:
256,192,112688,1,8,0:0:0:0:
256,192,112850,1,0,0:0:0:0:
256,192,113174,1,8,0:0:0:0:
256,192,113498,1,0,0:0:0:0:
256,192,113742,1,8,0:0:0:0:
256,192,113985,1,8,0:0:0:0:
256,192,114147,1,4,0:0:0:0:
256,192,114471,1,0,0:0:0:0:
256,192,114796,1,0,0:0:0:0:
256,192,115012,1,0,0:0:0:0:
256,192,115120,1,0,0:0:0:0:
256,192,115336,1,8,0:0:0:0:
256,192,115444,1,8,0:0:0:0:
256,192,115661,1,0,0:0:0:0:
256,192,115769,1,0,0:0:0:0:
256,192,116093,1,12,0:0:0:0:
256,192,116417,1,12,0:0:0:0:
256,192,116742,1,0,0:0:0:0:
256,192,117066,1,8,0:0:0:0:
256,192,117390,1,0,0:0:0:0:
256,192,117552,1,0,0:0:0:0:
256,192,117715,1,8,0:0:0:0:
256,192,118039,1,0,0:0:0:0:
256,192,118363,1,8,0:0:0:0:
256,192,118688,1,0,0:0:0:0:
256,192,118769,1,0,0:0:0:0:
256,192,118850,1,0,0:0:0:0:
256,192,119012,1,8,0:0:0:0:
256,192,119336,1,0,0:0:0:0:
256,192,119579,1,8,0:0:0:0:
256,192,119823,1,8,0:0:0:0:
256,192,119985,1,0,0:0:0:0:
256,192,120309,1,8,0:0:0:0:
256,192,120634,1,0,0:0:0:0:
256,192,120877,1,8,0:0:0:0:
256,192,121120,1,8,0:0:0:0:
256,192,121282,1,0,0:0:0:0:
256,192,121444,1,0,0:0:0:0:
256,192,121607,1,8,0:0:0:0:
256,192,121688,1,8,0:0:0:0:
256,192,121769,1,8,0:0:0:0:
256,192,121931,1,0,0:0:0:0:
256,192,123228,1,8,0:0:0:0:
256,192,123715,1,8,0:0:0:0:
256,192,124201,1,8,0:0:0:0:
256,192,124525,1,0,0:0:0:0:
240,208,125498,1,8,0:0:0:0:
240,192,125661,1,8,0:0:0:0:
240,208,126471,1,8,0:0:0:0:
240,208,126796,1,8,0:0:0:0:
240,208,126958,1,8,0:0:0:0:
240,208,127120,1,0,0:0:0:0:
240,208,128417,1,8,0:0:0:0:
256,208,128904,1,8,0:0:0:0:
256,208,129390,1,8,0:0:0:0:
256,208,129715,1,0,0:0:0:0:
256,208,130201,1,8,0:0:0:0:
256,208,130688,1,8,0:0:0:0:
256,208,130850,1,8,0:0:0:0:
256,208,131661,1,8,0:0:0:0:
256,208,131985,1,8,0:0:0:0:
256,208,132147,1,8,0:0:0:0:
256,208,132309,1,4,0:0:0:0:
256,208,132634,1,8,0:0:0:0:
256,208,133120,1,0,0:0:0:0:
256,208,133282,1,8,0:0:0:0:
256,208,133607,1,0,0:0:0:0:
256,208,133931,1,8,0:0:0:0:
256,208,134093,1,0,0:0:0:0:
256,208,134255,1,0,0:0:0:0:
240,208,134579,1,8,0:0:0:0:
256,224,134904,1,0,0:0:0:0:
288,144,135228,1,8,0:0:0:0:
288,144,135715,1,0,0:0:0:0:
288,144,135877,1,8,0:0:0:0:
288,144,136201,1,0,0:0:0:0:
288,144,136363,1,0,0:0:0:0:
288,144,136525,1,8,0:0:0:0:
288,144,136688,1,0,0:0:0:0:
288,144,136850,1,0,0:0:0:0:
288,144,137174,1,8,0:0:0:0:
288,144,137498,1,4,0:0:0:0:
288,144,137823,1,8,0:0:0:0:
288,144,138147,1,8,0:0:0:0:
288,144,138471,1,8,0:0:0:0:
288,144,138634,1,8,0:0:0:0:
256,192,138796,12,0,139931,0:0:0:0:
256,192,140093,5,4,0:0:0:0:
256,192,140579,1,8,0:0:0:0:
256,192,140742,1,4,0:0:0:0:
256,192,141228,1,8,0:0:0:0:
256,192,141390,1,4,0:0:0:0:
256,192,141715,1,0,0:0:0:0:
256,192,142039,1,8,0:0:0:0:
256,192,142688,1,4,0:0:0:0:
256,192,143012,1,8,0:0:0:0:
256,192,143336,1,0,0:0:0:0:
256,192,143498,1,0,0:0:0:0:
256,192,143579,5,0,0:0:0:0:
256,192,143661,1,0,0:0:0:0:
256,192,143823,1,8,0:0:0:0:
256,192,143985,1,0,0:0:0:0:
256,192,144309,1,8,0:0:0:0:
256,192,144634,1,0,0:0:0:0:
256,192,144796,1,8,0:0:0:0:
256,192,144877,1,8,0:0:0:0:
256,192,144958,1,8,0:0:0:0:
256,192,145120,1,8,0:0:0:0:
256,192,145282,1,0,0:0:0:0:
256,192,145607,1,8,0:0:0:0:
256,192,145931,1,0,0:0:0:0:
256,192,146174,1,8,0:0:0:0:
256,192,146417,1,8,0:0:0:0:
256,192,146579,1,0,0:0:0:0:
256,192,146742,1,0,0:0:0:0:
256,192,146823,1,0,0:0:0:0:
256,192,147066,1,8,0:0:0:0:
64,128,147228,2,0,L|64:176,6,38.5000011749268
256,192,147877,1,0,0:0:0:0:
256,192,148120,1,8,0:0:0:0:
256,192,148363,1,8,0:0:0:0:
256,192,148525,1,0,0:0:0:0:
256,192,148607,1,0,0:0:0:0:
256,192,148850,1,0,0:0:0:0:
256,192,149012,1,0,0:0:0:0:
256,192,149174,1,8,0:0:0:0:
256,192,149255,1,8,0:0:0:0:
256,192,149336,1,8,0:0:0:0:
256,192,149498,1,0,0:0:0:0:
256,192,149579,1,0,0:0:0:0:
256,192,149661,1,0,0:0:0:0:
256,192,149823,1,8,0:0:0:0:
256,192,150471,1,0,0:0:0:0:
256,192,150634,1,0,0:0:0:0:
256,192,150796,1,8,0:0:0:0:
256,192,151120,1,8,0:0:0:0:
256,192,151282,1,0,0:0:0:0:
256,192,151444,1,8,0:0:0:0:
96,96,151769,2,0,L|96:144,12,38.5000011749268
256,192,153066,1,0,0:0:0:0:
256,192,153390,1,12,0:0:0:0:
256,192,153715,1,0,0:0:0:0:
256,192,153877,1,8,0:0:0:0:
256,192,153958,1,8,0:0:0:0:
256,192,154039,1,8,0:0:0:0:
256,192,154201,1,8,0:0:0:0:
256,192,154363,1,0,0:0:0:0:
256,192,154688,1,8,0:0:0:0:
256,192,155012,1,0,0:0:0:0:
256,192,155174,1,0,0:0:0:0:
256,192,155255,1,0,0:0:0:0:
256,192,155336,1,0,0:0:0:0:
256,192,155498,1,8,0:0:0:0:
256,192,155661,1,0,0:0:0:0:
256,192,155985,1,8,0:0:0:0:
256,192,156309,1,0,0:0:0:0:
256,192,156552,1,8,0:0:0:0:
256,192,156796,1,8,0:0:0:0:
256,192,156958,1,0,0:0:0:0:
256,192,157120,1,8,0:0:0:0:
256,192,157201,1,8,0:0:0:0:
256,192,157444,1,0,0:0:0:0:
64,128,157607,2,0,L|64:176,6,38.5000011749268
256,192,158255,1,0,0:0:0:0:
256,192,158498,1,8,0:0:0:0:
256,192,158742,1,8,0:0:0:0:
256,192,158904,1,0,0:0:0:0:
256,192,158985,1,0,0:0:0:0:
256,192,159228,1,0,0:0:0:0:
256,192,159390,1,0,0:0:0:0:
256,192,159552,1,8,0:0:0:0:
256,192,159634,1,8,0:0:0:0:
256,192,159715,1,8,0:0:0:0:
256,192,159877,1,0,0:0:0:0:
256,192,159958,1,0,0:0:0:0:
256,192,160039,1,0,0:0:0:0:
256,192,160201,1,8,0:0:0:0:
256,192,160850,1,0,0:0:0:0:
256,192,161012,1,0,0:0:0:0:
256,192,161174,1,8,0:0:0:0:
256,192,161498,1,8,0:0:0:0:
256,192,161661,1,0,0:0:0:0:
256,192,161823,1,8,0:0:0:0:
96,96,162147,2,4,L|96:144,12,38.5000011749268
256,192,163444,1,4,0:0:0:0:
256,192,163769,1,8,0:0:0:0:
256,192,163931,1,8,0:0:0:0:
256,192,164093,1,0,0:0:0:0:
256,192,164255,1,0,0:0:0:0:
256,192,164336,1,0,0:0:0:0:
256,192,164579,1,8,0:0:0:0:
256,192,164742,1,0,0:0:0:0:
256,192,165066,1,8,0:0:0:0:
256,192,165390,1,0,0:0:0:0:
256,192,165552,1,8,0:0:0:0:
256,192,165634,1,8,0:0:0:0:
256,192,165715,1,8,0:0:0:0:
256,192,165877,1,8,0:0:0:0:
256,192,166039,1,0,0:0:0:0:
256,192,166363,1,8,0:0:0:0:
256,192,166688,1,0,0:0:0:0:
256,192,166850,1,8,0:0:0:0:
256,192,166931,1,8,0:0:0:0:
256,192,167174,1,8,0:0:0:0:
256,192,167336,1,0,0:0:0:0:
256,192,167579,1,0,0:0:0:0:
256,192,167823,1,8,0:0:0:0:
64,128,167985,2,0,L|64:176,6,38.5000011749268
256,192,168634,1,0,0:0:0:0:
256,192,168877,1,8,0:0:0:0:
256,192,169120,1,8,0:0:0:0:
256,192,169282,1,0,0:0:0:0:
256,192,169363,1,0,0:0:0:0:
256,192,169607,1,0,0:0:0:0:
256,192,169769,1,0,0:0:0:0:
256,192,169931,1,8,0:0:0:0:
256,192,170012,1,8,0:0:0:0:
256,192,170093,1,8,0:0:0:0:
256,192,170255,1,0,0:0:0:0:
256,192,170336,1,0,0:0:0:0:
256,192,170417,1,0,0:0:0:0:
256,192,170579,1,8,0:0:0:0:
256,192,171228,1,0,0:0:0:0:
256,192,171390,1,0,0:0:0:0:
256,192,171552,1,8,0:0:0:0:
256,192,171877,1,8,0:0:0:0:
256,192,172039,1,0,0:0:0:0:
256,192,172201,1,8,0:0:0:0:
96,96,172525,2,0,L|96:144,12,38.5000011749268
256,192,173823,1,0,0:0:0:0:
256,192,174147,1,12,0:0:0:0:
256,192,174471,1,0,0:0:0:0:
256,192,174634,1,8,0:0:0:0:
256,192,174715,1,8,0:0:0:0:
256,192,174958,1,8,0:0:0:0:
256,192,175120,1,0,0:0:0:0:
256,192,175282,1,12,0:0:0:0:
256,192,175607,1,12,0:0:0:0:
256,192,175769,1,0,0:0:0:0:
256,192,175931,1,0,0:0:0:0:
256,192,176012,1,0,0:0:0:0:
256,192,176093,1,0,0:0:0:0:
256,192,176255,1,8,0:0:0:0:
256,192,176417,1,0,0:0:0:0:
256,192,176742,1,8,0:0:0:0:
256,192,177066,1,0,0:0:0:0:
256,192,177228,1,8,0:0:0:0:
256,192,177309,1,8,0:0:0:0:
256,192,177390,1,8,0:0:0:0:
256,192,177552,1,8,0:0:0:0:
256,192,177715,1,0,0:0:0:0:
256,192,177877,1,8,0:0:0:0:
256,192,177958,1,8,0:0:0:0:
256,192,178201,1,0,0:0:0:0:
64,128,178363,2,0,L|64:176,6,38.5000011749268
256,192,179012,1,0,0:0:0:0:
256,192,179255,1,8,0:0:0:0:
256,192,179498,1,8,0:0:0:0:
256,192,179661,1,0,0:0:0:0:
256,192,179742,1,0,0:0:0:0:
256,192,179985,1,8,0:0:0:0:
256,192,180147,1,8,0:0:0:0:
256,192,180309,1,0,0:0:0:0:
256,192,180390,1,0,0:0:0:0:
256,192,180471,1,0,0:0:0:0:
256,192,180634,1,8,0:0:0:0:
256,192,180715,1,8,0:0:0:0:
256,192,180796,1,8,0:0:0:0:
256,192,180958,1,0,0:0:0:0:
256,192,181607,1,0,0:0:0:0:
256,192,181769,1,0,0:0:0:0:
256,192,181931,1,8,0:0:0:0:
256,192,182255,1,8,0:0:0:0:
256,192,182417,1,0,0:0:0:0:
256,192,182579,1,8,0:0:0:0:
96,96,182904,2,4,L|96:144,12,38.5000011749268
240,192,184201,1,0,0:0:0:0:
240,192,184525,1,8,0:0:0:0:
240,192,184850,1,0,0:0:0:0:
256,192,185174,1,8,0:0:0:0:
160,144,185498,2,0,L|160:192,8,35
256,192,186471,1,8,0:0:0:0:
256,192,186796,1,4,0:0:0:0:
256,192,186958,1,4,0:0:0:0:
256,192,187282,1,4,0:0:0:0:
256,192,187607,1,12,0:0:0:0:
256,192,187931,1,12,0:0:0:0:
256,192,188255,1,8,0:0:0:0:
256,192,188417,1,8,0:0:0:0:
256,192,188742,1,8,0:0:0:0:
256,192,189066,1,0,0:0:0:0:
256,192,189228,1,0,0:0:0:0:
256,192,189390,1,12,0:0:0:0:
256,192,189552,1,12,0:0:0:0:
256,192,189877,1,4,0:0:0:0:
256,192,190201,1,4,0:0:0:0:
256,192,190363,1,4,0:0:0:0:
256,192,190525,1,12,0:0:0:0:
256,192,190688,1,4,0:0:0:0:
256,192,191336,1,4,0:0:0:0:
256,192,191985,1,0,0:0:0:0:
256,192,192147,1,0,0:0:0:0:
256,192,192471,1,0,0:0:0:0:
256,192,192634,1,0,0:0:0:0:
256,192,192958,1,12,0:0:0:0:
256,192,193120,1,12,0:0:0:0:
256,192,193444,1,12,0:0:0:0:
256,192,193607,1,12,0:0:0:0:
