osu file format v14

[General]
AudioFilename: audio.mp3
AudioLeadIn: 0
PreviewTime: 141336
Countdown: 0
SampleSet: Normal
StackLeniency: 0.7
Mode: 1
LetterboxInBreaks: 0
WidescreenStoryboard: 0

[Editor]
DistanceSpacing: 0.1
BeatDivisor: 4
GridSize: 16
TimelineZoom: 4.099999

[Metadata]
Title:KITTY FOILED
TitleUnicode:KITTY FOILED
Artist:BlackY
ArtistUnicode:BlackY
Creator:TKS
Version:Inner Oni
Source:
Tags:
BeatmapID:1885701
BeatmapSetID:903288

[Difficulty]
HPDrainRate:6
CircleSize:5
OverallDifficulty:7
ApproachRate:5
SliderMultiplier:1.4
SliderTickRate:1

[Events]
//Background and Video events
0,0,"bg.jpg",0,0
//Break Periods
//Storyboard Layer 0 (Background)
//Storyboard Layer 1 (Fail)
//Storyboard Layer 2 (Pass)
//Storyboard Layer 3 (Foreground)
//Storyboard Layer 4 (Overlay)
//Storyboard Sound Samples

[TimingPoints]
2580,324.324324324324,4,1,0,90,1,0
2580,-83.3333333333333,4,1,0,90,0,0
3877,-100,4,1,0,70,0,0
5174,-83.3333333333333,4,1,0,90,0,0
7444,-85.4700854700855,4,1,0,90,0,0
7498,-87.719298245614,4,1,0,90,0,0
7552,-90.0900900900901,4,1,0,90,0,0
7607,-92.5925925925926,4,1,0,90,0,0
7661,-95.2380952380952,4,1,0,90,0,0
7715,-97.5609756097561,4,1,0,90,0,0
7769,-100,4,1,0,90,0,0
54309,-95.2380952380952,4,1,0,90,0,0
54471,-90.9090909090909,4,1,0,90,0,1
74498,-91.743119266055,4,1,0,90,0,1
74579,-92.5925925925926,4,1,0,90,0,1
74661,-93.4579439252336,4,1,0,90,0,1
74742,-94.3396226415094,4,1,0,90,0,1
74823,-95.2380952380952,4,1,0,90,0,1
74904,-96.1538461538461,4,1,0,90,0,1
74985,-97.0873786407767,4,1,0,90,0,1
75066,-98.0392156862745,4,1,0,90,0,1
75147,-99.009900990099,4,1,0,90,0,1
75228,-100,4,1,0,90,0,0
80066,-76.9230769230769,4,1,0,90,0,0
80120,-100,4,1,0,90,0,0
113958,-105.263157894737,4,1,0,90,0,0
114120,-111.111111111111,4,1,0,90,0,0
116715,-100,4,1,0,90,0,0
121985,-125,4,1,0,55,0,0
132282,-111.111111111111,4,1,0,80,0,0
137498,-100,4,1,0,90,0,0
140093,-86.9565217391304,4,1,0,90,0,0
140255,-100,4,1,0,90,0,0
140742,-86.9565217391304,4,1,0,90,0,0
140904,-100,4,1,0,90,0,0
141363,-97.0873786407767,4,1,0,90,0,0
141525,-94.3396226415094,4,1,0,90,0,0
141850,-91.743119266055,4,1,0,90,0,0
142174,-89.2857142857143,4,1,0,90,0,0
142336,-76.9230769230769,4,1,0,90,0,0
142688,-90.9090909090909,4,1,0,90,0,1
163120,-90.0900900900901,4,1,0,90,0,0
163201,-89.2857142857143,4,1,0,90,0,0
163282,-88.4955752212389,4,1,0,90,0,0
163363,-87.719298245614,4,1,0,90,0,0
163444,-86.9565217391304,4,1,0,90,0,1
184444,-100,4,1,0,90,0,1
186796,-83.3333333333333,4,1,0,90,0,0
188093,-100,4,1,0,70,0,0
189390,-83.3333333333333,4,1,0,90,0,0
191661,-85.4700854700855,4,1,0,90,0,0
191715,-87.719298245614,4,1,0,90,0,0
191769,-90.0900900900901,4,1,0,90,0,0
191823,-92.5925925925926,4,1,0,90,0,0
191877,-95.2380952380952,4,1,0,90,0,0
191931,-97.5609756097561,4,1,0,90,0,0
191985,-100,4,1,0,90,0,0
192958,-76.9230769230769,4,1,0,90,0,0
193363,-62.5,4,1,0,90,0,0

[HitObjects]
256,192,2580,5,4,0:0:0:0:
256,192,2742,1,4,0:0:0:0:
256,192,3066,1,4,0:0:0:0:
256,192,3390,1,12,0:0:0:0:
256,192,3715,1,12,0:0:0:0:
256,192,3985,1,8,0:0:0:0:
256,192,4039,1,8,0:0:0:0:
256,192,4201,1,8,0:0:0:0:
256,192,4363,1,0,0:0:0:0:
256,192,4525,1,8,0:0:0:0:
256,192,4688,1,8,0:0:0:0:
256,192,4850,1,0,0:0:0:0:
256,192,5012,1,0,0:0:0:0:
256,192,5174,1,12,0:0:0:0:
256,192,5336,1,12,0:0:0:0:
256,192,5661,1,4,0:0:0:0:
256,192,5985,1,4,0:0:0:0:
256,192,6147,1,4,0:0:0:0:
256,192,6309,1,12,0:0:0:0:
256,192,6471,1,4,0:0:0:0:
256,192,6796,1,8,0:0:0:0:
256,192,7120,1,4,0:0:0:0:
256,192,7444,1,8,0:0:0:0:
256,192,7498,1,8,0:0:0:0:
256,192,7552,1,8,0:0:0:0:
256,192,7607,1,8,0:0:0:0:
256,192,7661,1,8,0:0:0:0:
256,192,7715,1,8,0:0:0:0:
256,192,7769,1,0,0:0:0:0:
256,192,7931,1,8,0:0:0:0:
256,192,8093,1,0,0:0:0:0:
256,192,8174,1,0,0:0:0:0:
256,192,8255,1,8,0:0:0:0:
256,192,8417,1,0,0:0:0:0:
256,192,8498,1,8,0:0:0:0:
256,192,8661,1,8,0:0:0:0:
256,192,8742,1,0,0:0:0:0:
256,192,8904,1,8,0:0:0:0:
256,192,9066,1,0,0:0:0:0:
256,192,9228,1,8,0:0:0:0:
256,192,9390,1,0,0:0:0:0:
256,192,9471,1,0,0:0:0:0:
256,192,9552,1,8,0:0:0:0:
256,192,9715,1,0,0:0:0:0:
256,192,9877,1,8,0:0:0:0:
256,192,9958,1,8,0:0:0:0:
256,192,10039,1,0,0:0:0:0:
256,192,10201,1,8,0:0:0:0:
256,192,10363,1,0,0:0:0:0:
256,192,10525,1,8,0:0:0:0:
256,192,10688,1,0,0:0:0:0:
256,192,10769,1,0,0:0:0:0:
256,192,10850,1,8,0:0:0:0:
256,192,11012,1,0,0:0:0:0:
256,192,11093,1,8,0:0:0:0:
256,192,11255,1,8,0:0:0:0:
256,192,11336,1,0,0:0:0:0:
256,192,11498,1,8,0:0:0:0:
256,192,11661,1,0,0:0:0:0:
256,192,11823,1,8,0:0:0:0:
256,192,11985,1,0,0:0:0:0:
256,192,12066,1,0,0:0:0:0:
256,192,12147,1,8,0:0:0:0:
256,192,12228,1,8,0:0:0:0:
256,192,12309,1,0,0:0:0:0:
256,192,12471,1,0,0:0:0:0:
256,192,12634,1,8,0:0:0:0:
256,192,12796,1,8,0:0:0:0:
256,192,12958,1,4,0:0:0:0:
256,192,13120,1,0,0:0:0:0:
256,192,13201,1,0,0:0:0:0:
256,192,13282,1,8,0:0:0:0:
256,192,13444,1,0,0:0:0:0:
256,192,13525,1,0,0:0:0:0:
256,192,13607,1,8,0:0:0:0:
256,192,13688,1,0,0:0:0:0:
256,192,13769,1,8,0:0:0:0:
256,192,13850,1,0,0:0:0:0:
256,192,13931,1,8,0:0:0:0:
256,192,14012,1,8,0:0:0:0:
256,192,14093,1,0,0:0:0:0:
256,192,14174,1,8,0:0:0:0:
256,192,14255,1,0,0:0:0:0:
256,192,14417,1,0,0:0:0:0:
256,192,14498,1,0,0:0:0:0:
256,192,14579,1,8,0:0:0:0:
256,192,14661,1,0,0:0:0:0:
256,192,14742,1,8,0:0:0:0:
256,192,14823,1,8,0:0:0:0:
256,192,14904,1,0,0:0:0:0:
256,192,14985,1,8,0:0:0:0:
256,192,15066,1,0,0:0:0:0:
256,192,15147,1,0,0:0:0:0:
256,192,15228,1,8,0:0:0:0:
256,192,15552,1,0,0:0:0:0:
256,192,15715,1,0,0:0:0:0:
256,192,15796,1,0,0:0:0:0:
256,192,15877,1,8,0:0:0:0:
256,192,16039,1,0,0:0:0:0:
256,192,16120,1,0,0:0:0:0:
256,192,16201,1,8,0:0:0:0:
256,192,16282,1,0,0:0:0:0:
256,192,16363,1,8,0:0:0:0:
256,192,16444,1,0,0:0:0:0:
256,192,16525,1,8,0:0:0:0:
256,192,16607,1,8,0:0:0:0:
256,192,16688,1,0,0:0:0:0:
256,192,16769,1,8,0:0:0:0:
256,192,16850,1,0,0:0:0:0:
256,192,17012,1,0,0:0:0:0:
256,192,17093,1,8,0:0:0:0:
256,192,17174,1,8,0:0:0:0:
256,192,17255,1,0,0:0:0:0:
256,192,17336,1,8,0:0:0:0:
256,192,17417,1,8,0:0:0:0:
256,192,17498,1,8,0:0:0:0:
256,192,17579,1,0,0:0:0:0:
256,192,17661,1,8,0:0:0:0:
256,192,17742,1,0,0:0:0:0:
256,192,17823,1,8,0:0:0:0:
256,192,17904,1,8,0:0:0:0:
256,192,17985,1,0,0:0:0:0:
256,192,18066,1,8,0:0:0:0:
256,192,18147,1,0,0:0:0:0:
256,192,18309,1,0,0:0:0:0:
256,192,18390,1,0,0:0:0:0:
256,192,18471,1,8,0:0:0:0:
256,192,18634,1,0,0:0:0:0:
256,192,18715,1,0,0:0:0:0:
256,192,18796,1,8,0:0:0:0:
256,192,18877,1,0,0:0:0:0:
256,192,18958,1,8,0:0:0:0:
256,192,19039,1,0,0:0:0:0:
256,192,19120,1,8,0:0:0:0:
256,192,19201,1,8,0:0:0:0:
256,192,19282,1,0,0:0:0:0:
256,192,19363,1,8,0:0:0:0:
256,192,19444,1,0,0:0:0:0:
256,192,19607,1,0,0:0:0:0:
256,192,19688,1,0,0:0:0:0:
256,192,19769,1,8,0:0:0:0:
256,192,19850,1,0,0:0:0:0:
256,192,19931,1,8,0:0:0:0:
256,192,20012,1,8,0:0:0:0:
256,192,20093,1,0,0:0:0:0:
256,192,20174,1,8,0:0:0:0:
256,192,20255,1,0,0:0:0:0:
256,192,20336,1,0,0:0:0:0:
256,192,20417,1,8,0:0:0:0:
256,192,20742,1,0,0:0:0:0:
256,192,20904,1,0,0:0:0:0:
256,192,20985,1,8,0:0:0:0:
256,192,21066,1,8,0:0:0:0:
256,192,21147,1,0,0:0:0:0:
256,192,21228,1,8,0:0:0:0:
256,192,21309,1,0,0:0:0:0:
256,192,21390,1,8,0:0:0:0:
256,192,21471,1,0,0:0:0:0:
256,192,21552,1,8,0:0:0:0:
256,192,21634,1,8,0:0:0:0:
256,192,21715,1,0,0:0:0:0:
256,192,21796,1,8,0:0:0:0:
256,192,21877,1,8,0:0:0:0:
256,192,21958,1,8,0:0:0:0:
256,192,22039,1,0,0:0:0:0:
256,192,22120,1,0,0:0:0:0:
256,192,22201,1,0,0:0:0:0:
256,192,22282,1,0,0:0:0:0:
256,192,22363,1,8,0:0:0:0:
256,192,22525,1,0,0:0:0:0:
256,192,22607,1,0,0:0:0:0:
256,192,22688,1,8,0:0:0:0:
256,192,22850,1,0,0:0:0:0:
256,192,22904,1,0,0:0:0:0:
256,192,22958,1,0,0:0:0:0:
256,192,23012,1,8,0:0:0:0:
256,192,23093,1,8,0:0:0:0:
256,192,23174,1,0,0:0:0:0:
256,192,23255,1,8,0:0:0:0:
256,192,23336,1,0,0:0:0:0:
256,192,23498,1,0,0:0:0:0:
256,192,23579,1,0,0:0:0:0:
256,192,23661,1,8,0:0:0:0:
256,192,23823,1,0,0:0:0:0:
256,192,23904,1,0,0:0:0:0:
256,192,23985,1,8,0:0:0:0:
256,192,24066,1,0,0:0:0:0:
256,192,24147,1,8,0:0:0:0:
256,192,24228,1,0,0:0:0:0:
256,192,24309,1,8,0:0:0:0:
256,192,24390,1,8,0:0:0:0:
256,192,24471,1,0,0:0:0:0:
256,192,24552,1,8,0:0:0:0:
256,192,24634,1,0,0:0:0:0:
256,192,24796,1,0,0:0:0:0:
256,192,24877,1,0,0:0:0:0:
256,192,24958,1,8,0:0:0:0:
256,192,25039,1,0,0:0:0:0:
256,192,25120,1,8,0:0:0:0:
256,192,25201,1,8,0:0:0:0:
256,192,25282,1,0,0:0:0:0:
256,192,25363,1,8,0:0:0:0:
256,192,25444,1,0,0:0:0:0:
256,192,25525,1,0,0:0:0:0:
256,192,25607,1,8,0:0:0:0:
256,192,25769,1,0,0:0:0:0:
256,192,25931,1,0,0:0:0:0:
256,192,26093,1,0,0:0:0:0:
256,192,26174,1,0,0:0:0:0:
256,192,26255,1,8,0:0:0:0:
256,192,26417,1,0,0:0:0:0:
256,192,26498,1,0,0:0:0:0:
256,192,26579,1,8,0:0:0:0:
256,192,26661,1,0,0:0:0:0:
256,192,26742,1,8,0:0:0:0:
256,192,26823,1,0,0:0:0:0:
256,192,26904,1,8,0:0:0:0:
256,192,26985,1,8,0:0:0:0:
256,192,27066,1,0,0:0:0:0:
256,192,27147,1,8,0:0:0:0:
256,192,27228,1,0,0:0:0:0:
256,192,27390,1,0,0:0:0:0:
256,192,27471,1,8,0:0:0:0:
256,192,27552,1,8,0:0:0:0:
256,192,27634,1,0,0:0:0:0:
256,192,27715,1,8,0:0:0:0:
256,192,27796,1,8,0:0:0:0:
256,192,27877,1,8,0:0:0:0:
256,192,27958,1,0,0:0:0:0:
256,192,28039,1,8,0:0:0:0:
256,192,28120,1,0,0:0:0:0:
256,192,28201,1,8,0:0:0:0:
256,192,28282,1,8,0:0:0:0:
256,192,28363,1,0,0:0:0:0:
256,192,28444,1,8,0:0:0:0:
256,192,28525,1,0,0:0:0:0:
256,192,28688,1,0,0:0:0:0:
256,192,28769,1,0,0:0:0:0:
256,192,28850,1,8,0:0:0:0:
256,192,29012,1,0,0:0:0:0:
256,192,29093,1,0,0:0:0:0:
256,192,29174,1,8,0:0:0:0:
256,192,29255,1,0,0:0:0:0:
256,192,29336,1,8,0:0:0:0:
256,192,29417,1,0,0:0:0:0:
256,192,29498,1,8,0:0:0:0:
256,192,29579,1,8,0:0:0:0:
256,192,29661,1,0,0:0:0:0:
256,192,29742,1,8,0:0:0:0:
256,192,29823,1,0,0:0:0:0:
256,192,29985,1,0,0:0:0:0:
256,192,30066,1,0,0:0:0:0:
256,192,30147,1,8,0:0:0:0:
256,192,30228,1,0,0:0:0:0:
256,192,30309,1,8,0:0:0:0:
256,192,30390,1,8,0:0:0:0:
256,192,30471,1,0,0:0:0:0:
256,192,30552,1,8,0:0:0:0:
256,192,30634,1,8,0:0:0:0:
256,192,30715,1,0,0:0:0:0:
256,192,30796,1,8,0:0:0:0:
256,192,30877,1,8,0:0:0:0:
256,192,30958,1,8,0:0:0:0:
256,192,31039,1,0,0:0:0:0:
256,192,31120,1,8,0:0:0:0:
256,192,31201,1,0,0:0:0:0:
256,192,31282,1,0,0:0:0:0:
256,192,31363,1,8,0:0:0:0:
256,192,31444,1,0,0:0:0:0:
256,192,31525,1,8,0:0:0:0:
256,192,31607,1,8,0:0:0:0:
256,192,31688,1,0,0:0:0:0:
256,192,31769,1,8,0:0:0:0:
256,192,31850,1,0,0:0:0:0:
256,192,31931,1,0,0:0:0:0:
256,192,32012,1,8,0:0:0:0:
256,192,32093,1,0,0:0:0:0:
256,192,32174,1,8,0:0:0:0:
256,192,32255,1,8,0:0:0:0:
256,192,32336,1,0,0:0:0:0:
256,192,32417,1,8,0:0:0:0:
256,192,32525,1,8,0:0:0:0:
256,192,32634,1,0,0:0:0:0:
256,192,32742,1,8,0:0:0:0:
256,192,32850,1,8,0:0:0:0:
256,192,32958,1,0,0:0:0:0:
256,192,33066,1,8,0:0:0:0:
256,192,33120,1,8,0:0:0:0:
256,192,33174,1,8,0:0:0:0:
256,192,33282,1,0,0:0:0:0:
256,192,33390,1,8,0:0:0:0:
256,192,33444,1,0,0:0:0:0:
256,192,33498,1,8,0:0:0:0:
256,192,33607,1,8,0:0:0:0:
256,192,33715,1,4,0:0:0:0:
256,192,33877,1,8,0:0:0:0:
256,192,33958,1,8,0:0:0:0:
256,192,34039,1,0,0:0:0:0:
256,192,34201,1,8,0:0:0:0:
256,192,34363,1,0,0:0:0:0:
256,192,34525,1,8,0:0:0:0:
256,192,34607,1,0,0:0:0:0:
256,192,34688,1,8,0:0:0:0:
256,192,34769,1,8,0:0:0:0:
256,192,34931,1,8,0:0:0:0:
256,192,35012,1,0,0:0:0:0:
256,192,35174,1,8,0:0:0:0:
256,192,35255,1,0,0:0:0:0:
256,192,35336,1,0,0:0:0:0:
256,192,35417,1,8,0:0:0:0:
256,192,35579,1,8,0:0:0:0:
256,192,35661,1,0,0:0:0:0:
256,192,35742,1,8,0:0:0:0:
256,192,35904,1,8,0:0:0:0:
256,192,35985,1,0,0:0:0:0:
256,192,36066,1,0,0:0:0:0:
256,192,36147,1,8,0:0:0:0:
256,192,36228,1,8,0:0:0:0:
256,192,36309,1,0,0:0:0:0:
256,192,36390,1,0,0:0:0:0:
256,192,36471,1,0,0:0:0:0:
256,192,36552,1,8,0:0:0:0:
256,192,36634,1,0,0:0:0:0:
256,192,36715,1,8,0:0:0:0:
256,192,36877,1,8,0:0:0:0:
256,192,36958,1,0,0:0:0:0:
256,192,37039,1,0,0:0:0:0:
256,192,37120,1,8,0:0:0:0:
256,192,37201,1,0,0:0:0:0:
256,192,37282,1,0,0:0:0:0:
256,192,37363,1,0,0:0:0:0:
256,192,37444,1,8,0:0:0:0:
256,192,37607,1,0,0:0:0:0:
256,192,37688,1,0,0:0:0:0:
256,192,37769,1,8,0:0:0:0:
256,192,37850,1,0,0:0:0:0:
256,192,37931,1,8,0:0:0:0:
256,192,38012,1,8,0:0:0:0:
256,192,38093,1,0,0:0:0:0:
256,192,38174,1,0,0:0:0:0:
256,192,38255,1,8,0:0:0:0:
256,192,38417,1,8,0:0:0:0:
256,192,38498,1,8,0:0:0:0:
256,192,38579,1,8,0:0:0:0:
256,192,38661,1,8,0:0:0:0:
256,192,38742,1,8,0:0:0:0:
256,192,38823,1,8,0:0:0:0:
256,192,38904,1,0,0:0:0:0:
256,192,38985,1,0,0:0:0:0:
256,192,39066,1,8,0:0:0:0:
256,192,39228,1,0,0:0:0:0:
256,192,39309,1,8,0:0:0:0:
256,192,39471,1,8,0:0:0:0:
256,192,39552,1,8,0:0:0:0:
256,192,39715,1,0,0:0:0:0:
256,192,39796,1,8,0:0:0:0:
256,192,39958,1,8,0:0:0:0:
256,192,40039,1,0,0:0:0:0:
256,192,40120,1,0,0:0:0:0:
256,192,40201,1,8,0:0:0:0:
256,192,40282,1,8,0:0:0:0:
256,192,40363,1,0,0:0:0:0:
256,192,40525,1,8,0:0:0:0:
256,192,40607,1,0,0:0:0:0:
256,192,40688,1,0,0:0:0:0:
256,192,40769,1,8,0:0:0:0:
256,192,40850,1,0,0:0:0:0:
256,192,40931,1,0,0:0:0:0:
256,192,41012,1,8,0:0:0:0:
256,192,41093,1,8,0:0:0:0:
256,192,41174,1,0,0:0:0:0:
256,192,41255,1,0,0:0:0:0:
256,192,41336,1,8,0:0:0:0:
256,192,41498,1,0,0:0:0:0:
256,192,41579,1,0,0:0:0:0:
256,192,41661,1,8,0:0:0:0:
256,192,41742,1,0,0:0:0:0:
256,192,41823,1,8,0:0:0:0:
256,192,41904,1,8,0:0:0:0:
256,192,41985,1,0,0:0:0:0:
256,192,42066,1,0,0:0:0:0:
256,192,42147,1,0,0:0:0:0:
256,192,42228,1,0,0:0:0:0:
256,192,42309,1,8,0:0:0:0:
256,192,42390,1,0,0:0:0:0:
256,192,42471,1,8,0:0:0:0:
256,192,42552,1,8,0:0:0:0:
256,192,42634,1,8,0:0:0:0:
256,192,42715,1,8,0:0:0:0:
256,192,42796,1,0,0:0:0:0:
256,192,42877,1,8,0:0:0:0:
256,192,42958,1,0,0:0:0:0:
256,192,43039,1,0,0:0:0:0:
256,192,43120,1,8,0:0:0:0:
256,192,43282,1,0,0:0:0:0:
256,192,43363,1,0,0:0:0:0:
256,192,43444,1,8,0:0:0:0:
256,192,43607,1,0,0:0:0:0:
256,192,43661,1,0,0:0:0:0:
256,192,43715,1,0,0:0:0:0:
256,192,43769,1,8,0:0:0:0:
256,192,43850,1,8,0:0:0:0:
256,192,43931,1,0,0:0:0:0:
256,192,44012,1,0,0:0:0:0:
256,192,44093,1,8,0:0:0:0:
256,192,44255,1,8,0:0:0:0:
256,192,44336,1,0,0:0:0:0:
256,192,44417,1,8,0:0:0:0:
256,192,44579,1,0,0:0:0:0:
256,192,44742,1,8,0:0:0:0:
256,192,44823,1,0,0:0:0:0:
256,192,44904,1,0,0:0:0:0:
256,192,44985,1,8,0:0:0:0:
256,192,45066,1,0,0:0:0:0:
256,192,45147,1,0,0:0:0:0:
256,192,45228,1,8,0:0:0:0:
256,192,45309,1,8,0:0:0:0:
256,192,45390,1,0,0:0:0:0:
256,192,45471,1,0,0:0:0:0:
256,192,45552,1,8,0:0:0:0:
256,192,45634,1,0,0:0:0:0:
256,192,45715,1,8,0:0:0:0:
256,192,45796,1,0,0:0:0:0:
256,192,45877,1,0,0:0:0:0:
256,192,45958,1,8,0:0:0:0:
256,192,46039,1,0,0:0:0:0:
256,192,46201,1,8,0:0:0:0:
256,192,46282,1,0,0:0:0:0:
256,192,46444,1,0,0:0:0:0:
256,192,46525,1,8,0:0:0:0:
256,192,46607,1,8,0:0:0:0:
256,192,46688,1,0,0:0:0:0:
256,192,46850,1,0,0:0:0:0:
256,192,47012,1,8,0:0:0:0:
256,192,47174,1,8,0:0:0:0:
256,192,47255,1,8,0:0:0:0:
256,192,47336,1,0,0:0:0:0:
256,192,47417,1,0,0:0:0:0:
256,192,47498,1,8,0:0:0:0:
256,192,47579,1,8,0:0:0:0:
256,192,47661,1,0,0:0:0:0:
256,192,47742,1,8,0:0:0:0:
256,192,47904,1,8,0:0:0:0:
256,192,47985,1,0,0:0:0:0:
256,192,48066,1,0,0:0:0:0:
256,192,48147,1,8,0:0:0:0:
256,192,48309,1,0,0:0:0:0:
256,192,48390,1,8,0:0:0:0:
256,192,48471,1,0,0:0:0:0:
256,192,48552,1,0,0:0:0:0:
256,192,48634,1,8,0:0:0:0:
256,192,48796,1,8,0:0:0:0:
256,192,48877,1,8,0:0:0:0:
256,192,48958,1,8,0:0:0:0:
256,192,49039,1,8,0:0:0:0:
256,192,49120,1,8,0:0:0:0:
256,192,49201,1,8,0:0:0:0:
256,192,49282,1,0,0:0:0:0:
256,192,49363,1,0,0:0:0:0:
256,192,49444,1,8,0:0:0:0:
256,192,49607,1,0,0:0:0:0:
256,192,49688,1,8,0:0:0:0:
256,192,49769,1,0,0:0:0:0:
256,192,49850,1,0,0:0:0:0:
256,192,49931,1,8,0:0:0:0:
256,192,50012,1,8,0:0:0:0:
256,192,50093,1,0,0:0:0:0:
256,192,50174,1,8,0:0:0:0:
256,192,50255,1,0,0:0:0:0:
256,192,50336,1,0,0:0:0:0:
256,192,50417,1,8,0:0:0:0:
256,192,50579,1,8,0:0:0:0:
256,192,50661,1,8,0:0:0:0:
256,192,50742,1,8,0:0:0:0:
256,192,50823,1,8,0:0:0:0:
256,192,50904,1,0,0:0:0:0:
256,192,50985,1,0,0:0:0:0:
256,192,51066,1,8,0:0:0:0:
256,192,51147,1,8,0:0:0:0:
256,192,51228,1,0,0:0:0:0:
256,192,51309,1,0,0:0:0:0:
256,192,51390,1,0,0:0:0:0:
256,192,51471,1,0,0:0:0:0:
256,192,51552,1,8,0:0:0:0:
256,192,51634,1,8,0:0:0:0:
256,192,51715,1,0,0:0:0:0:
256,192,51796,1,8,0:0:0:0:
256,192,51877,1,0,0:0:0:0:
256,192,51958,1,0,0:0:0:0:
256,192,52039,1,0,0:0:0:0:
256,192,52120,1,8,0:0:0:0:
256,192,52201,1,0,0:0:0:0:
256,192,52363,1,8,0:0:0:0:
256,192,52525,1,8,0:0:0:0:
256,192,52607,1,8,0:0:0:0:
256,192,52688,1,8,0:0:0:0:
256,192,52769,1,8,0:0:0:0:
256,192,52850,1,8,0:0:0:0:
256,192,52931,1,8,0:0:0:0:
256,192,53012,1,8,0:0:0:0:
256,192,53093,1,8,0:0:0:0:
256,192,53174,1,0,0:0:0:0:
256,192,53255,1,0,0:0:0:0:
256,192,53336,1,0,0:0:0:0:
256,192,53417,1,0,0:0:0:0:
256,192,53498,1,8,0:0:0:0:
256,192,53579,1,8,0:0:0:0:
256,192,53661,1,0,0:0:0:0:
256,192,53742,1,0,0:0:0:0:
256,192,53823,1,8,0:0:0:0:
256,192,53985,1,0,0:0:0:0:
256,192,54066,1,0,0:0:0:0:
256,192,54147,1,8,0:0:0:0:
256,192,54309,1,8,0:0:0:0:
256,192,54471,1,4,0:0:0:0:
256,192,54715,1,0,0:0:0:0:
256,192,54796,1,8,0:0:0:0:
256,192,54958,1,0,0:0:0:0:
256,192,55039,1,0,0:0:0:0:
256,192,55120,1,8,0:0:0:0:
256,192,55201,1,0,0:0:0:0:
256,192,55363,1,8,0:0:0:0:
256,192,55444,1,0,0:0:0:0:
256,192,55607,1,8,0:0:0:0:
256,192,55769,1,0,0:0:0:0:
256,192,55931,1,0,0:0:0:0:
256,192,56012,1,0,0:0:0:0:
256,192,56093,1,8,0:0:0:0:
256,192,56174,1,0,0:0:0:0:
256,192,56255,1,0,0:0:0:0:
256,192,56417,1,8,0:0:0:0:
256,192,56498,1,0,0:0:0:0:
256,192,56579,1,8,0:0:0:0:
256,192,56661,1,0,0:0:0:0:
256,192,56742,1,8,0:0:0:0:
256,192,56823,1,8,0:0:0:0:
256,192,56904,1,0,0:0:0:0:
256,192,56985,1,8,0:0:0:0:
256,192,57066,1,0,0:0:0:0:
256,192,57228,1,0,0:0:0:0:
256,192,57309,1,0,0:0:0:0:
256,192,57390,1,8,0:0:0:0:
256,192,57552,1,0,0:0:0:0:
256,192,57634,1,0,0:0:0:0:
256,192,57715,1,8,0:0:0:0:
256,192,57796,1,8,0:0:0:0:
256,192,57958,1,8,0:0:0:0:
256,192,58039,1,0,0:0:0:0:
256,192,58120,1,0,0:0:0:0:
256,192,58201,1,8,0:0:0:0:
256,192,58363,1,0,0:0:0:0:
256,192,58525,1,8,0:0:0:0:
256,192,58607,1,0,0:0:0:0:
256,192,58769,1,0,0:0:0:0:
256,192,58850,1,8,0:0:0:0:
256,192,59012,1,8,0:0:0:0:
256,192,59093,1,8,0:0:0:0:
256,192,59174,1,0,0:0:0:0:
256,192,59255,1,8,0:0:0:0:
256,192,59336,1,0,0:0:0:0:
256,192,59417,1,8,0:0:0:0:
256,192,59498,1,8,0:0:0:0:
256,192,59579,1,8,0:0:0:0:
256,192,59661,1,0,0:0:0:0:
256,192,59904,1,8,0:0:0:0:
256,192,59985,1,0,0:0:0:0:
256,192,60147,1,8,0:0:0:0:
256,192,60309,1,0,0:0:0:0:
256,192,60390,1,8,0:0:0:0:
256,192,60552,1,8,0:0:0:0:
256,192,60634,1,0,0:0:0:0:
256,192,60715,1,8,0:0:0:0:
256,192,60796,1,8,0:0:0:0:
256,192,60877,1,0,0:0:0:0:
256,192,60958,1,8,0:0:0:0:
256,192,61039,1,0,0:0:0:0:
256,192,61120,1,0,0:0:0:0:
256,192,61201,1,0,0:0:0:0:
256,192,61282,1,8,0:0:0:0:
256,192,61363,1,0,0:0:0:0:
256,192,61444,1,0,0:0:0:0:
256,192,61525,1,0,0:0:0:0:
256,192,61607,1,8,0:0:0:0:
256,192,61769,1,0,0:0:0:0:
256,192,61931,1,8,0:0:0:0:
256,192,62093,1,8,0:0:0:0:
256,192,62255,1,4,0:0:0:0:
256,192,62417,1,0,0:0:0:0:
256,192,62498,1,0,0:0:0:0:
256,192,62579,1,8,0:0:0:0:
256,192,62742,1,0,0:0:0:0:
256,192,62904,1,12,0:0:0:0:
256,192,63066,1,0,0:0:0:0:
256,192,63147,1,8,0:0:0:0:
256,192,63228,1,0,0:0:0:0:
256,192,63309,1,0,0:0:0:0:
256,192,63390,1,8,0:0:0:0:
256,192,63552,1,0,0:0:0:0:
256,192,63634,1,8,0:0:0:0:
256,192,63715,1,8,0:0:0:0:
256,192,63796,1,0,0:0:0:0:
256,192,63877,1,8,0:0:0:0:
256,192,63958,1,8,0:0:0:0:
256,192,64039,1,0,0:0:0:0:
256,192,64120,1,8,0:0:0:0:
256,192,64201,1,0,0:0:0:0:
256,192,64282,1,0,0:0:0:0:
256,192,64363,1,0,0:0:0:0:
256,192,64444,1,0,0:0:0:0:
256,192,64525,1,8,0:0:0:0:
256,192,64688,1,8,0:0:0:0:
256,192,64850,1,0,0:0:0:0:
256,192,65012,1,0,0:0:0:0:
256,192,65174,1,12,0:0:0:0:
256,192,65336,1,0,0:0:0:0:
256,192,65498,1,8,0:0:0:0:
256,192,65579,1,0,0:0:0:0:
256,192,65661,1,0,0:0:0:0:
256,192,65742,1,8,0:0:0:0:
256,192,65904,1,0,0:0:0:0:
256,192,65985,1,8,0:0:0:0:
256,192,66066,1,8,0:0:0:0:
256,192,66147,1,0,0:0:0:0:
256,192,66309,1,0,0:0:0:0:
256,192,66390,1,0,0:0:0:0:
256,192,66471,1,8,0:0:0:0:
256,192,66634,1,0,0:0:0:0:
256,192,66715,1,0,0:0:0:0:
256,192,66796,1,8,0:0:0:0:
256,192,66877,1,0,0:0:0:0:
256,192,66958,1,8,0:0:0:0:
256,192,67039,1,0,0:0:0:0:
256,192,67120,1,8,0:0:0:0:
256,192,67201,1,0,0:0:0:0:
256,192,67282,1,0,0:0:0:0:
256,192,67363,1,8,0:0:0:0:
256,192,67444,1,0,0:0:0:0:
256,192,67607,1,0,0:0:0:0:
256,192,67688,1,0,0:0:0:0:
256,192,67769,1,8,0:0:0:0:
256,192,67931,1,0,0:0:0:0:
256,192,68012,1,0,0:0:0:0:
256,192,68093,1,8,0:0:0:0:
256,192,68174,1,8,0:0:0:0:
256,192,68336,1,8,0:0:0:0:
256,192,68417,1,0,0:0:0:0:
256,192,68498,1,0,0:0:0:0:
256,192,68579,1,8,0:0:0:0:
256,192,68742,1,0,0:0:0:0:
256,192,68904,1,8,0:0:0:0:
256,192,68985,1,0,0:0:0:0:
256,192,69147,1,0,0:0:0:0:
256,192,69228,1,8,0:0:0:0:
256,192,69390,1,8,0:0:0:0:
256,192,69471,1,8,0:0:0:0:
256,192,69552,1,0,0:0:0:0:
256,192,69634,1,8,0:0:0:0:
256,192,69715,1,0,0:0:0:0:
256,192,69796,1,8,0:0:0:0:
256,192,69877,1,8,0:0:0:0:
256,192,69958,1,8,0:0:0:0:
256,192,70039,1,0,0:0:0:0:
256,192,70282,1,8,0:0:0:0:
256,192,70363,1,0,0:0:0:0:
256,192,70525,1,8,0:0:0:0:
256,192,70688,1,0,0:0:0:0:
256,192,70769,1,8,0:0:0:0:
256,192,70931,1,8,0:0:0:0:
256,192,71012,1,0,0:0:0:0:
256,192,71093,1,8,0:0:0:0:
256,192,71174,1,8,0:0:0:0:
256,192,71255,1,0,0:0:0:0:
256,192,71336,1,8,0:0:0:0:
256,192,71417,1,0,0:0:0:0:
256,192,71498,1,0,0:0:0:0:
256,192,71579,1,0,0:0:0:0:
256,192,71661,1,8,0:0:0:0:
256,192,71742,1,0,0:0:0:0:
256,192,71823,1,0,0:0:0:0:
256,192,71904,1,0,0:0:0:0:
256,192,71985,1,8,0:0:0:0:
256,192,72147,1,0,0:0:0:0:
256,192,72309,1,8,0:0:0:0:
256,192,72471,1,8,0:0:0:0:
256,192,72634,1,4,0:0:0:0:
256,192,72796,1,0,0:0:0:0:
256,192,72877,1,0,0:0:0:0:
256,192,72958,1,8,0:0:0:0:
256,192,73120,1,0,0:0:0:0:
256,192,73282,1,12,0:0:0:0:
256,192,73444,1,0,0:0:0:0:
256,192,73525,1,8,0:0:0:0:
256,192,73607,1,0,0:0:0:0:
256,192,73688,1,0,0:0:0:0:
256,192,73769,1,8,0:0:0:0:
256,192,73931,1,0,0:0:0:0:
256,192,74012,1,8,0:0:0:0:
256,192,74093,1,8,0:0:0:0:
256,192,74174,1,0,0:0:0:0:
256,192,74255,1,8,0:0:0:0:
256,192,74336,1,8,0:0:0:0:
256,192,74417,1,0,0:0:0:0:
256,192,74498,1,8,0:0:0:0:
256,192,74579,1,0,0:0:0:0:
256,192,74661,1,0,0:0:0:0:
256,192,74742,1,0,0:0:0:0:
256,192,74823,1,0,0:0:0:0:
256,192,74904,1,8,0:0:0:0:
256,192,74985,1,8,0:0:0:0:
256,192,75066,1,8,0:0:0:0:
256,192,75147,1,8,0:0:0:0:
256,192,75228,1,0,0:0:0:0:
256,192,75390,1,8,0:0:0:0:
256,192,75471,1,0,0:0:0:0:
256,192,75634,1,0,0:0:0:0:
256,192,75715,1,8,0:0:0:0:
256,192,75877,1,0,0:0:0:0:
256,192,75958,1,0,0:0:0:0:
256,192,76120,1,8,0:0:0:0:
256,192,76201,1,0,0:0:0:0:
256,192,76363,1,8,0:0:0:0:
256,192,76525,1,0,0:0:0:0:
256,192,76688,1,8,0:0:0:0:
256,192,76769,1,0,0:0:0:0:
256,192,76931,1,8,0:0:0:0:
256,192,77012,1,0,0:0:0:0:
256,192,77093,1,0,0:0:0:0:
256,192,77174,1,8,0:0:0:0:
256,192,77255,1,8,0:0:0:0:
256,192,77417,1,8,0:0:0:0:
256,192,77498,1,0,0:0:0:0:
256,192,77552,1,0,0:0:0:0:
256,192,77607,1,0,0:0:0:0:
256,192,77661,1,8,0:0:0:0:
256,192,77823,1,0,0:0:0:0:
256,192,77904,1,8,0:0:0:0:
240,192,78066,1,8,0:0:0:0:
240,192,78147,1,0,0:0:0:0:
256,192,78309,1,0,0:0:0:0:
256,192,78390,1,8,0:0:0:0:
256,192,78552,1,8,0:0:0:0:
256,192,78634,1,0,0:0:0:0:
240,192,78796,1,8,0:0:0:0:
256,192,78877,1,8,0:0:0:0:
256,192,78958,1,0,0:0:0:0:
256,192,79039,1,0,0:0:0:0:
256,192,79120,1,8,0:0:0:0:
256,192,79282,1,0,0:0:0:0:
256,192,79363,1,8,0:0:0:0:
256,192,79525,1,0,0:0:0:0:
256,192,79607,1,8,0:0:0:0:
256,192,79769,1,0,0:0:0:0:
256,192,79850,1,8,0:0:0:0:
256,192,80093,1,12,0:0:0:0:
256,192,80417,1,4,0:0:0:0:
256,192,80579,1,8,0:0:0:0:
256,192,80661,1,8,0:0:0:0:
256,192,80742,1,0,0:0:0:0:
256,192,80904,1,8,0:0:0:0:
256,192,81066,1,0,0:0:0:0:
256,192,81147,1,0,0:0:0:0:
256,192,81309,1,8,0:0:0:0:
256,192,81390,1,0,0:0:0:0:
256,192,81552,1,8,0:0:0:0:
256,192,81715,1,0,0:0:0:0:
256,192,81877,1,8,0:0:0:0:
256,192,81958,1,8,0:0:0:0:
256,192,82039,1,0,0:0:0:0:
256,192,82201,1,8,0:0:0:0:
256,192,82363,1,8,0:0:0:0:
256,192,82444,1,0,0:0:0:0:
256,192,82607,1,0,0:0:0:0:
256,192,82688,1,8,0:0:0:0:
256,192,82850,1,8,0:0:0:0:
256,192,83012,1,0,0:0:0:0:
256,192,83174,1,8,0:0:0:0:
256,192,83255,1,8,0:0:0:0:
256,192,83336,1,0,0:0:0:0:
256,192,83498,1,8,0:0:0:0:
256,192,83661,1,0,0:0:0:0:
256,192,83742,1,0,0:0:0:0:
256,192,83904,1,8,0:0:0:0:
256,192,83985,1,0,0:0:0:0:
256,192,84147,1,8,0:0:0:0:
256,192,84309,1,0,0:0:0:0:
256,192,84390,1,0,0:0:0:0:
256,192,84471,1,8,0:0:0:0:
256,192,84552,1,8,0:0:0:0:
256,192,84634,1,8,0:0:0:0:
256,192,84958,1,0,0:0:0:0:
256,192,85039,1,0,0:0:0:0:
256,192,85120,1,0,0:0:0:0:
256,192,85201,1,8,0:0:0:0:
256,192,85282,1,8,0:0:0:0:
256,192,85607,1,0,0:0:0:0:
256,192,85769,1,8,0:0:0:0:
256,192,85850,1,8,0:0:0:0:
256,192,85931,1,0,0:0:0:0:
256,192,86093,1,8,0:0:0:0:
256,192,86255,1,0,0:0:0:0:
256,192,86336,1,0,0:0:0:0:
256,192,86498,1,8,0:0:0:0:
256,192,86579,1,0,0:0:0:0:
256,192,86742,1,8,0:0:0:0:
256,192,86904,1,0,0:0:0:0:
256,192,87066,1,8,0:0:0:0:
256,192,87147,1,8,0:0:0:0:
256,192,87228,1,0,0:0:0:0:
256,192,87390,1,8,0:0:0:0:
256,192,87552,1,8,0:0:0:0:
256,192,87634,1,0,0:0:0:0:
256,192,87796,1,0,0:0:0:0:
256,192,87877,1,8,0:0:0:0:
256,192,88039,1,8,0:0:0:0:
256,192,88201,1,8,0:0:0:0:
256,192,88282,1,8,0:0:0:0:
256,192,88363,1,8,0:0:0:0:
256,192,88444,1,0,0:0:0:0:
256,192,88525,1,0,0:0:0:0:
256,192,88607,1,8,0:0:0:0:
256,192,88688,1,0,0:0:0:0:
256,192,88769,1,0,0:0:0:0:
256,192,88850,1,8,0:0:0:0:
256,192,88931,1,8,0:0:0:0:
256,192,89012,1,8,0:0:0:0:
256,192,89093,1,0,0:0:0:0:
256,192,89174,1,8,0:0:0:0:
256,192,89255,1,0,0:0:0:0:
256,192,89336,1,8,0:0:0:0:
256,192,89498,1,4,0:0:0:0:
256,192,89823,1,8,0:0:0:0:
256,192,90147,1,4,0:0:0:0:
256,192,90471,1,8,0:0:0:0:
256,192,90525,1,8,0:0:0:0:
256,192,90579,1,8,0:0:0:0:
256,192,90634,1,8,0:0:0:0:
256,192,90688,1,8,0:0:0:0:
256,192,90742,1,8,0:0:0:0:
256,192,90796,1,0,0:0:0:0:
256,192,90958,1,8,0:0:0:0:
256,192,91039,1,8,0:0:0:0:
256,192,91120,1,0,0:0:0:0:
256,192,91282,1,8,0:0:0:0:
256,192,91363,1,0,0:0:0:0:
256,192,91444,1,0,0:0:0:0:
256,192,91525,1,8,0:0:0:0:
256,192,91688,1,8,0:0:0:0:
256,192,91769,1,0,0:0:0:0:
256,192,91931,1,8,0:0:0:0:
256,192,92093,1,0,0:0:0:0:
256,192,92255,1,8,0:0:0:0:
256,192,92336,1,8,0:0:0:0:
256,192,92417,1,0,0:0:0:0:
256,192,92579,1,8,0:0:0:0:
256,176,92661,1,8,0:0:0:0:
256,192,92742,1,0,0:0:0:0:
256,192,92823,1,8,0:0:0:0:
256,192,92985,1,0,0:0:0:0:
256,192,93066,1,8,0:0:0:0:
256,192,93228,1,8,0:0:0:0:
256,192,93390,1,0,0:0:0:0:
256,192,93552,1,8,0:0:0:0:
256,192,93634,1,8,0:0:0:0:
256,192,93715,1,0,0:0:0:0:
256,192,93877,1,8,0:0:0:0:
256,192,93958,1,0,0:0:0:0:
256,192,94039,1,0,0:0:0:0:
256,192,94120,1,8,0:0:0:0:
256,192,94282,1,8,0:0:0:0:
256,192,94363,1,0,0:0:0:0:
256,192,94525,1,8,0:0:0:0:
256,192,94688,1,0,0:0:0:0:
256,192,94769,1,0,0:0:0:0:
256,192,94850,1,8,0:0:0:0:
256,192,94931,1,8,0:0:0:0:
256,192,95012,1,8,0:0:0:0:
256,192,95336,1,0,0:0:0:0:
256,192,95417,1,0,0:0:0:0:
256,192,95498,1,0,0:0:0:0:
256,192,95579,1,8,0:0:0:0:
256,192,95661,1,8,0:0:0:0:
256,192,95985,1,0,0:0:0:0:
256,192,96147,1,8,0:0:0:0:
256,192,96228,1,8,0:0:0:0:
256,192,96309,1,0,0:0:0:0:
256,192,96471,1,8,0:0:0:0:
256,192,96552,1,0,0:0:0:0:
256,192,96634,1,0,0:0:0:0:
256,192,96715,1,8,0:0:0:0:
256,192,96877,1,8,0:0:0:0:
256,192,96958,1,0,0:0:0:0:
256,192,97120,1,8,0:0:0:0:
256,192,97282,1,0,0:0:0:0:
256,192,97444,1,8,0:0:0:0:
256,192,97525,1,8,0:0:0:0:
256,192,97607,1,0,0:0:0:0:
256,192,97769,1,8,0:0:0:0:
256,192,97850,1,8,0:0:0:0:
256,192,97931,1,0,0:0:0:0:
256,192,98012,1,8,0:0:0:0:
256,192,98174,1,0,0:0:0:0:
256,192,98255,1,8,0:0:0:0:
256,192,98417,1,8,0:0:0:0:
256,192,98579,1,0,0:0:0:0:
256,192,98742,1,8,0:0:0:0:
256,192,98823,1,8,0:0:0:0:
256,192,98904,1,0,0:0:0:0:
256,192,98985,1,0,0:0:0:0:
256,192,99066,1,8,0:0:0:0:
256,192,99228,1,4,0:0:0:0:
256,192,99471,1,4,0:0:0:0:
256,192,99715,1,12,0:0:0:0:
256,192,99958,1,12,0:0:0:0:
256,192,100201,1,4,0:0:0:0:
256,192,100444,1,4,0:0:0:0:
240,192,100688,1,12,0:0:0:0:
272,192,100850,1,0,0:0:0:0:
272,192,101012,1,8,0:0:0:0:
272,192,101174,1,4,0:0:0:0:
256,192,101336,1,8,0:0:0:0:
256,192,101417,1,8,0:0:0:0:
256,192,101498,1,0,0:0:0:0:
256,192,101661,1,8,0:0:0:0:
256,192,101823,1,0,0:0:0:0:
256,192,101904,1,0,0:0:0:0:
256,192,102066,1,8,0:0:0:0:
256,192,102471,1,0,0:0:0:0:
256,192,102634,1,8,0:0:0:0:
256,192,102715,1,8,0:0:0:0:
256,192,102796,1,0,0:0:0:0:
256,192,102958,1,8,0:0:0:0:
256,192,103120,1,8,0:0:0:0:
256,192,103201,1,0,0:0:0:0:
256,192,103282,1,0,0:0:0:0:
256,192,103444,1,12,0:0:0:0:
256,192,103607,1,12,0:0:0:0:
256,192,103769,1,0,0:0:0:0:
256,192,103931,1,8,0:0:0:0:
256,192,104012,1,8,0:0:0:0:
256,192,104093,1,0,0:0:0:0:
256,192,104255,1,8,0:0:0:0:
256,192,104417,1,0,0:0:0:0:
256,192,104498,1,0,0:0:0:0:
256,192,104661,1,8,0:0:0:0:
256,192,104742,1,0,0:0:0:0:
256,192,104904,1,8,0:0:0:0:
256,192,105066,1,0,0:0:0:0:
256,192,105147,1,0,0:0:0:0:
256,192,105228,1,8,0:0:0:0:
256,192,105309,1,8,0:0:0:0:
256,192,105390,1,8,0:0:0:0:
256,192,105715,1,0,0:0:0:0:
256,192,105796,1,0,0:0:0:0:
256,192,105877,1,0,0:0:0:0:
256,192,105958,1,8,0:0:0:0:
256,192,106039,1,8,0:0:0:0:
256,192,106363,1,0,0:0:0:0:
256,192,106525,1,8,0:0:0:0:
256,192,106607,1,8,0:0:0:0:
256,192,106688,1,0,0:0:0:0:
256,192,106850,1,8,0:0:0:0:
256,192,107012,1,0,0:0:0:0:
256,192,107093,1,0,0:0:0:0:
256,192,107255,1,8,0:0:0:0:
256,192,107336,1,0,0:0:0:0:
256,192,107498,1,8,0:0:0:0:
256,192,107661,1,0,0:0:0:0:
256,192,107823,1,8,0:0:0:0:
256,192,107904,1,8,0:0:0:0:
256,192,107985,1,0,0:0:0:0:
256,192,108147,1,8,0:0:0:0:
256,192,108228,1,8,0:0:0:0:
256,192,108309,1,8,0:0:0:0:
256,192,108390,1,0,0:0:0:0:
256,192,108471,1,0,0:0:0:0:
256,192,108552,1,0,0:0:0:0:
256,192,108634,1,8,0:0:0:0:
256,192,108796,1,8,0:0:0:0:
256,192,108958,1,8,0:0:0:0:
256,192,109039,1,8,0:0:0:0:
256,192,109120,1,8,0:0:0:0:
256,192,109201,1,0,0:0:0:0:
256,192,109282,1,0,0:0:0:0:
256,192,109363,1,8,0:0:0:0:
256,192,109444,1,8,0:0:0:0:
256,192,109525,1,8,0:0:0:0:
256,192,109607,1,0,0:0:0:0:
256,192,109688,1,8,0:0:0:0:
256,192,109769,1,8,0:0:0:0:
256,192,109850,1,0,0:0:0:0:
256,192,109931,1,8,0:0:0:0:
256,192,110012,1,0,0:0:0:0:
256,192,110093,1,8,0:0:0:0:
256,192,110255,1,4,0:0:0:0:
256,192,110417,1,0,0:0:0:0:
256,192,110579,1,8,0:0:0:0:
256,192,110742,1,8,0:0:0:0:
256,192,110904,1,4,0:0:0:0:
256,192,111228,1,8,0:0:0:0:
256,192,111282,1,8,0:0:0:0:
256,192,111336,1,8,0:0:0:0:
256,192,111390,1,8,0:0:0:0:
256,192,111444,1,8,0:0:0:0:
256,192,111498,1,8,0:0:0:0:
256,192,111552,1,0,0:0:0:0:
256,192,111715,1,8,0:0:0:0:
256,192,111796,1,8,0:0:0:0:
256,192,111877,1,0,0:0:0:0:
256,192,112039,1,8,0:0:0:0:
256,192,112120,1,0,0:0:0:0:
256,192,112201,1,0,0:0:0:0:
256,192,112282,1,8,0:0:0:0:
256,192,112444,1,8,0:0:0:0:
256,192,112525,1,0,0:0:0:0:
256,192,112688,1,8,0:0:0:0:
256,192,112850,1,0,0:0:0:0:
256,192,113012,1,8,0:0:0:0:
256,192,113093,1,8,0:0:0:0:
256,192,113174,1,0,0:0:0:0:
256,192,113336,1,8,0:0:0:0:
256,176,113417,1,8,0:0:0:0:
256,192,113498,1,0,0:0:0:0:
256,192,113579,1,8,0:0:0:0:
256,192,113742,1,0,0:0:0:0:
256,192,113823,1,8,0:0:0:0:
256,192,113985,1,8,0:0:0:0:
256,192,114147,1,4,0:0:0:0:
256,192,114471,1,0,0:0:0:0:
256,192,114579,1,0,0:0:0:0:
256,192,114688,1,0,0:0:0:0:
256,192,114796,1,8,0:0:0:0:
256,192,114904,1,8,0:0:0:0:
256,192,115012,1,0,0:0:0:0:
256,192,115120,1,8,0:0:0:0:
256,192,115228,1,8,0:0:0:0:
256,192,115336,1,0,0:0:0:0:
256,192,115444,1,8,0:0:0:0:
256,192,115661,1,0,0:0:0:0:
256,192,115715,1,0,0:0:0:0:
256,192,115769,1,8,0:0:0:0:
256,192,115877,1,8,0:0:0:0:
256,192,115985,1,0,0:0:0:0:
256,192,116093,1,12,0:0:0:0:
256,192,116417,1,12,0:0:0:0:
256,192,116742,1,0,0:0:0:0:
256,192,116904,1,8,0:0:0:0:
256,192,116985,1,8,0:0:0:0:
256,192,117066,1,0,0:0:0:0:
256,192,117228,1,8,0:0:0:0:
256,192,117390,1,0,0:0:0:0:
256,192,117471,1,8,0:0:0:0:
256,192,117552,1,0,0:0:0:0:
256,192,117634,1,8,0:0:0:0:
256,192,117715,1,0,0:0:0:0:
256,192,117877,1,8,0:0:0:0:
256,192,118039,1,0,0:0:0:0:
256,192,118120,1,0,0:0:0:0:
256,192,118201,1,8,0:0:0:0:
256,192,118363,1,0,0:0:0:0:
256,192,118525,1,8,0:0:0:0:
256,192,118688,1,0,0:0:0:0:
256,192,118769,1,8,0:0:0:0:
256,192,118850,1,8,0:0:0:0:
256,192,118931,1,8,0:0:0:0:
256,192,119012,1,0,0:0:0:0:
256,192,119174,1,8,0:0:0:0:
256,192,119336,1,0,0:0:0:0:
256,192,119417,1,0,0:0:0:0:
256,192,119498,1,8,0:0:0:0:
256,192,119579,1,8,0:0:0:0:
256,192,119661,1,0,0:0:0:0:
256,192,119823,1,8,0:0:0:0:
256,192,119904,1,0,0:0:0:0:
256,192,119985,1,8,0:0:0:0:
256,192,120066,1,8,0:0:0:0:
256,192,120147,1,0,0:0:0:0:
256,192,120228,1,8,0:0:0:0:
256,192,120309,1,8,0:0:0:0:
256,192,120390,1,0,0:0:0:0:
256,192,120471,1,0,0:0:0:0:
256,192,120552,1,8,0:0:0:0:
256,192,120634,1,0,0:0:0:0:
256,192,120715,1,0,0:0:0:0:
256,192,120796,1,0,0:0:0:0:
256,192,120877,1,8,0:0:0:0:
256,192,121039,1,0,0:0:0:0:
256,192,121120,1,8,0:0:0:0:
256,192,121201,1,8,0:0:0:0:
256,192,121282,1,0,0:0:0:0:
256,192,121336,1,0,0:0:0:0:
256,192,121390,1,0,0:0:0:0:
256,192,121444,1,8,0:0:0:0:
256,192,121525,1,8,0:0:0:0:
256,192,121607,1,0,0:0:0:0:
256,192,121661,1,0,0:0:0:0:
256,192,121715,1,0,0:0:0:0:
256,192,121769,1,8,0:0:0:0:
256,192,121823,1,8,0:0:0:0:
256,192,121877,1,8,0:0:0:0:
256,192,121931,1,0,0:0:0:0:
256,192,123228,1,8,0:0:0:0:
256,192,123715,1,8,0:0:0:0:
256,192,124201,1,8,0:0:0:0:
256,192,124525,1,0,0:0:0:0:
240,208,125498,1,8,0:0:0:0:
240,192,125661,1,8,0:0:0:0:
240,208,126471,1,8,0:0:0:0:
240,208,126796,1,8,0:0:0:0:
240,208,126958,1,8,0:0:0:0:
240,208,127120,1,0,0:0:0:0:
240,208,128417,1,8,0:0:0:0:
256,208,128904,1,8,0:0:0:0:
256,208,129390,1,8,0:0:0:0:
256,208,129715,1,0,0:0:0:0:
256,208,130201,1,8,0:0:0:0:
256,208,130688,1,8,0:0:0:0:
256,208,130850,1,8,0:0:0:0:
256,208,131661,1,8,0:0:0:0:
256,208,131823,1,8,0:0:0:0:
256,208,131985,1,8,0:0:0:0:
256,208,132147,1,8,0:0:0:0:
256,208,132309,1,4,0:0:0:0:
256,208,132634,1,8,0:0:0:0:
256,208,132796,1,0,0:0:0:0:
256,208,133120,1,0,0:0:0:0:
256,208,133282,1,8,0:0:0:0:
240,208,133444,1,8,0:0:0:0:
256,208,133607,1,0,0:0:0:0:
256,208,133769,1,0,0:0:0:0:
256,208,133931,1,8,0:0:0:0:
256,208,134093,1,0,0:0:0:0:
256,208,134255,1,0,0:0:0:0:
240,208,134579,1,8,0:0:0:0:
256,224,134742,1,0,0:0:0:0:
256,224,134904,1,0,0:0:0:0:
288,144,135228,1,8,0:0:0:0:
288,144,135390,1,0,0:0:0:0:
288,144,135715,1,0,0:0:0:0:
288,144,135877,1,8,0:0:0:0:
288,144,136039,1,8,0:0:0:0:
288,144,136201,1,0,0:0:0:0:
288,144,136363,1,0,0:0:0:0:
288,144,136525,1,8,0:0:0:0:
288,144,136688,1,0,0:0:0:0:
288,144,136850,1,0,0:0:0:0:
288,144,136931,1,0,0:0:0:0:
288,144,137012,1,0,0:0:0:0:
288,144,137174,1,8,0:0:0:0:
288,144,137336,1,8,0:0:0:0:
288,144,137498,1,4,0:0:0:0:
288,144,137823,1,8,0:0:0:0:
288,144,138147,1,8,0:0:0:0:
288,144,138309,1,0,0:0:0:0:
288,144,138471,1,8,0:0:0:0:
288,144,138634,1,8,0:0:0:0:
288,144,138796,1,0,0:0:0:0:
288,144,138877,1,0,0:0:0:0:
288,144,138958,1,0,0:0:0:0:
288,144,139039,1,0,0:0:0:0:
288,144,139120,1,0,0:0:0:0:
288,144,139201,1,0,0:0:0:0:
288,144,139282,1,0,0:0:0:0:
288,144,139363,1,0,0:0:0:0:
288,144,139444,1,8,0:0:0:0:
288,144,139525,1,8,0:0:0:0:
288,144,139607,1,0,0:0:0:0:
288,144,139688,1,0,0:0:0:0:
288,144,139769,1,8,0:0:0:0:
288,144,139850,1,8,0:0:0:0:
288,144,139931,1,8,0:0:0:0:
256,192,140093,1,4,0:0:0:0:
256,192,140255,1,8,0:0:0:0:
256,192,140309,1,8,0:0:0:0:
256,192,140363,1,8,0:0:0:0:
256,192,140417,1,0,0:0:0:0:
256,192,140579,1,8,0:0:0:0:
256,192,140742,1,4,0:0:0:0:
256,192,140904,1,8,0:0:0:0:
256,192,140958,1,8,0:0:0:0:
256,192,141012,1,8,0:0:0:0:
256,192,141066,1,0,0:0:0:0:
256,192,141228,1,8,0:0:0:0:
256,192,141390,1,4,0:0:0:0:
256,192,141552,1,0,0:0:0:0:
256,192,141634,1,0,0:0:0:0:
256,192,141715,1,8,0:0:0:0:
256,192,141877,1,0,0:0:0:0:
256,192,141958,1,8,0:0:0:0:
256,192,142039,1,8,0:0:0:0:
256,192,142201,1,0,0:0:0:0:
256,192,142363,1,12,0:0:0:0:
256,192,142688,1,4,0:0:0:0:
256,192,142931,1,0,0:0:0:0:
256,192,143012,1,8,0:0:0:0:
256,192,143174,1,0,0:0:0:0:
256,192,143255,1,0,0:0:0:0:
256,192,143336,1,8,0:0:0:0:
256,192,143417,1,0,0:0:0:0:
256,192,143579,1,8,0:0:0:0:
256,192,143661,1,0,0:0:0:0:
256,192,143823,1,8,0:0:0:0:
256,192,143985,1,0,0:0:0:0:
256,192,144147,1,0,0:0:0:0:
256,192,144228,1,0,0:0:0:0:
256,192,144309,1,8,0:0:0:0:
256,192,144390,1,0,0:0:0:0:
256,192,144471,1,0,0:0:0:0:
256,192,144634,1,8,0:0:0:0:
256,192,144715,1,0,0:0:0:0:
256,192,144796,1,8,0:0:0:0:
256,192,144877,1,0,0:0:0:0:
256,192,144958,1,8,0:0:0:0:
256,192,145039,1,8,0:0:0:0:
256,192,145120,1,0,0:0:0:0:
256,192,145201,1,8,0:0:0:0:
256,192,145282,1,0,0:0:0:0:
256,192,145444,1,0,0:0:0:0:
256,192,145525,1,0,0:0:0:0:
256,192,145607,1,8,0:0:0:0:
256,192,145769,1,0,0:0:0:0:
256,192,145850,1,0,0:0:0:0:
256,192,145931,1,8,0:0:0:0:
256,192,146012,1,8,0:0:0:0:
256,192,146174,1,8,0:0:0:0:
256,192,146255,1,0,0:0:0:0:
256,192,146336,1,0,0:0:0:0:
256,192,146417,1,8,0:0:0:0:
256,192,146579,1,0,0:0:0:0:
256,192,146742,1,8,0:0:0:0:
256,192,146823,1,0,0:0:0:0:
256,192,146985,1,0,0:0:0:0:
256,192,147066,1,8,0:0:0:0:
256,192,147228,1,8,0:0:0:0:
256,192,147309,1,8,0:0:0:0:
256,192,147390,1,0,0:0:0:0:
256,192,147471,1,8,0:0:0:0:
256,192,147552,1,0,0:0:0:0:
256,192,147634,1,8,0:0:0:0:
256,192,147715,1,8,0:0:0:0:
256,192,147796,1,8,0:0:0:0:
256,192,147877,1,0,0:0:0:0:
256,192,148120,1,8,0:0:0:0:
256,192,148201,1,0,0:0:0:0:
256,192,148363,1,8,0:0:0:0:
256,192,148525,1,0,0:0:0:0:
256,192,148607,1,8,0:0:0:0:
256,192,148769,1,8,0:0:0:0:
256,192,148850,1,0,0:0:0:0:
256,192,148931,1,8,0:0:0:0:
256,192,149012,1,8,0:0:0:0:
256,192,149093,1,0,0:0:0:0:
256,192,149174,1,8,0:0:0:0:
256,192,149255,1,0,0:0:0:0:
256,192,149336,1,0,0:0:0:0:
256,192,149417,1,0,0:0:0:0:
256,192,149498,1,8,0:0:0:0:
256,192,149579,1,0,0:0:0:0:
256,192,149661,1,0,0:0:0:0:
256,192,149742,1,0,0:0:0:0:
256,192,149823,1,8,0:0:0:0:
256,192,149985,1,0,0:0:0:0:
256,192,150147,1,8,0:0:0:0:
256,192,150309,1,8,0:0:0:0:
256,192,150471,1,4,0:0:0:0:
256,192,150634,1,0,0:0:0:0:
256,192,150715,1,0,0:0:0:0:
256,192,150796,1,8,0:0:0:0:
256,192,150958,1,0,0:0:0:0:
256,192,151120,1,12,0:0:0:0:
256,192,151282,1,0,0:0:0:0:
256,192,151363,1,8,0:0:0:0:
256,192,151444,1,0,0:0:0:0:
256,192,151525,1,0,0:0:0:0:
256,192,151607,1,8,0:0:0:0:
256,192,151769,1,0,0:0:0:0:
256,192,151850,1,8,0:0:0:0:
256,192,151931,1,8,0:0:0:0:
256,192,152012,1,0,0:0:0:0:
256,192,152093,1,8,0:0:0:0:
256,192,152174,1,8,0:0:0:0:
256,192,152255,1,0,0:0:0:0:
256,192,152336,1,8,0:0:0:0:
256,192,152417,1,0,0:0:0:0:
256,192,152498,1,0,0:0:0:0:
256,192,152579,1,0,0:0:0:0:
256,192,152661,1,0,0:0:0:0:
256,192,152742,1,8,0:0:0:0:
256,192,152904,1,8,0:0:0:0:
256,192,153066,1,0,0:0:0:0:
256,192,153228,1,0,0:0:0:0:
256,192,153390,1,12,0:0:0:0:
256,192,153552,1,0,0:0:0:0:
256,192,153715,1,8,0:0:0:0:
256,192,153796,1,0,0:0:0:0:
256,192,153877,1,0,0:0:0:0:
256,192,153958,1,8,0:0:0:0:
256,192,154120,1,0,0:0:0:0:
256,192,154201,1,8,0:0:0:0:
256,192,154282,1,8,0:0:0:0:
256,192,154363,1,0,0:0:0:0:
256,192,154525,1,0,0:0:0:0:
256,192,154607,1,0,0:0:0:0:
256,192,154688,1,8,0:0:0:0:
256,192,154850,1,0,0:0:0:0:
256,192,154931,1,0,0:0:0:0:
256,192,155012,1,8,0:0:0:0:
256,192,155093,1,0,0:0:0:0:
256,192,155174,1,8,0:0:0:0:
256,192,155255,1,0,0:0:0:0:
256,192,155336,1,8,0:0:0:0:
256,192,155417,1,0,0:0:0:0:
256,192,155498,1,0,0:0:0:0:
256,192,155579,1,8,0:0:0:0:
256,192,155661,1,0,0:0:0:0:
256,192,155823,1,0,0:0:0:0:
256,192,155904,1,0,0:0:0:0:
256,192,155985,1,8,0:0:0:0:
256,192,156147,1,0,0:0:0:0:
256,192,156228,1,0,0:0:0:0:
256,192,156309,1,8,0:0:0:0:
256,192,156390,1,8,0:0:0:0:
256,192,156552,1,8,0:0:0:0:
256,192,156634,1,0,0:0:0:0:
256,192,156715,1,0,0:0:0:0:
256,192,156796,1,8,0:0:0:0:
256,192,156958,1,0,0:0:0:0:
256,192,157120,1,8,0:0:0:0:
256,192,157201,1,0,0:0:0:0:
256,192,157363,1,0,0:0:0:0:
256,192,157444,1,8,0:0:0:0:
256,192,157607,1,8,0:0:0:0:
256,192,157688,1,8,0:0:0:0:
256,192,157769,1,0,0:0:0:0:
256,192,157850,1,8,0:0:0:0:
256,192,157931,1,0,0:0:0:0:
256,192,158012,1,8,0:0:0:0:
256,192,158093,1,8,0:0:0:0:
256,192,158174,1,8,0:0:0:0:
256,192,158255,1,0,0:0:0:0:
256,192,158498,1,8,0:0:0:0:
256,192,158579,1,0,0:0:0:0:
256,192,158742,1,8,0:0:0:0:
256,192,158904,1,0,0:0:0:0:
256,192,158985,1,8,0:0:0:0:
256,192,159147,1,8,0:0:0:0:
256,192,159228,1,0,0:0:0:0:
256,192,159309,1,8,0:0:0:0:
256,192,159390,1,8,0:0:0:0:
256,192,159471,1,0,0:0:0:0:
256,192,159552,1,8,0:0:0:0:
256,192,159634,1,0,0:0:0:0:
256,192,159715,1,0,0:0:0:0:
256,192,159796,1,0,0:0:0:0:
256,192,159877,1,8,0:0:0:0:
256,192,159958,1,0,0:0:0:0:
256,192,160039,1,0,0:0:0:0:
256,192,160120,1,0,0:0:0:0:
256,192,160201,1,8,0:0:0:0:
256,192,160363,1,0,0:0:0:0:
256,192,160525,1,8,0:0:0:0:
256,192,160688,1,8,0:0:0:0:
256,192,160850,1,4,0:0:0:0:
256,192,161012,1,0,0:0:0:0:
256,192,161093,1,0,0:0:0:0:
256,192,161174,1,8,0:0:0:0:
256,192,161336,1,0,0:0:0:0:
256,192,161498,1,12,0:0:0:0:
256,192,161661,1,0,0:0:0:0:
256,192,161742,1,8,0:0:0:0:
256,192,161823,1,0,0:0:0:0:
256,192,161904,1,0,0:0:0:0:
256,192,161985,1,8,0:0:0:0:
256,192,162147,1,0,0:0:0:0:
256,192,162228,1,8,0:0:0:0:
256,192,162309,1,8,0:0:0:0:
256,192,162390,1,0,0:0:0:0:
256,192,162471,1,8,0:0:0:0:
256,192,162552,1,8,0:0:0:0:
256,192,162634,1,0,0:0:0:0:
256,192,162715,1,8,0:0:0:0:
256,192,162796,1,0,0:0:0:0:
256,192,162877,1,0,0:0:0:0:
256,192,162958,1,0,0:0:0:0:
256,192,163039,1,0,0:0:0:0:
256,192,163120,1,8,0:0:0:0:
256,192,163201,1,8,0:0:0:0:
256,192,163282,1,8,0:0:0:0:
256,192,163363,1,8,0:0:0:0:
256,192,163444,1,0,0:0:0:0:
259,198,163607,1,0,0:0:0:0:
256,192,163688,1,8,0:0:0:0:
256,192,163769,1,0,0:0:0:0:
256,192,163850,1,0,0:0:0:0:
256,192,163931,1,8,0:0:0:0:
256,192,164093,1,0,0:0:0:0:
256,192,164174,1,0,0:0:0:0:
256,192,164255,1,0,0:0:0:0:
256,192,164336,1,8,0:0:0:0:
256,192,164498,1,0,0:0:0:0:
256,192,164579,1,8,0:0:0:0:
256,192,164661,1,0,0:0:0:0:
256,192,164742,1,8,0:0:0:0:
256,192,164823,1,8,0:0:0:0:
256,192,164904,1,0,0:0:0:0:
256,192,165066,1,8,0:0:0:0:
256,192,165147,1,0,0:0:0:0:
256,192,165228,1,8,0:0:0:0:
256,192,165309,1,8,0:0:0:0:
256,192,165390,1,0,0:0:0:0:
256,192,165471,1,8,0:0:0:0:
256,192,165552,1,0,0:0:0:0:
256,192,165634,1,0,0:0:0:0:
256,192,165715,1,8,0:0:0:0:
256,192,165796,1,8,0:0:0:0:
256,192,165877,1,8,0:0:0:0:
256,192,166039,1,0,0:0:0:0:
256,192,166201,1,8,0:0:0:0:
256,192,166282,1,8,0:0:0:0:
256,192,166363,1,0,0:0:0:0:
256,192,166444,1,0,0:0:0:0:
256,192,166525,1,8,0:0:0:0:
256,192,166688,1,0,0:0:0:0:
256,192,166769,1,0,0:0:0:0:
256,192,166850,1,8,0:0:0:0:
256,192,166931,1,0,0:0:0:0:
240,192,167093,1,0,0:0:0:0:
240,192,167174,1,8,0:0:0:0:
240,192,167255,1,0,0:0:0:0:
240,192,167336,1,8,0:0:0:0:
240,192,167417,1,8,0:0:0:0:
256,192,167498,1,8,0:0:0:0:
256,192,167579,1,0,0:0:0:0:
256,192,167742,1,0,0:0:0:0:
256,192,167823,1,8,0:0:0:0:
256,192,167904,1,0,0:0:0:0:
256,192,167985,1,8,0:0:0:0:
256,192,168066,1,8,0:0:0:0:
256,192,168147,1,0,0:0:0:0:
256,192,168228,1,8,0:0:0:0:
256,192,168309,1,0,0:0:0:0:
256,192,168390,1,8,0:0:0:0:
256,192,168471,1,8,0:0:0:0:
256,192,168552,1,8,0:0:0:0:
256,192,168634,1,0,0:0:0:0:
256,192,168877,1,8,0:0:0:0:
256,192,168958,1,0,0:0:0:0:
256,192,169120,1,8,0:0:0:0:
256,192,169201,1,0,0:0:0:0:
256,192,169282,1,0,0:0:0:0:
256,192,169363,1,8,0:0:0:0:
256,192,169525,1,8,0:0:0:0:
256,192,169607,1,0,0:0:0:0:
256,192,169688,1,8,0:0:0:0:
256,192,169769,1,8,0:0:0:0:
256,192,169850,1,0,0:0:0:0:
256,192,169931,1,8,0:0:0:0:
256,192,170012,1,0,0:0:0:0:
256,192,170093,1,0,0:0:0:0:
256,192,170174,1,0,0:0:0:0:
256,192,170255,1,8,0:0:0:0:
256,192,170336,1,8,0:0:0:0:
256,192,170417,1,0,0:0:0:0:
256,192,170498,1,0,0:0:0:0:
256,192,170579,1,8,0:0:0:0:
256,192,170742,1,12,0:0:0:0:
256,192,170904,1,12,0:0:0:0:
256,192,171066,1,0,0:0:0:0:
256,192,171228,1,4,0:0:0:0:
256,192,171390,1,0,0:0:0:0:
256,192,171471,1,0,0:0:0:0:
256,192,171552,1,8,0:0:0:0:
256,192,171715,1,0,0:0:0:0:
256,192,171877,1,12,0:0:0:0:
256,192,172039,1,0,0:0:0:0:
256,192,172120,1,8,0:0:0:0:
256,192,172201,1,0,0:0:0:0:
256,192,172282,1,0,0:0:0:0:
256,192,172363,1,8,0:0:0:0:
256,192,172525,1,0,0:0:0:0:
256,192,172607,1,8,0:0:0:0:
256,192,172688,1,8,0:0:0:0:
256,192,172769,1,0,0:0:0:0:
256,192,172850,1,8,0:0:0:0:
256,192,172931,1,8,0:0:0:0:
256,192,173012,1,0,0:0:0:0:
256,192,173093,1,8,0:0:0:0:
256,192,173174,1,0,0:0:0:0:
256,192,173255,1,0,0:0:0:0:
256,192,173336,1,0,0:0:0:0:
256,192,173417,1,0,0:0:0:0:
256,192,173498,1,8,0:0:0:0:
256,192,173579,1,8,0:0:0:0:
256,192,173661,1,8,0:0:0:0:
256,192,173742,1,8,0:0:0:0:
256,192,173823,1,0,0:0:0:0:
256,192,173985,1,0,0:0:0:0:
256,192,174147,1,12,0:0:0:0:
256,192,174309,1,8,0:0:0:0:
256,192,174390,1,8,0:0:0:0:
256,192,174471,1,0,0:0:0:0:
256,192,174552,1,0,0:0:0:0:
256,192,174634,1,0,0:0:0:0:
256,192,174715,1,8,0:0:0:0:
256,192,174877,1,0,0:0:0:0:
256,192,174958,1,8,0:0:0:0:
256,192,175039,1,8,0:0:0:0:
256,192,175120,1,0,0:0:0:0:
256,192,175282,1,12,0:0:0:0:
256,192,175444,1,0,0:0:0:0:
256,192,175607,1,12,0:0:0:0:
256,192,175769,1,8,0:0:0:0:
256,192,175850,1,0,0:0:0:0:
256,192,175931,1,8,0:0:0:0:
256,192,176012,1,8,0:0:0:0:
256,192,176093,1,0,0:0:0:0:
256,192,176174,1,0,0:0:0:0:
256,192,176255,1,8,0:0:0:0:
256,192,176336,1,8,0:0:0:0:
256,192,176417,1,0,0:0:0:0:
256,192,176579,1,8,0:0:0:0:
256,192,176661,1,8,0:0:0:0:
256,192,176742,1,0,0:0:0:0:
256,192,176823,1,0,0:0:0:0:
256,192,176904,1,8,0:0:0:0:
256,192,177066,1,8,0:0:0:0:
256,192,177147,1,0,0:0:0:0:
256,192,177228,1,8,0:0:0:0:
256,192,177309,1,8,0:0:0:0:
240,192,177390,1,0,0:0:0:0:
240,192,177471,1,8,0:0:0:0:
240,192,177552,1,8,0:0:0:0:
240,192,177634,1,8,0:0:0:0:
240,192,177715,1,0,0:0:0:0:
240,192,177796,1,8,0:0:0:0:
256,192,177958,1,8,0:0:0:0:
256,192,178039,1,0,0:0:0:0:
256,192,178120,1,0,0:0:0:0:
256,192,178201,1,8,0:0:0:0:
256,192,178282,1,8,0:0:0:0:
256,192,178363,1,8,0:0:0:0:
256,192,178444,1,0,0:0:0:0:
256,192,178525,1,8,0:0:0:0:
256,192,178607,1,0,0:0:0:0:
256,192,178688,1,8,0:0:0:0:
256,192,178769,1,0,0:0:0:0:
256,192,178850,1,8,0:0:0:0:
256,192,178931,1,8,0:0:0:0:
256,192,179012,1,0,0:0:0:0:
256,192,179174,1,8,0:0:0:0:
256,192,179255,1,8,0:0:0:0:
256,192,179336,1,0,0:0:0:0:
256,192,179390,1,0,0:0:0:0:
256,192,179444,1,0,0:0:0:0:
256,192,179498,1,8,0:0:0:0:
256,192,179552,1,8,0:0:0:0:
256,192,179607,1,8,0:0:0:0:
256,192,179661,1,0,0:0:0:0:
256,192,179823,1,0,0:0:0:0:
256,192,179904,1,0,0:0:0:0:
256,192,179985,1,8,0:0:0:0:
256,192,180039,1,8,0:0:0:0:
256,192,180093,1,8,0:0:0:0:
256,192,180147,1,0,0:0:0:0:
256,192,180201,1,0,0:0:0:0:
256,192,180255,1,0,0:0:0:0:
256,192,180309,1,8,0:0:0:0:
256,192,180390,1,0,0:0:0:0:
256,192,180471,1,8,0:0:0:0:
256,192,180552,1,0,0:0:0:0:
256,192,180634,1,8,0:0:0:0:
256,192,180715,1,8,0:0:0:0:
256,192,180796,1,0,0:0:0:0:
256,192,180877,1,0,0:0:0:0:
256,192,180958,1,8,0:0:0:0:
256,192,181039,1,8,0:0:0:0:
256,192,181120,1,0,0:0:0:0:
256,192,181201,1,8,0:0:0:0:
256,192,181282,1,8,0:0:0:0:
256,192,181444,1,8,0:0:0:0:
256,192,181525,1,8,0:0:0:0:
256,192,181607,1,0,0:0:0:0:
256,192,181769,1,0,0:0:0:0:
256,192,181850,1,0,0:0:0:0:
256,192,181931,1,8,0:0:0:0:
256,192,181985,1,8,0:0:0:0:
256,192,182039,1,8,0:0:0:0:
256,192,182093,1,0,0:0:0:0:
256,192,182174,1,8,0:0:0:0:
256,192,182255,1,0,0:0:0:0:
256,192,182336,1,0,0:0:0:0:
256,192,182417,1,0,0:0:0:0:
256,192,182498,1,0,0:0:0:0:
256,192,182579,1,8,0:0:0:0:
256,192,182634,1,8,0:0:0:0:
256,192,182688,1,8,0:0:0:0:
256,192,182742,1,8,0:0:0:0:
256,192,182796,1,8,0:0:0:0:
256,192,182850,1,8,0:0:0:0:
256,192,182904,1,0,0:0:0:0:
256,192,182985,1,8,0:0:0:0:
256,192,183066,1,8,0:0:0:0:
256,192,183147,1,0,0:0:0:0:
256,192,183228,1,8,0:0:0:0:
256,192,183309,1,8,0:0:0:0:
256,192,183390,1,0,0:0:0:0:
256,192,183471,1,8,0:0:0:0:
256,192,183552,1,0,0:0:0:0:
256,192,183634,1,0,0:0:0:0:
256,192,183715,1,0,0:0:0:0:
256,192,183796,1,0,0:0:0:0:
256,192,183877,1,8,0:0:0:0:
256,192,183958,1,8,0:0:0:0:
256,192,184039,1,8,0:0:0:0:
256,192,184120,1,8,0:0:0:0:
256,192,184201,1,0,0:0:0:0:
240,192,184525,1,8,0:0:0:0:
240,192,184850,1,0,0:0:0:0:
256,192,185174,1,8,0:0:0:0:
160,144,185498,2,0,L|160:192,8,35
256,192,186471,1,8,0:0:0:0:
256,192,186796,1,4,0:0:0:0:
256,192,186958,1,4,0:0:0:0:
256,192,187282,1,4,0:0:0:0:
256,192,187607,1,12,0:0:0:0:
256,192,187931,1,12,0:0:0:0:
256,192,188201,1,8,0:0:0:0:
256,192,188255,1,8,0:0:0:0:
256,192,188417,1,8,0:0:0:0:
256,192,188579,1,0,0:0:0:0:
256,192,188742,1,8,0:0:0:0:
256,192,188904,1,8,0:0:0:0:
256,192,189066,1,0,0:0:0:0:
256,192,189228,1,0,0:0:0:0:
256,192,189390,1,12,0:0:0:0:
256,192,189552,1,12,0:0:0:0:
256,192,189877,1,4,0:0:0:0:
256,192,190201,1,4,0:0:0:0:
256,192,190363,1,4,0:0:0:0:
256,192,190525,1,12,0:0:0:0:
256,192,190688,1,4,0:0:0:0:
256,192,191012,1,8,0:0:0:0:
256,192,191336,1,4,0:0:0:0:
256,192,191661,1,8,0:0:0:0:
256,192,191715,1,8,0:0:0:0:
256,192,191769,1,8,0:0:0:0:
256,192,191823,1,8,0:0:0:0:
256,192,191877,1,8,0:0:0:0:
256,192,191931,1,8,0:0:0:0:
256,192,191985,1,0,0:0:0:0:
256,192,192147,1,0,0:0:0:0:
256,192,192471,1,0,0:0:0:0:
256,192,192634,1,0,0:0:0:0:
256,192,192958,1,12,0:0:0:0:
256,192,193120,1,12,0:0:0:0:
256,192,193444,1,12,0:0:0:0:
256,192,193607,1,12,0:0:0:0:
