osu file format v14

[General]
AudioFilename: audio.mp3
AudioLeadIn: 0
PreviewTime: 141336
Countdown: 0
SampleSet: Normal
StackLeniency: 0.7
Mode: 1
LetterboxInBreaks: 0
WidescreenStoryboard: 1

[Editor]
DistanceSpacing: 0.1
BeatDivisor: 12
GridSize: 16
TimelineZoom: 2.100001

[Metadata]
Title:KITTY FOILED
TitleUnicode:KITTY FOILED
Artist:BlackY
ArtistUnicode:BlackY
Creator:TKS
Version:Futsuu
Source:
Tags:
BeatmapID:2017033
BeatmapSetID:903288

[Difficulty]
HPDrainRate:6
CircleSize:5
OverallDifficulty:4
ApproachRate:5
SliderMultiplier:1.4
SliderTickRate:1

[Events]
//Background and Video events
0,0,"bg.jpg",0,0
//Break Periods
//Storyboard Layer 0 (Background)
//Storyboard Layer 1 (Fail)
//Storyboard Layer 2 (Pass)
//Storyboard Layer 3 (Foreground)
//Storyboard Layer 4 (Overlay)
//Storyboard Sound Samples

[TimingPoints]
2580,324.324324324324,4,1,0,90,1,0
3877,-100,4,1,0,70,0,0
5174,-100,4,1,0,90,0,0
54471,-100,4,1,0,90,0,1
75228,-100,4,1,0,90,0,0
121985,-100,4,1,0,55,0,0
132282,-100,4,1,0,80,0,0
137498,-100,4,1,0,90,0,0
142688,-100,4,1,0,90,0,1
163120,-100,4,1,0,90,0,0
163444,-100,4,1,0,90,0,1
186796,-100,4,1,0,90,0,0
188093,-100,4,1,0,70,0,0
189390,-100,4,1,0,90,0,0

[HitObjects]
256,192,2580,5,4,0:0:0:0:
256,192,2742,1,4,0:0:0:0:
256,192,3066,1,4,0:0:0:0:
256,192,3390,1,12,0:0:0:0:
256,192,3715,1,12,0:0:0:0:
256,192,5174,1,12,0:0:0:0:
256,192,5336,1,12,0:0:0:0:
256,192,5661,1,4,0:0:0:0:
256,192,5985,1,4,0:0:0:0:
256,192,6147,1,12,0:0:0:0:
256,192,6471,1,4,0:0:0:0:
256,192,7120,1,4,0:0:0:0:
256,192,7769,1,0,0:0:0:0:
256,192,8417,1,0,0:0:0:0:
256,192,8742,1,8,0:0:0:0:
256,192,9066,1,0,0:0:0:0:
256,192,9715,1,0,0:0:0:0:
256,192,10039,1,8,0:0:0:0:
256,192,10363,1,0,0:0:0:0:
256,192,11012,1,0,0:0:0:0:
256,192,11661,1,0,0:0:0:0:
256,192,11985,1,0,0:0:0:0:
256,192,12309,1,8,0:0:0:0:
256,192,12634,1,8,0:0:0:0:
256,192,12958,1,4,0:0:0:0:
256,192,13607,1,8,0:0:0:0:
256,192,13769,1,8,0:0:0:0:
256,192,13931,1,8,0:0:0:0:
256,192,14255,1,0,0:0:0:0:
256,192,14579,1,0,0:0:0:0:
256,192,14904,1,8,0:0:0:0:
256,192,15552,1,0,0:0:0:0:
256,192,16201,1,8,0:0:0:0:
256,192,16363,1,8,0:0:0:0:
256,192,16525,1,8,0:0:0:0:
256,192,16850,1,0,0:0:0:0:
256,192,17498,1,8,0:0:0:0:
256,192,17823,1,8,0:0:0:0:
256,192,17985,1,8,0:0:0:0:
256,192,18147,1,0,0:0:0:0:
256,192,18796,1,8,0:0:0:0:
256,192,18958,1,8,0:0:0:0:
256,192,19120,1,8,0:0:0:0:
256,192,19444,1,0,0:0:0:0:
256,192,19769,1,0,0:0:0:0:
256,192,20093,1,8,0:0:0:0:
256,192,20742,1,0,0:0:0:0:
256,192,21390,1,8,0:0:0:0:
256,192,21715,1,8,0:0:0:0:
256,192,21877,1,8,0:0:0:0:
256,192,22039,1,0,0:0:0:0:
256,192,22363,1,8,0:0:0:0:
256,192,22688,1,8,0:0:0:0:
256,192,23012,1,8,0:0:0:0:
256,192,23336,1,4,0:0:0:0:
256,192,23985,1,8,0:0:0:0:
256,192,24147,1,8,0:0:0:0:
256,192,24309,1,8,0:0:0:0:
256,192,24634,1,0,0:0:0:0:
256,192,24958,1,0,0:0:0:0:
256,192,25282,1,8,0:0:0:0:
256,192,25607,1,8,0:0:0:0:
256,192,25931,1,0,0:0:0:0:
256,192,26579,1,8,0:0:0:0:
256,192,26742,1,8,0:0:0:0:
256,192,26904,1,8,0:0:0:0:
256,192,27228,1,0,0:0:0:0:
256,192,27552,1,0,0:0:0:0:
256,192,27877,1,8,0:0:0:0:
256,192,28201,1,8,0:0:0:0:
256,192,28363,1,8,0:0:0:0:
256,192,28525,1,0,0:0:0:0:
256,192,29174,1,8,0:0:0:0:
256,192,29336,1,8,0:0:0:0:
256,192,29498,1,8,0:0:0:0:
256,192,29823,1,0,0:0:0:0:
256,192,30147,1,0,0:0:0:0:
256,192,30471,1,8,0:0:0:0:
256,192,30796,1,8,0:0:0:0:
256,192,31120,1,4,0:0:0:0:
256,192,31769,1,4,0:0:0:0:
256,192,32417,12,0,33390,0:0:0:0:
256,192,33715,5,4,0:0:0:0:
256,192,34363,1,0,0:0:0:0:
256,192,34688,1,8,0:0:0:0:
256,192,35012,1,0,0:0:0:0:
256,192,35661,1,8,0:0:0:0:
256,192,35985,1,8,0:0:0:0:
256,192,36309,1,0,0:0:0:0:
256,192,36958,1,0,0:0:0:0:
256,192,37607,1,0,0:0:0:0:
256,192,37931,1,0,0:0:0:0:
256,192,38255,1,8,0:0:0:0:
256,192,38579,1,8,0:0:0:0:
256,192,38904,1,0,0:0:0:0:
256,192,39552,1,8,0:0:0:0:
256,192,40201,1,8,0:0:0:0:
256,192,40525,1,8,0:0:0:0:
256,192,40688,1,8,0:0:0:0:
256,192,40850,1,0,0:0:0:0:
256,192,41174,1,8,0:0:0:0:
256,192,41498,1,0,0:0:0:0:
256,192,42147,1,8,0:0:0:0:
256,192,42796,1,0,0:0:0:0:
256,192,43120,1,12,0:0:0:0:
256,192,43444,1,12,0:0:0:0:
256,192,43769,1,12,0:0:0:0:
256,192,44093,1,0,0:0:0:0:
256,192,44742,1,0,0:0:0:0:
256,192,45066,1,8,0:0:0:0:
256,192,45390,1,0,0:0:0:0:
256,192,46039,1,8,0:0:0:0:
256,192,46363,1,8,0:0:0:0:
256,192,46688,1,0,0:0:0:0:
256,192,47336,1,0,0:0:0:0:
256,192,47985,1,0,0:0:0:0:
256,192,48309,1,0,0:0:0:0:
256,192,48634,1,8,0:0:0:0:
256,192,48796,1,8,0:0:0:0:
256,192,48958,1,8,0:0:0:0:
256,192,49282,1,0,0:0:0:0:
256,192,49931,1,8,0:0:0:0:
256,192,50579,1,8,0:0:0:0:
256,192,50742,1,8,0:0:0:0:
256,192,50904,1,0,0:0:0:0:
256,192,51228,1,0,0:0:0:0:
256,192,51552,1,8,0:0:0:0:
256,192,51877,1,0,0:0:0:0:
256,192,52525,1,8,0:0:0:0:
256,192,53174,1,0,0:0:0:0:
256,192,53498,1,0,0:0:0:0:
256,192,53823,1,8,0:0:0:0:
256,192,54471,1,4,0:0:0:0:
256,192,55120,1,0,0:0:0:0:
256,192,55444,1,0,0:0:0:0:
256,192,55607,1,8,0:0:0:0:
256,192,55769,1,0,0:0:0:0:
256,192,56093,1,8,0:0:0:0:
256,192,56417,1,0,0:0:0:0:
256,192,56742,1,8,0:0:0:0:
256,192,56904,1,8,0:0:0:0:
256,192,57066,1,0,0:0:0:0:
256,192,57715,1,8,0:0:0:0:
256,192,58039,1,8,0:0:0:0:
256,192,58201,1,8,0:0:0:0:
256,192,58363,1,0,0:0:0:0:
256,192,58688,1,0,0:0:0:0:
256,192,58850,1,8,0:0:0:0:
256,192,59012,1,0,0:0:0:0:
256,192,59336,1,8,0:0:0:0:
256,192,59661,1,0,0:0:0:0:
256,192,60309,1,8,0:0:0:0:
256,192,60958,1,8,0:0:0:0:
256,192,61120,1,0,0:0:0:0:
256,192,61282,1,8,0:0:0:0:
256,192,61444,1,0,0:0:0:0:
256,192,61607,1,8,0:0:0:0:
256,192,62255,1,0,0:0:0:0:
256,192,62579,1,8,0:0:0:0:
256,192,62904,1,8,0:0:0:0:
256,192,63228,1,0,0:0:0:0:
137,78,63552,2,0,L|127:363,1,280
256,192,64850,1,0,0:0:0:0:
256,192,65174,1,12,0:0:0:0:
256,192,65498,1,0,0:0:0:0:
256,192,65823,1,8,0:0:0:0:
256,192,65985,1,8,0:0:0:0:
256,192,66147,1,0,0:0:0:0:
256,192,66471,1,8,0:0:0:0:
256,192,66796,1,0,0:0:0:0:
256,192,67444,1,0,0:0:0:0:
256,192,67769,1,8,0:0:0:0:
256,192,68093,1,0,0:0:0:0:
256,192,68417,1,0,0:0:0:0:
256,192,68579,1,8,0:0:0:0:
256,192,68742,1,0,0:0:0:0:
256,192,69066,1,8,0:0:0:0:
256,192,69390,1,0,0:0:0:0:
256,192,70039,1,0,0:0:0:0:
256,192,70688,1,8,0:0:0:0:
256,192,71336,1,8,0:0:0:0:
256,192,71498,1,0,0:0:0:0:
256,192,71661,1,8,0:0:0:0:
256,192,71823,1,0,0:0:0:0:
256,192,71985,1,8,0:0:0:0:
256,192,72634,1,0,0:0:0:0:
256,192,72958,1,8,0:0:0:0:
256,192,73282,1,8,0:0:0:0:
256,192,73607,1,0,0:0:0:0:
120,50,73931,2,4,L|205:325,1,280
256,192,75228,5,0,0:0:0:0:
256,192,75877,1,8,0:0:0:0:
256,192,76525,1,0,0:0:0:0:
256,192,77174,1,8,0:0:0:0:
256,192,77661,1,0,0:0:0:0:
256,192,77904,1,0,0:0:0:0:
240,192,78147,1,0,0:0:0:0:
256,192,78390,1,0,0:0:0:0:
256,192,78634,1,0,0:0:0:0:
256,192,79120,1,0,0:0:0:0:
256,192,79363,1,0,0:0:0:0:
256,192,79607,1,0,0:0:0:0:
256,192,79850,1,0,0:0:0:0:
256,192,80093,1,12,0:0:0:0:
256,192,80417,1,4,0:0:0:0:
256,192,81066,1,0,0:0:0:0:
256,192,81390,1,0,0:0:0:0:
256,192,81715,1,0,0:0:0:0:
256,192,82363,1,0,0:0:0:0:
256,192,82688,1,8,0:0:0:0:
256,192,83012,1,0,0:0:0:0:
256,192,83661,1,0,0:0:0:0:
256,192,83985,1,0,0:0:0:0:
256,192,84309,1,0,0:0:0:0:
256,192,84471,1,0,0:0:0:0:
256,192,84634,1,8,0:0:0:0:
256,192,84958,1,0,0:0:0:0:
256,192,85120,1,0,0:0:0:0:
256,192,85282,1,8,0:0:0:0:
256,192,85607,1,0,0:0:0:0:
256,192,86255,1,0,0:0:0:0:
256,192,86579,1,0,0:0:0:0:
256,192,86904,1,0,0:0:0:0:
256,192,87552,1,0,0:0:0:0:
256,192,87877,1,8,0:0:0:0:
256,192,88201,1,0,0:0:0:0:
256,192,88525,1,0,0:0:0:0:
256,192,88850,1,8,0:0:0:0:
256,192,89012,1,8,0:0:0:0:
256,192,89174,1,8,0:0:0:0:
256,192,89498,1,4,0:0:0:0:
256,192,90147,1,4,0:0:0:0:
256,192,90796,1,0,0:0:0:0:
256,192,91444,1,8,0:0:0:0:
256,192,91769,1,8,0:0:0:0:
256,192,92093,1,0,0:0:0:0:
256,192,92742,1,0,0:0:0:0:
256,192,93066,1,8,0:0:0:0:
256,192,93390,1,0,0:0:0:0:
256,192,94039,1,8,0:0:0:0:
256,192,94363,1,8,0:0:0:0:
256,192,94688,1,0,0:0:0:0:
256,192,94850,1,0,0:0:0:0:
256,192,95012,1,8,0:0:0:0:
256,192,95336,1,0,0:0:0:0:
256,192,95498,1,0,0:0:0:0:
256,192,95661,1,8,0:0:0:0:
256,192,95985,1,0,0:0:0:0:
256,192,96634,1,8,0:0:0:0:
256,192,96958,1,8,0:0:0:0:
256,192,97282,1,0,0:0:0:0:
256,192,97931,1,0,0:0:0:0:
256,192,98255,1,8,0:0:0:0:
256,192,98579,1,0,0:0:0:0:
256,192,99228,1,4,0:0:0:0:
256,192,99471,1,4,0:0:0:0:
256,192,99715,1,12,0:0:0:0:
256,192,99958,1,12,0:0:0:0:
256,192,100201,1,4,0:0:0:0:
256,192,100444,1,4,0:0:0:0:
240,192,100688,1,12,0:0:0:0:
272,192,101174,1,4,0:0:0:0:
256,192,101823,1,0,0:0:0:0:
256,192,102147,1,8,0:0:0:0:
256,192,102471,1,0,0:0:0:0:
256,192,103120,1,8,0:0:0:0:
256,192,103444,1,8,0:0:0:0:
256,192,103769,1,0,0:0:0:0:
256,192,104417,1,0,0:0:0:0:
256,192,104742,1,8,0:0:0:0:
256,192,105066,1,0,0:0:0:0:
256,192,105228,1,0,0:0:0:0:
256,192,105390,1,8,0:0:0:0:
256,192,105715,1,0,0:0:0:0:
256,192,105877,1,0,0:0:0:0:
256,192,106039,1,8,0:0:0:0:
256,192,106363,1,0,0:0:0:0:
256,192,107012,1,0,0:0:0:0:
256,192,107336,1,8,0:0:0:0:
256,192,107661,1,0,0:0:0:0:
256,192,108309,1,8,0:0:0:0:
256,192,108634,1,8,0:0:0:0:
256,192,108958,1,0,0:0:0:0:
256,192,109282,1,0,0:0:0:0:
256,192,109607,1,8,0:0:0:0:
256,192,109769,1,8,0:0:0:0:
256,192,109931,1,8,0:0:0:0:
256,192,110255,1,4,0:0:0:0:
256,192,110904,1,4,0:0:0:0:
256,192,111552,1,0,0:0:0:0:
256,192,112201,1,0,0:0:0:0:
256,192,112525,1,8,0:0:0:0:
256,192,112850,1,0,0:0:0:0:
256,192,113498,1,8,0:0:0:0:
256,192,113823,1,0,0:0:0:0:
256,192,114147,1,4,0:0:0:0:
256,192,114796,1,0,0:0:0:0:
256,192,115444,1,8,0:0:0:0:
256,192,116093,1,12,0:0:0:0:
256,192,116417,1,12,0:0:0:0:
256,192,116742,1,0,0:0:0:0:
256,192,117390,1,0,0:0:0:0:
256,192,117715,1,8,0:0:0:0:
256,192,118039,1,0,0:0:0:0:
256,192,118688,1,8,0:0:0:0:
256,192,119012,1,0,0:0:0:0:
256,192,119336,1,8,0:0:0:0:
256,192,119985,1,0,0:0:0:0:
256,192,120634,1,0,0:0:0:0:
256,192,120958,1,0,0:0:0:0:
256,192,121282,1,0,0:0:0:0:
256,192,121444,1,0,0:0:0:0:
256,192,121607,1,8,0:0:0:0:
256,192,121931,1,0,0:0:0:0:
256,192,123228,1,8,0:0:0:0:
256,192,124201,1,8,0:0:0:0:
256,192,124525,1,0,0:0:0:0:
240,208,125498,1,8,0:0:0:0:
240,208,126471,1,8,0:0:0:0:
240,208,126796,1,8,0:0:0:0:
240,208,127120,1,0,0:0:0:0:
240,208,128417,1,8,0:0:0:0:
256,208,129390,1,8,0:0:0:0:
256,208,129715,1,0,0:0:0:0:
256,208,130201,1,8,0:0:0:0:
256,208,130688,1,8,0:0:0:0:
256,208,131661,1,8,0:0:0:0:
256,208,131985,1,8,0:0:0:0:
256,208,132309,1,4,0:0:0:0:
256,208,132634,1,8,0:0:0:0:
256,208,133282,1,8,0:0:0:0:
256,208,133607,1,0,0:0:0:0:
256,208,133931,1,8,0:0:0:0:
240,208,134579,1,8,0:0:0:0:
256,224,134904,1,0,0:0:0:0:
288,144,135228,1,8,0:0:0:0:
288,144,135877,1,8,0:0:0:0:
288,144,136201,1,0,0:0:0:0:
288,144,136525,1,8,0:0:0:0:
288,144,137174,1,8,0:0:0:0:
288,144,137498,1,4,0:0:0:0:
288,144,137823,1,8,0:0:0:0:
288,144,138147,1,8,0:0:0:0:
288,144,138471,1,8,0:0:0:0:
256,192,138796,12,0,139769,0:0:0:0:
256,192,140093,5,4,0:0:0:0:
256,192,140742,1,4,0:0:0:0:
256,192,141390,1,0,0:0:0:0:
256,192,141715,1,0,0:0:0:0:
256,192,142039,1,8,0:0:0:0:
256,192,142688,1,4,0:0:0:0:
256,192,143336,1,0,0:0:0:0:
256,192,143661,1,0,0:0:0:0:
256,192,143823,1,8,0:0:0:0:
256,192,143985,1,0,0:0:0:0:
256,192,144309,1,8,0:0:0:0:
256,192,144634,1,0,0:0:0:0:
256,192,144958,1,8,0:0:0:0:
256,192,145120,1,8,0:0:0:0:
256,192,145282,1,0,0:0:0:0:
256,192,145931,1,8,0:0:0:0:
256,192,146255,1,8,0:0:0:0:
256,192,146417,1,8,0:0:0:0:
256,192,146579,1,0,0:0:0:0:
256,192,146904,1,0,0:0:0:0:
256,192,147066,1,8,0:0:0:0:
256,192,147228,1,0,0:0:0:0:
256,192,147552,1,8,0:0:0:0:
256,192,147877,1,0,0:0:0:0:
256,192,148525,1,8,0:0:0:0:
256,192,149174,1,8,0:0:0:0:
256,192,149336,1,0,0:0:0:0:
256,192,149498,1,8,0:0:0:0:
256,192,149661,1,0,0:0:0:0:
256,192,149823,1,8,0:0:0:0:
256,192,150471,1,0,0:0:0:0:
256,192,150796,1,8,0:0:0:0:
256,192,151120,1,8,0:0:0:0:
256,192,151444,1,0,0:0:0:0:
100,119,151769,2,0,P|56:257|151:348,1,280
256,192,153066,1,0,0:0:0:0:
256,192,153390,1,12,0:0:0:0:
256,192,153715,1,0,0:0:0:0:
256,192,154039,1,8,0:0:0:0:
256,192,154201,1,8,0:0:0:0:
256,192,154363,1,0,0:0:0:0:
256,192,154688,1,8,0:0:0:0:
256,192,155012,1,0,0:0:0:0:
256,192,155661,1,0,0:0:0:0:
256,192,155985,1,8,0:0:0:0:
256,192,156309,1,0,0:0:0:0:
256,192,156634,1,0,0:0:0:0:
256,192,156796,1,8,0:0:0:0:
256,192,156958,1,0,0:0:0:0:
256,192,157282,1,8,0:0:0:0:
256,192,157607,1,0,0:0:0:0:
256,192,158255,1,0,0:0:0:0:
256,192,158904,1,8,0:0:0:0:
256,192,159552,1,8,0:0:0:0:
256,192,159715,1,0,0:0:0:0:
256,192,159877,1,8,0:0:0:0:
256,192,160039,1,0,0:0:0:0:
256,192,160201,1,8,0:0:0:0:
256,192,160850,1,0,0:0:0:0:
256,192,161174,1,8,0:0:0:0:
256,192,161498,1,8,0:0:0:0:
256,192,161823,1,0,0:0:0:0:
99,121,162147,2,4,P|306:104|329:151,1,280
256,192,163444,1,4,0:0:0:0:
256,192,164093,1,8,0:0:0:0:
256,192,164417,1,0,0:0:0:0:
256,192,164579,1,8,0:0:0:0:
256,192,164742,1,0,0:0:0:0:
256,192,165066,1,8,0:0:0:0:
256,192,165390,1,0,0:0:0:0:
256,192,165552,1,0,0:0:0:0:
256,192,165715,1,8,0:0:0:0:
256,192,166039,1,0,0:0:0:0:
256,192,166688,1,8,0:0:0:0:
256,192,167012,1,8,0:0:0:0:
256,192,167174,1,8,0:0:0:0:
256,192,167336,1,0,0:0:0:0:
256,192,167661,1,0,0:0:0:0:
256,192,167823,1,8,0:0:0:0:
256,192,167985,1,0,0:0:0:0:
256,192,168147,1,8,0:0:0:0:
256,192,168309,1,0,0:0:0:0:
256,192,168634,1,0,0:0:0:0:
256,192,169282,1,8,0:0:0:0:
256,192,169931,1,8,0:0:0:0:
256,192,170093,1,0,0:0:0:0:
256,192,170255,1,8,0:0:0:0:
256,192,170417,1,0,0:0:0:0:
256,192,170579,1,8,0:0:0:0:
256,192,171228,1,0,0:0:0:0:
256,192,171552,1,8,0:0:0:0:
256,192,171877,1,8,0:0:0:0:
256,192,172201,1,0,0:0:0:0:
110,117,172525,2,0,L|403:220,1,280
256,192,173823,5,0,0:0:0:0:
256,192,174147,1,12,0:0:0:0:
256,192,174471,1,0,0:0:0:0:
256,192,174796,1,0,0:0:0:0:
256,192,174958,1,0,0:0:0:0:
256,192,175282,1,12,0:0:0:0:
256,192,175607,1,12,0:0:0:0:
256,192,175769,1,0,0:0:0:0:
256,192,176093,1,8,0:0:0:0:
256,192,176417,1,0,0:0:0:0:
256,192,176742,1,8,0:0:0:0:
256,192,177066,1,0,0:0:0:0:
256,192,177228,1,8,0:0:0:0:
256,192,177390,1,0,0:0:0:0:
256,192,177552,1,8,0:0:0:0:
256,192,177715,1,0,0:0:0:0:
256,192,178039,1,0,0:0:0:0:
256,192,178363,1,8,0:0:0:0:
256,192,179012,1,0,0:0:0:0:
256,192,179336,1,8,0:0:0:0:
256,192,179498,1,8,0:0:0:0:
256,192,179661,1,0,0:0:0:0:
256,192,179985,1,8,0:0:0:0:
256,192,180309,1,0,0:0:0:0:
256,192,180471,1,0,0:0:0:0:
256,192,180634,1,0,0:0:0:0:
256,192,180796,1,0,0:0:0:0:
256,192,180958,1,8,0:0:0:0:
256,192,181607,1,0,0:0:0:0:
256,192,181769,1,0,0:0:0:0:
256,192,181931,1,8,0:0:0:0:
256,192,182255,1,0,0:0:0:0:
256,192,182417,1,0,0:0:0:0:
256,192,182579,1,8,0:0:0:0:
75,136,182904,2,4,B|69:257|99:240|159:402,1,280
240,192,184201,1,0,0:0:0:0:
240,192,184850,1,8,0:0:0:0:
160,144,185498,2,0,L|160:192,8,35
256,192,186796,5,4,0:0:0:0:
256,192,186958,1,4,0:0:0:0:
256,192,187282,1,4,0:0:0:0:
256,192,187607,1,12,0:0:0:0:
256,192,187931,1,12,0:0:0:0:
256,192,189390,5,12,0:0:0:0:
256,192,189552,1,12,0:0:0:0:
256,192,189877,1,4,0:0:0:0:
256,192,190201,1,4,0:0:0:0:
256,192,190363,1,12,0:0:0:0:
256,192,190688,1,4,0:0:0:0:
256,192,191336,5,4,0:0:0:0:
256,192,191985,5,0,0:0:0:0:
256,192,192147,1,0,0:0:0:0:
256,192,192471,1,0,0:0:0:0:
256,192,192634,1,0,0:0:0:0:
256,192,192958,1,12,0:0:0:0:
256,192,193120,1,12,0:0:0:0:
256,192,193444,1,12,0:0:0:0:
256,192,193607,1,12,0:0:0:0:
