osu file format v14

[General]
AudioFilename: audio.mp3
AudioLeadIn: 0
PreviewTime: 25409
Countdown: 0
SampleSet: Normal
StackLeniency: 0.7
Mode: 1
LetterboxInBreaks: 0
WidescreenStoryboard: 0

[Editor]
DistanceSpacing: 0.9
BeatDivisor: 4
GridSize: 32
TimelineZoom: 1.7

[Metadata]
Title:JEHANNEDARC
TitleUnicode:JEHANNEDARC
Artist:BlackY
ArtistUnicode:BlackY
Creator:komasy
Version:FUTSUU
Source:SOUND VOLTEX III GRAVITY WARS
Tags:ZUN Shanghai Alice 上海アリス 東方project 東方妖々夢 東方妖々夢リミックス楽曲コンテスト Touhou Youyoumu Remix gakkyoku contest Perfect Cherry Blossom 人形裁判 ~ 人の形弄びし少女 Ningyousaiban ~ Hito no Katachi Moteasobishi Shoujo sdvx
BeatmapID:1344285
BeatmapSetID:633361

[Difficulty]
HPDrainRate:7
CircleSize:5
OverallDifficulty:3.3
ApproachRate:5
SliderMultiplier:1.4
SliderTickRate:1

[Events]
//Background and Video events
0,0,"bg (3).jpg",0,35
//Break Periods
//Storyboard Layer 0 (Background)
//Storyboard Layer 1 (Fail)
//Storyboard Layer 2 (Pass)
//Storyboard Layer 3 (Foreground)
//Storyboard Sound Samples

[TimingPoints]
328,300,4,1,0,80,1,0
54328,-100,4,1,0,95,0,1
62728,-100,4,1,0,95,0,0
64228,-100,4,1,0,95,0,1
72328,-100,4,1,0,95,0,0
73528,-100,4,1,0,95,0,1
92578,-100,4,1,0,95,0,0
93028,-100,4,1,0,95,0,1
109528,-100,4,1,0,95,0,0
109678,-100,4,1,0,50,0,0
110728,-100,4,1,0,40,0,0
111928,-100,4,1,0,30,0,0
113128,-100,4,1,0,20,0,0

[HitObjects]
310,152,928,5,12,0:0:0:0:
320,224,1528,1,4,0:0:0:0:
352,192,3628,1,0,0:0:0:0:
352,224,3928,1,0,0:0:0:0:
352,224,4378,1,0,0:0:0:0:
352,224,4828,1,0,0:0:0:0:
352,224,4978,1,0,0:0:0:0:
352,192,6028,1,8,0:0:0:0:
352,192,6328,1,4,0:0:0:0:
352,192,6778,1,4,0:0:0:0:
384,160,8428,1,0,0:0:0:0:
384,160,8728,1,0,0:0:0:0:
384,160,9178,1,0,0:0:0:0:
384,160,9628,1,0,0:0:0:0:
384,96,9778,1,0,0:0:0:0:
352,160,10528,1,0,0:0:0:0:
244,130,10828,1,12,0:0:0:0:
160,192,11128,1,4,0:0:0:0:
288,160,11728,1,0,0:0:0:0:
352,160,12028,1,8,0:0:0:0:
348,113,12328,1,0,0:0:0:0:
352,96,12478,1,0,0:0:0:0:
352,96,12628,1,8,0:0:0:0:
416,192,12928,1,0,0:0:0:0:
288,96,13528,1,0,0:0:0:0:
320,160,13678,1,0,0:0:0:0:
288,96,13828,1,8,0:0:0:0:
311,55,14128,1,0,0:0:0:0:
337,158,14428,1,8,0:0:0:0:
294,103,14578,1,0,0:0:0:0:
294,103,14728,1,0,0:0:0:0:
294,103,15028,1,8,0:0:0:0:
322,115,15328,1,0,0:0:0:0:
222,167,15928,1,0,0:0:0:0:
338,131,16228,1,8,0:0:0:0:
391,115,16528,1,8,0:0:0:0:
391,115,16828,1,8,0:0:0:0:
391,115,17128,1,0,0:0:0:0:
320,128,17278,1,0,0:0:0:0:
391,115,17428,1,8,0:0:0:0:
320,0,17728,1,8,0:0:0:0:
320,128,18328,1,0,0:0:0:0:
256,96,18628,1,8,0:0:0:0:
256,96,18778,1,8,0:0:0:0:
256,96,18928,1,0,0:0:0:0:
256,96,19228,1,8,0:0:0:0:
256,96,19528,1,8,0:0:0:0:
352,128,20428,1,8,0:0:0:0:
352,256,20728,1,4,0:0:0:0:
352,256,21178,1,0,0:0:0:0:
320,192,21328,1,0,0:0:0:0:
320,192,21778,1,0,0:0:0:0:
352,256,21928,1,0,0:0:0:0:
352,256,22378,1,0,0:0:0:0:
320,192,22528,1,0,0:0:0:0:
320,160,22978,1,0,0:0:0:0:
349,222,23128,1,0,0:0:0:0:
352,160,23428,1,8,0:0:0:0:
415,255,23728,1,0,0:0:0:0:
352,224,23878,1,0,0:0:0:0:
416,256,24028,1,8,0:0:0:0:
384,160,25228,1,12,0:0:0:0:
288,192,25528,1,0,0:0:0:0:
352,192,25678,1,0,0:0:0:0:
288,192,25828,1,0,0:0:0:0:
288,192,26128,1,0,0:0:0:0:
352,224,26428,1,8,0:0:0:0:
416,192,26728,1,0,0:0:0:0:
384,128,27028,1,8,0:0:0:0:
352,224,27328,1,0,0:0:0:0:
288,256,27928,1,8,0:0:0:0:
256,192,28078,1,8,0:0:0:0:
320,224,28228,1,8,0:0:0:0:
320,224,28528,1,0,0:0:0:0:
448,224,28828,1,8,0:0:0:0:
480,256,29128,1,0,0:0:0:0:
384,192,29428,1,8,0:0:0:0:
288,128,29728,1,8,0:0:0:0:
288,256,30328,1,0,0:0:0:0:
288,192,30478,1,0,0:0:0:0:
320,128,30628,1,0,0:0:0:0:
320,224,30928,1,0,0:0:0:0:
448,224,31228,1,8,0:0:0:0:
480,256,31528,1,0,0:0:0:0:
384,192,31828,1,0,0:0:0:0:
288,128,32128,1,8,0:0:0:0:
288,256,32728,1,0,0:0:0:0:
256,192,32878,1,0,0:0:0:0:
320,224,33028,1,8,0:0:0:0:
320,224,33328,1,0,0:0:0:0:
448,224,33628,1,8,0:0:0:0:
480,256,33928,1,0,0:0:0:0:
384,192,34228,1,8,0:0:0:0:
288,128,34528,1,8,0:0:0:0:
128,128,35128,1,4,0:0:0:0:
320,64,35728,1,0,0:0:0:0:
320,64,36028,1,0,0:0:0:0:
352,96,36178,1,0,0:0:0:0:
320,64,36328,1,0,0:0:0:0:
384,128,36628,1,0,0:0:0:0:
320,64,36928,1,8,0:0:0:0:
384,128,37528,1,0,0:0:0:0:
448,64,38128,1,0,0:0:0:0:
448,64,38428,1,8,0:0:0:0:
384,96,38578,1,8,0:0:0:0:
384,96,38728,1,8,0:0:0:0:
384,64,39028,1,0,0:0:0:0:
256,128,39328,1,8,0:0:0:0:
256,128,39628,1,8,0:0:0:0:
256,128,39928,1,0,0:0:0:0:
480,64,40528,1,8,0:0:0:0:
352,96,40828,1,0,0:0:0:0:
352,96,40978,1,0,0:0:0:0:
256,128,41128,1,0,0:0:0:0:
256,128,41428,1,0,0:0:0:0:
288,128,41728,1,8,0:0:0:0:
288,128,42328,1,0,0:0:0:0:
288,128,42628,1,8,0:0:0:0:
288,128,42928,1,0,0:0:0:0:
320,128,43078,1,0,0:0:0:0:
320,128,43228,1,8,0:0:0:0:
192,128,43528,1,0,0:0:0:0:
384,192,44428,5,12,0:0:0:0:
384,192,44728,1,0,0:0:0:0:
160,96,45328,1,0,0:0:0:0:
288,96,45628,1,0,0:0:0:0:
224,96,45928,1,0,0:0:0:0:
480,160,46528,1,0,0:0:0:0:
256,192,46978,1,12,0:0:0:0:
256,192,47428,1,12,0:0:0:0:
384,160,47728,1,0,0:0:0:0:
416,32,48028,1,0,0:0:0:0:
384,160,48328,1,0,0:0:0:0:
320,160,48628,1,12,0:0:0:0:
320,160,49078,1,12,0:0:0:0:
320,160,49528,1,4,0:0:0:0:
480,320,50128,1,0,0:0:0:0:
384,224,50428,1,0,0:0:0:0:
300,146,50728,1,12,0:0:0:0:
384,192,51328,1,8,0:0:0:0:
384,192,51628,1,8,0:0:0:0:
384,160,51928,1,4,0:0:0:0:
384,160,52528,1,12,0:0:0:0:
256,192,53128,12,0,54028,0:0:0:0:
217,128,54328,5,4,0:0:0:0:
238,75,54928,1,8,0:0:0:0:
238,75,55228,1,0,0:0:0:0:
337,129,55528,1,0,0:0:0:0:
230,71,55828,1,0,0:0:0:0:
288,128,55978,1,0,0:0:0:0:
286,101,56128,1,8,0:0:0:0:
256,224,56428,1,0,0:0:0:0:
286,101,56728,1,0,0:0:0:0:
481,244,57328,1,8,0:0:0:0:
448,224,57478,1,8,0:0:0:0:
384,192,57628,1,8,0:0:0:0:
299,111,57928,1,0,0:0:0:0:
301,112,58378,1,0,0:0:0:0:
384,160,58528,1,8,0:0:0:0:
288,128,58828,1,8,0:0:0:0:
321,127,59128,1,0,0:0:0:0:
321,127,59728,1,8,0:0:0:0:
321,127,60028,1,0,0:0:0:0:
321,127,60328,1,0,0:0:0:0:
321,127,60628,1,0,0:0:0:0:
320,192,60778,1,0,0:0:0:0:
321,127,60928,1,8,0:0:0:0:
321,127,61528,1,0,0:0:0:0:
344,118,62128,1,8,0:0:0:0:
353,187,62728,1,4,0:0:0:0:
294,8,63178,1,0,0:0:0:0:
307,48,63328,1,8,0:0:0:0:
319,84,63628,1,8,0:0:0:0:
410,319,64228,1,4,0:0:0:0:
395,130,64828,1,8,0:0:0:0:
395,130,65128,1,0,0:0:0:0:
395,130,65428,1,8,0:0:0:0:
395,130,65728,1,0,0:0:0:0:
320,96,65878,1,0,0:0:0:0:
395,130,66028,1,8,0:0:0:0:
395,130,66328,1,0,0:0:0:0:
395,130,66628,1,8,0:0:0:0:
395,130,66928,1,0,0:0:0:0:
395,130,67078,1,8,0:0:0:0:
395,130,67228,1,8,0:0:0:0:
395,130,67528,1,8,0:0:0:0:
418,74,67978,1,8,0:0:0:0:
411,75,68428,1,8,0:0:0:0:
347,83,68728,1,4,0:0:0:0:
351,80,69328,1,0,0:0:0:0:
322,87,69628,1,8,0:0:0:0:
322,87,69928,1,0,0:0:0:0:
320,128,70228,1,8,0:0:0:0:
320,128,70528,1,0,0:0:0:0:
320,128,70678,1,0,0:0:0:0:
352,192,70828,1,8,0:0:0:0:
324,86,71128,1,8,0:0:0:0:
359,57,71428,1,8,0:0:0:0:
384,192,71728,2,0,L|352:160,8,35
337,84,73228,1,12,0:0:0:0:
228,143,73528,1,4,0:0:0:0:
390,53,73978,1,0,0:0:0:0:
390,53,74428,1,0,0:0:0:0:
320,64,74728,1,8,0:0:0:0:
288,160,75028,1,0,0:0:0:0:
321,131,75328,1,8,0:0:0:0:
352,192,75478,1,0,0:0:0:0:
321,131,75628,1,8,0:0:0:0:
225,226,75928,1,0,0:0:0:0:
256,160,76078,1,0,0:0:0:0:
313,158,76228,1,8,0:0:0:0:
406,88,76528,1,0,0:0:0:0:
414,83,77128,1,0,0:0:0:0:
288,128,77428,1,8,0:0:0:0:
275,141,77578,1,0,0:0:0:0:
192,128,77728,1,0,0:0:0:0:
275,141,78028,1,8,0:0:0:0:
263,85,78328,1,8,0:0:0:0:
275,141,78928,1,0,0:0:0:0:
275,141,79228,1,8,0:0:0:0:
320,128,79378,1,8,0:0:0:0:
275,141,79528,1,0,0:0:0:0:
299,144,79978,1,8,0:0:0:0:
299,144,80128,1,0,0:0:0:0:
275,141,80428,1,8,0:0:0:0:
275,141,80728,1,0,0:0:0:0:
215,118,81178,1,0,0:0:0:0:
160,96,81328,1,8,0:0:0:0:
215,118,81628,1,8,0:0:0:0:
325,140,81928,1,0,0:0:0:0:
268,127,82528,1,0,0:0:0:0:
360,164,82828,1,12,0:0:0:0:
332,73,83428,1,8,0:0:0:0:
348,95,83728,1,0,0:0:0:0:
348,95,84028,1,8,0:0:0:0:
288,126,84178,1,8,0:0:0:0:
348,95,84328,1,0,0:0:0:0:
348,95,84628,1,0,0:0:0:0:
326,149,84928,1,8,0:0:0:0:
348,95,85528,1,0,0:0:0:0:
247,35,85828,1,8,0:0:0:0:
352,97,86128,1,0,0:0:0:0:
348,95,86428,1,0,0:0:0:0:
288,96,86578,1,8,0:0:0:0:
192,0,86878,1,8,0:0:0:0:
348,95,87328,1,0,0:0:0:0:
230,88,87928,1,0,0:0:0:0:
271,57,88228,1,8,0:0:0:0:
363,95,88528,1,0,0:0:0:0:
328,73,89128,1,0,0:0:0:0:
222,137,89428,1,8,0:0:0:0:
320,64,89578,1,0,0:0:0:0:
288,96,89878,1,0,0:0:0:0:
224,128,90028,1,8,0:0:0:0:
311,87,90328,1,0,0:0:0:0:
317,81,90628,1,8,0:0:0:0:
317,81,90928,1,0,0:0:0:0:
353,50,91078,1,0,0:0:0:0:
347,81,91228,1,8,0:0:0:0:
347,81,91528,1,0,0:0:0:0:
192,192,91978,1,0,0:0:0:0:
224,160,92128,1,8,0:0:0:0:
352,96,92428,1,8,0:0:0:0:
427,193,93028,1,12,0:0:0:0:
423,196,93478,1,0,0:0:0:0:
443,132,93628,1,8,0:0:0:0:
438,147,93928,1,0,0:0:0:0:
320,128,94228,1,8,0:0:0:0:
352,128,94528,1,0,0:0:0:0:
352,128,94828,1,8,0:0:0:0:
352,128,94978,1,8,0:0:0:0:
433,155,95128,1,0,0:0:0:0:
317,151,95428,1,8,0:0:0:0:
191,151,95728,1,0,0:0:0:0:
188,151,96328,1,0,0:0:0:0:
256,160,96478,1,0,0:0:0:0:
288,192,96628,1,8,0:0:0:0:
183,151,96928,1,0,0:0:0:0:
288,96,97228,1,8,0:0:0:0:
325,151,97528,1,0,0:0:0:0:
256,96,98128,1,0,0:0:0:0:
437,151,98428,1,8,0:0:0:0:
320,192,98728,1,8,0:0:0:0:
256,96,98878,1,0,0:0:0:0:
308,151,99028,1,8,0:0:0:0:
308,151,99328,1,0,0:0:0:0:
288,96,99628,1,8,0:0:0:0:
288,96,99778,1,8,0:0:0:0:
260,165,99928,1,0,0:0:0:0:
240,193,100528,1,0,0:0:0:0:
240,193,100828,1,8,0:0:0:0:
323,104,100978,1,8,0:0:0:0:
320,96,101128,1,8,0:0:0:0:
323,104,101428,1,8,0:0:0:0:
310,248,101728,1,0,0:0:0:0:
320,256,102028,1,0,0:0:0:0:
320,192,102178,1,8,0:0:0:0:
244,182,102328,1,4,0:0:0:0:
256,192,102928,1,0,0:0:0:0:
281,203,103228,1,8,0:0:0:0:
334,153,103378,1,8,0:0:0:0:
253,159,103528,1,0,0:0:0:0:
373,162,103828,1,8,0:0:0:0:
320,64,104128,1,0,0:0:0:0:
288,128,104278,1,0,0:0:0:0:
253,159,104428,1,8,0:0:0:0:
253,159,104728,1,0,0:0:0:0:
253,159,105178,1,0,0:0:0:0:
288,160,105328,1,8,0:0:0:0:
416,128,105778,1,8,0:0:0:0:
320,96,106078,1,0,0:0:0:0:
256,96,106228,1,0,0:0:0:0:
352,32,106528,1,8,0:0:0:0:
256,32,106828,1,0,0:0:0:0:
257,100,106978,1,0,0:0:0:0:
380,289,107128,1,8,0:0:0:0:
338,231,107728,1,8,0:0:0:0:
334,216,108028,1,8,0:0:0:0:
320,288,108178,1,8,0:0:0:0:
334,216,108328,1,8,0:0:0:0:
255,242,108628,1,0,0:0:0:0:
255,242,108928,1,8,0:0:0:0:
320,256,109078,1,8,0:0:0:0:
255,242,109228,1,8,0:0:0:0:
255,242,109528,1,0,0:0:0:0:
256,192,109678,12,0,114328,0:0:0:0:
