osu file format v14

[General]
AudioFilename: audio.mp3
AudioLeadIn: 0
PreviewTime: 314192
Countdown: 1
SampleSet: None
StackLeniency: 0.7
Mode: 2
LetterboxInBreaks: 0
WidescreenStoryboard: 0

[Editor]
Bookmarks: 192573
DistanceSpacing: 0.8
BeatDivisor: 4
GridSize: 16
TimelineZoom: 3.199999

[Metadata]
Title:Harpuia -evolutionary extended ver-
TitleUnicode:Harpuia -evolutionary extended ver-
Artist:BlackY
ArtistUnicode:BlackY
Creator:CLSW
Version:Final Showdown
Source:SOUND VOLTEX II -infinite infection-
Tags:ἅρπυια eleQtryes SDVX KONAMI Arcade Championship 2013 ULTIMATE TRACKS -LEGEND OF KAC-
BeatmapID:1194708
BeatmapSetID:565247

[Difficulty]
HPDrainRate:6.6
CircleSize:4.4
OverallDifficulty:9.8
ApproachRate:9.6
SliderMultiplier:1.6
SliderTickRate:2

[Events]
//Background and Video events
0,0,"harpuia.jpg",0,0
//Break Periods
2,26503,28374
2,105605,108194
2,238888,242032
2,279628,282715
//Storyboard Layer 0 (Background)
//Storyboard Layer 1 (Fail)
//Storyboard Layer 2 (Pass)
//Storyboard Layer 3 (Foreground)
//Storyboard Sound Samples

[TimingPoints]
805,370.37037037037,4,2,0,60,1,0
805,-125,4,2,0,60,0,0
11175,389.61038961039,4,2,0,60,1,0
11175,-125,4,2,0,60,0,0
11954,451.127819548872,4,2,0,60,1,8
11954,-125,4,2,0,60,0,8
12856,370.37037037037,4,2,0,60,1,0
12856,-125,4,2,0,60,0,0
17300,400,4,2,0,60,1,0
17300,-125,4,2,0,60,0,0
18100,434.782608695652,4,2,0,60,1,8
18100,-125,4,2,0,60,0,8
18969,387.096774193548,4,2,0,58,1,0
18969,-125,4,2,0,60,0,8
19743,422.535211267606,4,2,0,56,1,8
20165,437.956204379562,4,2,0,54,1,8
20165,-125,4,2,0,60,0,8
20602,419.58041958042,4,2,0,52,1,0
20602,-125,4,2,0,60,0,8
21441,434.782608695652,4,2,0,50,1,0
21441,-125,4,2,0,60,0,8
22310,454.545454545455,4,2,0,47,1,0
22310,-125,4,2,0,60,0,8
23219,476.190476190476,4,2,0,43,1,8
23219,-125,4,2,0,60,0,8
24171,483.870967741935,4,2,0,39,1,0
24171,-125,4,2,0,60,0,8
25138,555.555555555556,4,2,0,35,1,8
25415,582.52427184466,4,2,0,33,1,8
25706,594.059405940594,4,2,0,31,1,8
26003,600,4,2,0,30,1,8
26303,645.161290322581,4,2,0,20,1,0
28883,359.281437125748,4,2,0,20,1,8
33199,327.868852459016,4,2,0,80,1,8
33854,322.58064516129,4,1,2,40,1,0
45305,-100,4,2,1,60,0,0
73531,-71.4285714285714,4,2,0,80,0,0
75144,-100,4,2,0,80,0,0
79015,322.58064516129,4,2,2,60,1,0
89014,-100,4,1,2,60,0,0
89337,-83.3333333333333,4,2,1,60,0,0
99680,322.58064516129,4,2,0,50,1,8
108703,322.58064516129,4,2,0,100,1,0
109993,322.58064516129,4,2,0,90,1,0
109993,-71.4285714285714,4,1,2,90,0,0
120315,-83.3333333333333,4,1,2,90,0,0
129347,-71.4285714285714,4,2,0,90,0,0
130315,-71.4285714285714,4,2,1,90,0,0
130638,-71.4285714285714,4,2,0,60,0,0
130960,-71.4285714285714,4,1,2,90,0,0
149992,-71.4285714285714,4,2,1,60,0,0
151283,-100,4,2,2,60,0,0
161283,-100,4,2,1,60,0,0
161605,-100,4,1,2,60,0,0
171283,-100,4,2,1,60,0,0
171928,-76.9230769230769,4,1,2,90,0,0
192573,-83.3333333333333,4,1,2,90,0,0
213218,-76.9230769230769,4,1,2,90,0,0
238688,322.58064516129,4,2,1,90,1,0
242541,588.235294117647,4,2,0,25,1,0
243717,392.105607110182,4,2,0,35,1,0
257440,400,4,2,0,35,1,8
257840,441.176470588235,4,2,0,33,1,0
258281,454.545454545455,4,2,0,31,1,8
258735,517.241379310345,4,2,0,29,1,8
258993,535.714285714286,4,2,0,27,1,8
259260,697.674418604651,4,2,0,25,1,8
259608,952.380952380952,4,2,0,40,1,8
260082,372.670807453416,4,2,0,50,1,0
261572,361.44578313253,4,2,0,50,1,0
263017,357.142857142857,4,2,0,50,1,0
264445,365.853658536585,4,2,0,50,1,0
265176,375,4,2,0,50,1,8
265551,431.654676258993,4,2,0,50,1,8
265982,365.853658536585,4,2,0,50,1,0
268908,375,4,2,0,50,1,0
270408,397.350993377483,4,2,0,50,1,0
271202,405.405405405405,4,2,0,50,1,8
271607,413.793103448276,4,2,0,50,1,8
272019,444.444444444444,4,2,0,48,1,0
272463,454.545454545455,4,2,0,45,1,8
272917,461.538461538462,4,2,0,43,1,8
273378,465.116279069767,4,2,0,40,1,8
273844,468.75,4,2,0,38,1,0
274312,500,4,2,0,35,1,8
274808,571.428571428571,4,2,0,33,1,8
275379,582.52427184466,4,2,0,30,1,8
275961,512.820512820513,4,2,0,28,1,0
276473,659.340659340659,4,2,0,25,1,8
276802,779.220779220779,4,2,0,23,1,8
277191,833.333333333333,4,2,0,20,1,8
277607,937.5,4,2,0,19,1,8
278075,1016.94915254237,4,2,0,18,1,8
278583,1363.63636363636,4,2,0,17,1,8
279264,1318.68131868132,4,2,0,15,1,0
283220,1318.68131868132,4,2,0,90,1,8
283224,322.58064516129,4,2,0,60,1,0
283869,-71.4285714285714,4,2,0,60,0,0
284514,-71.4285714285714,4,1,1,90,0,0
285482,-71.4285714285714,4,1,1,90,0,0
285804,322.597989139201,4,1,1,80,1,0
298707,-83.3333333333333,4,1,2,80,0,0
314192,-71.4285714285714,4,2,0,80,0,0
314515,-71.4285714285714,4,1,1,80,0,1
365808,-71.4285714285714,4,1,1,80,0,0
367098,-71.4285714285714,4,2,1,80,0,0
369679,-100,4,2,1,80,0,0
371615,-71.4285714285714,4,2,1,80,0,0
374841,322.597989139201,5,1,1,70,1,0
376453,322.597989139201,4,1,1,95,1,0
377420,-76.9230769230769,4,1,1,95,0,0
378388,-62.5,4,1,1,95,0,0
379033,-200,4,1,1,95,0,0
379678,-200,4,2,0,80,0,0
380324,-200,4,2,0,65,0,0
380969,-200,4,2,0,50,0,0
381614,-200,4,2,0,45,0,0
382259,-200,4,2,0,30,0,0
382904,-200,4,2,0,15,0,0

[Colours]
Combo1 : 0,84,168
Combo2 : 50,205,85
Combo3 : 162,162,255
Combo4 : 202,0,0

[HitObjects]
205,108,805,5,2,0:0:0:0:
154,143,990,1,0,0:0:0:0:
152,204,1175,1,0,0:0:0:0:
201,242,1360,1,0,0:0:0:0:
301,232,1545,2,0,L|306:318,1,64
174,305,1916,1,2,0:0:0:0:
309,320,2101,1,2,0:0:0:0:
181,332,2286,6,0,L|270:328,1,64,2|0,0:0|0:0,0:0:0:0:
328,302,2656,2,0,L|417:298,1,64
267,234,3027,2,0,L|178:238,1,64,2|0,0:0|0:0,0:0:0:0:
120,264,3397,2,0,L|31:268,1,64
182,265,3767,5,2,0:0:0:0:
232,229,3952,1,0,0:0:0:0:
235,167,4137,1,0,0:0:0:0:
187,128,4322,1,0,0:0:0:0:
92,187,4508,1,0,0:0:0:0:
41,151,4693,1,0,0:0:0:0:
38,89,4878,1,0,0:0:0:0:
86,50,5063,1,0,0:0:0:0:
216,69,5249,6,0,L|137:73,1,64,2|0,0:0|0:0,0:0:0:0:
250,104,5619,2,0,L|329:100,1,64
215,109,5990,2,0,L|211:188,1,64
340,202,6360,2,0,L|261:206,1,64,2|0,0:0|0:0,0:0:0:0:
406,201,6730,5,2,0:0:0:0:
456,165,6915,1,0,0:0:0:0:
461,103,7100,1,0,0:0:0:0:
417,60,7285,1,0,0:0:0:0:
355,68,7470,1,0,0:0:0:0:
463,82,7656,2,0,L|473:149,1,64,2|2,0:0|0:0,0:0:0:0:
341,143,8027,1,2,0:0:0:0:
473,203,8212,6,0,L|396:207,1,64,2|0,0:0|0:0,0:0:0:0:
325,212,8582,2,0,L|248:216,1,64
136,256,8953,2,0,L|213:252,1,64,2|0,0:0|0:0,0:0:0:0:
284,247,9323,2,0,L|361:243,1,64
221,224,9693,5,2,0:0:0:0:
182,177,9878,1,0,0:0:0:0:
209,123,10063,1,0,0:0:0:0:
269,128,10248,1,0,0:0:0:0:
369,153,10434,1,0,0:0:0:0:
407,106,10619,1,0,0:0:0:0:
380,52,10804,1,0,0:0:0:0:
320,57,10989,1,0,0:0:0:0:
196,68,11175,6,0,L|271:63,1,64
162,70,11564,2,0,L|87:65,1,64
225,101,11954,2,0,L|241:183,1,64,2|0,0:0|0:0,0:0:0:0:
80,176,12405,2,0,L|64:258,1,64
258,236,12856,5,2,0:0:0:0:
315,216,13041,1,0,0:0:0:0:
327,156,13226,1,0,0:0:0:0:
282,115,13411,1,0,0:0:0:0:
194,107,13596,2,0,L|279:107,1,64
385,108,13967,2,0,L|300:108,1,64
447,111,14337,6,0,L|460:186,1,64,2|0,0:0|0:0,0:0:0:0:
374,185,14707,2,0,L|361:260,1,64
237,280,15078,2,0,L|162:267,1,64,2|0,0:0|0:0,0:0:0:0:
259,250,15448,2,0,L|334:237,1,64
194,232,15818,6,0,L|188:167,1,64,2|0,0:0|0:0,0:0:0:0:
265,163,16189,1,0,0:0:0:0:
136,168,16374,2,0,L|71:172,1,64,2|0,0:0|0:0,0:0:0:0:
160,159,16744,2,0,L|155:96,1,64
68,99,17115,1,0,0:0:0:0:
193,95,17300,6,0,L|263:92,1,64,2|0,0:0|0:0,0:0:0:0:
358,105,17700,2,0,L|288:108,1,64,2|0,0:0|0:0,0:0:0:0:
173,117,18100,2,0,L|176:187,1,64,2|0,0:0|0:0,0:0:0:0:
344,183,18534,2,0,L|341:253,1,64,2|0,0:0|0:0,0:0:0:0:
149,249,18969,6,0,L|223:246,2,64,2|0|0,0:0|0:0|0:0,0:0:0:0:
277,244,19549,2,0,L|274:170,1,64,2|0,0:0|0:0,0:0:0:0:
185,185,19954,1,0,0:0:0:0:
351,141,20165,2,0,L|276:143,1,64,2|0,0:0|0:0,0:0:0:0:
128,214,20602,5,2,0:0:0:0:
91,165,20811,1,0,0:0:0:0:
119,111,21021,1,0,0:0:0:0:
179,112,21231,1,0,0:0:0:0:
330,200,21441,1,2,0:0:0:0:
373,157,21658,1,0,0:0:0:0:
356,99,21875,1,0,0:0:0:0:
296,87,22093,1,0,0:0:0:0:
456,86,22310,6,0,L|463:157,1,64,2|0,0:0|0:0,0:0:0:0:
351,153,22764,2,0,L|344:224,1,64
234,216,23219,2,0,L|227:145,1,64
339,149,23695,2,0,L|346:78,1,64
236,86,24171,5,0,0:0:0:0:
189,125,24412,1,0,0:0:0:0:
202,184,24654,1,0,0:0:0:0:
261,200,24896,1,0,0:0:0:0:
102,221,25138,1,2,0:0:0:0:
213,254,25415,1,0,0:0:0:0:
79,288,25706,1,0,0:0:0:0:
233,313,26003,1,0,0:0:0:0:
155,306,26303,5,2,0:0:0:0:
256,192,28883,12,0,33199,0:0:0:0:
179,112,33854,5,6,0:0:0:0:
334,112,34015,1,2,0:0:0:0:
206,141,34176,2,2,L|197:230,1,80,2|2,0:0|0:0,0:0:0:0:
357,143,34499,2,2,L|366:232,1,80
231,251,34821,2,2,L|236:304,1,40
311,292,34983,1,2,0:0:0:0:
153,291,35144,6,2,L|111:291,2,40
282,225,35466,1,2,0:0:0:0:
125,178,35628,1,2,0:0:0:0:
164,177,35708,1,2,0:0:0:0:
204,176,35789,1,2,0:0:0:0:
362,171,35950,1,2,0:0:0:0:
202,144,36112,2,2,L|200:102,1,40
275,103,36273,1,2,0:0:0:0:
432,127,36434,6,2,L|376:127,1,40
311,129,36595,1,2,0:0:0:0:
472,167,36757,1,2,0:0:0:0:
310,168,36918,2,2,L|309:213,1,40
385,213,37079,1,2,0:0:0:0:
221,217,37241,1,2,0:0:0:0:
385,213,37402,2,2,L|384:168,1,40
310,173,37563,1,2,0:0:0:0:
143,170,37724,6,2,L|191:170,1,40
262,158,37886,2,2,L|310:158,1,40
379,120,38047,2,2,L|331:120,1,40
260,132,38209,2,2,L|212:132,1,40
46,124,38370,6,2,L|109:122,1,40
247,100,38531,2,2,L|184:102,1,40
45,124,38692,2,2,L|46:170,1,40
122,167,38853,1,2,0:0:0:0:
286,159,39015,6,2,L|218:154,1,40
168,154,39176,1,2,0:0:0:0:
336,185,39337,1,2,0:0:0:0:
168,154,39499,6,2,L|236:159,1,40
286,159,39660,1,2,0:0:0:0:
130,193,39821,1,2,0:0:0:0:
289,266,39983,2,2,L|335:268,2,40
444,254,40305,6,2,L|442:209,2,40
277,214,40627,1,2,0:0:0:0:
119,210,40789,2,2,L|121:165,2,40
277,172,41111,1,2,0:0:0:0:
440,172,41273,2,2,L|485:170,2,40
283,123,41595,6,2,L|281:168,1,40
363,170,41757,1,2,0:0:0:0:
200,166,41918,1,2,0:0:0:0:
360,223,42079,2,2,L|317:219,1,40
242,217,42241,1,2,0:0:0:0:
402,224,42402,1,2,0:0:0:0:
242,217,42563,2,2,L|240:262,1,40
322,264,42725,1,2,0:0:0:0:
163,251,42886,6,2,L|104:247,1,40
198,229,43047,2,2,L|202:170,1,40
284,185,43208,2,2,L|288:126,1,40
131,141,43370,2,2,L|72:137,1,40
166,119,43531,6,2,L|170:60,1,40
252,75,43692,2,2,L|256:16,1,40
95,35,43853,1,2,0:0:0:0:
70,63,43933,1,2,0:0:0:0:
79,101,44014,1,2,0:0:0:0:
114,115,44094,1,2,0:0:0:0:
303,118,44176,1,6,0:0:0:0:
141,152,45305,6,2,L|91:152,2,40
371,153,45870,5,2,0:0:0:0:
275,154,46004,2,2,L|280:222,1,53.3333333333333
372,210,46219,2,2,L|367:278,1,53.3333333333333
280,264,46434,2,2,L|278:318,1,40
362,307,46595,2,2,L|364:361,1,40
199,337,46757,6,2,L|144:339,1,40
322,303,46918,2,2,L|375:308,1,40
192,288,47079,2,2,L|137:290,1,40
313,261,47240,2,2,L|368:259,1,40
147,243,47402,6,2,L|142:203,1,40
191,192,47563,2,2,L|186:152,1,40
232,148,47724,2,2,L|227:108,1,40
276,97,47885,2,2,L|271:57,1,40
189,51,48047,6,0,P|157:91|186:107,1,80
333,105,48289,1,2,0:0:0:0:
370,116,48369,1,2,0:0:0:0:
399,143,48450,1,2,0:0:0:0:
412,181,48530,1,2,0:0:0:0:
406,220,48611,1,2,0:0:0:0:
383,252,48692,5,2,0:0:0:0:
348,271,48772,1,2,0:0:0:0:
266,238,48853,2,2,L|203:234,1,40
387,186,49015,2,2,L|391:249,1,40
223,286,49176,2,2,L|219:349,1,40
417,331,49337,6,2,L|420:308,1,20
226,235,49821,2,2,L|283:236,1,40
428,227,49983,6,2,L|423:185,1,40
341,174,50144,2,2,L|314:140,1,40
236,138,50305,2,2,L|193:133,1,40
118,128,50466,2,2,L|71:130,1,40
237,173,50628,6,0,L|144:169,1,80
320,209,50950,1,2,0:0:0:0:
242,209,51031,2,0,L|232:266,1,40,0|2,0:0|0:0,0:0:0:0:
316,250,51192,2,0,L|326:307,1,40,0|2,0:0|0:0,0:0:0:0:
235,248,51353,6,0,L|225:305,1,40,0|2,0:0|0:0,0:0:0:0:
384,285,51515,2,0,L|394:342,1,40,0|2,0:0|0:0,0:0:0:0:
167,294,51676,2,0,L|157:351,1,40,0|2,0:0|0:0,0:0:0:0:
452,318,51837,2,0,L|462:375,2,40
209,298,52079,6,0,L|322:296,1,80,2|0,0:0|0:0,0:0:0:0:
370,293,52321,1,2,0:0:0:0:
144,194,52563,5,2,0:0:0:0:
209,194,52644,2,2,L|211:146,2,40
47,121,52886,1,2,0:0:0:0:
112,121,52967,2,2,L|114:73,2,40
312,53,53208,6,2,L|256:55,1,40
114,52,53370,2,2,L|170:54,1,40
325,93,53531,2,2,L|381:95,1,40
210,92,53693,2,2,L|154:94,1,40
373,177,53853,6,2,L|317:179,1,40
253,183,54015,2,2,L|201:204,1,40
138,198,54176,2,2,L|96:235,1,40
32,227,54337,2,2,L|5:276,1,40
342,231,54499,6,0,L|347:206,6,20,0|0|0|0|0|0|0,1:0|1:0|1:0|1:0|1:0|1:0|1:0,1:0:0:0:
128,231,54821,5,4,0:0:0:0:
119,192,54901,1,0,0:0:0:0:
126,152,54982,1,0,0:0:0:0:
147,118,55062,1,0,0:0:0:0:
178,94,55143,1,0,0:0:0:0:
217,84,55224,1,0,0:0:0:0:
410,148,55305,5,4,0:0:0:0:
418,186,55385,1,0,0:0:0:0:
411,226,55466,1,0,0:0:0:0:
390,260,55546,1,0,0:0:0:0:
359,284,55627,1,0,0:0:0:0:
320,294,55708,1,0,0:0:0:0:
134,297,55789,6,0,L|90:293,2,40,4|0|0,0:0|0:0|0:0,0:0:0:0:
322,215,56031,6,0,L|366:219,2,40,4|0|0,0:0|0:0|0:0,0:0:0:0:
128,198,56273,5,4,0:0:0:0:
106,165,56353,1,0,0:0:0:0:
116,127,56434,1,0,0:0:0:0:
150,108,56514,1,0,0:0:0:0:
323,102,56595,5,4,0:0:0:0:
358,121,56675,1,0,0:0:0:0:
376,156,56756,1,0,0:0:0:0:
371,195,56836,1,0,0:0:0:0:
345,225,56917,1,0,0:0:0:0:
308,236,56998,1,0,0:0:0:0:
136,238,57079,5,4,0:0:0:0:
136,198,57159,1,0,0:0:0:0:
151,161,57240,1,0,0:0:0:0:
178,132,57320,1,0,0:0:0:0:
215,115,57401,1,0,0:0:0:0:
254,114,57482,1,0,0:0:0:0:
414,160,57563,5,4,0:0:0:0:
415,120,57643,1,0,0:0:0:0:
400,83,57724,1,0,0:0:0:0:
373,54,57804,1,0,0:0:0:0:
336,37,57885,1,0,0:0:0:0:
297,36,57966,1,0,0:0:0:0:
136,37,58047,6,0,L|136:87,1,40,4|0,0:0|0:0,0:0:0:0:
299,88,58208,5,4,0:0:0:0:
331,109,58288,1,0,0:0:0:0:
327,147,58369,1,0,0:0:0:0:
293,162,58449,1,0,0:0:0:0:
131,192,58531,5,4,0:0:0:0:
171,193,58611,1,0,0:0:0:0:
211,194,58692,1,0,0:0:0:0:
370,269,58773,5,4,0:0:0:0:
330,271,58853,1,0,0:0:0:0:
290,272,58934,1,0,0:0:0:0:
132,307,59015,6,0,L|128:266,1,40,4|0,0:0|0:0,0:0:0:0:
286,213,59176,6,0,L|331:213,2,40,4|0|0,0:0|0:0|0:0,0:0:0:0:
216,211,59418,1,0,0:0:0:0:
56,203,59499,6,0,L|101:203,1,40,4|0,0:0|0:0,0:0:0:0:
245,173,59660,5,4,0:0:0:0:
281,156,59740,1,0,0:0:0:0:
300,122,59821,1,0,0:0:0:0:
294,83,59901,1,0,0:0:0:0:
266,55,59982,1,0,0:0:0:0:
227,50,60063,1,0,0:0:0:0:
76,92,60144,5,4,0:0:0:0:
116,92,60224,1,0,0:0:0:0:
156,92,60305,1,0,0:0:0:0:
196,93,60385,1,0,0:0:0:0:
236,93,60466,1,0,0:0:0:0:
276,93,60547,1,0,0:0:0:0:
438,99,60628,5,4,0:0:0:0:
469,124,60708,1,0,0:0:0:0:
483,161,60789,1,0,0:0:0:0:
479,200,60869,1,0,0:0:0:0:
456,233,60950,1,0,0:0:0:0:
421,251,61031,1,0,0:0:0:0:
259,236,61112,5,4,0:0:0:0:
220,235,61192,1,0,0:0:0:0:
180,235,61273,1,0,0:0:0:0:
140,235,61353,1,0,0:0:0:0:
100,235,61434,1,0,0:0:0:0:
60,235,61515,1,0,0:0:0:0:
204,203,61595,5,4,0:0:0:0:
243,192,61675,1,0,0:0:0:0:
271,164,61756,1,0,0:0:0:0:
125,148,61837,5,4,0:0:0:0:
153,120,61918,1,0,0:0:0:0:
192,109,61998,1,0,0:0:0:0:
337,109,62079,5,4,0:0:0:0:
366,136,62159,1,0,0:0:0:0:
375,175,62240,1,0,0:0:0:0:
362,212,62320,1,0,0:0:0:0:
331,237,62401,1,0,0:0:0:0:
292,241,62482,1,0,0:0:0:0:
128,245,62563,5,4,0:0:0:0:
104,214,62643,1,0,0:0:0:0:
99,174,62724,1,0,0:0:0:0:
115,138,62804,1,0,0:0:0:0:
148,116,62885,1,0,0:0:0:0:
187,114,62966,1,0,0:0:0:0:
345,188,63047,5,4,0:0:0:0:
370,157,63127,1,0,0:0:0:0:
375,117,63208,1,0,0:0:0:0:
359,81,63288,1,0,0:0:0:0:
326,59,63369,1,0,0:0:0:0:
287,57,63450,1,0,0:0:0:0:
456,68,63531,6,0,L|460:122,1,40,4|0,0:0|0:0,0:0:0:0:
392,127,63692,1,0,0:0:0:0:
233,238,63773,6,0,L|229:184,1,40,4|0,0:0|0:0,0:0:0:0:
297,179,63934,1,0,0:0:0:0:
132,176,64015,6,0,L|128:122,1,40,4|0,0:0|0:0,0:0:0:0:
196,117,64176,1,0,0:0:0:0:
360,146,64257,6,0,L|364:200,1,40,4|0,0:0|0:0,0:0:0:0:
296,205,64418,1,0,0:0:0:0:
133,282,64499,6,0,L|131:241,1,40,4|0,0:0|0:0,0:0:0:0:
296,205,64660,6,0,L|299:251,1,40,4|0,0:0|0:0,0:0:0:0:
130,190,64821,6,2,L|82:191,1,40
159,161,64983,2,2,L|207:162,1,40
129,125,65144,2,2,L|81:126,1,40,6|2,0:0|0:0,0:0:0:0:
246,125,65305,6,2,L|246:182,1,40
176,174,65466,2,2,L|176:231,1,40
249,215,65628,2,2,L|249:272,1,40,6|2,0:0|0:0,0:0:0:0:
86,281,65789,6,2,L|132:281,1,40
203,280,65950,2,2,L|249:280,1,40
403,284,66112,5,6,0:0:0:0:
440,271,66192,1,2,0:0:0:0:
447,233,66273,1,2,0:0:0:0:
419,208,66353,1,6,0:0:0:0:
340,198,66434,2,2,L|298:197,1,40
456,169,66595,6,2,L|463:126,1,40,6|2,0:0|0:0,0:0:0:0:
385,112,66757,2,2,L|342:105,1,40
185,147,66918,6,2,L|178:104,1,40,6|2,0:0|0:0,0:0:0:0:
256,90,67080,2,2,L|299:83,1,40
211,68,67241,2,2,L|168:75,1,40
338,73,67402,6,2,L|343:122,1,40,6|2,0:0|0:0,0:0:0:0:
265,121,67563,2,2,L|260:170,1,40
186,162,67724,2,2,L|159:202,1,40
326,208,67886,6,2,L|321:257,1,40,6|2,0:0|0:0,0:0:0:0:
247,249,68047,2,2,L|220:289,1,40
148,284,68208,2,2,L|109:312,1,40
280,317,68370,6,2,L|326:318,1,40,6|2,0:0|0:0,0:0:0:0:
280,317,68531,1,6,0:0:0:0:
245,303,68611,1,2,0:0:0:0:
237,265,68692,1,2,0:0:0:0:
264,238,68772,1,2,0:0:0:0:
338,212,68853,6,2,L|271:203,1,40,6|2,0:0|0:0,0:0:0:0:
224,190,69015,2,2,L|153:182,1,40,2|6,0:0|0:0,0:0:0:0:
257,153,69176,2,2,L|324:144,1,40
137,115,69337,6,2,L|128:48,1,40,6|2,0:0|0:0,0:0:0:0:
209,63,69499,2,2,L|276:54,1,40,6|2,0:0|0:0,0:0:0:0:
408,92,69660,6,2,L|417:25,1,40
336,40,69822,2,2,L|269:31,1,40,6|2,0:0|0:0,0:0:0:0:
489,69,69983,5,6,0:0:0:0:
493,108,70063,1,2,0:0:0:0:
475,143,70144,1,2,0:0:0:0:
441,162,70224,1,2,0:0:0:0:
401,158,70305,2,2,L|454:164,1,40
248,168,70466,5,6,0:0:0:0:
245,207,70546,1,2,0:0:0:0:
263,242,70627,1,2,0:0:0:0:
297,261,70707,1,2,0:0:0:0:
336,257,70789,2,2,L|283:263,1,40
101,273,70950,6,2,L|100:224,1,40,6|2,0:0|0:0,0:0:0:0:
175,225,71112,2,2,L|174:176,1,40
366,143,71273,6,2,L|406:143,1,40
332,101,71434,2,2,L|293:101,1,40,6|2,0:0|0:0,0:0:0:0:
366,143,71595,2,2,L|406:143,1,40
332,101,71757,2,2,L|293:101,1,40
96,166,71918,6,2,L|57:166,1,40,6|2,0:0|0:0,0:0:0:0:
130,124,72079,2,2,L|170:124,1,40,2|6,0:0|0:0,0:0:0:0:
96,166,72240,2,2,L|57:166,1,40
130,124,72402,2,2,L|170:124,1,40,6|2,0:0|0:0,0:0:0:0:
335,180,72563,6,2,L|274:180,1,40,6|2,0:0|0:0,0:0:0:0:
223,183,72724,1,2,0:0:0:0:
65,258,72805,6,2,L|126:258,1,40,6|2,0:0|0:0,0:0:0:0:
177,255,72966,1,2,0:0:0:0:
340,255,73047,6,2,L|340:209,1,40,6|2,0:0|0:0,0:0:0:0:
265,216,73208,1,2,0:0:0:0:
429,217,73289,5,6,0:0:0:0:
502,217,73370,2,2,L|505:177,1,40
280,116,73531,6,2,L|344:116,1,55.9999982910157,6|2,0:0|0:0,0:0:0:0:
477,111,73692,1,6,0:0:0:0:
170,244,75144,6,2,L|156:53,1,160,2|2,0:0|0:0,0:0:0:0:
343,82,75789,2,2,L|356:230,1,133.333333333333,2|2,0:0|0:0,0:0:0:0:
191,175,76273,2,2,L|336:175,1,133.333333333333,2|2,0:0|0:0,0:0:0:0:
193,95,76757,6,2,L|191:179,1,80,2|2,0:0|0:0,0:0:0:0:
325,175,77079,2,2,L|327:259,1,80,2|2,0:0|0:0,0:0:0:0:
256,192,77402,12,0,78853,0:0:0:0:
284,101,79015,5,0,0:0:0:0:
442,128,79176,1,0,0:0:0:0:
307,156,79337,2,0,L|304:208,1,40
471,198,79579,1,0,0:0:0:0:
342,244,79740,2,0,L|384:245,1,40
257,265,79982,1,0,0:0:0:0:
397,286,80144,1,0,0:0:0:0:
235,309,80305,5,0,0:0:0:0:
362,290,80466,1,0,0:0:0:0:
201,275,80627,1,0,0:0:0:0:
343,224,80789,2,0,L|294:226,1,40
427,226,81111,2,0,P|442:181|416:110,1,120
341,108,81434,1,0,0:0:0:0:
206,109,81595,5,0,0:0:0:0:
367,173,81756,2,0,L|369:222,1,40
184,268,82079,2,0,L|331:263,1,120
225,236,82402,1,0,0:0:0:0:
351,201,82563,1,0,0:0:0:0:
226,188,82724,2,0,L|226:235,1,40
307,289,82885,5,0,0:0:0:0:
148,288,83047,1,0,0:0:0:0:
277,292,83208,2,0,L|230:292,1,40
401,225,83450,1,0,0:0:0:0:
275,200,83611,2,0,L|322:200,1,40
196,197,83853,1,0,0:0:0:0:
356,149,84015,1,0,0:0:0:0:
233,91,84176,6,0,L|121:91,1,80
219,129,84418,1,0,0:0:0:0:
53,128,84660,2,0,P|46:183|61:255,1,120
135,248,84982,1,0,0:0:0:0:
258,263,85144,1,0,0:0:0:0:
117,288,85305,1,0,0:0:0:0:
269,305,85466,6,0,L|186:304,1,80
337,268,85789,2,0,L|422:269,1,80
264,222,86111,1,0,0:0:0:0:
425,222,86273,2,0,L|472:222,1,40
302,180,86515,2,0,L|255:180,1,40
421,144,86756,5,0,0:0:0:0:
274,132,86918,2,0,L|275:191,1,40
354,176,87079,2,0,L|355:235,1,40
258,219,87240,1,0,0:0:0:0:
398,231,87402,2,0,L|397:290,1,40
318,275,87563,2,0,L|317:334,1,40
414,318,87724,1,0,0:0:0:0:
288,354,87885,1,0,0:0:0:0:
126,355,88047,6,0,P|111:307|124:247,1,80
193,270,88289,2,0,P|208:222|195:162,1,80
125,158,88531,1,0,0:0:0:0:
350,183,88692,6,0,L|354:153,6,20,0|0|0|0|0|0|0,1:0|1:0|1:0|1:0|1:0|1:0|1:0,1:0:0:0:
191,151,89014,6,0,P|161:117|215:82,1,120
366,102,89337,6,0,L|253:98,1,95.9999970703126,6|0,0:0|0:0,0:0:0:0:
426,129,89660,2,2,L|431:179,1,47.9999985351563
267,209,89902,2,2,L|386:210,1,95.9999970703126,2|0,0:0|0:0,0:0:0:0:
283,170,90144,2,2,L|216:169,1,47.9999985351563,2|0,0:0|0:0,0:0:0:0:
316,142,90305,1,2,0:0:0:0:
151,141,90466,1,2,0:0:0:0:
316,180,90627,6,0,L|316:308,1,95.9999970703126,2|0,0:0|0:0,0:0:0:0:
156,271,90950,1,2,0:0:0:0:
233,234,91031,2,0,L|106:231,1,95.9999970703126,2|0,0:0|0:0,0:0:0:0:
297,234,91273,6,0,P|354:207|323:142,1,143.999995605469,4|0,0:0|0:0,0:0:0:0:
167,120,91595,6,4,L|327:121,1,143.999995605469,4|0,0:0|0:0,0:0:0:0:
98,119,91918,6,0,L|100:229,1,95.9999970703126,4|0,0:0|0:0,0:0:0:0:
136,251,92160,1,0,0:0:0:0:
216,254,92240,2,2,L|271:253,1,47.9999985351563
184,206,92402,2,2,L|129:207,1,47.9999985351563
295,203,92563,5,2,0:0:0:0:
340,204,92643,1,2,0:0:0:0:
360,163,92724,1,2,0:0:0:0:
331,128,92804,1,2,0:0:0:0:
166,138,92885,1,2,0:0:0:0:
120,139,92965,1,2,0:0:0:0:
100,98,93046,1,2,0:0:0:0:
129,63,93126,1,2,0:0:0:0:
291,68,93208,6,2,L|350:67,1,47.9999985351563
175,102,93369,2,2,L|116:101,1,47.9999985351563
285,199,93531,2,2,L|226:198,1,47.9999985351563
74,196,93692,2,2,L|133:195,1,47.9999985351563
381,201,93853,6,2,L|386:145,1,47.9999985351563,6|2,0:0|0:0,0:0:0:0:
331,148,94014,2,2,L|336:92,1,47.9999985351563
280,201,94176,2,2,L|285:145,1,47.9999985351563
230,148,94337,2,2,L|235:92,1,47.9999985351563
396,57,94498,6,0,L|229:56,1,143.999995605469,4|0,0:0|0:0,0:0:0:0:
328,87,94821,1,2,0:0:0:0:
167,89,94982,2,2,L|159:144,2,47.9999985351563
249,88,95305,1,2,0:0:0:0:
88,173,95466,2,2,L|192:176,1,95.9999970703126
407,180,95789,5,4,0:0:0:0:
266,237,95950,2,0,L|401:237,1,95.9999970703126,2|0,0:0|0:0,0:0:0:0:
208,211,96192,2,0,L|208:154,1,47.9999985351563,2|2,0:0|0:0,0:0:0:0:
264,160,96353,1,2,0:0:0:0:
184,132,96434,6,2,L|114:131,1,47.9999985351563
211,100,96595,2,2,L|281:99,1,47.9999985351563
410,86,96756,2,2,L|457:85,1,47.9999985351563
377,62,96918,2,2,L|329:61,1,47.9999985351563
90,47,97079,6,2,L|89:106,1,47.9999985351563,6|2,0:0|0:0,0:0:0:0:
164,101,97240,2,2,L|163:160,1,47.9999985351563
86,182,97402,2,2,L|146:184,1,47.9999985351563
295,180,97563,6,2,L|296:239,1,47.9999985351563,6|2,0:0|0:0,0:0:0:0:
221,234,97724,2,2,L|222:293,1,47.9999985351563
299,315,97886,2,2,L|239:317,1,47.9999985351563
86,292,98047,6,2,L|160:288,1,47.9999985351563,6|2,0:0|0:0,0:0:0:0:
210,286,98208,2,2,L|284:282,1,47.9999985351563
420,271,98369,5,2,0:0:0:0:
462,252,98449,1,2,0:0:0:0:
472,207,98530,1,6,0:0:0:0:
441,173,98610,1,2,0:0:0:0:
363,172,98692,1,2,0:0:0:0:
320,153,98772,1,6,0:0:0:0:
310,108,98853,1,2,0:0:0:0:
341,74,98933,1,2,0:0:0:0:
418,56,99014,6,0,L|282:50,1,95.9999970703126,6|0,0:0|0:0,0:0:0:0:
164,81,99256,2,0,L|300:75,1,95.9999970703126,6|0,0:0|0:0,0:0:0:0:
98,107,99498,2,0,L|43:103,1,47.9999985351563,6|0,0:0|0:0,0:0:0:0:
308,294,99680,5,6,0:0:0:0:
339,269,99760,1,2,0:0:0:0:
360,235,99841,1,2,0:0:0:0:
368,196,99921,1,2,0:0:0:0:
361,157,100002,1,2,0:0:0:0:
342,122,100083,1,2,0:0:0:0:
312,96,100163,1,2,0:0:0:0:
275,82,100244,1,2,0:0:0:0:
235,82,100325,5,2,0:0:0:0:
197,96,100405,1,2,0:0:0:0:
167,122,100486,1,2,0:0:0:0:
148,156,100567,1,2,0:0:0:0:
141,196,100647,1,2,0:0:0:0:
149,235,100728,1,2,0:0:0:0:
170,269,100809,1,2,0:0:0:0:
201,293,100889,1,2,0:0:0:0:
362,246,100970,6,2,L|311:245,1,40
247,241,101131,2,2,L|196:240,1,40
286,206,101292,2,2,L|281:155,1,40
362,161,101454,2,2,L|367:110,1,40
176,119,101615,5,2,0:0:0:0:
147,143,101695,1,2,0:0:0:0:
154,181,101776,1,2,0:0:0:0:
190,193,101856,1,2,0:0:0:0:
272,193,101938,2,2,L|318:194,1,40
150,252,102099,2,2,L|104:253,1,40
399,265,102260,6,2,L|399:215,1,40
244,210,102421,2,2,L|244:160,1,40
411,175,102583,6,2,L|411:125,1,40
259,114,102744,2,2,L|259:64,1,40
432,78,102905,6,2,L|432:44,1,26.6666666666667
291,57,103013,2,2,L|291:23,1,26.6666666666667
449,44,103120,2,2,L|449:10,1,26.6666666666667
291,57,103228,6,2,L|291:23,1,26.6666666666667
475,88,103336,2,2,L|475:54,1,26.6666666666667
244,33,103685,6,2,L|196:43,1,40
286,55,103846,2,2,L|296:103,1,40
221,119,104007,2,2,L|182:110,1,40
345,112,104196,6,2,L|353:162,2,40
166,176,104438,2,2,L|205:183,1,40
273,180,104599,1,2,0:0:0:0:
90,187,104680,6,2,L|82:237,2,40
278,250,104922,2,2,L|230:241,1,40
171,246,105083,1,2,0:0:0:0:
346,247,105163,6,2,L|354:197,2,40
176,328,105405,1,2,0:0:0:0:
256,192,108703,12,4,109670,0:0:0:0:
311,170,109993,6,0,L|176:168,1,111.999996582031,6|0,0:0|0:0,0:0:0:0:
266,129,110234,1,0,0:0:0:0:
184,129,110315,2,0,L|181:248,1,111.999996582031,2|0,0:0|0:0,0:0:0:0:
249,244,110557,1,0,0:0:0:0:
166,284,110638,6,0,L|301:286,1,111.999996582031,2|0,0:0|0:0,0:0:0:0:
211,325,110879,1,0,0:0:0:0:
293,325,110960,2,0,L|296:206,1,111.999996582031,2|0,0:0|0:0,0:0:0:0:
228,210,111202,1,0,0:0:0:0:
388,124,111283,6,0,L|253:122,1,111.999996582031,2|0,0:0|0:0,0:0:0:0:
343,83,111524,1,0,0:0:0:0:
261,83,111605,2,0,L|258:202,1,111.999996582031,2|0,0:0|0:0,0:0:0:0:
326,198,111847,1,0,0:0:0:0:
245,237,111928,6,0,L|394:239,1,111.999996582031,2|0,0:0|0:0,0:0:0:0:
279,213,112170,2,0,L|164:213,1,111.999996582031,2|0,0:0|0:0,0:0:0:0:
326,178,112412,2,0,L|388:176,1,55.9999982910157,2|0,0:0|0:0,0:0:0:0:
133,54,112573,6,0,L|132:176,1,111.999996582031,2|0,0:0|0:0,0:0:0:0:
199,162,112815,1,0,0:0:0:0:
121,214,112896,2,0,L|247:217,1,111.999996582031,2|0,0:0|0:0,0:0:0:0:
169,197,113138,1,0,0:0:0:0:
247,213,113218,6,0,L|248:91,1,111.999996582031,2|0,0:0|0:0,0:0:0:0:
181,105,113460,1,0,0:0:0:0:
259,53,113541,2,0,L|133:50,1,111.999996582031,2|0,0:0|0:0,0:0:0:0:
211,70,113783,1,0,0:0:0:0:
379,54,113863,6,0,L|380:176,1,111.999996582031,2|0,0:0|0:0,0:0:0:0:
313,162,114105,1,0,0:0:0:0:
391,214,114186,2,0,L|265:217,1,111.999996582031,2|0,0:0|0:0,0:0:0:0:
343,197,114428,1,0,0:0:0:0:
199,202,114509,6,0,L|198:80,1,111.999996582031,2|0,0:0|0:0,0:0:0:0:
275,177,114751,2,0,L|276:55,1,111.999996582031,2|0,0:0|0:0,0:0:0:0:
121,63,114993,2,0,L|121:136,1,55.9999982910157,2|0,0:0|0:0,0:0:0:0:
273,230,115154,6,0,L|400:229,1,111.999996582031,2|0,0:0|0:0,0:0:0:0:
325,188,115396,1,0,0:0:0:0:
405,184,115476,2,0,L|405:68,1,111.999996582031,2|0,0:0|0:0,0:0:0:0:
471,58,115718,1,0,0:0:0:0:
306,58,115799,6,0,L|179:59,1,111.999996582031,2|0,0:0|0:0,0:0:0:0:
254,100,116041,1,0,0:0:0:0:
174,104,116121,2,0,L|174:220,1,111.999996582031,2|0,0:0|0:0,0:0:0:0:
108,230,116363,1,0,0:0:0:0:
264,225,116444,6,0,L|386:223,1,111.999996582031,2|0,0:0|0:0,0:0:0:0:
312,178,116686,1,0,0:0:0:0:
387,124,116767,2,0,L|265:126,1,111.999996582031,2|0,0:0|0:0,0:0:0:0:
339,171,117009,1,0,0:0:0:0:
181,178,117089,6,0,L|185:308,1,111.999996582031,2|0,0:0|0:0,0:0:0:0:
346,303,117331,2,0,L|220:304,1,111.999996582031,2|0,0:0|0:0,0:0:0:0:
160,323,117573,2,0,L|224:323,1,55.9999982910157,2|0,0:0|0:0,0:0:0:0:
54,323,117734,6,0,L|55:203,1,111.999996582031,2|0,0:0|0:0,0:0:0:0:
122,205,117976,1,0,0:0:0:0:
45,167,118057,2,0,L|185:165,1,111.999996582031,2|0,0:0|0:0,0:0:0:0:
95,130,118299,1,0,0:0:0:0:
256,250,118380,6,0,L|255:130,1,111.999996582031,2|0,0:0|0:0,0:0:0:0:
188,132,118622,1,0,0:0:0:0:
265,94,118703,2,0,L|125:92,1,111.999996582031,2|0,0:0|0:0,0:0:0:0:
215,57,118945,1,0,0:0:0:0:
295,49,119025,5,2,0:0:0:0:
35,59,119186,2,0,L|32:132,1,55.9999982910157,2|0,0:0|0:0,0:0:0:0:
296,152,119428,1,2,0:0:0:0:
160,191,119589,2,0,L|227:192,1,55.9999982910157,2|0,0:0|0:0,0:0:0:0:
443,192,119831,6,2,L|451:127,1,55.9999982910157
370,127,119992,2,2,L|328:79,1,55.9999982910157
254,80,120154,2,2,L|191:79,1,55.9999982910157
400,162,120315,5,6,0:0:0:0:
269,168,120476,2,0,L|210:166,1,47.9999985351563
296,210,120638,2,0,L|355:212,1,47.9999985351563,2|0,0:0|0:0,0:0:0:0:
269,168,120799,2,0,L|210:166,1,47.9999985351563
391,171,120960,5,2,0:0:0:0:
426,141,121040,1,0,0:0:0:0:
420,96,121121,1,0,0:0:0:0:
377,78,121201,1,0,0:0:0:0:
296,80,121283,2,0,L|226:81,1,47.9999985351563,2|0,0:0|0:0,0:0:0:0:
323,117,121444,2,0,L|393:116,1,47.9999985351563
297,168,121605,5,2,0:0:0:0:
138,174,121767,2,0,L|136:118,1,47.9999985351563
213,122,121928,2,0,L|212:173,1,47.9999985351563,2|0,0:0|0:0,0:0:0:0:
138,174,122089,2,0,L|136:118,1,47.9999985351563
291,122,122251,5,2,0:0:0:0:
327,149,122331,1,0,0:0:0:0:
326,195,122412,1,0,0:0:0:0:
161,229,122492,1,0,0:0:0:0:
208,228,122572,1,2,0:0:0:0:
256,227,122653,1,0,0:0:0:0:
177,257,122734,2,0,L|180:328,1,47.9999985351563
255,305,122896,5,2,0:0:0:0:
96,288,123057,2,0,L|156:282,1,47.9999985351563
217,273,123218,2,0,L|223:213,1,47.9999985351563,2|0,0:0|0:0,0:0:0:0:
148,225,123380,2,0,L|88:231,1,47.9999985351563
270,215,123541,5,2,0:0:0:0:
313,199,123621,1,0,0:0:0:0:
323,155,123702,1,0,0:0:0:0:
290,123,123782,1,0,0:0:0:0:
212,117,123863,2,0,L|158:117,1,47.9999985351563,2|0,0:0|0:0,0:0:0:0:
242,90,124025,2,0,L|296:90,1,47.9999985351563
213,110,124186,5,2,0:0:0:0:
366,112,124347,2,0,L|373:164,1,47.9999985351563
295,168,124509,2,0,L|288:220,1,47.9999985351563,2|0,0:0|0:0,0:0:0:0:
210,223,124670,2,0,L|168:265,1,47.9999985351563
338,258,124831,5,2,0:0:0:0:
364,218,124911,1,0,0:0:0:0:
364,171,124992,1,0,0:0:0:0:
202,173,125073,1,0,0:0:0:0:
175,134,125153,1,2,0:0:0:0:
175,87,125234,1,0,0:0:0:0:
345,129,125315,2,0,L|270:129,1,47.9999985351563
138,139,125476,5,6,0:0:0:0:
266,141,125638,2,0,L|269:188,1,47.9999985351563
193,189,125799,2,0,L|190:236,1,47.9999985351563,2|0,0:0|0:0,0:0:0:0:
269,188,125960,2,0,L|272:235,1,47.9999985351563
120,280,126122,6,0,L|190:281,1,47.9999985351563,2|0,0:0|0:0,0:0:0:0:
244,280,126283,2,0,L|314:281,1,47.9999985351563
366,243,126444,2,0,L|296:242,1,47.9999985351563,2|0,0:0|0:0,0:0:0:0:
242,243,126605,2,0,L|172:242,1,47.9999985351563
351,159,126767,5,6,0:0:0:0:
225,122,126928,2,0,L|286:119,1,47.9999985351563
344,73,127089,2,0,L|283:76,1,47.9999985351563,2|0,0:0|0:0,0:0:0:0:
225,122,127251,2,0,L|286:119,1,47.9999985351563
426,114,127412,5,2,0:0:0:0:
452,153,127492,1,0,0:0:0:0:
459,200,127573,1,0,0:0:0:0:
301,242,127654,1,0,0:0:0:0:
261,268,127734,1,2,0:0:0:0:
214,275,127815,1,0,0:0:0:0:
50,249,127896,2,0,L|54:191,1,47.9999985351563
256,139,128057,5,6,0:0:0:0:
131,132,128218,1,2,0:0:0:0:
351,172,128380,1,2,0:0:0:0:
223,175,128541,1,2,0:0:0:0:
447,191,128702,6,2,L|440:129,1,47.9999985351563
362,126,128863,2,2,L|317:76,1,47.9999985351563
250,79,129025,2,2,L|195:56,1,47.9999985351563
130,58,129186,2,2,L|71:58,1,47.9999985351563
256,144,129347,6,0,L|386:143,1,111.999996582031,4|0,0:0|0:0,0:0:0:0:
146,142,129589,2,0,P|124:200|191:219,1,111.999996582031,4|0,0:0|0:0,0:0:0:0:
348,220,129831,2,0,L|284:220,1,55.9999982910157,4|0,0:0|0:0,0:0:0:0:
96,222,129992,6,0,L|93:183,6,27.9999991455078,0|0|0|0|0|0|0,1:0|1:0|1:0|1:0|1:0|1:0|1:0,1:0:0:0:
256,183,130315,6,0,P|299:153|230:94,1,167.999994873047,4|0,0:3|0:0,0:0:0:0:
156,92,130638,6,0,P|142:161|176:278,1,167.999994873047
321,247,130960,6,0,L|446:244,1,111.999996582031,6|0,0:0|0:0,0:0:0:0:
370,209,131202,1,0,0:0:0:0:
451,199,131283,6,0,L|448:83,1,111.999996582031,2|0,0:0|0:0,0:0:0:0:
380,89,131525,1,0,0:0:0:0:
302,123,131605,2,0,L|431:122,1,111.999996582031,2|0,0:0|0:0,0:0:0:0:
348,150,131847,1,0,0:0:0:0:
187,159,131928,6,0,L|190:275,1,111.999996582031,2|0,0:0|0:0,0:0:0:0:
258,269,132170,1,0,0:0:0:0:
181,318,132251,2,0,L|315:313,1,111.999996582031,2|0,0:0|0:0,0:0:0:0:
230,287,132492,1,0,0:0:0:0:
311,281,132573,6,0,P|367:247|370:173,1,111.999996582031,2|0,0:0|0:0,0:0:0:0:
220,201,132815,2,0,P|164:167|161:93,1,111.999996582031,2|0,0:0|0:0,0:0:0:0:
313,118,133057,2,0,L|353:67,1,55.9999982910157,2|0,0:0|0:0,0:0:0:0:
104,69,133218,6,0,L|100:188,1,111.999996582031,2|0,0:0|0:0,0:0:0:0:
170,185,133460,1,0,0:0:0:0:
86,224,133541,2,0,L|231:227,1,111.999996582031,2|0,0:0|0:0,0:0:0:0:
266,225,133783,1,0,0:0:0:0:
188,203,133863,6,0,L|190:72,1,111.999996582031,2|0,0:0|0:0,0:0:0:0:
126,92,134105,1,0,0:0:0:0:
204,66,134186,2,0,L|55:63,1,111.999996582031,2|0,0:0|0:0,0:0:0:0:
24,66,134428,1,0,0:0:0:0:
193,110,134509,6,0,L|197:165,1,55.9999982910157,2|0,0:0|0:0,0:0:0:0:
36,176,134670,2,0,L|32:231,1,55.9999982910157
220,194,134831,2,0,L|224:249,1,55.9999982910157,2|0,0:0|0:0,0:0:0:0:
63,260,134992,2,0,L|59:315,1,55.9999982910157
248,306,135154,6,0,L|305:310,1,55.9999982910157,2|0,0:0|0:0,0:0:0:0:
228,343,135315,2,0,L|171:339,1,55.9999982910157
388,353,135476,2,0,L|392:295,1,55.9999982910157,2|0,0:0|0:0,0:0:0:0:
232,275,135638,2,0,L|228:217,1,55.9999982910157
301,203,135799,5,2,0:0:0:0:
136,109,135960,2,0,L|223:104,1,55.9999982910157
354,98,136122,2,0,L|231:93,1,111.999996582031,2|0,0:0|0:0,0:0:0:0:
309,97,136363,1,0,0:0:0:0:
387,99,136444,6,0,L|386:220,1,111.999996582031,2|0,0:0|0:0,0:0:0:0:
456,217,136686,1,0,0:0:0:0:
381,262,136767,2,0,L|497:259,1,111.999996582031,2|0,0:0|0:0,0:0:0:0:
431,246,137009,1,0,0:0:0:0:
264,246,137089,6,0,P|199:221|251:159,1,167.999994873047,2|0,0:0|0:0,0:0:0:0:
396,139,137412,2,0,L|333:136,1,55.9999982910157,2|0,0:0|0:0,0:0:0:0:
265,131,137573,2,0,L|202:128,1,55.9999982910157
288,134,137734,6,0,L|291:71,1,55.9999982910157,2|0,0:0|0:0,0:0:0:0:
212,80,137896,2,0,L|215:17,1,55.9999982910157
292,25,138057,2,0,L|381:27,2,55.9999982910157,2|0|0,0:0|0:0|0:0,0:0:0:0:
214,24,138299,1,0,0:0:0:0:
55,28,138380,6,0,L|51:153,1,111.999996582031,2|0,0:0|0:0,0:0:0:0:
117,145,138622,1,0,0:0:0:0:
193,153,138702,2,0,L|315:161,1,111.999996582031,2|0,0:0|0:0,0:0:0:0:
246,122,138944,1,0,0:0:0:0:
322,122,139025,6,0,L|326:247,1,111.999996582031,2|0,0:0|0:0,0:0:0:0:
260,239,139267,1,0,0:0:0:0:
184,247,139347,2,0,L|62:255,1,111.999996582031,2|0,0:0|0:0,0:0:0:0:
131,216,139589,1,0,0:0:0:0:
56,214,139670,5,2,0:0:0:0:
304,115,139831,2,2,L|364:113,1,55.9999982910157,6|2,0:0|0:0,0:0:0:0:
202,112,140073,1,6,0:0:0:0:
366,187,140154,2,2,L|306:185,1,55.9999982910157
151,179,140315,6,2,L|147:249,1,55.9999982910157,6|2,0:0|0:0,0:0:0:0:
211,241,140476,2,2,L|207:311,1,55.9999982910157
125,292,140638,1,2,0:0:0:0:
77,269,140718,1,2,0:0:0:0:
73,216,140799,1,2,0:0:0:0:
118,188,140879,1,2,0:0:0:0:
277,132,140960,6,0,L|160:131,1,111.999996582031,6|0,0:0|0:0,0:0:0:0:
163,84,141202,1,0,0:0:0:0:
240,84,141283,2,0,L|245:201,1,111.999996582031,2|0,0:0|0:0,0:0:0:0:
178,201,141525,1,0,0:0:0:0:
257,222,141605,6,0,L|374:223,1,111.999996582031,2|0,0:0|0:0,0:0:0:0:
371,270,141847,1,0,0:0:0:0:
294,270,141928,2,0,L|289:153,1,111.999996582031,2|0,0:0|0:0,0:0:0:0:
356,153,142170,1,0,0:0:0:0:
280,116,142251,6,0,L|150:113,1,111.999996582031,2|0,0:0|0:0,0:0:0:0:
105,110,142492,1,0,0:0:0:0:
186,89,142573,2,0,L|316:86,1,111.999996582031,2|0,0:0|0:0,0:0:0:0:
361,83,142814,1,0,0:0:0:0:
210,110,142896,6,0,P|181:174|214:198,1,111.999996582031,2|0,0:0|0:0,0:0:0:0:
361,196,143138,2,0,P|390:260|357:284,1,111.999996582031,2|0,0:0|0:0,0:0:0:0:
206,305,143380,2,0,L|267:305,1,55.9999982910157,2|0,0:0|0:0,0:0:0:0:
421,327,143541,6,0,L|327:330,1,55.9999982910157,2|0,0:0|0:0,0:0:0:0:
301,329,143702,1,0,0:0:0:0:
451,288,143863,2,0,L|454:231,1,55.9999982910157,2|0,0:0|0:0,0:0:0:0:
377,227,144025,2,0,L|374:170,1,55.9999982910157
213,143,144186,6,0,L|135:142,1,55.9999982910157,2|0,0:0|0:0,0:0:0:0:
235,121,144347,2,0,L|313:120,1,55.9999982910157
126,203,144509,1,2,0:0:0:0:
74,187,144589,1,0,0:0:0:0:
60,136,144670,1,0,0:0:0:0:
97,97,144750,1,0,0:0:0:0:
260,67,144831,6,0,L|130:65,1,111.999996582031,2|0,0:0|0:0,0:0:0:0:
304,144,145073,2,0,L|174:142,1,111.999996582031,2|0,0:0|0:0,0:0:0:0:
350,160,145315,6,0,L|480:162,1,111.999996582031,2|0,0:0|0:0,0:0:0:0:
306,83,145557,2,0,L|436:85,1,111.999996582031,2|0,0:0|0:0,0:0:0:0:
260,67,145799,6,0,L|187:67,1,55.9999982910157,2|0,0:0|0:0,0:0:0:0:
350,160,145960,2,0,L|423:160,1,55.9999982910157,2|0,0:0|0:0,0:0:0:0:
160,147,146122,6,0,P|127:210|125:267,1,111.999996582031,6|0,0:0|0:0,0:0:0:0:
286,235,146363,2,0,P|277:290|249:337,1,111.999996582031,6|0,0:0|0:0,0:0:0:0:
57,344,146605,2,0,L|126:344,1,55.9999982910157,6|0,0:0|0:0,0:0:0:0:
352,147,146767,6,0,P|385:210|387:267,1,111.999996582031,6|0,0:0|0:0,0:0:0:0:
226,235,147008,2,0,P|234:290|262:337,1,111.999996582031,6|0,0:0|0:0,0:0:0:0:
455,344,147250,2,0,L|386:344,1,55.9999982910157,6|0,0:0|0:0,0:0:0:0:
193,152,147412,5,6,0:0:0:0:
320,145,147573,1,2,0:0:0:0:
93,186,147734,1,2,0:0:0:0:
417,183,147896,1,2,0:0:0:0:
160,105,148057,6,2,L|91:112,1,55.9999982910157,6|2,0:0|0:0,0:0:0:0:
304,102,148218,2,2,L|386:108,1,55.9999982910157
112,149,148380,2,2,L|30:155,1,55.9999982910157
337,150,148541,2,2,L|406:157,1,55.9999982910157
132,190,148702,5,0,0:0:0:0:
256,192,149992,12,4,150960,0:3:0:0:
307,114,151283,6,0,L|204:109,1,80
352,147,151605,2,0,L|455:152,1,80
301,160,151928,2,0,L|293:255,1,80
370,246,152170,2,0,L|362:341,1,80
285,324,152412,1,0,0:0:0:0:
421,289,152573,5,0,0:0:0:0:
289,277,152734,2,0,L|203:270,2,80
160,273,153218,2,0,L|46:271,1,80
160,273,153460,2,0,L|163:187,1,80
84,191,153702,1,0,0:0:0:0:
210,157,153863,6,0,L|294:156,1,80
159,115,154186,2,0,L|75:114,1,80
242,114,154509,2,0,P|272:160|262:215,1,80
195,187,154751,2,0,P|165:233|175:288,1,80
242,252,154992,1,0,0:0:0:0:
109,307,155154,6,0,L|194:305,1,80
318,338,155476,2,0,L|233:336,1,80
401,341,155799,2,0,L|402:260,1,80
272,251,156122,1,0,0:0:0:0:
431,217,156283,1,0,0:0:0:0:
302,199,156444,6,0,L|173:200,1,120
106,202,156767,1,0,0:0:0:0:
237,243,156928,1,0,0:0:0:0:
74,247,157089,2,0,P|66:299|113:308,1,80
213,319,157412,2,0,L|106:315,1,80
172,271,157654,1,0,0:0:0:0:
256,267,157734,5,0,0:0:0:0:
129,251,157896,2,0,P|113:212|128:165,1,80
198,170,158138,2,0,P|214:131|199:84,1,80
127,91,158380,1,0,0:0:0:0:
260,71,158541,1,0,0:0:0:0:
96,66,158702,1,0,0:0:0:0:
70,95,158782,1,0,0:0:0:0:
81,132,158863,1,0,0:0:0:0:
117,144,158943,1,0,0:0:0:0:
199,200,159025,6,0,L|96:196,1,80
196,242,159267,2,0,L|296:247,1,80
198,221,159509,1,0,0:0:0:0:
330,220,159670,1,0,0:0:0:0:
176,182,159831,2,0,L|280:183,1,80
127,183,160154,1,0,0:0:0:0:
290,178,160315,6,0,L|301:267,1,80
169,256,160638,2,0,L|158:345,1,80
321,338,160960,2,0,L|273:337,1,40
207,318,161122,2,0,L|255:317,1,40
408,316,161283,6,0,P|435:280|418:207,1,120,4|0,0:3|0:0,0:0:0:0:
259,202,161605,6,0,L|171:201,1,80,4|0,0:0|0:0,0:0:0:0:
310,205,161928,2,0,L|309:293,1,80
178,288,162251,2,0,L|280:291,1,80
178,253,162492,2,0,L|76:256,1,80
262,187,162734,1,2,0:0:0:0:
128,188,162896,6,0,L|128:283,1,80,2|0,0:0|0:0,0:0:0:0:
355,260,163218,2,0,L|355:355,1,80,2|0,0:0|0:0,0:0:0:0:
221,333,163541,1,0,0:0:0:0:
451,310,163702,1,2,0:0:0:0:
321,278,163863,2,2,L|245:276,1,40
443,233,164025,2,2,L|519:231,1,40
304,206,164186,6,0,L|294:121,1,80,6|0,0:0|0:0,0:0:0:0:
451,108,164428,2,0,L|366:118,1,80,2|0,0:0|0:0,0:0:0:0:
217,136,164670,1,2,0:0:0:0:
346,163,164831,6,0,P|363:201|311:226,1,80,6|0,0:0|0:0,0:0:0:0:
177,263,165073,2,0,L|295:258,1,80,2|0,0:0|0:0,0:0:0:0:
92,270,165315,2,0,L|87:217,1,40,2|0,0:0|0:0,0:0:0:0:
299,133,165476,5,6,0:0:0:0:
166,130,165638,1,2,0:0:0:0:
392,213,165799,1,6,0:0:0:0:
259,210,165961,1,2,0:0:0:0:
484,280,166122,6,2,L|486:225,1,40,6|2,0:0|0:0,0:0:0:0:
407,237,166283,2,2,L|405:182,1,40
241,168,166444,2,2,L|192:172,1,40,6|2,0:0|0:0,0:0:0:0:
271,216,166605,2,2,L|320:212,1,40
146,215,166767,6,0,P|128:258|130:321,1,80,6|0,0:0|0:0,0:0:0:0:
204,327,167009,2,0,P|161:309|98:311,1,80
50,329,167251,1,0,0:0:0:0:
178,270,167412,2,0,L|79:266,1,80
228,231,167734,2,0,L|327:227,1,80
149,232,168057,6,0,L|143:192,1,40
193,184,168218,2,0,L|187:144,1,40
234,131,168380,2,0,L|228:91,1,40
278,83,168541,2,0,L|272:43,1,40
351,43,168702,5,0,0:0:0:0:
382,66,168782,1,0,0:0:0:0:
393,104,168863,1,0,0:0:0:0:
380,141,168943,1,0,0:0:0:0:
348,163,169024,1,0,0:0:0:0:
308,161,169105,1,0,0:0:0:0:
144,164,169186,2,0,L|81:166,1,40
311,204,169347,6,2,L|317:273,1,40
235,249,169509,2,2,L|229:318,1,40
151,294,169670,2,2,L|121:336,1,40
320,329,169831,2,2,L|370:326,1,40
155,244,169992,6,2,L|149:175,1,40
231,199,170154,2,2,L|237:130,1,40
315,154,170315,2,2,L|345:112,1,40
146,119,170476,2,2,L|96:122,1,40
414,122,170638,6,0,L|421:156,2,20,0|0|0,2:0|2:0|2:0,2:0:0:0:
182,123,171283,6,0,P|159:177|200:243,1,120,0|0,2:0|2:0,2:0:0:0:
346,228,171605,1,4,2:3:0:0:
122,175,171928,6,0,L|235:175,1,103.999995239258,2|0,0:0|0:0,0:0:0:0:
293,175,172170,1,0,0:0:0:0:
207,146,172251,2,0,L|96:144,1,103.999995239258,2|0,0:0|0:0,0:0:0:0:
36,144,172492,1,0,0:0:0:0:
117,158,172573,6,0,L|114:273,1,103.999995239258,2|0,0:0|0:0,0:0:0:0:
31,306,172815,2,0,L|146:309,1,103.999995239258
216,278,173057,2,0,L|161:275,1,51.999997619629
80,272,173218,5,2,0:0:0:0:
209,223,173380,2,0,L|210:166,1,51.999997619629
128,164,173541,1,2,0:0:0:0:
16,126,173702,1,0,0:0:0:0:
176,108,173863,6,0,L|306:107,1,103.999995239258,2|0,0:0|0:0,0:0:0:0:
444,161,174105,2,0,L|330:161,1,103.999995239258
264,160,174347,1,0,0:0:0:0:
492,175,174509,6,0,L|491:282,1,103.999995239258,2|0,0:0|0:0,0:0:0:0:
414,283,174751,1,0,0:0:0:0:
334,286,174831,2,0,L|335:179,1,103.999995239258,2|0,0:0|0:0,0:0:0:0:
412,178,175073,1,0,0:0:0:0:
257,180,175154,6,0,L|130:180,1,103.999995239258,2|0,0:0|0:0,0:0:0:0:
322,117,175396,2,0,L|449:117,1,103.999995239258
261,94,175638,2,0,L|199:92,1,51.999997619629
43,142,175799,6,0,L|151:145,1,103.999995239258,2|0,0:0|0:0,0:0:0:0:
276,184,176122,1,2,0:0:0:0:
112,184,176283,1,0,0:0:0:0:
364,182,176444,6,2,L|366:130,1,51.999997619629
286,121,176605,2,2,L|284:69,1,51.999997619629
452,66,176767,2,2,L|454:99,4,25.9999988098145
368,62,177009,1,2,0:0:0:0:
205,153,177089,6,0,L|337:156,1,103.999995239258,6|0,0:0|0:0,0:0:0:0:
375,158,177331,1,0,0:0:0:0:
293,168,177412,2,0,L|291:275,1,103.999995239258,2|0,0:0|0:0,0:0:0:0:
226,275,177654,1,0,0:0:0:0:
303,320,177734,6,0,L|171:317,1,103.999995239258,2|0,0:0|0:0,0:0:0:0:
133,315,177976,1,0,0:0:0:0:
215,305,178057,2,0,L|217:198,1,103.999995239258,2|0,0:0|0:0,0:0:0:0:
282,198,178299,1,0,0:0:0:0:
207,168,178380,5,2,0:0:0:0:
371,128,178541,2,0,L|312:125,1,51.999997619629
239,119,178702,1,2,0:0:0:0:
304,145,178783,2,0,L|301:213,1,51.999997619629
174,203,179025,5,2,0:0:0:0:
336,243,179186,1,0,0:0:0:0:
206,281,179347,2,0,L|271:284,1,51.999997619629,2|0,0:0|0:0,0:0:0:0:
411,335,179509,2,0,L|346:332,1,51.999997619629
205,330,179670,6,0,L|208:221,1,103.999995239258,2|0,0:0|0:0,0:0:0:0:
288,164,179912,2,0,L|216:160,1,51.999997619629,0|2,0:0|0:0,0:0:0:0:
169,160,180073,1,0,0:0:0:0:
250,138,180154,2,0,L|251:80,1,51.999997619629
174,79,180315,5,2,0:0:0:0:
401,66,180476,2,0,L|336:62,1,51.999997619629
285,62,180638,1,2,0:0:0:0:
420,110,180799,2,0,L|417:175,1,51.999997619629
256,176,180960,5,2,0:0:0:0:
128,192,181122,1,0,0:0:0:0:
352,208,181283,1,2,0:0:0:0:
480,192,181444,1,0,0:0:0:0:
195,208,181605,6,2,L|190:178,6,25.9999988098145
356,237,181928,2,2,L|292:239,1,51.999997619629
84,244,182089,2,2,L|20:246,1,51.999997619629
228,133,182251,6,0,L|335:130,1,103.999995239258,4|0,0:0|0:0,0:0:0:0:
272,99,182492,1,0,0:0:0:0:
191,96,182573,2,0,L|193:210,1,103.999995239258,2|0,0:0|0:0,0:0:0:0:
131,220,182815,1,0,0:0:0:0:
208,272,182896,6,0,L|101:275,1,103.999995239258,2|0,0:0|0:0,0:0:0:0:
183,270,183138,2,0,L|181:156,1,103.999995239258
259,159,183380,2,0,L|327:157,1,51.999997619629
234,132,183541,6,0,L|358:129,1,103.999995239258,2|0,0:0|0:0,0:0:0:0:
408,124,183783,1,0,0:0:0:0:
332,98,183863,2,0,L|208:101,1,103.999995239258,2|0,0:0|0:0,0:0:0:0:
158,106,184105,1,0,0:0:0:0:
244,127,184186,6,0,L|250:237,1,103.999995239258,2|0,0:0|0:0,0:0:0:0:
169,268,184428,2,0,L|279:259,1,103.999995239258
194,238,184670,2,0,L|190:180,1,51.999997619629
355,180,184831,6,0,P|418:147|391:79,1,155.999992858887,2|0,0:0|0:0,0:0:0:0:
318,77,185154,2,0,L|259:76,1,51.999997619629,2|0,0:0|0:0,0:0:0:0:
438,148,185315,2,0,L|497:147,1,51.999997619629
255,146,185476,6,0,L|105:148,1,103.999995239258,6|0,0:0|0:0,0:0:0:0:
320,146,185718,2,0,L|326:253,1,103.999995239258,6|0,0:0|0:0,0:0:0:0:
155,254,185960,6,0,L|305:252,1,103.999995239258,6|0,0:0|0:0,0:0:0:0:
92,250,186202,2,0,P|94:198|173:166,1,103.999995239258,6|0,0:0|0:0,0:0:0:0:
294,97,186444,6,0,L|172:97,1,103.999995239258,6|0,0:0|0:0,0:0:0:0:
354,117,186686,2,0,P|391:150|393:201,1,103.999995239258,6|0,0:0|0:0,0:0:0:0:
237,203,186928,6,0,L|121:206,1,103.999995239258,6|0,0:0|0:0,0:0:0:0:
308,243,187170,2,0,L|424:246,1,103.999995239258,6|0,0:0|0:0,0:0:0:0:
109,159,187412,5,6,0:0:0:0:
246,145,187573,1,2,0:0:0:0:
88,115,187734,1,2,0:0:0:0:
261,98,187896,1,2,0:0:0:0:
14,75,188057,1,2,0:0:0:0:
148,66,188218,1,2,0:0:0:0:
370,103,188380,1,2,0:0:0:0:
121,117,188541,1,2,0:0:0:0:
403,225,188702,5,6,0:0:0:0:
266,239,188863,1,2,0:0:0:0:
424,269,189024,1,2,0:0:0:0:
251,286,189186,1,2,0:0:0:0:
498,309,189347,1,2,0:0:0:0:
364,318,189508,1,2,0:0:0:0:
142,281,189670,1,2,0:0:0:0:
391,267,189831,2,2,L|387:201,1,51.999997619629
178,209,189992,6,2,L|174:166,6,25.9999988098145
261,139,190315,2,2,L|193:139,1,51.999997619629
133,135,190476,2,2,L|65:135,1,51.999997619629
334,209,190638,6,2,L|338:166,6,25.9999988098145
251,139,190961,2,2,L|319:139,1,51.999997619629
379,135,191122,2,2,L|447:135,1,51.999997619629
114,224,191283,6,0,L|254:221,1,103.999995239258,4|0,0:0|0:0,0:0:0:0:
390,259,191525,2,0,L|250:256,1,103.999995239258
112,257,191767,1,0,0:0:0:0:
332,133,191928,6,0,L|167:126,1,155.999992858887
337,183,192251,2,0,L|456:193,1,103.999995239258
88,160,192573,5,0,0:0:0:0:
214,170,192734,1,0,0:0:0:0:
68,204,192896,2,0,L|64:265,1,47.9999985351563
233,270,193138,2,0,L|125:267,1,95.9999970703126
294,274,193460,2,0,P|330:238|286:166,1,143.999995605469
129,127,193863,5,0,0:0:0:0:
258,115,194025,1,0,0:0:0:0:
134,73,194186,2,0,L|192:72,1,47.9999985351563
343,116,194428,1,0,0:0:0:0:
214,133,194589,1,0,0:0:0:0:
365,197,194751,2,0,L|235:198,1,95.9999970703126
318,226,194992,2,0,L|319:282,1,47.9999985351563
242,295,195154,5,0,0:0:0:0:
371,299,195315,1,0,0:0:0:0:
231,244,195476,2,0,L|166:242,1,47.9999985351563
331,206,195718,2,0,L|333:105,1,95.9999970703126
182,77,196041,2,0,L|327:77,1,143.999995605469
171,116,196444,6,0,L|68:117,1,95.9999970703126
208,162,196767,2,0,L|265:160,1,47.9999985351563
101,231,197009,2,0,L|217:229,1,95.9999970703126
341,272,197331,2,0,L|195:268,1,143.999995605469
329,242,197734,6,0,L|330:137,1,95.9999970703126
199,142,198057,2,0,L|250:142,1,47.9999985351563
94,144,198299,2,0,L|92:252,1,95.9999970703126
256,278,198622,2,0,L|82:278,1,143.999995605469
276,220,199025,5,0,0:0:0:0:
143,225,199186,1,0,0:0:0:0:
266,182,199347,2,0,L|266:127,1,47.9999985351563
122,93,199589,1,0,0:0:0:0:
286,87,199751,1,0,0:0:0:0:
149,145,199912,2,0,L|277:146,1,95.9999970703126
191,175,200154,2,0,L|192:222,1,47.9999985351563
273,259,200315,5,0,0:0:0:0:
139,262,200476,1,0,0:0:0:0:
291,214,200638,2,0,L|237:214,1,47.9999985351563
405,168,200880,1,0,0:0:0:0:
268,163,201041,1,0,0:0:0:0:
422,213,201202,2,0,P|451:174|418:75,1,143.999995605469
272,80,201605,6,0,L|373:83,1,95.9999970703126
241,112,201928,2,0,L|239:180,1,47.9999985351563
400,183,202170,1,0,0:0:0:0:
235,208,202331,1,0,0:0:0:0:
371,245,202492,2,0,L|214:242,1,143.999995605469
365,186,202896,5,0,0:0:0:0:
239,196,203057,1,0,0:0:0:0:
385,230,203219,2,0,L|389:291,1,47.9999985351563
220,296,203461,2,0,L|328:293,1,95.9999970703126
159,300,203783,2,0,P|123:264|167:192,1,143.999995605469
324,153,204186,5,0,0:0:0:0:
195,141,204348,1,0,0:0:0:0:
319,99,204509,2,0,L|261:98,1,47.9999985351563
110,142,204751,1,0,0:0:0:0:
239,159,204912,1,0,0:0:0:0:
88,223,205074,2,0,L|218:224,1,95.9999970703126
256,241,205315,2,0,L|285:278,1,47.9999985351563
211,321,205477,5,0,0:0:0:0:
82,325,205638,1,0,0:0:0:0:
222,270,205799,2,0,L|287:268,1,47.9999985351563
122,232,206041,2,0,L|120:131,1,95.9999970703126
271,103,206364,2,0,L|126:103,1,143.999995605469
282,142,206767,6,0,L|385:143,1,95.9999970703126
245,188,207090,2,0,L|188:186,1,47.9999985351563
352,257,207332,2,0,L|236:255,1,95.9999970703126
112,298,207654,2,0,L|258:294,1,143.999995605469
124,268,208057,6,0,L|123:163,1,95.9999970703126
254,168,208380,2,0,L|203:168,1,47.9999985351563
359,170,208622,2,0,L|361:278,1,95.9999970703126
197,304,208945,2,0,L|371:304,1,143.999995605469
177,246,209348,5,0,0:0:0:0:
310,251,209509,1,0,0:0:0:0:
187,208,209670,2,0,L|187:153,1,47.9999985351563
331,119,209912,1,0,0:0:0:0:
167,113,210074,1,0,0:0:0:0:
304,171,210235,2,0,L|176:172,1,95.9999970703126
262,201,210477,2,0,L|261:248,1,47.9999985351563
180,285,210638,5,0,0:0:0:0:
314,288,210799,1,0,0:0:0:0:
162,240,210961,2,0,L|216:240,1,47.9999985351563
335,199,211203,1,0,0:0:0:0:
178,191,211364,1,0,0:0:0:0:
316,232,211525,2,0,L|214:235,1,95.9999970703126
293,185,211767,2,0,L|231:189,1,47.9999985351563
82,199,211928,6,0,L|79:140,1,47.9999985351563
146,145,212089,1,0,0:0:0:0:
224,137,212170,2,0,L|227:78,1,47.9999985351563
160,83,212331,1,0,0:0:0:0:
239,85,212412,1,0,0:0:0:0:
305,91,212493,6,0,L|302:138,1,47.9999985351563
221,172,212654,2,0,L|218:231,1,47.9999985351563
383,261,212815,2,0,L|317:259,1,47.9999985351563
269,259,212976,1,0,0:0:0:0:
112,309,213057,2,0,L|178:307,1,47.9999985351563
330,308,213218,6,0,L|208:305,1,103.999995239258,4|0,0:0|0:0,0:0:0:0:
362,259,213541,2,0,L|292:258,1,51.999997619629
171,223,213783,1,0,0:0:0:0:
419,222,213944,1,0,0:0:0:0:
181,167,214105,2,0,L|310:163,1,103.999995239258
356,159,214347,1,0,0:0:0:0:
91,124,214509,5,0,0:0:0:0:
316,107,214670,1,0,0:0:0:0:
182,112,214831,2,0,L|243:112,1,51.999997619629
84,165,215073,2,0,L|81:282,1,103.999995239258
207,298,215396,2,0,L|66:298,1,103.999995239258
180,254,215638,2,0,L|182:194,1,51.999997619629
109,155,215799,6,0,L|232:153,1,103.999995239258
60,115,216122,2,0,L|122:118,1,51.999997619629
270,114,216363,1,0,0:0:0:0:
31,92,216525,1,0,0:0:0:0:
281,55,216686,2,0,L|164:51,1,103.999995239258
105,47,216928,1,0,0:0:0:0:
338,134,217089,5,0,0:0:0:0:
211,130,217251,1,0,0:0:0:0:
366,182,217412,2,0,L|361:244,1,51.999997619629
122,242,217654,1,0,0:0:0:0:
351,277,217815,1,0,0:0:0:0:
221,288,217976,2,0,L|357:290,1,103.999995239258
243,261,218218,2,0,L|168:258,1,51.999997619629
354,240,218380,6,0,L|357:124,1,103.999995239258
203,123,218702,2,0,L|265:121,1,51.999997619629
92,153,218944,1,0,0:0:0:0:
332,163,219105,1,0,0:0:0:0:
88,210,219267,2,0,L|220:209,1,103.999995239258
264,206,219509,1,0,0:0:0:0:
22,252,219670,5,0,0:0:0:0:
266,258,219831,1,0,0:0:0:0:
133,308,219992,2,0,L|194:305,1,51.999997619629
333,311,220234,2,0,L|216:304,1,103.999995239258
359,288,220557,2,0,P|401:251|378:179,1,103.999995239258
326,183,220799,2,0,L|399:185,1,51.999997619629
454,145,220960,6,0,L|336:143,1,103.999995239258
218,140,221283,2,0,L|300:139,1,51.999997619629
118,173,221525,1,0,0:0:0:0:
356,197,221686,1,0,0:0:0:0:
115,239,221847,2,0,L|260:242,1,103.999995239258
293,236,222089,1,0,0:0:0:0:
40,278,222251,5,0,0:0:0:0:
180,292,222412,1,0,0:0:0:0:
40,325,222573,2,0,L|101:328,1,51.999997619629
248,298,222815,1,0,0:0:0:0:
23,252,222976,1,0,0:0:0:0:
310,139,223138,2,0,L|161:134,1,103.999995239258
135,138,223380,1,0,0:0:0:0:
382,304,223541,6,0,L|260:301,1,103.999995239258
414,255,223863,2,0,L|344:254,1,51.999997619629,4|0,0:0|0:0,0:0:0:0:
223,219,224106,1,0,0:0:0:0:
471,218,224267,1,0,0:0:0:0:
233,163,224428,2,0,L|362:159,1,103.999995239258
408,155,224670,1,0,0:0:0:0:
143,120,224831,5,4,0:0:0:0:
368,103,224993,1,0,0:0:0:0:
234,108,225154,2,0,L|295:108,1,51.999997619629
136,161,225396,2,0,L|133:278,1,103.999995239258
259,294,225719,2,0,L|118:294,1,103.999995239258
232,250,225961,2,0,L|234:190,1,51.999997619629
161,151,226122,6,0,L|284:149,1,103.999995239258,4|0,0:0|0:0,0:0:0:0:
112,111,226445,2,0,L|174:114,1,51.999997619629
326,110,226686,1,0,0:0:0:0:
83,88,226848,1,0,0:0:0:0:
333,51,227009,2,0,L|216:47,1,103.999995239258
157,43,227251,1,0,0:0:0:0:
390,130,227412,5,4,0:0:0:0:
263,126,227574,1,0,0:0:0:0:
418,178,227735,2,0,L|413:240,1,51.999997619629
174,238,227977,1,0,0:0:0:0:
433,285,228165,6,0,L|462:287,1,17.3333325398763,4|0,0:0|0:0,0:0:0:0:
256,256,228272,6,0,L|227:258,1,17.3333325398763,4|0,0:0|0:0,0:0:0:0:
444,239,228380,6,0,L|473:241,1,17.3333325398763,4|0,0:0|0:0,0:0:0:0:
267,210,228487,6,0,L|238:212,1,17.3333325398763,4|0,0:0|0:0,0:0:0:0:
454,189,228595,6,0,L|483:191,1,17.3333325398763,4|0,0:0|0:0,0:0:0:0:
221,162,228702,6,0,L|98:160,1,103.999995239258,2|0,0:0|0:0,0:0:0:0:
248,164,229025,2,0,L|251:228,1,51.999997619629,2|0,0:0|0:0,0:0:0:0:
112,236,229267,1,0,0:0:0:0:
339,252,229428,1,0,0:0:0:0:
97,301,229589,2,0,L|208:298,1,103.999995239258
277,293,229831,1,0,0:0:0:0:
50,268,229992,5,2,0:0:0:0:
182,217,230154,1,0,0:0:0:0:
47,166,230315,2,0,L|112:164,1,51.999997619629,2|0,0:0|0:0,0:0:0:0:
242,151,230557,2,0,L|136:153,1,103.999995239258
294,205,230880,2,0,P|326:247|291:299,1,103.999995239258
232,294,231122,1,0,0:0:0:0:
457,171,231283,5,6,0:0:0:0:
336,152,231444,1,2,0:0:0:0:
187,144,231605,1,2,0:0:0:0:
479,87,231767,1,2,0:0:0:0:
55,171,231928,1,6,0:0:0:0:
176,152,232089,1,2,0:0:0:0:
325,144,232250,1,2,0:0:0:0:
33,87,232412,1,2,0:0:0:0:
320,64,232573,5,6,0:0:0:0:
192,64,232734,1,2,0:0:0:0:
416,112,232896,1,2,0:0:0:0:
96,112,233057,1,2,0:0:0:0:
331,204,233218,6,2,L|420:207,1,51.999997619629
181,204,233380,2,2,L|92:207,1,51.999997619629
414,140,233541,2,2,L|362:141,1,51.999997619629
98,145,233702,2,2,L|149:146,1,51.999997619629
432,166,233863,1,2,0:0:0:0:
256,192,234186,12,4,238688,0:3:0:0:
331,155,242541,5,0,0:0:0:0:
169,131,243129,1,0,0:0:0:0:
351,257,243717,5,2,0:0:0:0:
401,199,243913,1,0,0:0:0:0:
377,126,244109,1,0,0:0:0:0:
303,107,244305,1,0,0:0:0:0:
175,121,244501,1,2,0:0:0:0:
124,178,244697,1,0,0:0:0:0:
148,251,244893,1,0,0:0:0:0:
222,270,245089,1,0,0:0:0:0:
95,261,245285,6,0,L|86:343,1,80,2|0,0:0|0:0,0:0:0:0:
168,341,245677,2,0,L|177:259,1,80
304,258,246069,2,0,L|313:176,1,80,2|0,0:0|0:0,0:0:0:0:
231,178,246461,2,0,L|222:260,1,80
353,258,246853,5,2,0:0:0:0:
405,202,247049,1,0,0:0:0:0:
386,127,247245,1,0,0:0:0:0:
313,104,247441,1,0,0:0:0:0:
451,97,247638,2,0,L|457:193,1,80,2|0,0:0|0:0,0:0:0:0:
296,184,248030,2,0,L|384:184,1,80,2|0,0:0|0:0,0:0:0:0:
250,223,248422,5,2,0:0:0:0:
186,184,248618,1,0,0:0:0:0:
204,112,248814,1,0,0:0:0:0:
279,109,249010,1,0,0:0:0:0:
411,179,249206,1,2,0:0:0:0:
474,140,249402,1,0,0:0:0:0:
456,68,249598,1,0,0:0:0:0:
381,65,249794,1,0,0:0:0:0:
254,63,249990,6,0,L|166:65,3,80,2|0|0|0,0:0|0:0|0:0|0:0,0:0:0:0:
306,113,250774,2,0,L|394:111,3,80,2|0|0|0,0:0|0:0|0:0|0:0,0:0:0:0:
256,112,251559,6,0,L|249:201,1,80,2|0,0:0|0:0,0:0:0:0:
327,196,251951,2,0,L|334:285,1,80
206,275,252343,2,0,L|126:273,1,80,2|0,0:0|0:0,0:0:0:0:
258,243,252735,2,0,L|338:245,1,80,2|0,0:0|0:0,0:0:0:0:
207,240,253127,5,2,0:0:0:0:
151,188,253323,1,0,0:0:0:0:
181,119,253519,1,0,0:0:0:0:
256,123,253715,1,0,0:0:0:0:
126,116,253911,2,0,L|119:208,1,80,2|0,0:0|0:0,0:0:0:0:
253,196,254303,2,0,L|260:288,1,80
129,283,254695,6,0,L|222:283,3,80,2|0|0|0,0:0|0:0|0:0|0:0,0:0:0:0:
80,283,255480,2,0,L|69:193,1,80,2|0,0:0|0:0,0:0:0:0:
202,196,255872,2,0,L|213:106,1,80,2|0,0:0|0:0,0:0:0:0:
337,199,256264,5,2,0:0:0:0:
385,140,256460,1,0,0:0:0:0:
358,68,256656,1,0,0:0:0:0:
282,58,256852,1,0,0:0:0:0:
206,62,257048,2,0,L|201:161,1,80
338,144,257440,2,0,L|344:243,1,80,2|0,0:0|0:0,0:0:0:0:
209,253,257840,6,0,L|305:253,1,80,2|0,0:0|0:0,0:0:0:0:
130,258,258281,2,0,L|124:172,1,80
297,156,258735,1,0,0:0:0:0:
173,156,258993,1,0,0:0:0:0:
349,177,259260,2,0,L|361:278,1,80
164,257,260082,5,2,0:0:0:0:
142,183,260268,1,0,0:0:0:0:
194,127,260454,1,0,0:0:0:0:
269,142,260641,1,0,0:0:0:0:
403,207,260827,2,0,L|301:206,1,80,2|0,0:0|0:0,0:0:0:0:
235,208,261200,2,0,L|133:207,1,80
287,227,261572,6,0,L|293:308,1,80,2|0,0:0|0:0,0:0:0:0:
207,281,261933,2,0,L|201:362,1,80
333,347,262294,1,2,0:0:0:0:
407,362,262475,1,0,0:0:0:0:
459,305,262656,1,0,0:0:0:0:
438,232,262837,1,0,0:0:0:0:
306,176,263017,6,0,L|387:177,3,80,2|0|0|0,0:0|0:0|0:0|0:0,0:0:0:0:
255,173,263731,2,0,L|246:258,1,80,2|0,0:0|0:0,0:0:0:0:
378,247,264088,2,0,L|387:332,1,80,2|0,0:0|0:0,0:0:0:0:
252,328,264445,5,2,0:0:0:0:
181,295,264627,1,0,0:0:0:0:
166,220,264810,1,0,0:0:0:0:
217,162,264993,1,0,0:0:0:0:
355,123,265176,2,0,L|270:120,1,80,2|0,0:0|0:0,0:0:0:0:
364,98,265551,2,0,L|449:95,1,80
318,97,265982,6,0,L|309:176,1,80,2|0,0:0|0:0,0:0:0:0:
225,181,266347,2,0,L|233:260,1,80
366,257,266713,2,0,L|375:171,1,80,2|0,0:0|0:0,0:0:0:0:
459,173,267079,2,0,L|450:87,1,80
317,86,267445,6,0,L|231:83,3,80,2|0|0|0,0:0|0:0|0:0|0:0,0:0:0:0:
107,85,268177,2,0,L|116:166,1,80,2|0,0:0|0:0,0:0:0:0:
244,168,268542,2,0,L|235:249,1,80,2|0,0:0|0:0,0:0:0:0:
104,244,268908,5,2,0:0:0:0:
65,177,269095,1,0,0:0:0:0:
100,109,269283,1,0,0:0:0:0:
176,102,269470,1,0,0:0:0:0:
306,260,269658,1,2,0:0:0:0:
344,193,269845,1,0,0:0:0:0:
309,125,270033,1,0,0:0:0:0:
233,118,270220,1,0,0:0:0:0:
361,117,270408,6,0,L|370:202,1,80,2|0,0:0|0:0,0:0:0:0:
290,198,270805,2,0,L|281:283,1,80
413,305,271202,1,2,0:0:0:0:
334,303,271404,1,0,0:0:0:0:
442,345,271607,1,2,0:0:0:0:
306,342,271813,1,0,0:0:0:0:
474,317,272020,6,0,L|476:223,1,80,2|0,0:0|0:0,0:0:0:0:
376,236,272463,2,0,L|369:148,1,80
206,171,272917,2,0,L|204:77,1,80
306,113,273378,2,0,L|313:25,1,80
148,36,273844,6,0,L|60:37,1,80
172,75,274312,2,0,L|260:76,1,80
93,80,274808,1,2,0:0:0:0:
58,149,275093,1,0,0:0:0:0:
92,218,275379,1,0,0:0:0:0:
167,233,275670,1,0,0:0:0:0:
334,231,275961,6,0,L|246:230,1,80,2|0,0:0|0:0,0:0:0:0:
415,231,276473,2,0,L|418:142,1,80
259,183,277191,1,0,0:0:0:0:
188,155,277607,1,0,0:0:0:0:
182,79,278075,1,0,0:0:0:0:
247,40,278583,1,0,0:0:0:0:
319,64,279264,5,0,0:0:0:0:
328,77,279346,1,0,0:0:0:0:
325,92,279428,1,0,0:0:0:0:
371,234,283224,6,0,L|372:183,1,40
299,191,283385,2,0,L|300:140,1,40
226,142,283546,2,0,L|227:91,1,40
154,99,283707,2,0,L|155:48,1,40
416,80,283869,5,2,0:0:0:0:
443,85,283909,1,2,0:0:0:0:
457,108,283949,1,2,0:0:0:0:
443,130,283989,1,2,0:0:0:0:
415,136,284030,1,2,0:0:0:0:
387,136,284070,1,2,0:0:0:0:
359,136,284110,1,2,0:0:0:0:
331,136,284151,1,2,0:0:0:0:
304,136,284191,1,2,0:0:0:0:
331,141,284231,1,2,0:0:0:0:
345,164,284272,1,2,0:0:0:0:
331,186,284312,1,2,0:0:0:0:
303,192,284352,1,2,0:0:0:0:
275,192,284393,1,2,0:0:0:0:
247,192,284433,1,2,0:0:0:0:
96,192,284514,5,4,0:0:0:0:
416,192,284756,1,4,0:0:0:0:
31,208,284998,1,4,0:0:0:0:
486,227,285159,6,0,L|486:195,7,20
288,210,285482,2,0,P|229:177|280:99,1,167.999994873047,4|0,0:3|0:0,0:0:0:0:
426,109,285804,6,0,L|334:112,1,80
182,152,286126,1,8,0:0:0:0:
221,150,286206,1,0,0:0:0:0:
261,148,286287,1,0,0:0:0:0:
106,182,286449,2,0,L|111:248,1,40
185,223,286610,2,0,L|190:289,1,40
266,263,286771,1,8,0:0:0:0:
111,273,286933,1,0,0:0:0:0:
265,224,287094,6,0,L|344:217,1,80
187,185,287416,2,0,L|185:135,1,40,8|0,0:0|0:0,0:0:0:0:
264,138,287578,1,0,0:0:0:0:
105,112,287739,2,0,L|156:112,1,40
228,109,287900,2,0,L|279:109,1,40
188,87,288062,1,8,0:0:0:0:
349,84,288223,1,0,0:0:0:0:
190,138,288384,6,0,L|198:250,1,80
355,212,288707,2,0,L|311:212,1,40,8|0,0:0|0:0,0:0:0:0:
242,211,288868,1,0,0:0:0:0:
396,210,289029,2,0,L|396:163,1,40
319,139,289191,2,0,L|366:139,1,40
443,141,289352,1,8,0:0:0:0:
277,172,289513,1,0,0:0:0:0:
441,248,289675,6,0,L|353:250,1,80
209,252,289997,2,0,L|209:314,1,40,8|0,0:0|0:0,0:0:0:0:
291,293,290159,1,0,0:0:0:0:
127,294,290320,2,0,P|100:258|103:212,1,80
181,222,290562,2,0,P|208:186|205:140,1,80,8|0,0:0|0:0,0:0:0:0:
126,148,290804,1,8,0:0:0:0:
290,144,290965,6,0,L|199:143,1,80
370,145,291288,1,8,0:0:0:0:
372,184,291368,1,0,0:0:0:0:
375,224,291449,1,0,0:0:0:0:
212,258,291610,2,0,L|256:257,1,40
338,273,291772,2,0,L|294:274,1,40
211,283,291933,1,8,0:0:0:0:
368,311,292094,1,0,0:0:0:0:
211,311,292255,6,0,L|106:306,1,80
291,315,292578,2,0,L|293:264,1,40,8|0,0:0|0:0,0:0:0:0:
211,271,292739,1,0,0:0:0:0:
369,277,292901,2,0,L|413:278,1,40
335,272,293062,2,0,L|336:228,1,40
415,235,293223,1,8,0:0:0:0:
256,230,293385,1,0,0:0:0:0:
420,183,293546,6,0,L|332:176,1,80
179,166,293868,2,0,L|237:168,1,40,8|0,0:0|0:0,0:0:0:0:
298,172,294030,1,0,0:0:0:0:
136,195,294191,2,0,L|130:260,1,40
210,241,294352,2,0,L|204:306,1,40
128,279,294514,1,8,0:0:0:0:
286,282,294675,1,0,0:0:0:0:
129,247,294836,6,0,L|26:246,1,80
130,137,295078,2,0,L|129:240,1,80,8|0,0:0|0:0,0:0:0:0:
51,137,295320,1,8,0:0:0:0:
281,138,295481,2,0,L|330:138,1,40
170,191,295643,2,0,L|121:191,1,40,8|0,0:0|0:0,0:0:0:0:
368,173,295804,1,8,0:0:0:0:
240,175,295965,2,0,L|240:227,1,40,8|0,0:0|0:0,0:0:0:0:
431,251,296127,6,0,L|344:250,1,80
193,256,296449,2,0,L|241:256,1,40,8|0,0:0|0:0,0:0:0:0:
311,258,296611,1,0,0:0:0:0:
158,258,296772,2,0,L|156:206,1,40
231,212,296933,2,0,L|229:160,1,40
303,159,297094,1,8,0:0:0:0:
142,155,297256,1,0,0:0:0:0:
380,118,297417,6,0,L|335:118,1,40
264,118,297578,2,0,L|219:118,1,40
305,68,297740,2,0,L|350:68,1,40,8|0,0:0|0:0,0:0:0:0:
421,68,297901,2,0,L|466:68,1,40
386,73,298062,6,0,L|259:72,1,120
452,163,298385,1,8,0:0:0:0:
318,156,298546,1,0,0:0:0:0:
68,173,298707,6,0,L|181:174,1,95.9999970703126,6|0,0:0|0:0,0:0:0:0:
247,226,298949,2,0,L|132:225,1,95.9999970703126,2|0,0:0|0:0,0:0:0:0:
319,231,299191,2,0,P|366:206|345:124,1,143.999995605469,2|0,0:0|0:0,0:0:0:0:
273,112,299514,6,0,L|421:106,1,143.999995605469,2|0,0:0|0:0,0:0:0:0:
254,77,299837,2,0,L|193:72,1,47.9999985351563,2|0,0:0|0:0,0:0:0:0:
365,67,299998,6,0,L|375:199,1,95.9999970703126,2|0,0:0|0:0,0:0:0:0:
285,165,300240,2,0,L|275:297,1,95.9999970703126,2|0,0:0|0:0,0:0:0:0:
437,288,300482,2,0,L|377:289,1,47.9999985351563,2|0,0:0|0:0,0:0:0:0:
305,298,300643,6,0,L|372:298,1,47.9999985351563,2|0,0:0|0:0,0:0:0:0:
196,302,300804,2,0,P|146:268|170:226,1,95.9999970703126,2|0,0:0|0:0,0:0:0:0:
310,226,301046,2,0,P|360:192|336:150,1,95.9999970703126,2|0,0:0|0:0,0:0:0:0:
195,126,301288,6,0,L|83:128,1,95.9999970703126,2|0,0:0|0:0,0:0:0:0:
179,166,301530,2,0,L|276:164,1,95.9999970703126,2|0,0:0|0:0,0:0:0:0:
112,195,301772,2,0,P|63:143|109:95,1,143.999995605469,2|0,0:0|0:0,0:0:0:0:
180,155,302095,6,0,P|228:103|183:55,1,143.999995605469,2|0,0:0|0:0,0:0:0:0:
26,53,302417,2,0,L|76:51,1,47.9999985351563,2|0,0:0|0:0,0:0:0:0:
234,77,302579,6,0,L|123:84,1,95.9999970703126,2|0,0:0|0:0,0:0:0:0:
220,106,302821,2,0,L|228:213,1,95.9999970703126,2|0,0:0|0:0,0:0:0:0:
65,220,303062,2,0,L|114:225,1,47.9999985351563,2|0,0:0|0:0,0:0:0:0:
271,244,303224,6,0,L|382:237,1,95.9999970703126,2|0,0:0|0:0,0:0:0:0:
285,215,303466,2,0,L|277:108,1,95.9999970703126,2|0,0:0|0:0,0:0:0:0:
437,119,303708,2,0,L|378:111,1,47.9999985351563,2|0,0:0|0:0,0:0:0:0:
226,100,303869,6,0,L|227:203,1,95.9999970703126,2|0,0:0|0:0,0:0:0:0:
305,234,304111,2,0,L|202:235,1,95.9999970703126,2|0,0:0|0:0,0:0:0:0:
372,223,304353,2,0,L|371:326,1,95.9999970703126,2|0,0:0|0:0,0:0:0:0:
293,357,304595,6,0,L|396:358,1,95.9999970703126,2|0,0:0|0:0,0:0:0:0:
232,314,304837,2,0,L|169:313,1,47.9999985351563,2|0,0:0|0:0,0:0:0:0:
347,299,304998,2,0,L|350:213,1,47.9999985351563,2|0,0:0|0:0,0:0:0:0:
180,240,305159,6,0,P|146:207|188:166,1,95.9999970703126,2|0,0:0|0:0,0:0:0:0:
246,125,305401,2,0,L|143:120,1,95.9999970703126,2|0,0:0|0:0,0:0:0:0:
313,128,305643,2,0,L|416:120,1,95.9999970703126,2|0,0:0|0:0,0:0:0:0:
330,151,305885,6,0,P|310:191|344:221,1,95.9999970703126,2|0,0:0|0:0,0:0:0:0:
497,290,306127,2,0,L|439:288,1,47.9999985351563,2|0,0:0|0:0,0:0:0:0:
288,277,306288,2,0,L|346:275,1,47.9999985351563,2|0,0:0|0:0,0:0:0:0:
498,239,306450,6,0,L|495:133,1,95.9999970703126,2|0,0:0|0:0,0:0:0:0:
415,143,306692,2,0,L|286:136,1,95.9999970703126,2|0,0:0|0:0,0:0:0:0:
159,128,306934,2,0,L|241:123,1,47.9999985351563,2|0,0:0|0:0,0:0:0:0:
366,89,307095,5,2,0:0:0:0:
304,99,307176,2,0,L|306:188,1,47.9999985351563
394,171,307337,1,0,0:0:0:0:
328,180,307418,2,0,L|333:232,1,47.9999985351563
414,242,307579,2,0,L|461:232,1,47.9999985351563,2|0,0:0|0:0,0:0:0:0:
322,251,307740,5,2,0:0:0:0:
389,244,307821,2,0,L|394:134,1,95.9999970703126,2|0,0:0|0:0,0:0:0:0:
320,151,308063,2,0,L|317:47,1,95.9999970703126,2|0,0:0|0:0,0:0:0:0:
160,69,308305,2,0,L|282:70,1,95.9999970703126,2|0,0:0|0:0,0:0:0:0:
181,100,308547,6,0,L|114:97,1,47.9999985351563,2|0,0:0|0:0,0:0:0:0:
301,143,308708,2,0,L|303:209,1,47.9999985351563,2|0,0:0|0:0,0:0:0:0:
142,193,308869,2,0,L|140:259,1,47.9999985351563,2|0,0:0|0:0,0:0:0:0:
302,241,309031,6,0,L|413:237,1,95.9999970703126,2|0,0:0|0:0,0:0:0:0:
319,199,309273,2,0,L|430:195,1,95.9999970703126,2|0,0:0|0:0,0:0:0:0:
255,203,309514,2,0,L|259:307,1,95.9999970703126,2|0,0:0|0:0,0:0:0:0:
341,274,309756,6,0,L|345:378,1,95.9999970703126,2|0,0:0|0:0,0:0:0:0:
180,356,309998,2,0,L|238:354,1,47.9999985351563,2|0,0:0|0:0,0:0:0:0:
396,340,310160,2,0,L|392:292,1,47.9999985351563,2|0,0:0|0:0,0:0:0:0:
229,176,310321,6,0,L|118:180,1,95.9999970703126,2|0,0:0|0:0,0:0:0:0:
212,218,310563,2,0,L|101:222,1,95.9999970703126,2|0,0:0|0:0,0:0:0:0:
276,214,310804,2,0,L|272:110,1,95.9999970703126,2|0,0:0|0:0,0:0:0:0:
190,143,311046,6,0,L|186:39,1,95.9999970703126,2|0,0:0|0:0,0:0:0:0:
349,38,311289,1,2,0:0:0:0:
224,64,311450,2,0,L|286:65,1,47.9999985351563,2|2,0:0|0:0,0:0:0:0:
440,147,311611,5,2,0:0:0:0:
310,137,311773,1,2,0:0:0:0:
449,192,311934,1,2,0:0:0:0:
135,154,312095,1,2,0:0:0:0:
363,225,312257,1,2,0:0:0:0:
233,215,312419,1,2,0:0:0:0:
372,270,312580,1,2,0:0:0:0:
58,232,312741,1,2,0:0:0:0:
312,113,312902,6,2,L|242:116,1,47.9999985351563
187,121,313063,2,2,L|117:124,1,47.9999985351563
215,160,313224,2,2,L|285:163,1,47.9999985351563
340,168,313385,2,2,L|410:171,1,47.9999985351563
82,223,313547,5,2,0:0:0:0:
105,223,313587,1,2,0:0:0:0:
129,223,313627,1,2,0:0:0:0:
153,224,313667,1,2,0:0:0:0:
177,224,313708,1,2,0:0:0:0:
201,225,313748,1,2,0:0:0:0:
225,225,313788,1,2,0:0:0:0:
249,226,313829,1,2,0:0:0:0:
273,226,313869,1,2,0:0:0:0:
297,227,313909,1,2,0:0:0:0:
321,227,313950,1,2,0:0:0:0:
345,228,313990,1,2,0:0:0:0:
369,228,314030,1,2,0:0:0:0:
393,229,314071,1,2,0:0:0:0:
417,229,314111,1,2,0:0:0:0:
239,151,314192,6,0,P|191:197|277:260,1,167.999994873047
17,83,314515,6,0,L|89:84,1,55.9999982910157,12|0,0:0|0:0,0:0:0:0:
295,97,314757,1,2,0:0:0:0:
236,103,314837,1,2,0:0:0:0:
171,159,314918,2,0,L|296:156,1,111.999996582031,0|2,0:0|0:0,0:0:0:0:
371,172,315160,1,10,0:0:0:0:
227,185,315321,1,0,0:0:0:0:
476,259,315483,6,0,L|359:255,2,111.999996582031,2|2|8,0:0|0:0|0:0,0:0:0:0:
206,220,315966,2,0,P|132:196|191:117,1,167.999994873047
316,120,316289,1,2,0:0:0:0:
96,122,316450,2,0,L|85:244,1,111.999996582031,8|0,0:0|0:0,0:0:0:0:
325,235,316773,6,0,L|181:230,1,111.999996582031,6|0,0:0|0:0,0:0:0:0:
288,198,317015,2,0,L|169:196,1,111.999996582031,2|0,0:0|0:0,0:0:0:0:
332,163,317257,2,0,L|417:158,1,55.9999982910157,2|0,0:0|0:0,0:0:0:0:
208,107,317418,6,0,P|152:138|184:188,1,111.999996582031,6|0,0:0|0:0,0:0:0:0:
323,154,317660,2,0,P|379:185|347:235,1,111.999996582031,2|0,0:0|0:0,0:0:0:0:
211,247,317902,2,0,L|317:247,1,55.9999982910157,2|0,0:0|0:0,0:0:0:0:
431,288,318063,6,0,L|316:283,1,111.999996582031,6|0,0:0|0:0,0:0:0:0:
162,223,318305,2,2,L|226:221,1,55.9999982910157,2|10,0:0|0:0,0:0:0:0:
293,211,318467,1,2,0:0:0:0:
137,187,318547,2,2,L|77:184,1,55.9999982910157
288,167,318708,6,2,L|291:99,1,55.9999982910157
215,117,318870,2,2,L|218:49,1,55.9999982910157
56,59,319031,2,2,L|52:107,6,27.9999991455078,10|2|2|2|2|2|2,0:0|0:0|0:0|0:0|0:0|0:0|0:0,0:0:0:0:
253,234,319354,6,0,L|123:231,1,111.999996582031,4|2,0:0|0:0,0:0:0:0:
364,193,319676,2,0,L|287:193,1,55.9999982910157,10|0,0:0|0:0,0:0:0:0:
446,186,319918,2,0,P|481:142|446:104,1,111.999996582031,2|0,0:0|0:0,0:0:0:0:
370,101,320160,2,0,L|295:102,1,55.9999982910157,2|2,0:0|0:0,0:0:0:0:
392,74,320321,1,10,0:0:0:0:
166,76,320483,1,2,0:0:0:0:
491,151,320644,6,0,L|341:155,1,111.999996582031,2|2,0:0|0:0,0:0:0:0:
132,168,320967,2,0,L|208:163,1,55.9999982910157,8|0,0:0|0:0,0:0:0:0:
48,228,321209,2,0,L|203:223,2,111.999996582031,2|0|2,0:0|0:0|0:0,0:0:0:0:
228,222,321612,2,0,L|355:222,1,111.999996582031,8|2,0:0|0:0,0:0:0:0:
52,161,321934,5,2,0:0:0:0:
338,160,322096,1,2,0:0:0:0:
90,115,322257,2,0,L|179:115,1,55.9999982910157,8|0,0:0|0:0,0:0:0:0:
395,96,322499,2,0,L|256:90,1,111.999996582031,2|0,0:0|0:0,0:0:0:0:
370,130,322741,2,0,L|310:130,1,55.9999982910157,2|2,0:0|0:0,0:0:0:0:
236,138,322902,2,0,L|316:138,1,55.9999982910157,10|0,0:0|0:0,0:0:0:0:
218,168,323064,2,0,L|138:168,1,55.9999982910157,2|2,0:0|0:0,0:0:0:0:
340,190,323225,6,0,L|348:251,1,55.9999982910157,2|0,0:0|0:0,0:0:0:0:
275,252,323386,2,0,L|267:313,1,55.9999982910157,2|2,0:0|0:0,0:0:0:0:
191,340,323547,2,0,L|255:344,1,55.9999982910157,8|0,0:0|0:0,0:0:0:0:
326,341,323709,1,2,0:0:0:0:
132,294,323789,6,0,L|251:290,1,111.999996582031,2|0,0:0|0:0,0:0:0:0:
82,252,324031,2,0,L|17:248,1,55.9999982910157,2|2,0:0|0:0,0:0:0:0:
249,180,324193,2,0,L|98:178,1,111.999996582031,10|0,0:0|0:0,0:0:0:0:
486,149,324515,5,6,0:0:0:0:
256,127,324677,1,2,0:0:0:0:
395,102,324838,1,10,0:0:0:0:
26,235,324999,1,6,0:0:0:0:
256,257,325161,1,2,0:0:0:0:
117,282,325322,1,2,0:0:0:0:
395,102,325483,1,14,0:0:0:0:
259,137,325644,2,0,L|336:134,1,55.9999982910157
93,100,325806,6,2,L|34:102,1,55.9999982910157,6|2,0:0|0:0,0:0:0:0:
123,122,325967,2,2,L|131:193,1,55.9999982910157
291,188,326128,2,2,L|350:186,1,55.9999982910157,10|2,0:0|0:0,0:0:0:0:
261,166,326289,2,2,L|253:95,1,55.9999982910157
434,168,326451,6,2,L|439:130,6,27.9999991455078
349,86,326773,2,2,L|284:82,1,55.9999982910157,10|2,0:0|0:0,0:0:0:0:
472,67,326935,2,2,L|407:63,1,55.9999982910157
194,53,327096,6,0,P|146:105|236:141,1,167.999994873047,6|2,0:0|0:0,0:0:0:0:
427,229,327419,2,0,L|365:228,1,55.9999982910157,8|0,0:0|0:0,0:0:0:0:
128,235,327661,2,0,L|261:232,1,111.999996582031
163,203,327903,1,2,0:0:0:0:
331,198,328064,2,0,L|335:81,1,111.999996582031,8|2,0:0|0:0,0:0:0:0:
114,91,328386,5,2,0:0:0:0:
256,103,328548,1,2,0:0:0:0:
30,160,328709,1,10,0:0:0:0:
415,257,328870,2,0,L|234:242,1,167.999994873047,2|0,0:0|0:0,0:0:0:0:
172,238,329193,2,0,L|123:240,2,37.3333321940105,2|0|0,0:0|0:0|0:0,0:0:0:0:
229,237,329354,1,8,0:0:0:0:
99,218,329516,1,2,0:0:0:0:
345,177,329677,6,0,L|473:169,1,111.999996582031,6|0,0:0|0:0,0:0:0:0:
294,126,329919,2,0,L|422:118,1,111.999996582031,2|0,0:0|0:0,0:0:0:0:
322,87,330161,1,0,0:0:0:0:
98,208,330322,2,0,L|90:80,1,111.999996582031,6|0,0:0|0:0,0:0:0:0:
255,214,330564,2,0,L|263:86,1,111.999996582031,2|0,0:0|0:0,0:0:0:0:
98,208,330806,1,0,0:0:0:0:
238,243,330967,5,6,0:0:0:0:
80,245,331048,2,0,L|221:245,1,111.999996582031,2|0,0:0|0:0,0:0:0:0:
360,289,331290,2,0,L|219:289,1,111.999996582031,2|0,0:0|0:0,0:0:0:0:
407,286,331532,2,0,P|461:242|433:188,1,111.999996582031,2|0,0:0|0:0,0:0:0:0:
291,206,331774,2,0,P|237:162|265:108,1,111.999996582031,2|0,0:0|0:0,0:0:0:0:
425,108,332016,2,0,L|301:108,1,111.999996582031,2|0,0:0|0:0,0:0:0:0:
149,164,332258,6,0,L|272:166,1,111.999996582031,6|2,0:0|0:0,0:0:0:0:
32,210,332580,2,0,L|110:216,1,55.9999982910157,8|0,0:0|0:0,0:0:0:0:
251,274,332822,2,0,L|127:264,1,111.999996582031,2|0,0:0|0:0,0:0:0:0:
207,239,333064,1,2,0:0:0:0:
53,208,333225,2,0,L|47:147,1,55.9999982910157,8|0,0:0|0:0,0:0:0:0:
207,153,333387,2,0,L|213:92,1,55.9999982910157,2|0,0:0|0:0,0:0:0:0:
380,93,333548,5,2,0:0:0:0:
326,49,333629,2,0,L|449:53,1,111.999996582031
270,129,333871,2,0,L|349:138,1,55.9999982910157,8|0,0:0|0:0,0:0:0:0:
393,152,334032,1,2,0:0:0:0:
219,210,334113,6,0,L|298:219,1,55.9999982910157,2|2,0:0|0:0,0:0:0:0:
338,283,334274,2,0,L|259:274,1,55.9999982910157,2|2,0:0|0:0,0:0:0:0:
215,260,334435,1,2,0:0:0:0:
468,221,334516,2,2,L|476:286,1,55.9999982910157,10|2,0:0|0:0,0:0:0:0:
295,298,334677,2,2,L|287:363,1,55.9999982910157
106,306,334838,5,2,0:0:0:0:
170,260,334919,2,0,L|51:257,1,111.999996582031,0|2,0:0|0:0,0:0:0:0:
238,177,335161,2,0,L|164:173,1,55.9999982910157,8|0,0:0|0:0,0:0:0:0:
120,178,335322,1,2,0:0:0:0:
293,178,335403,2,0,L|298:112,1,55.9999982910157,2|2,0:0|0:0,0:0:0:0:
124,100,335564,2,0,L|265:104,1,111.999996582031,0|2,0:0|0:0,0:0:0:0:
431,132,335806,2,0,L|356:131,1,55.9999982910157,8|0,0:0|0:0,0:0:0:0:
180,138,335967,2,0,L|255:137,1,55.9999982910157
487,140,336129,6,0,P|472:201|386:222,1,111.999996582031,6|0,0:0|0:0,0:0:0:0:
231,247,336371,2,0,L|365:254,1,111.999996582031,6|0,0:0|0:0,0:0:0:0:
168,243,336613,2,0,L|123:195,1,55.9999982910157,6|0,0:0|0:0,0:0:0:0:
322,203,336774,6,2,L|356:195,1,27.9999991455078
314,175,336855,2,2,L|339:151,1,27.9999991455078
305,143,336935,2,2,L|315:109,2,27.9999991455078
92,162,337097,2,0,P|68:137|141:66,1,167.999994873047,8|0,0:0|0:0,0:0:0:0:
224,104,337419,6,0,L|27:107,1,167.999994873047,4|2,0:0|0:0,0:0:0:0:
308,186,337742,2,0,L|243:185,1,55.9999982910157,8|0,0:0|0:0,0:0:0:0:
408,191,337984,2,0,L|405:108,1,55.9999982910157,2|2,0:0|0:0,0:0:0:0:
349,135,338145,1,0,0:0:0:0:
190,127,338306,2,0,L|327:126,1,111.999996582031,2|0,0:0|0:0,0:0:0:0:
383,117,338548,1,0,0:0:0:0:
91,194,338710,6,0,L|214:193,1,111.999996582031,2|2,0:0|0:0,0:0:0:0:
466,190,339032,1,8,0:0:0:0:
231,263,339193,2,0,P|167:225|241:173,1,167.999994873047,2|0,0:0|0:0,0:0:0:0:
296,167,339516,2,0,L|300:122,2,37.3333321940105,2|0|0,0:0|0:0|0:0,0:0:0:0:
239,213,339677,2,0,L|372:218,1,111.999996582031,8|0,0:0|0:0,0:0:0:0:
116,208,340000,6,0,P|71:157|112:108,1,111.999996582031,6|0,0:0|0:0,0:0:0:0:
164,87,340242,2,0,L|22:82,1,111.999996582031,2|0,0:0|0:0,0:0:0:0:
217,104,340484,2,0,L|222:174,1,55.9999982910157,2|0,0:0|0:0,0:0:0:0:
396,208,340645,6,0,P|441:157|400:108,1,111.999996582031,6|0,0:0|0:0,0:0:0:0:
348,87,340887,2,0,L|490:82,1,111.999996582031,2|0,0:0|0:0,0:0:0:0:
295,104,341129,2,0,L|290:174,1,55.9999982910157,2|0,0:0|0:0,0:0:0:0:
494,251,341290,6,0,L|361:238,1,111.999996582031,6|0,0:0|0:0,0:0:0:0:
219,211,341532,2,0,L|348:208,1,111.999996582031,2|0,0:0|0:0,0:0:0:0:
167,182,341774,2,0,L|106:181,1,55.9999982910157,2|0,0:0|0:0,0:0:0:0:
299,122,341936,6,2,L|305:186,1,55.9999982910157
228,183,342097,2,2,L|222:247,1,55.9999982910157
397,243,342258,2,2,L|431:225,4,27.9999991455078,10|2|2|2|2,0:0|0:0|0:0|0:0|0:0,0:0:0:0:
321,251,342500,1,2,0:0:0:0:
160,284,342581,5,6,0:0:0:0:
286,300,342742,1,2,0:0:0:0:
161,332,342903,2,0,L|231:331,1,55.9999982910157,8|0,0:0|0:0,0:0:0:0:
59,332,343145,2,0,L|61:264,1,55.9999982910157,2|8,0:0|0:0,0:0:0:0:
141,270,343307,2,0,L|146:203,1,55.9999982910157
306,153,343549,1,8,0:0:0:0:
69,153,343710,1,2,0:0:0:0:
327,215,343871,6,0,L|176:210,1,111.999996582031,2|2,0:0|0:0,0:0:0:0:
377,155,344194,2,0,L|320:151,1,55.9999982910157,8|0,0:0|0:0,0:0:0:0:
481,92,344436,1,2,0:0:0:0:
320,92,344597,2,0,L|406:95,1,55.9999982910157,0|2,0:0|0:0,0:0:0:0:
213,127,344839,1,8,0:0:0:0:
487,143,345000,1,0,0:0:0:0:
161,177,345162,6,0,L|34:173,1,111.999996582031,2|2,0:0|0:0,0:0:0:0:
316,217,345484,2,0,L|251:213,1,55.9999982910157,8|0,0:0|0:0,0:0:0:0:
421,153,345726,1,2,0:0:0:0:
263,146,345887,2,0,L|199:143,2,55.9999982910157,0|2|2,0:0|0:0|0:0,0:0:0:0:
176,154,346129,2,0,L|171:220,1,55.9999982910157,8|0,0:0|0:0,0:0:0:0:
257,225,346291,2,0,L|262:291,1,55.9999982910157,2|0,0:0|0:0,0:0:0:0:
97,313,346452,6,0,L|179:311,1,55.9999982910157,2|0,0:0|0:0,0:0:0:0:
234,339,346613,2,0,L|152:337,1,55.9999982910157,2|2,0:0|0:0,0:0:0:0:
126,258,346775,1,8,0:0:0:0:
211,258,346855,1,0,0:0:0:0:
51,183,347016,2,0,L|213:183,1,111.999996582031
247,181,347258,1,2,0:0:0:0:
467,187,347420,1,8,0:0:0:0:
201,132,347581,1,2,0:0:0:0:
499,96,347742,6,2,L|386:91,2,111.999996582031,6|2|10,0:0|0:0|0:0,0:0:0:0:
13,288,348226,2,2,L|126:293,2,111.999996582031,6|2|2,0:0|0:0|0:0,0:0:0:0:
377,244,348710,1,10,0:0:0:0:
129,213,348871,2,0,L|201:209,1,55.9999982910157,2|2,0:0|0:0,0:0:0:0:
398,188,349033,6,2,L|409:131,1,55.9999982910157
326,128,349194,2,2,L|315:71,1,55.9999982910157
232,70,349355,2,2,L|175:81,1,55.9999982910157,10|2,0:0|0:0,0:0:0:0:
262,112,349517,2,2,L|319:101,1,55.9999982910157
142,130,349678,6,2,L|136:164,6,27.9999991455078
226,158,350000,2,2,L|289:157,1,55.9999982910157,10|2,0:0|0:0,0:0:0:0:
74,219,350162,2,2,L|11:218,1,55.9999982910157
386,92,350323,6,2,L|391:247,1,111.999996582031,6|2,0:0|0:0,0:0:0:0:
313,209,350565,1,2,0:0:0:0:
126,92,350646,2,2,L|121:247,1,111.999996582031,10|2,0:0|0:0,0:0:0:0:
199,209,350888,1,2,0:0:0:0:
422,139,350968,2,2,L|423:268,1,111.999996582031
90,139,351210,2,0,L|89:268,1,111.999996582031
391,156,351452,6,0,L|391:298,1,111.999996582031,2|2,0:0|0:0,0:0:0:0:
121,156,351694,2,0,L|121:298,1,111.999996582031,0|2,0:0|0:0,0:0:0:0:
321,173,351936,1,8,0:0:0:0:
194,163,352097,2,0,L|189:221,1,55.9999982910157,2|2,0:0|0:0,0:0:0:0:
381,222,352259,2,0,P|446:195|501:148,1,111.999996582031,8|0,0:0|0:0,0:0:0:0:
307,144,352501,2,0,P|242:117|187:70,1,111.999996582031
32,170,352743,2,2,P|78:202|121:221,1,55.9999982910157
273,215,352904,6,2,L|415:213,1,111.999996582031,6|2,0:0|0:0,0:0:0:0:
326,178,353146,1,2,0:0:0:0:
491,117,353226,2,2,L|349:119,1,111.999996582031,10|2,0:0|0:0,0:0:0:0:
438,154,353468,1,2,0:0:0:0:
192,195,353549,6,0,L|40:189,1,111.999996582031,6|0,0:0|0:0,0:0:0:0:
149,151,353791,2,0,L|-3:145,1,111.999996582031,4|0,0:0|0:0,0:0:0:0:
262,119,354033,2,0,L|110:113,1,111.999996582031,4|0,0:0|0:0,0:0:0:0:
320,189,354275,6,0,L|472:195,1,111.999996582031,4|0,0:0|0:0,0:0:0:0:
363,233,354517,2,0,L|515:239,1,111.999996582031,4|0,0:0|0:0,0:0:0:0:
250,265,354759,2,0,L|402:271,1,111.999996582031,4|0,0:0|0:0,0:0:0:0:
186,192,355001,6,0,L|67:187,1,111.999996582031,4|0,0:0|0:0,0:0:0:0:
326,192,355243,2,0,L|445:187,1,111.999996582031,4|0,0:0|0:0,0:0:0:0:
122,81,355485,6,0,L|291:79,1,167.999994873047,4|0,0:0|0:0,0:0:0:0:
204,116,355807,1,10,0:0:0:0:
486,178,355969,2,2,L|421:175,1,55.9999982910157
222,168,356130,1,2,0:0:0:0:
286,170,356211,2,2,L|286:238,1,55.9999982910157
221,223,356372,1,2,0:0:0:0:
26,178,356452,2,2,L|91:175,1,55.9999982910157,10|2,0:0|0:0,0:0:0:0:
241,131,356614,2,2,L|176:130,1,55.9999982910157
390,81,356775,6,0,L|221:79,1,167.999994873047,4|0,0:0|0:0,0:0:0:0:
308,116,357097,1,10,0:0:0:0:
26,178,357259,2,2,L|91:175,1,55.9999982910157
290,168,357420,1,2,0:0:0:0:
226,170,357501,2,2,L|226:238,1,55.9999982910157
291,223,357662,1,2,0:0:0:0:
486,178,357743,2,2,L|421:175,1,55.9999982910157,10|2,0:0|0:0,0:0:0:0:
271,131,357904,2,2,L|336:130,1,55.9999982910157
140,76,358065,6,0,L|300:70,1,111.999996582031,4|0,0:0|0:0,0:0:0:0:
95,135,358307,2,0,L|255:129,1,111.999996582031,4|0,0:0|0:0,0:0:0:0:
63,186,358549,2,0,L|223:180,1,111.999996582031,4|0,0:0|0:0,0:0:0:0:
18,245,358791,2,0,L|178:239,1,111.999996582031,4|0,0:0|0:0,0:0:0:0:
375,239,359033,6,2,L|316:236,1,55.9999982910157,6|2,0:0|0:0,0:0:0:0:
137,239,359195,2,2,L|196:236,1,55.9999982910157
372,76,359356,6,0,L|212:70,1,111.999996582031,4|0,0:0|0:0,0:0:0:0:
417,135,359598,2,0,L|257:129,1,111.999996582031,4|0,0:0|0:0,0:0:0:0:
449,186,359840,2,0,L|289:180,1,111.999996582031,4|0,0:0|0:0,0:0:0:0:
494,245,360082,2,0,L|334:239,1,111.999996582031,4|0,0:0|0:0,0:0:0:0:
192,236,360324,6,2,L|137:239,1,55.9999982910157
319,236,360486,2,2,L|375:239,1,55.9999982910157,6|2,0:0|0:0,0:0:0:0:
129,116,360646,6,2,L|3:113,1,111.999996582031,6|2,0:0|0:0,0:0:0:0:
314,160,360888,2,2,L|188:157,1,111.999996582031,6|2,0:0|0:0,0:0:0:0:
486,110,361130,1,6,0:0:0:0:
355,108,361291,1,2,0:0:0:0:
156,64,361372,2,2,L|273:67,1,111.999996582031,6|2,0:0|0:0,0:0:0:0:
21,135,361614,1,6,0:0:0:0:
150,139,361775,1,6,0:0:0:0:
383,268,361937,6,2,L|509:271,1,111.999996582031,6|2,0:0|0:0,0:0:0:0:
198,224,362179,2,2,L|324:227,1,111.999996582031,6|2,0:0|0:0,0:0:0:0:
26,274,362421,1,6,0:0:0:0:
157,276,362582,1,2,0:0:0:0:
356,320,362662,2,2,L|239:317,1,111.999996582031,6|2,0:0|0:0,0:0:0:0:
491,249,362905,1,6,0:0:0:0:
353,247,363066,2,2,L|354:208,2,27.9999991455078,6|2|2,0:0|0:0|0:0,0:0:0:0:
181,184,363227,6,2,L|119:183,1,55.9999982910157,6|2,0:0|0:0,0:0:0:0:
286,186,363388,2,2,L|287:124,1,55.9999982910157
207,137,363550,2,2,L|207:81,1,55.9999982910157,10|2,0:0|0:0,0:0:0:0:
368,83,363711,2,2,L|312:82,1,55.9999982910157
131,77,363872,6,2,L|121:149,1,55.9999982910157
200,143,364034,2,2,L|190:215,1,55.9999982910157
381,77,364195,2,2,L|391:149,1,55.9999982910157,10|2,0:0|0:0,0:0:0:0:
312,143,364357,2,2,L|322:215,1,55.9999982910157
91,252,364517,6,2,L|246:248,1,111.999996582031,6|2,0:0|0:0,0:0:0:0:
145,207,364759,1,2,0:0:0:0:
421,252,364840,6,2,L|266:248,1,111.999996582031,14|2,0:0|0:0,0:0:0:0:
367,207,365082,1,2,0:0:0:0:
67,150,365163,6,2,L|24:149,2,27.9999991455078,6|2|2,0:0|0:0|0:0,0:0:0:0:
445,150,365324,2,2,L|488:149,2,27.9999991455078
129,97,365485,6,2,L|86:96,2,27.9999991455078,14|2|2,0:0|0:0|0:0,0:0:0:0:
383,97,365647,2,2,L|426:96,2,27.9999991455078
159,53,365808,6,0,P|114:99|344:51,1,839.999974365235,4|0,0:0|2:0,0:0:0:0:
160,159,367098,6,2,L|145:95,1,55.9999982910157
78,102,367259,2,2,L|12:105,1,55.9999982910157
352,159,367421,6,2,L|367:95,1,55.9999982910157
434,102,367582,2,2,L|500:105,1,55.9999982910157
176,208,367743,6,2,L|161:144,1,55.9999982910157
94,151,367904,2,2,L|28:154,1,55.9999982910157
336,208,368066,6,2,L|351:144,1,55.9999982910157
418,151,368227,2,2,L|484:154,1,55.9999982910157
192,208,368389,6,2,L|177:144,1,55.9999982910157
110,151,368550,2,2,L|44:154,1,55.9999982910157
320,208,368711,6,2,L|335:144,1,55.9999982910157
402,151,368872,2,2,L|468:154,1,55.9999982910157
208,208,369034,6,2,L|193:144,1,55.9999982910157
126,151,369195,2,2,L|60:154,1,55.9999982910157
304,208,369356,6,2,L|319:144,1,55.9999982910157
386,151,369517,2,2,L|452:154,1,55.9999982910157
99,42,369679,6,0,P|68:90|393:29,1,920,2|0,0:0|0:0,0:0:0:0:
240,208,371615,6,2,L|225:144,1,55.9999982910157
158,151,371776,2,2,L|92:154,1,55.9999982910157
272,208,371937,6,2,L|287:144,1,55.9999982910157
354,151,372098,2,2,L|420:154,1,55.9999982910157
224,192,372260,6,2,L|209:128,1,55.9999982910157
142,135,372421,2,2,L|76:138,1,55.9999982910157
288,192,372582,6,2,L|303:128,1,55.9999982910157
370,135,372743,2,2,L|436:138,1,55.9999982910157
208,176,372905,6,2,L|193:112,1,55.9999982910157
126,119,373066,2,2,L|60:122,1,55.9999982910157
304,176,373228,6,2,L|319:112,1,55.9999982910157
386,119,373389,2,2,L|452:122,1,55.9999982910157
192,144,373550,6,2,L|177:80,1,55.9999982910157
110,87,373711,2,2,L|44:90,1,55.9999982910157
320,144,373873,6,2,L|335:80,1,55.9999982910157
402,87,374034,2,2,L|468:90,1,55.9999982910157
176,128,374195,6,2,L|161:64,1,55.9999982910157
94,71,374356,2,2,L|28:74,1,55.9999982910157
336,128,374518,6,2,L|351:64,1,55.9999982910157
418,71,374679,2,2,L|484:74,1,55.9999982910157
90,217,374841,6,2,L|26:217,2,40
265,201,375082,2,2,L|329:201,2,40
427,219,375324,6,2,L|491:219,2,40
253,153,375566,2,2,L|189:153,2,40
48,153,375808,5,4,0:3:0:0:
390,206,376453,6,0,L|487:212,1,80,4|0,0:0|2:0,0:0:0:0:
296,204,376694,2,0,L|199:210,1,80,4|0,0:0|2:0,0:0:0:0:
56,219,376936,2,0,L|256:211,1,200,4|0,0:0|2:0,0:0:0:0:
20,155,377420,6,0,L|150:150,1,103.999995239258,4|0,0:0|2:0,0:0:0:0:
310,128,377662,2,0,L|180:123,1,103.999995239258,4|0,0:0|2:0,0:0:0:0:
377,157,377904,1,4,0:0:0:0:
132,163,378065,6,0,L|122:209,6,25.9999988098145
492,229,378388,6,0,L|311:219,1,128,4|0,0:0|2:0,0:0:0:0:
162,227,378630,2,0,L|343:217,1,128,4|0,0:0|2:0,0:0:0:0:
88,222,378872,2,0,L|17:222,1,64,4|0,0:0|2:0,0:0:0:0:
479,366,379033,6,0,P|486:329|19:375,1,880,4|0,0:0|0:0,0:0:0:0:
256,192,382663,12,0,387743,0:0:0:0:
