osu file format v14

[General]
AudioFilename: 25 Harpuia.mp3
AudioLeadIn: 0
PreviewTime: 70826
Countdown: 0
SampleSet: Normal
StackLeniency: 0.7
Mode: 1
LetterboxInBreaks: 0
WidescreenStoryboard: 0

[Editor]
Bookmarks: 181,2439,7600,14052,24375,34697,45020,57923,70826,85020,100504,113407
DistanceSpacing: 1.5
BeatDivisor: 4
GridSize: 32
TimelineZoom: 2.3

[Metadata]
Title:Harpuia
TitleUnicode:Harpuia
Artist:BlackY
ArtistUnicode:BlackY
Creator:Ichigaki
Version:Oni
Source:SOUND VOLTEX II -infinite infection-
Tags:SDVX KAC2013 Original Song Contest OzzyOzRock
BeatmapID:707354
BeatmapSetID:295703

[Difficulty]
HPDrainRate:6
CircleSize:5
OverallDifficulty:6
ApproachRate:6
SliderMultiplier:1.4
SliderTickRate:1

[Events]
//Background and Video events
0,0,"harp.jpg",0,0
//Break Periods
//Storyboard Layer 0 (Background)
//Storyboard Layer 1 (Fail)
//Storyboard Layer 2 (Pass)
//Storyboard Layer 3 (Foreground)
//Storyboard Sound Samples

[TimingPoints]
1196,322.58064516129,4,1,0,90,1,0
57647,-133.333333333333,4,1,0,90,0,0
70873,-100,4,1,0,90,0,0
72163,-100,4,1,0,90,0,1
100550,-100,4,1,0,90,0,0

[HitObjects]
256,192,551,12,0,1035,0:0:0:0:
96,96,1196,5,4,0:0:0:0:
96,96,1438,1,4,0:0:0:0:
96,96,1680,1,4,0:0:0:0:
96,96,1841,1,4,0:0:0:0:
384,64,2164,1,12,0:0:0:0:
96,96,2486,1,4,0:0:0:0:
416,320,2809,1,8,0:0:0:0:
192,320,2970,1,0,0:0:0:0:
192,320,3051,1,0,0:0:0:0:
320,288,3131,1,8,0:0:0:0:
160,320,3293,1,0,0:0:0:0:
384,320,3454,1,8,0:0:0:0:
352,288,3776,1,8,0:0:0:0:
128,288,3938,1,0,0:0:0:0:
448,288,4099,1,8,0:0:0:0:
352,320,4180,1,8,0:0:0:0:
128,96,4422,1,4,0:0:0:0:
128,96,4744,1,4,0:0:0:0:
128,96,5067,1,4,0:0:0:0:
96,288,5389,1,0,0:0:0:0:
112,298,5551,1,0,0:0:0:0:
64,288,5631,1,0,0:0:0:0:
377,294,5712,1,8,0:0:0:0:
85,284,5873,1,0,0:0:0:0:
353,335,6035,1,8,0:0:0:0:
480,256,6357,1,8,0:0:0:0:
353,335,6438,1,8,0:0:0:0:
154,310,6518,1,0,0:0:0:0:
409,323,6680,1,8,0:0:0:0:
132,308,6841,1,0,0:0:0:0:
352,64,7002,1,12,0:0:0:0:
64,128,7647,1,4,0:0:0:0:
352,256,7809,1,8,0:0:0:0:
352,256,8131,1,8,0:0:0:0:
352,256,8454,1,8,0:0:0:0:
352,256,8615,1,8,0:0:0:0:
352,256,8696,1,8,0:0:0:0:
352,256,8776,1,8,0:0:0:0:
160,128,8938,1,4,0:0:0:0:
384,256,9099,1,8,0:0:0:0:
384,256,9422,1,8,0:0:0:0:
320,256,9502,1,8,0:0:0:0:
384,256,9583,1,8,0:0:0:0:
192,288,9744,1,0,0:0:0:0:
384,256,9905,1,8,0:0:0:0:
96,96,10228,1,12,0:0:0:0:
96,288,10389,1,0,0:0:0:0:
96,288,10551,1,0,0:0:0:0:
192,160,10712,1,12,0:0:0:0:
96,288,10873,1,0,0:0:0:0:
96,288,11035,1,0,0:0:0:0:
192,160,11196,1,12,0:0:0:0:
96,96,11680,1,4,0:0:0:0:
96,96,11922,1,4,0:0:0:0:
96,96,12164,1,4,0:0:0:0:
96,96,12405,1,4,0:0:0:0:
96,96,12647,1,4,0:0:0:0:
96,96,12809,1,4,0:0:0:0:
96,96,13615,1,4,0:0:0:0:
416,128,13776,1,12,0:0:0:0:
96,288,14099,1,4,0:0:0:0:
480,288,14260,1,8,0:0:0:0:
448,288,14341,1,8,0:0:0:0:
128,288,14422,1,0,0:0:0:0:
448,288,14583,1,8,0:0:0:0:
448,256,14744,1,8,0:0:0:0:
160,288,14986,1,0,0:0:0:0:
416,288,15228,1,8,0:0:0:0:
128,256,15389,1,0,0:0:0:0:
384,256,15551,1,8,0:0:0:0:
384,256,15631,1,8,0:0:0:0:
128,288,15712,1,0,0:0:0:0:
416,256,15873,1,8,0:0:0:0:
416,256,16035,1,8,0:0:0:0:
384,288,16276,1,8,0:0:0:0:
384,288,16518,1,8,0:0:0:0:
96,96,16680,1,4,0:0:0:0:
416,256,16841,1,8,0:0:0:0:
416,256,16922,1,8,0:0:0:0:
192,288,17002,1,0,0:0:0:0:
384,288,17164,1,8,0:0:0:0:
384,288,17325,1,8,0:0:0:0:
128,288,17567,1,0,0:0:0:0:
384,288,17809,1,8,0:0:0:0:
128,288,17970,1,0,0:0:0:0:
384,256,18131,1,8,0:0:0:0:
128,288,18293,1,0,0:0:0:0:
128,288,18454,1,0,0:0:0:0:
128,288,18615,1,0,0:0:0:0:
128,288,18696,1,0,0:0:0:0:
128,288,18776,1,0,0:0:0:0:
128,288,18938,1,0,0:0:0:0:
128,288,19018,1,0,0:0:0:0:
64,96,19260,1,4,0:0:0:0:
384,256,19422,1,8,0:0:0:0:
384,256,19502,1,8,0:0:0:0:
160,288,19583,1,0,0:0:0:0:
352,256,19744,1,8,0:0:0:0:
352,256,19905,1,8,0:0:0:0:
160,288,20228,1,0,0:0:0:0:
352,256,20389,1,8,0:0:0:0:
128,320,20551,1,0,0:0:0:0:
352,256,20712,1,8,0:0:0:0:
352,256,20793,1,8,0:0:0:0:
160,288,20873,1,0,0:0:0:0:
320,256,21035,1,8,0:0:0:0:
128,288,21196,1,0,0:0:0:0:
140,274,21518,1,0,0:0:0:0:
338,277,21680,1,8,0:0:0:0:
32,96,21841,1,4,0:0:0:0:
384,256,22002,1,8,0:0:0:0:
384,256,22083,1,8,0:0:0:0:
128,288,22164,1,0,0:0:0:0:
384,288,22325,1,8,0:0:0:0:
128,320,22486,1,0,0:0:0:0:
352,256,22647,1,8,0:0:0:0:
352,256,22728,1,8,0:0:0:0:
192,256,22809,1,0,0:0:0:0:
352,256,22970,1,8,0:0:0:0:
64,128,23131,1,4,0:0:0:0:
128,320,23293,1,0,0:0:0:0:
128,320,23454,1,0,0:0:0:0:
128,320,23615,1,0,0:0:0:0:
352,288,23776,1,8,0:0:0:0:
352,288,23857,1,8,0:0:0:0:
352,288,23938,1,8,0:0:0:0:
128,320,24099,1,0,0:0:0:0:
64,96,24422,1,4,0:0:0:0:
384,256,24584,1,8,0:0:0:0:
384,256,24664,1,8,0:0:0:0:
160,288,24745,1,0,0:0:0:0:
352,256,24906,1,8,0:0:0:0:
352,256,25067,1,8,0:0:0:0:
192,288,25309,1,0,0:0:0:0:
352,256,25551,1,8,0:0:0:0:
128,320,25713,1,0,0:0:0:0:
352,256,25874,1,8,0:0:0:0:
352,256,25955,1,8,0:0:0:0:
160,288,26035,1,0,0:0:0:0:
320,256,26195,1,8,0:0:0:0:
288,256,26358,1,8,0:0:0:0:
288,256,26600,1,8,0:0:0:0:
128,288,26841,1,0,0:0:0:0:
64,64,27002,1,4,0:0:0:0:
160,288,27164,1,0,0:0:0:0:
160,288,27244,1,0,0:0:0:0:
160,288,27325,1,0,0:0:0:0:
160,288,27405,1,0,0:0:0:0:
160,288,27486,1,0,0:0:0:0:
160,288,27647,1,4,0:0:0:0:
320,256,27889,1,12,0:0:0:0:
160,288,28131,1,4,0:0:0:0:
448,256,28373,1,12,0:0:0:0:
160,288,28615,1,4,0:0:0:0:
448,256,28857,1,12,0:0:0:0:
96,288,29099,1,4,0:0:0:0:
352,256,29341,1,12,0:0:0:0:
352,256,29583,1,12,0:0:0:0:
128,288,29825,1,4,0:0:0:0:
416,256,30067,1,12,0:0:0:0:
96,256,30228,1,4,0:0:0:0:
96,256,30551,1,0,0:0:0:0:
96,256,30631,1,0,0:0:0:0:
384,288,30712,1,8,0:0:0:0:
160,256,30793,1,0,0:0:0:0:
384,256,30873,1,8,0:0:0:0:
128,288,31035,1,0,0:0:0:0:
384,288,31196,1,0,0:0:0:0:
384,288,31438,1,8,0:0:0:0:
384,288,31680,1,0,0:0:0:0:
384,288,31922,1,8,0:0:0:0:
384,288,32164,1,8,0:0:0:0:
384,288,32405,1,0,0:0:0:0:
384,288,32647,1,8,0:0:0:0:
96,288,32809,1,0,0:0:0:0:
96,288,32970,1,0,0:0:0:0:
96,288,33051,1,0,0:0:0:0:
96,288,33131,1,0,0:0:0:0:
96,288,33212,1,0,0:0:0:0:
96,288,33293,1,0,0:0:0:0:
352,256,33454,1,8,0:0:0:0:
352,256,33535,1,8,0:0:0:0:
352,256,33615,1,8,0:0:0:0:
352,256,33776,1,8,0:0:0:0:
352,256,33857,1,8,0:0:0:0:
352,256,33938,1,8,0:0:0:0:
352,256,34099,1,8,0:0:0:0:
96,320,34180,1,0,0:0:0:0:
352,288,34260,1,8,0:0:0:0:
96,288,34341,1,0,0:0:0:0:
352,288,34422,1,8,0:0:0:0:
64,288,34744,1,4,0:0:0:0:
352,256,35067,1,8,0:0:0:0:
128,288,35308,1,0,0:0:0:0:
128,288,35470,1,0,0:0:0:0:
128,288,35550,1,0,0:0:0:0:
288,288,35712,1,8,0:0:0:0:
64,288,36035,1,0,0:0:0:0:
64,288,36196,1,0,0:0:0:0:
128,320,36276,1,0,0:0:0:0:
320,288,36357,1,8,0:0:0:0:
160,288,36518,1,0,0:0:0:0:
320,288,36599,1,8,0:0:0:0:
128,320,36760,1,0,0:0:0:0:
128,320,36841,1,0,0:0:0:0:
352,288,37002,1,8,0:0:0:0:
64,288,37325,1,0,0:0:0:0:
352,256,37648,1,8,0:0:0:0:
128,288,37889,1,0,0:0:0:0:
128,288,38051,1,0,0:0:0:0:
128,288,38131,1,0,0:0:0:0:
288,288,38293,1,8,0:0:0:0:
64,288,38616,1,0,0:0:0:0:
288,256,38777,1,8,0:0:0:0:
352,288,38857,1,8,0:0:0:0:
320,288,38938,1,8,0:0:0:0:
160,288,39099,1,0,0:0:0:0:
320,288,39180,1,8,0:0:0:0:
128,320,39341,1,0,0:0:0:0:
128,320,39422,1,0,0:0:0:0:
352,288,39583,1,8,0:0:0:0:
64,288,39905,1,0,0:0:0:0:
352,256,40228,1,8,0:0:0:0:
128,288,40469,1,0,0:0:0:0:
320,256,40631,1,8,0:0:0:0:
320,256,40711,1,8,0:0:0:0:
288,288,40873,1,8,0:0:0:0:
64,288,41196,1,0,0:0:0:0:
96,288,41276,1,0,0:0:0:0:
64,288,41357,1,0,0:0:0:0:
128,320,41437,1,0,0:0:0:0:
320,288,41518,1,8,0:0:0:0:
160,288,41679,1,0,0:0:0:0:
320,288,41760,1,8,0:0:0:0:
128,320,41921,1,0,0:0:0:0:
128,320,42002,1,0,0:0:0:0:
352,288,42163,1,8,0:0:0:0:
128,320,42486,1,0,0:0:0:0:
128,320,42647,1,0,0:0:0:0:
128,320,42728,1,0,0:0:0:0:
320,288,42809,1,8,0:0:0:0:
320,288,42889,1,8,0:0:0:0:
128,288,43051,1,0,0:0:0:0:
320,288,43212,1,8,0:0:0:0:
320,288,43373,1,8,0:0:0:0:
320,288,43454,1,8,0:0:0:0:
320,288,43615,1,8,0:0:0:0:
96,288,43776,1,0,0:0:0:0:
320,288,44018,1,8,0:0:0:0:
160,288,44260,1,0,0:0:0:0:
320,288,44502,1,8,0:0:0:0:
96,288,44744,1,0,0:0:0:0:
160,288,45067,1,0,0:0:0:0:
160,288,45228,1,0,0:0:0:0:
160,288,45389,1,0,0:0:0:0:
320,288,45470,1,8,0:0:0:0:
320,288,45631,1,8,0:0:0:0:
192,288,45793,1,0,0:0:0:0:
352,256,45954,1,8,0:0:0:0:
128,288,46196,1,0,0:0:0:0:
320,288,46357,1,8,0:0:0:0:
192,288,46518,1,0,0:0:0:0:
352,256,46680,1,8,0:0:0:0:
160,288,46760,1,0,0:0:0:0:
320,288,46922,1,8,0:0:0:0:
320,288,47083,1,8,0:0:0:0:
320,288,47244,1,8,0:0:0:0:
128,288,47647,1,0,0:0:0:0:
160,288,47808,1,0,0:0:0:0:
160,288,47969,1,0,0:0:0:0:
320,288,48050,1,8,0:0:0:0:
320,288,48211,1,8,0:0:0:0:
192,288,48373,1,0,0:0:0:0:
352,256,48534,1,8,0:0:0:0:
128,288,48776,1,0,0:0:0:0:
320,288,48937,1,8,0:0:0:0:
192,288,49098,1,0,0:0:0:0:
160,288,49260,1,0,0:0:0:0:
352,256,49340,1,8,0:0:0:0:
128,288,49502,1,0,0:0:0:0:
320,288,49690,1,8,0:0:0:0:
320,256,49798,1,8,0:0:0:0:
320,256,49905,1,8,0:0:0:0:
320,256,50013,1,8,0:0:0:0:
320,256,50121,1,8,0:0:0:0:
128,288,50228,1,0,0:0:0:0:
160,288,50550,1,0,0:0:0:0:
320,288,50631,1,8,0:0:0:0:
320,288,50792,1,8,0:0:0:0:
192,288,50954,1,0,0:0:0:0:
352,256,51115,1,8,0:0:0:0:
128,288,51357,1,0,0:0:0:0:
320,288,51518,1,8,0:0:0:0:
192,288,51679,1,0,0:0:0:0:
352,256,51841,1,8,0:0:0:0:
160,288,51921,1,0,0:0:0:0:
352,288,52083,1,8,0:0:0:0:
352,288,52244,1,8,0:0:0:0:
352,288,52405,1,8,0:0:0:0:
160,128,52809,1,4,0:0:0:0:
160,288,52970,1,0,0:0:0:0:
160,288,53131,1,0,0:0:0:0:
352,288,53212,1,8,0:0:0:0:
128,288,53373,1,0,0:0:0:0:
352,288,53535,1,8,0:0:0:0:
160,288,53696,1,0,0:0:0:0:
288,288,53776,1,8,0:0:0:0:
160,288,53938,1,0,0:0:0:0:
384,320,54099,1,8,0:0:0:0:
384,320,54180,1,8,0:0:0:0:
384,320,54260,1,8,0:0:0:0:
384,320,54422,1,8,0:0:0:0:
384,320,54502,1,8,0:0:0:0:
384,320,54583,1,8,0:0:0:0:
160,288,54744,1,0,0:0:0:0:
160,288,54825,1,0,0:0:0:0:
160,288,54905,1,0,0:0:0:0:
160,288,54986,1,0,0:0:0:0:
160,288,55067,1,0,0:0:0:0:
160,288,55147,1,0,0:0:0:0:
160,288,55228,1,0,0:0:0:0:
160,128,55389,1,4,0:0:0:0:
256,192,55712,12,0,57647,0:0:0:0:
128,288,57970,5,8,0:0:0:0:
384,288,58615,1,8,0:0:0:0:
96,288,59260,1,8,0:0:0:0:
384,288,59905,1,8,0:0:0:0:
128,320,60551,1,8,0:0:0:0:
416,288,61196,1,8,0:0:0:0:
416,288,61518,1,8,0:0:0:0:
160,320,61841,1,8,0:0:0:0:
416,288,62486,1,8,0:0:0:0:
192,288,63131,1,8,0:0:0:0:
384,288,63776,1,8,0:0:0:0:
192,288,64422,1,8,0:0:0:0:
384,288,65067,1,8,0:0:0:0:
384,288,65389,1,8,0:0:0:0:
384,288,65712,1,8,0:0:0:0:
384,288,66357,1,8,0:0:0:0:
160,288,67002,1,8,0:0:0:0:
384,288,67647,1,8,0:0:0:0:
352,288,67970,1,8,0:0:0:0:
352,288,68293,1,8,0:0:0:0:
352,288,69260,1,8,0:0:0:0:
128,288,69583,1,8,0:0:0:0:
256,192,70228,12,0,70712,0:0:0:0:
128,96,70873,5,4,0:0:0:0:
128,96,71114,1,4,0:0:0:0:
128,96,71356,1,4,0:0:0:0:
384,256,71518,1,8,0:0:0:0:
384,256,71598,1,8,0:0:0:0:
384,256,71679,1,8,0:0:0:0:
384,64,71840,1,12,0:0:0:0:
96,288,72163,1,4,0:0:0:0:
352,256,72324,1,8,0:0:0:0:
352,256,72405,1,8,0:0:0:0:
160,288,72485,1,0,0:0:0:0:
416,256,72647,1,8,0:0:0:0:
160,288,72808,1,0,0:0:0:0:
384,256,72969,1,8,0:0:0:0:
384,256,73050,1,8,0:0:0:0:
128,288,73131,1,0,0:0:0:0:
128,288,73211,1,0,0:0:0:0:
384,256,73292,1,8,0:0:0:0:
160,320,73453,1,0,0:0:0:0:
384,256,73614,1,8,0:0:0:0:
384,256,73695,1,8,0:0:0:0:
128,288,73776,1,0,0:0:0:0:
384,256,73937,1,8,0:0:0:0:
160,320,74098,1,0,0:0:0:0:
192,288,74421,1,0,0:0:0:0:
352,256,74582,1,8,0:0:0:0:
96,96,74743,1,4,0:0:0:0:
384,256,74905,1,8,0:0:0:0:
384,256,74985,1,8,0:0:0:0:
192,256,75066,1,0,0:0:0:0:
352,256,75227,1,8,0:0:0:0:
128,128,75389,1,0,0:0:0:0:
128,128,75631,1,0,0:0:0:0:
385,250,75873,1,8,0:0:0:0:
128,288,76034,1,0,0:0:0:0:
128,288,76195,1,0,0:0:0:0:
128,288,76356,1,0,0:0:0:0:
128,288,76518,1,0,0:0:0:0:
128,288,76598,1,0,0:0:0:0:
128,288,76679,1,0,0:0:0:0:
128,288,76760,1,0,0:0:0:0:
128,288,76840,1,0,0:0:0:0:
352,256,77002,1,8,0:0:0:0:
128,320,77324,1,0,0:0:0:0:
384,256,77485,1,8,0:0:0:0:
384,256,77566,1,8,0:0:0:0:
160,288,77647,1,0,0:0:0:0:
384,256,77808,1,8,0:0:0:0:
128,288,77969,1,0,0:0:0:0:
128,288,78050,1,0,0:0:0:0:
320,256,78131,1,8,0:0:0:0:
320,256,78211,1,8,0:0:0:0:
128,288,78292,1,0,0:0:0:0:
384,256,78453,1,8,0:0:0:0:
128,320,78614,1,0,0:0:0:0:
352,288,78776,1,8,0:0:0:0:
352,288,78856,1,8,0:0:0:0:
192,320,78937,1,0,0:0:0:0:
384,288,79098,1,8,0:0:0:0:
128,320,79260,1,0,0:0:0:0:
96,288,79582,1,0,0:0:0:0:
352,288,79743,1,8,0:0:0:0:
128,320,79905,1,0,0:0:0:0:
320,288,80066,1,8,0:0:0:0:
320,288,80147,1,8,0:0:0:0:
192,320,80227,1,0,0:0:0:0:
352,288,80389,1,8,0:0:0:0:
160,320,80550,1,0,0:0:0:0:
320,288,80631,1,8,0:0:0:0:
320,288,80711,1,8,0:0:0:0:
320,288,80792,1,8,0:0:0:0:
160,288,80872,1,0,0:0:0:0:
416,288,81034,1,8,0:0:0:0:
128,320,81195,1,0,0:0:0:0:
352,288,81356,1,8,0:0:0:0:
352,288,81437,1,8,0:0:0:0:
160,288,81518,1,0,0:0:0:0:
352,288,81679,1,8,0:0:0:0:
160,320,81840,1,0,0:0:0:0:
160,320,82163,1,0,0:0:0:0:
320,288,82324,1,8,0:0:0:0:
352,288,82485,1,8,0:0:0:0:
192,320,82647,1,0,0:0:0:0:
192,320,82727,1,0,0:0:0:0:
192,320,82808,1,0,0:0:0:0:
352,288,82969,1,8,0:0:0:0:
128,288,83131,1,0,0:0:0:0:
128,288,83211,1,0,0:0:0:0:
128,288,83292,1,0,0:0:0:0:
384,288,83453,1,8,0:0:0:0:
128,288,83614,1,0,0:0:0:0:
128,288,83695,1,0,0:0:0:0:
384,288,83776,1,8,0:0:0:0:
384,288,83856,1,8,0:0:0:0:
224,288,83937,1,0,0:0:0:0:
384,288,84098,1,8,0:0:0:0:
224,320,84260,1,0,0:0:0:0:
96,288,84421,1,0,0:0:0:0:
111,298,84502,1,0,0:0:0:0:
96,288,84582,1,0,0:0:0:0:
352,128,84743,1,12,0:0:0:0:
128,320,85066,1,0,0:0:0:0:
352,288,85227,1,8,0:0:0:0:
96,320,85389,1,0,0:0:0:0:
96,320,85711,1,0,0:0:0:0:
320,320,85872,1,8,0:0:0:0:
128,320,85953,1,0,0:0:0:0:
128,320,86114,1,0,0:0:0:0:
384,320,86195,1,8,0:0:0:0:
64,320,86356,1,0,0:0:0:0:
288,320,86518,1,8,0:0:0:0:
96,320,86679,1,0,0:0:0:0:
352,320,87002,1,8,0:0:0:0:
64,320,87163,1,0,0:0:0:0:
352,320,87243,1,8,0:0:0:0:
128,320,87405,1,0,0:0:0:0:
352,320,87485,1,8,0:0:0:0:
32,320,87647,1,0,0:0:0:0:
320,320,87808,1,8,0:0:0:0:
384,320,87889,1,8,0:0:0:0:
160,320,87969,1,0,0:0:0:0:
160,320,88050,1,0,0:0:0:0:
160,320,88131,1,0,0:0:0:0:
352,288,88292,1,4,0:0:0:0:
352,288,88534,1,12,0:0:0:0:
352,288,88776,1,12,0:0:0:0:
352,288,89018,1,12,0:0:0:0:
416,320,89260,1,4,0:0:0:0:
416,320,89502,1,4,0:0:0:0:
416,320,89743,1,12,0:0:0:0:
384,288,89985,1,4,0:0:0:0:
384,288,90227,1,12,0:0:0:0:
352,288,90550,1,8,0:0:0:0:
370,304,90711,1,8,0:0:0:0:
352,288,90792,1,8,0:0:0:0:
362,277,90953,1,8,0:0:0:0:
384,288,91034,1,8,0:0:0:0:
128,288,91195,1,0,0:0:0:0:
128,288,91356,1,0,0:0:0:0:
96,256,91437,1,0,0:0:0:0:
416,288,91518,1,8,0:0:0:0:
352,288,91840,1,8,0:0:0:0:
352,256,92002,1,8,0:0:0:0:
352,256,92082,1,8,0:0:0:0:
128,256,92243,1,0,0:0:0:0:
352,256,92324,1,8,0:0:0:0:
352,288,92485,1,8,0:0:0:0:
160,288,92647,1,0,0:0:0:0:
96,256,92727,1,0,0:0:0:0:
352,288,92808,1,8,0:0:0:0:
352,288,93131,1,8,0:0:0:0:
125,275,93292,1,0,0:0:0:0:
352,288,93372,1,8,0:0:0:0:
352,288,93614,1,8,0:0:0:0:
125,275,93776,1,0,0:0:0:0:
352,288,93856,1,8,0:0:0:0:
125,275,93937,1,0,0:0:0:0:
396,314,94098,1,8,0:0:0:0:
406,305,94340,1,8,0:0:0:0:
125,275,94502,1,0,0:0:0:0:
406,305,94582,1,8,0:0:0:0:
406,305,94824,1,8,0:0:0:0:
128,256,95066,1,0,0:0:0:0:
416,320,95227,1,8,0:0:0:0:
398,308,95308,1,8,0:0:0:0:
448,352,95389,1,8,0:0:0:0:
352,320,95631,1,8,0:0:0:0:
160,288,95872,1,0,0:0:0:0:
320,288,96114,1,8,0:0:0:0:
128,288,96276,1,0,0:0:0:0:
288,288,96357,1,8,0:0:0:0:
192,288,96518,1,0,0:0:0:0:
320,288,96679,1,8,0:0:0:0:
288,288,96922,1,8,0:0:0:0:
192,288,97163,1,0,0:0:0:0:
320,288,97404,1,8,0:0:0:0:
288,288,97647,1,8,0:0:0:0:
192,288,97808,1,0,0:0:0:0:
384,320,97969,1,8,0:0:0:0:
384,320,98050,1,8,0:0:0:0:
224,320,98131,1,0,0:0:0:0:
224,320,98211,1,0,0:0:0:0:
352,288,98292,1,8,0:0:0:0:
128,288,98453,1,0,0:0:0:0:
96,320,98534,1,0,0:0:0:0:
352,320,98614,1,8,0:0:0:0:
352,320,98695,1,8,0:0:0:0:
160,320,98776,1,0,0:0:0:0:
352,288,98937,1,8,0:0:0:0:
352,288,99098,1,8,0:0:0:0:
352,288,99260,1,8,0:0:0:0:
224,320,99582,1,0,0:0:0:0:
224,320,99743,1,0,0:0:0:0:
160,320,99824,1,0,0:0:0:0:
416,320,99905,1,8,0:0:0:0:
384,288,100066,1,8,0:0:0:0:
352,288,100146,1,8,0:0:0:0:
160,320,100227,1,0,0:0:0:0:
160,320,100308,1,0,0:0:0:0:
160,320,100388,1,0,0:0:0:0:
128,320,100469,1,0,0:0:0:0:
256,192,100550,12,0,104260,0:0:0:0:
416,288,104502,5,8,0:0:0:0:
224,288,104663,1,0,0:0:0:0:
416,288,104743,1,8,0:0:0:0:
224,288,105066,1,0,0:0:0:0:
224,288,105147,1,0,0:0:0:0:
160,288,105227,1,0,0:0:0:0:
416,128,105389,1,12,0:0:0:0:
96,96,105711,1,4,0:0:0:0:
96,96,105953,1,4,0:0:0:0:
96,96,106195,1,4,0:0:0:0:
416,128,106679,1,12,0:0:0:0:
416,128,106921,1,12,0:0:0:0:
416,128,107163,1,12,0:0:0:0:
64,256,107324,2,0,L|160:256,1,70
416,128,107647,1,12,0:0:0:0:
416,128,107889,1,12,0:0:0:0:
416,128,108131,1,12,0:0:0:0:
160,128,108292,1,4,0:0:0:0:
